  0
SECTION
  2
HEADER
  9
$ACADVER
  1
AC1015
  9
$ACADMAINTVER
 70
     6
  9
$DWGCODEPAGE
  3
ANSI_949
  9
$INSBASE
 10
0.0
 20
0.0
 30
0.0
  9
$EXTMIN
 10
-56.53791755254393
 20
-49.97180738881174
 30
0.0
  9
$EXTMAX
 10
75.5189836016592
 20
27.76413260158165
 30
0.0
  9
$LIMMIN
 10
0.0
 20
0.0
  9
$LIMMAX
 10
420.0
 20
297.0
  9
$ORTHOMODE
 70
     0
  9
$REGENMODE
 70
     1
  9
$FILLMODE
 70
     1
  9
$QTEXTMODE
 70
     0
  9
$MIRRTEXT
 70
     1
  9
$LTSCALE
 40
1.0
  9
$ATTMODE
 70
     1
  9
$TEXTSIZE
 40
3.5
  9
$TRACEWID
 40
1.0
  9
$TEXTSTYLE
  7
Standard
  9
$CLAYER
  8
0
  9
$CELTYPE
  6
ByLayer
  9
$CECOLOR
 62
   256
  9
$CELTSCALE
 40
1.0
  9
$DISPSILH
 70
     0
  9
$DIMSCALE
 40
1.0
  9
$DIMASZ
 40
3.302
  9
$DIMEXO
 40
1.0
  9
$DIMDLI
 40
3.75
  9
$DIMRND
 40
0.0
  9
$DIMDLE
 40
0.0
  9
$DIMEXE
 40
1.0
  9
$DIMTP
 40
0.0
  9
$DIMTM
 40
0.0
  9
$DIMTXT
 40
3.5
  9
$DIMCEN
 40
2.5
  9
$DIMTSZ
 40
0.0
  9
$DIMTOL
 70
     0
  9
$DIMLIM
 70
     0
  9
$DIMTIH
 70
     1
  9
$DIMTOH
 70
     1
  9
$DIMSE1
 70
     0
  9
$DIMSE2
 70
     0
  9
$DIMTAD
 70
     1
  9
$DIMZIN
 70
     0
  9
$DIMBLK
  1

  9
$DIMASO
 70
     1
  9
$DIMSHO
 70
     1
  9
$DIMPOST
  1

  9
$DIMAPOST
  1

  9
$DIMALT
 70
     0
  9
$DIMALTD
 70
     3
  9
$DIMALTF
 40
0.0393700787401575
  9
$DIMLFAC
 40
1.0
  9
$DIMTOFL
 70
     1
  9
$DIMTVP
 40
0.0
  9
$DIMTIX
 70
     0
  9
$DIMSOXD
 70
     0
  9
$DIMSAH
 70
     0
  9
$DIMBLK1
  1

  9
$DIMBLK2
  1

  9
$DIMSTYLE
  2
ISO-25
  9
$DIMCLRD
 70
     0
  9
$DIMCLRE
 70
     0
  9
$DIMCLRT
 70
     0
  9
$DIMTFAC
 40
1.0
  9
$DIMGAP
 40
1.524
  9
$DIMJUST
 70
     0
  9
$DIMSD1
 70
     0
  9
$DIMSD2
 70
     0
  9
$DIMTOLJ
 70
     0
  9
$DIMTZIN
 70
     0
  9
$DIMALTZ
 70
     0
  9
$DIMALTTZ
 70
     0
  9
$DIMUPT
 70
     0
  9
$DIMDEC
 70
     2
  9
$DIMTDEC
 70
     2
  9
$DIMALTU
 70
     2
  9
$DIMALTTD
 70
     3
  9
$DIMTXSTY
  7
Standard
  9
$DIMAUNIT
 70
     0
  9
$DIMADEC
 70
     2
  9
$DIMALTRND
 40
0.0
  9
$DIMAZIN
 70
     0
  9
$DIMDSEP
 70
    44
  9
$DIMATFIT
 70
     3
  9
$DIMFRAC
 70
     0
  9
$DIMLDRBLK
  1

  9
$DIMLUNIT
 70
     2
  9
$DIMLWD
 70
    -2
  9
$DIMLWE
 70
    -2
  9
$DIMTMOVE
 70
     0
  9
$LUNITS
 70
     2
  9
$LUPREC
 70
     2
  9
$SKETCHINC
 40
1.0
  9
$FILLETRAD
 40
10.0
  9
$AUNITS
 70
     0
  9
$AUPREC
 70
     2
  9
$MENU
  1
.
  9
$ELEVATION
 40
0.0
  9
$PELEVATION
 40
0.0
  9
$THICKNESS
 40
0.0
  9
$LIMCHECK
 70
     0
  9
$CHAMFERA
 40
0.0
  9
$CHAMFERB
 40
0.0
  9
$CHAMFERC
 40
0.0
  9
$CHAMFERD
 40
0.0
  9
$SKPOLY
 70
     0
  9
$TDCREATE
 40
2458260.580805428
  9
$TDUCREATE
 40
2458260.205805428
  9
$TDUPDATE
 40
2458268.587827431
  9
$TDUUPDATE
 40
2458268.212827431
  9
$TDINDWG
 40
0.0005722569
  9
$TDUSRTIMER
 40
2458268.212255208
  9
$USRTIMER
 70
     1
  9
$ANGBASE
 50
0.0
  9
$ANGDIR
 70
     0
  9
$PDMODE
 70
     0
  9
$PDSIZE
 40
-1.0
  9
$PLINEWID
 40
0.0
  9
$SPLFRAME
 70
     0
  9
$SPLINETYPE
 70
     6
  9
$SPLINESEGS
 70
     8
  9
$HANDSEED
  5
144
  9
$SURFTAB1
 70
     6
  9
$SURFTAB2
 70
     6
  9
$SURFTYPE
 70
     6
  9
$SURFU
 70
     6
  9
$SURFV
 70
     6
  9
$UCSBASE
  2

  9
$UCSNAME
  2

  9
$UCSORG
 10
0.0
 20
0.0
 30
0.0
  9
$UCSXDIR
 10
1.0
 20
0.0
 30
0.0
  9
$UCSYDIR
 10
0.0
 20
1.0
 30
0.0
  9
$UCSORTHOREF
  2

  9
$UCSORTHOVIEW
 70
     0
  9
$UCSORGTOP
 10
0.0
 20
0.0
 30
0.0
  9
$UCSORGBOTTOM
 10
0.0
 20
0.0
 30
0.0
  9
$UCSORGLEFT
 10
0.0
 20
0.0
 30
0.0
  9
$UCSORGRIGHT
 10
0.0
 20
0.0
 30
0.0
  9
$UCSORGFRONT
 10
0.0
 20
0.0
 30
0.0
  9
$UCSORGBACK
 10
0.0
 20
0.0
 30
0.0
  9
$PUCSBASE
  2

  9
$PUCSNAME
  2

  9
$PUCSORG
 10
0.0
 20
0.0
 30
0.0
  9
$PUCSXDIR
 10
1.0
 20
0.0
 30
0.0
  9
$PUCSYDIR
 10
0.0
 20
1.0
 30
0.0
  9
$PUCSORTHOREF
  2

  9
$PUCSORTHOVIEW
 70
     0
  9
$PUCSORGTOP
 10
0.0
 20
0.0
 30
0.0
  9
$PUCSORGBOTTOM
 10
0.0
 20
0.0
 30
0.0
  9
$PUCSORGLEFT
 10
0.0
 20
0.0
 30
0.0
  9
$PUCSORGRIGHT
 10
0.0
 20
0.0
 30
0.0
  9
$PUCSORGFRONT
 10
0.0
 20
0.0
 30
0.0
  9
$PUCSORGBACK
 10
0.0
 20
0.0
 30
0.0
  9
$USERI1
 70
     0
  9
$USERI2
 70
     0
  9
$USERI3
 70
     0
  9
$USERI4
 70
     0
  9
$USERI5
 70
     0
  9
$USERR1
 40
0.0
  9
$USERR2
 40
0.0
  9
$USERR3
 40
0.0
  9
$USERR4
 40
0.0
  9
$USERR5
 40
0.0
  9
$WORLDVIEW
 70
     1
  9
$SHADEDGE
 70
     3
  9
$SHADEDIF
 70
    70
  9
$TILEMODE
 70
     1
  9
$MAXACTVP
 70
    64
  9
$PINSBASE
 10
0.0
 20
0.0
 30
0.0
  9
$PLIMCHECK
 70
     0
  9
$PEXTMIN
 10
1.000000000000000E+20
 20
1.000000000000000E+20
 30
1.000000000000000E+20
  9
$PEXTMAX
 10
-1.000000000000000E+20
 20
-1.000000000000000E+20
 30
-1.000000000000000E+20
  9
$PLIMMIN
 10
0.0
 20
0.0
  9
$PLIMMAX
 10
0.0
 20
0.0
  9
$UNITMODE
 70
     0
  9
$VISRETAIN
 70
     1
  9
$PLINEGEN
 70
     0
  9
$PSLTSCALE
 70
     1
  9
$TREEDEPTH
 70
  3020
  9
$CMLSTYLE
  2
Standard
  9
$CMLJUST
 70
     0
  9
$CMLSCALE
 40
20.0
  9
$PROXYGRAPHICS
 70
     1
  9
$MEASUREMENT
 70
     1
  9
$CELWEIGHT
370
    -1
  9
$ENDCAPS
280
     0
  9
$JOINSTYLE
280
     0
  9
$LWDISPLAY
290
     1
  9
$INSUNITS
 70
     4
  9
$HYPERLINKBASE
  1

  9
$STYLESHEET
  1

  9
$XEDIT
290
     1
  9
$CEPSNTYPE
380
     0
  9
$PSTYLEMODE
290
     1
  9
$FINGERPRINTGUID
  2
{147FAEA8-C161-493C-9117-6FC7238B5D24}
  9
$VERSIONGUID
  2
{FAEB1C32-E019-11D5-929B-00C0DF256EC4}
  9
$EXTNAMES
290
     1
  9
$PSVPSCALE
 40
0.0
  9
$OLESTARTUP
290
     0
  0
ENDSEC
  0
SECTION
  2
CLASSES
  0
CLASS
  1
ACDBDICTIONARYWDFLT
  2
AcDbDictionaryWithDefault
  3
ObjectDBX Classes
 90
        0
280
     0
281
     0
  0
CLASS
  1
VISUALSTYLE
  2
AcDbVisualStyle
  3
ObjectDBX Classes
 90
     4095
280
     0
281
     0
  0
CLASS
  1
MATERIAL
  2
AcDbMaterial
  3
ObjectDBX Classes
 90
     1153
280
     0
281
     0
  0
CLASS
  1
SCALE
  2
AcDbScale
  3
ObjectDBX Classes
 90
     1153
280
     0
281
     0
  0
CLASS
  1
TABLESTYLE
  2
AcDbTableStyle
  3
ObjectDBX Classes
 90
     4095
280
     0
281
     0
  0
CLASS
  1
MLEADERSTYLE
  2
AcDbMLeaderStyle
  3
ACDB_MLEADERSTYLE_CLASS
 90
     4095
280
     0
281
     0
  0
CLASS
  1
SUN
  2
AcDbSun
  3
SCENEOE
 90
     1153
280
     0
281
     0
  0
CLASS
  1
ACDBPLACEHOLDER
  2
AcDbPlaceHolder
  3
ObjectDBX Classes
 90
        0
280
     0
281
     0
  0
CLASS
  1
LAYOUT
  2
AcDbLayout
  3
ObjectDBX Classes
 90
        0
280
     0
281
     0
  0
CLASS
  1
RASTERVARIABLES
  2
AcDbRasterVariables
  3
ISM
 90
        0
280
     0
281
     0
  0
ENDSEC
  0
SECTION
  2
TABLES
  0
TABLE
  2
VPORT
  5
8
330
0
100
AcDbSymbolTable
 70
     1
  0
VPORT
  5
29
330
8
100
AcDbSymbolTableRecord
100
AcDbViewportTableRecord
  2
*Active
 70
     0
 10
0.0
 20
0.0
 11
1.0
 21
1.0
 12
9.490533024557635
 22
-11.10383739361505
 13
0.0
 23
0.0
 14
10.0
 24
10.0
 15
10.0
 25
10.0
 16
0.0
 26
0.0
 36
1.0
 17
0.0
 27
0.0
 37
0.0
 40
79.29065879020125
 41
1.739018087855297
 42
50.0
 43
0.0
 44
0.0
 50
0.0
 51
0.0
 71
    16
 72
  2000
 73
     1
 74
     3
 75
     0
 76
     0
 77
     0
 78
     0
281
     0
 65
     1
110
0.0
120
0.0
130
0.0
111
1.0
121
0.0
131
0.0
112
0.0
122
1.0
132
0.0
 79
     0
146
0.0
  0
ENDTAB
  0
TABLE
  2
LTYPE
  5
5
330
0
100
AcDbSymbolTable
 70
     6
  0
LTYPE
  5
14
330
5
100
AcDbSymbolTableRecord
100
AcDbLinetypeTableRecord
  2
ByBlock
 70
     0
  3

 72
    65
 73
     0
 40
0.0
  0
LTYPE
  5
15
330
5
100
AcDbSymbolTableRecord
100
AcDbLinetypeTableRecord
  2
ByLayer
 70
     0
  3

 72
    65
 73
     0
 40
0.0
  0
LTYPE
  5
16
330
5
100
AcDbSymbolTableRecord
100
AcDbLinetypeTableRecord
  2
Continuous
 70
     0
  3
Solid line
 72
    65
 73
     0
 40
0.0
  0
LTYPE
  5
6E
330
5
100
AcDbSymbolTableRecord
100
AcDbLinetypeTableRecord
  2
HIDDEN
 70
     0
  3
Hidden __ __ __ __ __ __ __ __ __ __ __ __ __ __
 72
    65
 73
     2
 40
1.905
 49
1.27
 74
     0
 49
-0.635
 74
     0
  0
LTYPE
  5
6F
330
5
100
AcDbSymbolTableRecord
100
AcDbLinetypeTableRecord
  2
PHANTOM
 70
     0
  3
Phantom ______  __  __  ______  __  __  ______
 72
    65
 73
     6
 40
12.7
 49
6.35
 74
     0
 49
-1.27
 74
     0
 49
1.27
 74
     0
 49
-1.27
 74
     0
 49
1.27
 74
     0
 49
-1.27
 74
     0
  0
LTYPE
  5
70
330
5
100
AcDbSymbolTableRecord
100
AcDbLinetypeTableRecord
  2
CENTER
 70
     0
  3
Center ____ _ ____ _ ____ _ ____ _ ____ _ ____
 72
    65
 73
     4
 40
10.16
 49
6.35
 74
     0
 49
-1.27
 74
     0
 49
1.27
 74
     0
 49
-1.27
 74
     0
  0
LTYPE
  5
71
330
5
100
AcDbSymbolTableRecord
100
AcDbLinetypeTableRecord
  2
CENTERX2
 70
     0
  3
Center (2x) ________  __  ________  __  _____
 72
    65
 73
     4
 40
20.32
 49
12.7
 74
     0
 49
-2.54
 74
     0
 49
2.54
 74
     0
 49
-2.54
 74
     0
  0
LTYPE
  5
72
330
5
100
AcDbSymbolTableRecord
100
AcDbLinetypeTableRecord
  2
DOT2
 70
     0
  3
Dot (.5x) ........................................
 72
    65
 73
     2
 40
0.635
 49
0.0
 74
     0
 49
-0.635
 74
     0
  0
ENDTAB
  0
TABLE
  2
LAYER
  5
2
330
0
100
AcDbSymbolTable
 70
    17
  0
LAYER
  5
10
330
2
100
AcDbSymbolTableRecord
100
AcDbLayerTableRecord
  2
0
 70
     0
 62
     7
  6
Continuous
370
    -3
390
F
  0
LAYER
  5
73
330
2
100
AcDbSymbolTableRecord
100
AcDbLayerTableRecord
  2
FORMAT
 70
     0
 62
     2
  6
Continuous
370
    -3
390
F
  0
LAYER
  5
74
330
2
100
AcDbSymbolTableRecord
100
AcDbLayerTableRecord
  2
외형선
 70
     0
 62
   100
  6
Continuous
370
    35
390
F
  0
LAYER
  5
75
330
2
100
AcDbSymbolTableRecord
100
AcDbLayerTableRecord
  2
숨은선
 70
     0
 62
     2
  6
HIDDEN
370
    25
390
F
  0
LAYER
  5
76
330
2
100
AcDbSymbolTableRecord
100
AcDbLayerTableRecord
  2
중심선
 70
     0
 62
     1
  6
CENTERX2
370
    -3
390
F
  0
LAYER
  5
77
330
2
100
AcDbSymbolTableRecord
100
AcDbLayerTableRecord
  2
파단선
 70
     0
 62
     4
  6
Continuous
370
    -3
390
F
  0
LAYER
  5
78
330
2
100
AcDbSymbolTableRecord
100
AcDbLayerTableRecord
  2
해칭선
 70
     0
 62
   100
  6
Continuous
370
    -3
390
F
  0
LAYER
  5
79
330
2
100
AcDbSymbolTableRecord
100
AcDbLayerTableRecord
  2
가는실선
 70
     0
 62
     4
  6
Continuous
370
    -3
390
F
  0
LAYER
  5
7A
330
2
100
AcDbSymbolTableRecord
100
AcDbLayerTableRecord
  2
치수_보조선
 70
     0
 62
     4
  6
Continuous
370
    -3
390
F
  0
LAYER
  5
7B
330
2
100
AcDbSymbolTableRecord
100
AcDbLayerTableRecord
  2
치수문자_일반주서
 70
     0
 62
     7
  6
Continuous
370
    25
390
F
  0
LAYER
  5
7C
330
2
100
AcDbSymbolTableRecord
100
AcDbLayerTableRecord
  2
개별주서
 70
     0
 62
   100
  6
Continuous
370
    35
390
F
  0
LAYER
  5
7D
330
2
100
AcDbSymbolTableRecord
100
AcDbLayerTableRecord
  2
중간선
 70
     0
 62
     2
  6
Continuous
370
    25
390
F
  0
LAYER
  5
7E
330
2
100
AcDbSymbolTableRecord
100
AcDbLayerTableRecord
  2
윤곽선
 70
     0
 62
     3
  6
Continuous
370
    50
390
F
  0
LAYER
  5
7F
330
2
100
AcDbSymbolTableRecord
100
AcDbLayerTableRecord
  2
중심마크
 70
     0
 62
   100
  6
Continuous
370
    35
390
F
  0
LAYER
  5
80
330
2
100
AcDbSymbolTableRecord
100
AcDbLayerTableRecord
  2
가상선
 70
     0
 62
     4
  6
PHANTOM
370
    -3
390
F
  0
LAYER
  5
81
330
2
100
AcDbSymbolTableRecord
100
AcDbLayerTableRecord
  2
특수지정선
 70
     0
 62
     5
  6
CENTERX2
370
    70
390
F
  0
LAYER
  5
135
330
2
100
AcDbSymbolTableRecord
100
AcDbLayerTableRecord
  2
Defpoints
 70
     0
 62
     7
  6
Continuous
290
     0
370
    -3
390
F
  0
ENDTAB
  0
TABLE
  2
STYLE
  5
3
330
0
100
AcDbSymbolTable
 70
     2
  0
STYLE
  5
11
330
3
100
AcDbSymbolTableRecord
100
AcDbTextStyleTableRecord
  2
Standard
 70
     0
 40
0.0
 41
1.0
 50
0.0
 71
     0
 42
3.5
  3
txt
  4

  0
STYLE
  5
97
330
3
100
AcDbSymbolTableRecord
100
AcDbTextStyleTableRecord
  2
SLDTEXTSTYLE0
 70
     0
 40
0.0
 41
0.75
 50
0.0
 71
     0
 42
3.5
  3
TXT
  4

  0
ENDTAB
  0
TABLE
  2
VIEW
  5
6
330
0
100
AcDbSymbolTable
 70
     0
  0
ENDTAB
  0
TABLE
  2
UCS
  5
7
330
0
100
AcDbSymbolTable
 70
     0
  0
ENDTAB
  0
TABLE
  2
APPID
  5
9
330
0
100
AcDbSymbolTable
 70
     1
  0
APPID
  5
12
330
9
100
AcDbSymbolTableRecord
100
AcDbRegAppTableRecord
  2
ACAD
 70
     0
  0
ENDTAB
  0
TABLE
  2
DIMSTYLE
  5
A
330
0
100
AcDbSymbolTable
 70
     4
100
AcDbDimStyleTable
  0
DIMSTYLE
105
27
330
A
100
AcDbSymbolTableRecord
100
AcDbDimStyleTableRecord
  2
ISO-25
 70
     0
 41
2.5
 42
0.625
 43
3.75
 44
1.25
 73
     0
 74
     0
 77
     1
 78
     8
140
2.5
141
2.5
143
0.03937007874016
147
0.625
171
     3
172
     1
178
     0
271
     2
272
     2
274
     3
278
    44
283
     0
284
     8
340
11
  0
DIMSTYLE
105
DA
102
{ACAD_REACTORS
330
D9
102
}
330
A
100
AcDbSymbolTableRecord
100
AcDbDimStyleTableRecord
  2
SLDDIMSTYLE0
 70
     0
 41
3.302
 44
0.0
 45
0.000000001
 73
     0
 74
     0
 77
     1
 78
    12
 79
     3
140
3.5
147
0.875
172
     1
173
     1
178
     0
271
     1
272
     1
276
     2
284
    12
289
     0
340
97
  0
DIMSTYLE
105
E8
102
{ACAD_REACTORS
330
E7
330
100
102
}
330
A
100
AcDbSymbolTableRecord
100
AcDbDimStyleTableRecord
  2
SLDDIMSTYLE1
 70
     0
 41
3.302
 44
0.0
 45
0.000000001
 73
     0
 74
     0
 77
     1
 78
    12
 79
     3
140
3.5
147
0.875
173
     1
178
     0
271
     2
272
     2
276
     2
284
    12
340
97
  0
DIMSTYLE
105
F3
102
{ACAD_REACTORS
330
F2
102
}
330
A
100
AcDbSymbolTableRecord
100
AcDbDimStyleTableRecord
  2
SLDDIMSTYLE2
 70
     0
 41
3.302
 44
0.0
 45
0.000000001
 73
     0
 74
     0
 77
     1
 78
    12
 79
     3
140
3.5
147
0.875
172
     1
173
     1
178
     0
271
     2
272
     2
276
     2
284
    12
289
     0
340
97
  0
ENDTAB
  0
TABLE
  2
BLOCK_RECORD
  5
1
330
0
100
AcDbSymbolTable
 70
     7
  0
BLOCK_RECORD
  5
1F
330
1
100
AcDbSymbolTableRecord
100
AcDbBlockTableRecord
  2
*Model_Space
340
22
  0
BLOCK_RECORD
  5
1B
330
1
100
AcDbSymbolTableRecord
100
AcDbBlockTableRecord
  2
*Paper_Space
340
1E
  0
BLOCK_RECORD
  5
23
330
1
100
AcDbSymbolTableRecord
100
AcDbBlockTableRecord
  2
*Paper_Space0
340
26
  0
BLOCK_RECORD
  5
82
330
1
100
AcDbSymbolTableRecord
100
AcDbBlockTableRecord
  2
블럭10
340
0
102
{BLKREFS
331
D2
102
}
  0
BLOCK_RECORD
  5
DB
330
1
100
AcDbSymbolTableRecord
100
AcDbBlockTableRecord
  2
_D
340
0
  0
BLOCK_RECORD
  5
E9
330
1
100
AcDbSymbolTableRecord
100
AcDbBlockTableRecord
  2
_D_1
340
0
  0
BLOCK_RECORD
  5
F4
330
1
100
AcDbSymbolTableRecord
100
AcDbBlockTableRecord
  2
_D_2
340
0
  0
BLOCK_RECORD
  5
101
330
1
100
AcDbSymbolTableRecord
100
AcDbBlockTableRecord
  2
_D_3
340
0
  0
BLOCK_RECORD
  5
10A
330
1
100
AcDbSymbolTableRecord
100
AcDbBlockTableRecord
  2
SW_DOWELSYMBOL_0
340
0
102
{BLKREFS
331
110
102
}
  0
ENDTAB
  0
ENDSEC
  0
SECTION
  2
BLOCKS
  0
BLOCK
  5
20
330
1F
100
AcDbEntity
  8
0
100
AcDbBlockBegin
  2
*Model_Space
 70
     0
 10
0.0
 20
0.0
 30
0.0
  3
*Model_Space
  1

  0
ENDBLK
  5
21
330
1F
100
AcDbEntity
  8
0
100
AcDbBlockEnd
  0
BLOCK
  5
1C
330
1B
100
AcDbEntity
 67
     1
  8
0
100
AcDbBlockBegin
  2
*Paper_Space
 70
     0
 10
0.0
 20
0.0
 30
0.0
  3
*Paper_Space
  1

  0
ENDBLK
  5
1D
330
1B
100
AcDbEntity
 67
     1
  8
0
100
AcDbBlockEnd
  0
BLOCK
  5
24
330
23
100
AcDbEntity
  8
0
100
AcDbBlockBegin
  2
*Paper_Space0
 70
     0
 10
0.0
 20
0.0
 30
0.0
  3
*Paper_Space0
  1

  0
ENDBLK
  5
25
330
23
100
AcDbEntity
  8
0
100
AcDbBlockEnd
  0
BLOCK
  5
83
330
82
100
AcDbEntity
  8
0
100
AcDbBlockBegin
  2
블럭10
 70
     2
 10
0.0
 20
0.0
 30
0.0
  3
블럭10
  1

  0
ELLIPSE
  5
85
330
82
100
AcDbEntity
  8
중심선
100
AcDbEllipse
 10
20.54032771741204
 20
12.0471743016438
 30
0.0
 11
6.600054785286829
 21
-1.261213355974178E-13
 31
0.0
210
0.0
220
0.0
230
1.0
 40
0.636358354079598
 41
0.9219305317359503
 42
6.513795318482858
  0
ELLIPSE
  5
86
330
82
100
AcDbEntity
  8
중심선
100
AcDbEllipse
 10
20.54032771746488
 20
12.04717430159265
 30
0.0
 11
3.960054785062283
 21
1.540847449632565E-10
 31
0.0
210
0.0
220
0.0
230
1.0
 40
0.3939339440162632
 41
1.131841032648279
 42
5.62031148352944
  0
LINE
  5
87
330
82
100
AcDbEntity
  8
중심선
100
AcDbLine
 10
2.268634060543552
 20
16.24717430164393
 30
0.0
 11
5.714909304380834
 21
16.24717430164393
 31
0.0
  0
LINE
  5
88
330
82
100
AcDbEntity
  8
중심선
100
AcDbLine
 10
5.245725140726316
 20
7.84717430164391
 30
0.0
 11
8.692000384563599
 21
7.84717430164391
 31
0.0
  0
LINE
  5
89
330
82
100
AcDbEntity
  8
중심선
100
AcDbLine
 10
15.74043728645272
 20
16.24717430164393
 30
0.0
 11
8.692000384563599
 21
7.84717430164391
 31
0.0
  0
LINE
  5
8A
330
82
100
AcDbEntity
  8
중심선
100
AcDbLine
 10
0.1404042013395286
 20
13.71084872107135
 30
0.0
 11
3.58671253028996
 21
13.71088815037384
 31
0.0
  0
LINE
  5
8B
330
82
100
AcDbEntity
  8
중심선
100
AcDbLine
 10
2.750260043222114
 20
10.84717430164391
 30
0.0
 11
6.196535287059397
 21
10.84717430164391
 31
0.0
  0
LINE
  5
8C
330
82
100
AcDbEntity
  8
중심선
100
AcDbLine
 10
12.29416204261559
 20
16.24717430164393
 30
0.0
 11
5.245725140726316
 21
7.84717430164391
 31
0.0
  0
LINE
  5
8D
330
82
100
AcDbEntity
  8
중심선
100
AcDbLine
 10
10.72767329541681
 20
16.24717430164393
 30
0.0
 11
6.196535287059397
 21
10.84717430164391
 31
0.0
  0
LINE
  5
8E
330
82
100
AcDbEntity
  8
중심선
100
AcDbLine
 10
7.28139805157953
 20
16.24717430164393
 30
0.0
 11
2.750260043222114
 21
10.84717430164391
 31
0.0
  0
LINE
  5
8F
330
82
100
AcDbEntity
  8
중심선
100
AcDbLine
 10
5.714909304380834
 20
16.24717430164393
 30
0.0
 11
3.58671253028996
 21
13.71088815037384
 31
0.0
  0
LINE
  5
90
330
82
100
AcDbEntity
  8
중심선
100
AcDbLine
 10
2.268634060543552
 20
16.24717430164393
 30
0.0
 11
0.1404042013395286
 21
13.71084872107135
 31
0.0
  0
LINE
  5
91
330
82
100
AcDbEntity
  8
중심선
100
AcDbLine
 10
7.28139805157953
 20
16.24717430164393
 30
0.0
 11
10.72767329541681
 21
16.24717430164393
 31
0.0
  0
LINE
  5
92
330
82
100
AcDbEntity
  8
중심선
100
AcDbLine
 10
12.29416204261559
 20
16.24717430164393
 30
0.0
 11
15.74043728645272
 21
16.24717430164393
 31
0.0
  0
LINE
  5
93
330
82
100
AcDbEntity
  8
중심선
100
AcDbLine
 10
19.22036997980202
 20
11.08717430171403
 30
0.0
 11
23.66174974927406
 21
11.08717430171406
 31
0.0
  0
LINE
  5
94
330
82
100
AcDbEntity
  8
중심선
100
AcDbLine
 10
19.22039502424796
 20
13.00717430171391
 30
0.0
 11
19.22036997980202
 21
11.08717430171403
 31
0.0
  0
LINE
  5
95
330
82
100
AcDbEntity
  8
중심선
100
AcDbLine
 10
19.22039502424796
 20
13.00717430171391
 30
0.0
 11
26.96566020931264
 21
13.00717430171391
 31
0.0
  0
LINE
  5
96
330
82
100
AcDbEntity
  8
중심선
100
AcDbLine
 10
22.22332737316547
 20
13.45928029700563
 30
0.0
 11
24.52862924686651
 21
15.39360700705356
 31
0.0
  0
ATTDEF
  5
98
330
82
100
AcDbEntity
  8
FORMAT
 62
     2
100
AcDbText
 10
-16.11926103943555
 20
2.075366912832191
 30
0.0
 40
4.233333333333333
  1
SEME7212050E [ 4 FLUTE ]
 41
0.75
  7
SLDTEXTSTYLE0
 11
-16.11926103943555
 21
-0.0412997538344756
 31
0.0
100
AcDbAttributeDefinition
  3

  2
AUTOATTR0
 70
     0
 74
     1
  0
ENDBLK
  5
84
330
82
100
AcDbEntity
  8
0
100
AcDbBlockEnd
  0
BLOCK
  5
DC
330
DB
100
AcDbEntity
  8
0
100
AcDbBlockBegin
  2
_D
 70
     0
 10
0.0
 20
0.0
 30
0.0
  3
_D
  1

  0
LINE
  5
DE
330
DB
100
AcDbEntity
  8
치수문자_일반주서
 62
     0
370
    -2
100
AcDbLine
 10
60.06249999999999
 20
-6.000000000000008
 30
0.0
 11
74.96865026832586
 21
-5.99999999999995
 31
0.0
  0
LINE
  5
DF
330
DB
100
AcDbEntity
  8
치수문자_일반주서
 62
     0
370
    -2
100
AcDbLine
 10
60.06249999999999
 20
5.999999999999997
 30
0.0
 11
74.96865026832582
 21
6.000000000000052
 31
0.0
  0
LINE
  5
E0
330
DB
100
AcDbEntity
  8
치수문자_일반주서
 62
     0
370
    -2
100
AcDbLine
 10
74.96865026832586
 20
-5.99999999999995
 30
0.0
 11
74.96865026832576
 21
20.47900000000005
 31
0.0
  0
LINE
  5
E1
330
DB
100
AcDbEntity
  8
치수문자_일반주서
 62
     0
370
    -2
100
AcDbLine
 10
74.96865026832586
 20
-5.99999999999995
 30
0.0
 11
74.96865026832582
 21
6.000000000000052
 31
0.0
  0
LINE
  5
E2
330
DB
100
AcDbEntity
  8
치수문자_일반주서
 62
     0
370
    -2
100
AcDbLine
 10
74.96865026832587
 20
-9.30199999999995
 30
0.0
 11
74.96865026832589
 21
-12.60399999999995
 31
0.0
  0
LINE
  5
E3
330
DB
100
AcDbEntity
  8
치수문자_일반주서
 62
     0
370
    -2
100
AcDbLine
 10
74.9686502683258
 20
9.302000000000051
 30
0.0
 11
74.96865026832579
 21
12.60400000000005
 31
0.0
  0
SOLID
  5
E4
330
DB
100
AcDbEntity
  8
치수문자_일반주서
 62
     0
100
AcDbTrace
 10
75.5189836016592
 20
-9.301999999999948
 30
0.0
 11
74.41831693499255
 21
-9.301999999999952
 31
0.0
 12
74.96865026832586
 22
-5.99999999999995
 32
0.0
 13
74.96865026832586
 23
-5.99999999999995
 33
0.0
  0
SOLID
  5
E5
330
DB
100
AcDbEntity
  8
치수문자_일반주서
 62
     0
100
AcDbTrace
 10
74.41831693499248
 20
9.30200000000005
 30
0.0
 11
75.51898360165913
 21
9.302000000000053
 31
0.0
 12
74.96865026832582
 22
6.000000000000052
 32
0.0
 13
74.96865026832582
 23
6.000000000000052
 33
0.0
  0
MTEXT
  5
E6
330
DB
100
AcDbEntity
  8
치수문자_일반주서
 62
     0
100
AcDbMText
 10
70.59365026832577
 20
16.54150000000003
 30
0.0
 40
3.5
 41
0.0
 71
     2
 72
     1
  1
\A1;%%c12
  7
SLDTEXTSTYLE0
 11
-3.552713678800499E-15
 21
1.0
 31
0.0
 73
     1
 44
1.0
  0
POINT
  5
13F
330
DB
100
AcDbEntity
  8
Defpoints
 62
     0
100
AcDbPoint
 10
59.99999999999999
 20
-6.000000000000008
 30
0.0
  0
POINT
  5
140
330
DB
100
AcDbEntity
  8
Defpoints
 62
     0
100
AcDbPoint
 10
59.99999999999999
 20
5.999999999999997
 30
0.0
  0
POINT
  5
141
330
DB
100
AcDbEntity
  8
Defpoints
 62
     0
100
AcDbPoint
 10
74.96865026832582
 20
6.000000000000053
 30
0.0
  0
ENDBLK
  5
DD
330
DB
100
AcDbEntity
  8
0
100
AcDbBlockEnd
  0
BLOCK
  5
EA
330
E9
100
AcDbEntity
  8
0
100
AcDbBlockBegin
  2
_D_1
 70
     0
 10
0.0
 20
0.0
 30
0.0
  3
_D_1
  1

  0
LINE
  5
EC
330
E9
100
AcDbEntity
  8
치수문자_일반주서
 62
     0
370
    -2
100
AcDbLine
 10
-40.00000000000001
 20
5.56249999999999
 30
0.0
 11
-40.0
 21
23.38913260158164
 31
0.0
  0
LINE
  5
ED
330
E9
100
AcDbEntity
  8
치수문자_일반주서
 62
     0
370
    -2
100
AcDbLine
 10
59.99999999999999
 20
6.062500000000005
 30
0.0
 11
60.0
 21
23.38913260158164
 31
0.0
  0
LINE
  5
EE
330
E9
100
AcDbEntity
  8
치수문자_일반주서
 62
     0
370
    -2
100
AcDbLine
 10
-36.698
 20
23.38913260158164
 30
0.0
 11
56.698
 21
23.38913260158164
 31
0.0
  0
SOLID
  5
EF
330
E9
100
AcDbEntity
  8
치수문자_일반주서
 62
     0
100
AcDbTrace
 10
-36.698
 20
23.93946593491498
 30
0.0
 11
-36.698
 21
22.83879926824831
 31
0.0
 12
-40.0
 22
23.38913260158164
 32
0.0
 13
-40.0
 23
23.38913260158164
 33
0.0
  0
SOLID
  5
F0
330
E9
100
AcDbEntity
  8
치수문자_일반주서
 62
     0
100
AcDbTrace
 10
56.698
 20
22.83879926824831
 30
0.0
 11
56.698
 21
23.93946593491498
 31
0.0
 12
60.0
 22
23.38913260158164
 32
0.0
 13
60.0
 23
23.38913260158164
 33
0.0
  0
MTEXT
  5
F1
330
E9
100
AcDbEntity
  8
치수문자_일반주서
 62
     0
100
AcDbMText
 10
9.999999999999996
 20
27.76413260158164
 30
0.0
 40
3.5
 41
0.0
 71
     2
 72
     1
  1
\A1;100
  7
SLDTEXTSTYLE0
 73
     1
 44
1.0
  0
POINT
  5
136
330
E9
100
AcDbEntity
  8
Defpoints
 62
     0
100
AcDbPoint
 10
-40.00000000000001
 20
5.49999999999999
 30
0.0
  0
POINT
  5
137
330
E9
100
AcDbEntity
  8
Defpoints
 62
     0
100
AcDbPoint
 10
59.99999999999999
 20
6.000000000000005
 30
0.0
  0
POINT
  5
138
330
E9
100
AcDbEntity
  8
Defpoints
 62
     0
100
AcDbPoint
 10
59.99999999999999
 20
23.38913260158164
 30
0.0
  0
ENDBLK
  5
EB
330
E9
100
AcDbEntity
  8
0
100
AcDbBlockEnd
  0
BLOCK
  5
F5
330
F4
100
AcDbEntity
  8
0
100
AcDbBlockBegin
  2
_D_2
 70
     0
 10
0.0
 20
0.0
 30
0.0
  3
_D_2
  1

  0
LINE
  5
F7
330
F4
100
AcDbEntity
  8
치수문자_일반주서
 62
     0
370
    -2
100
AcDbLine
 10
-39.56249999999999
 20
6.000000000000001
 30
0.0
 11
-52.16291755254388
 21
5.99999999999995
 31
0.0
  0
LINE
  5
F8
330
F4
100
AcDbEntity
  8
치수문자_일반주서
 62
     0
370
    -2
100
AcDbLine
 10
-39.56249999999999
 20
-6.00000000000001
 30
0.0
 11
-52.16291755254384
 21
-6.00000000000006
 31
0.0
  0
LINE
  5
F9
330
F4
100
AcDbEntity
  8
치수문자_일반주서
 62
     0
370
    -2
100
AcDbLine
 10
-52.16291755254388
 20
5.99999999999995
 30
0.0
 11
-52.16291755254393
 21
20.47899999999996
 31
0.0
  0
LINE
  5
FA
330
F4
100
AcDbEntity
  8
치수문자_일반주서
 62
     0
370
    -2
100
AcDbLine
 10
-52.16291755254388
 20
5.99999999999995
 30
0.0
 11
-52.16291755254384
 21
-6.00000000000006
 31
0.0
  0
LINE
  5
FB
330
F4
100
AcDbEntity
  8
치수문자_일반주서
 62
     0
370
    -2
100
AcDbLine
 10
-52.1629175525439
 20
9.30199999999995
 30
0.0
 11
-52.16291755254391
 21
12.60399999999995
 31
0.0
  0
LINE
  5
FC
330
F4
100
AcDbEntity
  8
치수문자_일반주서
 62
     0
370
    -2
100
AcDbLine
 10
-52.16291755254382
 20
-9.30200000000006
 30
0.0
 11
-52.16291755254381
 21
-12.60400000000006
 31
0.0
  0
SOLID
  5
FD
330
F4
100
AcDbEntity
  8
치수문자_일반주서
 62
     0
100
AcDbTrace
 10
-52.71325088587723
 20
9.301999999999948
 30
0.0
 11
-51.61258421921056
 21
9.301999999999952
 31
0.0
 12
-52.16291755254388
 22
5.99999999999995
 32
0.0
 13
-52.16291755254388
 23
5.99999999999995
 33
0.0
  0
SOLID
  5
FE
330
F4
100
AcDbEntity
  8
치수문자_일반주서
 62
     0
100
AcDbTrace
 10
-51.61258421921049
 20
-9.302000000000058
 30
0.0
 11
-52.71325088587716
 21
-9.302000000000062
 31
0.0
 12
-52.16291755254384
 22
-6.00000000000006
 32
0.0
 13
-52.16291755254384
 23
-6.00000000000006
 33
0.0
  0
MTEXT
  5
FF
330
F4
100
AcDbEntity
  8
치수문자_일반주서
 62
     0
100
AcDbMText
 10
-56.53791755254392
 20
16.54149999999994
 30
0.0
 40
3.5
 41
0.0
 71
     2
 72
     1
  1
\A1;%%c12
  7
SLDTEXTSTYLE0
 11
-3.552713678800498E-15
 21
1.0
 31
0.0
 73
     1
 44
1.0
  0
POINT
  5
13C
330
F4
100
AcDbEntity
  8
Defpoints
 62
     0
100
AcDbPoint
 10
-39.49999999999999
 20
6.000000000000001
 30
0.0
  0
POINT
  5
13D
330
F4
100
AcDbEntity
  8
Defpoints
 62
     0
100
AcDbPoint
 10
-39.49999999999999
 20
-6.00000000000001
 30
0.0
  0
POINT
  5
13E
330
F4
100
AcDbEntity
  8
Defpoints
 62
     0
100
AcDbPoint
 10
-52.16291755254384
 20
-6.000000000000057
 30
0.0
  0
ENDBLK
  5
F6
330
F4
100
AcDbEntity
  8
0
100
AcDbBlockEnd
  0
BLOCK
  5
102
330
101
100
AcDbEntity
  8
0
100
AcDbBlockBegin
  2
_D_3
 70
     0
 10
0.0
 20
0.0
 30
0.0
  3
_D_3
  1

  0
LINE
  5
104
330
101
100
AcDbEntity
  8
치수문자_일반주서
 62
     0
370
    -2
100
AcDbLine
 10
9.999999999999998
 20
6.016070593710305
 30
0.0
 11
10.0
 21
16.79948889629795
 31
0.0
  0
LINE
  5
105
330
101
100
AcDbEntity
  8
치수문자_일반주서
 62
     0
370
    -2
100
AcDbLine
 10
59.99999999999999
 20
6.062500000000005
 30
0.0
 11
59.99999999999999
 21
16.79948889629795
 31
0.0
  0
LINE
  5
106
330
101
100
AcDbEntity
  8
치수문자_일반주서
 62
     0
370
    -2
100
AcDbLine
 10
13.302
 20
16.79948889629795
 30
0.0
 11
56.69799999999999
 21
16.79948889629795
 31
0.0
  0
SOLID
  5
107
330
101
100
AcDbEntity
  8
치수문자_일반주서
 62
     0
100
AcDbTrace
 10
13.302
 20
17.34982222963129
 30
0.0
 11
13.302
 21
16.24915556296462
 31
0.0
 12
10.0
 22
16.79948889629795
 32
0.0
 13
10.0
 23
16.79948889629795
 33
0.0
  0
SOLID
  5
108
330
101
100
AcDbEntity
  8
치수문자_일반주서
 62
     0
100
AcDbTrace
 10
56.69799999999999
 20
16.24915556296462
 30
0.0
 11
56.69799999999999
 21
17.34982222963129
 31
0.0
 12
59.99999999999999
 22
16.79948889629795
 32
0.0
 13
59.99999999999999
 23
16.79948889629795
 33
0.0
  0
MTEXT
  5
109
330
101
100
AcDbEntity
  8
치수문자_일반주서
 62
     0
100
AcDbMText
 10
35.00000000000001
 20
21.17448889629795
 30
0.0
 40
3.5
 41
0.0
 71
     2
 72
     1
  1
\A1;50
  7
SLDTEXTSTYLE0
 73
     1
 44
1.0
  0
POINT
  5
139
330
101
100
AcDbEntity
  8
Defpoints
 62
     0
100
AcDbPoint
 10
9.999999999999998
 20
5.953570593710305
 30
0.0
  0
POINT
  5
13A
330
101
100
AcDbEntity
  8
Defpoints
 62
     0
100
AcDbPoint
 10
59.99999999999999
 20
6.000000000000005
 30
0.0
  0
POINT
  5
13B
330
101
100
AcDbEntity
  8
Defpoints
 62
     0
100
AcDbPoint
 10
59.99999999999999
 20
16.79948889629795
 30
0.0
  0
ENDBLK
  5
103
330
101
100
AcDbEntity
  8
0
100
AcDbBlockEnd
  0
BLOCK
  5
10B
330
10A
100
AcDbEntity
  8
0
100
AcDbBlockBegin
  2
SW_DOWELSYMBOL_0
 70
     0
 10
0.0
 20
0.0
 30
0.0
  3
SW_DOWELSYMBOL_0
  1

  0
CIRCLE
  5
10D
330
10A
100
AcDbEntity
  8
해칭선
 62
     0
100
AcDbCircle
 10
0.0
 20
0.0
 30
0.0
 40
3.000000000000003
  0
HATCH
  5
10E
330
10A
100
AcDbEntity
  8
0
  6
Continuous
 62
     0
370
    18
100
AcDbHatch
 10
0.0
 20
0.0
 30
0.0
210
0.0
220
0.0
230
1.0
  2
SOLID
 70
     1
 71
     0
 91
        1
 92
        0
 93
        3
 72
     2
 10
0.0
 20
0.0
 40
3.000000000000003
 50
0.0
 51
90.0
 73
     1
 72
     1
 10
0.0
 20
3.000000000000003
 11
0.0
 21
0.0
 72
     1
 10
0.0
 20
0.0
 11
3.000000000000003
 21
0.0
 97
        0
 75
     0
 76
     1
 98
        1
 10
0.0
 20
0.0
  0
HATCH
  5
10F
330
10A
100
AcDbEntity
  8
0
  6
Continuous
 62
     0
370
    18
100
AcDbHatch
 10
0.0
 20
0.0
 30
0.0
210
0.0
220
0.0
230
1.0
  2
SOLID
 70
     1
 71
     0
 91
        1
 92
        0
 93
        3
 72
     2
 10
0.0
 20
0.0
 40
3.000000000000003
 50
180.0
 51
270.0000000000008
 73
     1
 72
     1
 10
0.0
 20
-3.000000000000003
 11
0.0
 21
0.0
 72
     1
 10
0.0
 20
0.0
 11
-3.000000000000003
 21
0.0
 97
        0
 75
     0
 76
     1
 98
        1
 10
0.0
 20
0.0
  0
ENDBLK
  5
10C
330
10A
100
AcDbEntity
  8
0
100
AcDbBlockEnd
  0
ENDSEC
  0
SECTION
  2
ENTITIES
  0
LINE
  5
99
330
1F
100
AcDbEntity
  8
0
  6
Continuous
 62
     4
370
    25
100
AcDbLine
 10
9.999999999999993
 20
5.999999999999996
 30
0.0
 11
-39.50000000000001
 21
5.999999999999993
 31
0.0
  0
LINE
  5
9A
330
1F
100
AcDbEntity
  8
0
  6
Continuous
 62
     4
370
    25
100
AcDbLine
 10
-39.50000000000001
 20
-6.000000000000007
 30
0.0
 11
9.999999999999995
 21
-6.000000000000004
 31
0.0
  0
LINE
  5
9B
330
1F
100
AcDbEntity
  8
0
  6
Continuous
 62
     4
370
    25
100
AcDbLine
 10
-39.50000000000001
 20
5.999999999999988
 30
0.0
 11
-40.00000000000001
 21
5.499999999999989
 31
0.0
  0
LINE
  5
9C
330
1F
100
AcDbEntity
  8
0
  6
Continuous
 62
     4
370
    25
100
AcDbLine
 10
-40.00000000000001
 20
-5.500000000000005
 30
0.0
 11
-39.50000000000001
 21
-6.000000000000003
 31
0.0
  0
LINE
  5
9D
330
1F
100
AcDbEntity
  8
0
  6
Continuous
 62
     1
370
    25
100
AcDbLine
 10
57.67922755783433
 20
-6.00000000000001
 30
0.0
 11
59.99999999999999
 21
-6.00000000000001
 31
0.0
  0
LINE
  5
9E
330
1F
100
AcDbEntity
  8
0
  6
Continuous
 62
     1
370
    25
100
AcDbLine
 10
29.67239009748897
 20
6.000000000000001
 30
0.0
 11
25.03060200096786
 21
6.000000000000001
 31
0.0
  0
LINE
  5
9F
330
1F
100
AcDbEntity
  8
0
  6
Continuous
 62
     1
370
    25
100
AcDbLine
 10
26.72201404934844
 20
-0.9673914828708112
 30
0.0
 11
26.52085020053422
 21
-0.8571310465180465
 31
0.0
  0
LINE
  5
A0
330
1F
100
AcDbEntity
  8
0
  6
Continuous
 62
     1
370
    25
100
AcDbLine
 10
41.35364525137228
 20
-6.00000000000001
 30
0.0
 11
45.99606178639377
 21
-6.00000000000001
 31
0.0
  0
LINE
  5
A1
330
1F
100
AcDbEntity
  8
0
  6
Continuous
 62
     1
370
    25
100
AcDbLine
 10
13.34953378433989
 20
6.000000000000001
 30
0.0
 11
9.999999999999995
 21
6.000000000000001
 31
0.0
  0
LINE
  5
A2
330
1F
100
AcDbEntity
  8
0
  6
Continuous
 62
     1
370
    25
100
AcDbLine
 10
9.999999999999998
 20
-6.00000000000001
 30
0.0
 11
13.34953378433991
 21
-6.00000000000001
 31
0.0
  0
LINE
  5
A3
330
1F
100
AcDbEntity
  8
0
  6
Continuous
 62
     1
370
    25
100
AcDbLine
 10
45.99606178639377
 20
6.000000000000001
 30
0.0
 11
41.35364525137234
 21
6.000000000000001
 31
0.0
  0
LINE
  5
A4
330
1F
100
AcDbEntity
  8
0
  6
Continuous
 62
     1
370
    25
100
AcDbLine
 10
25.03060200096788
 20
-6.00000000000001
 30
0.0
 11
29.67239009748884
 21
-6.00000000000001
 31
0.0
  0
LINE
  5
A5
330
1F
100
AcDbEntity
  8
0
  6
Continuous
 62
     1
370
    25
100
AcDbLine
 10
59.99999999999999
 20
6.000000000000001
 30
0.0
 11
57.67922755783425
 21
6.000000000000001
 31
0.0
  0
SPLINE
  5
A6
330
1F
100
AcDbEntity
  8
0
  6
Continuous
 62
     4
370
    25
100
AcDbSpline
210
0.0
220
0.0
230
1.0
 70
     8
 71
     3
 72
    14
 73
    10
 74
     0
 42
0.000000001
 43
0.00000001
 40
0.0
 40
0.0
 40
0.0
 40
0.0
 40
0.2500000000000001
 40
0.2500000000000001
 40
0.5
 40
0.5
 40
0.75
 40
0.75
 40
1.0
 40
1.0
 40
1.0
 40
1.0
 10
9.105188064253419
 20
2.382502825529278
 30
0.0
 10
9.010419486901174
 20
2.432642210715009
 30
0.0
 10
8.925258961617168
 20
2.493136831047175
 30
0.0
 10
8.773590767898545
 20
2.633272438226183
 30
0.0
 10
8.708258247311331
 20
2.712443632171758
 30
0.0
 10
8.604109425250334
 20
2.879756568823016
 30
0.0
 10
8.56425465428297
 20
2.969837482210394
 30
0.0
 10
8.512540181738721
 20
3.150168123711979
 30
0.0
 10
8.49986827927989
 20
3.242174800280901
 30
0.0
 10
8.49986827927989
 20
3.333035309762888
 30
0.0
  0
SPLINE
  5
A7
330
1F
100
AcDbEntity
  8
0
  6
Continuous
 62
     4
370
    25
100
AcDbSpline
210
0.0
220
0.0
230
1.0
 70
     8
 71
     3
 72
     8
 73
     4
 74
     0
 42
0.000000001
 43
0.00000001
 40
0.0
 40
0.0
 40
0.0
 40
0.0
 40
1.0
 40
1.0
 40
1.0
 40
1.0
 10
10.00000000000004
 20
1.899764779363533
 30
0.0
 10
9.702775773383616
 20
2.063037918857587
 30
0.0
 10
9.404466886329153
 20
2.224162829749744
 30
0.0
 10
9.105188064253419
 20
2.382502825529278
 30
0.0
  0
SPLINE
  5
A8
330
1F
100
AcDbEntity
  8
0
  6
Continuous
 62
     4
370
    25
100
AcDbSpline
210
0.0
220
0.0
230
1.0
 70
     8
 71
     3
 72
    18
 73
    14
 74
     0
 42
0.000000001
 43
0.00000001
 40
0.0
 40
0.0
 40
0.0
 40
0.0
 40
0.1250000000000001
 40
0.1250000000000001
 40
0.2500000000000002
 40
0.2500000000000002
 40
0.5000000000000001
 40
0.5000000000000001
 40
0.6250000000000001
 40
0.6250000000000001
 40
0.75
 40
0.75
 40
1.0
 40
1.0
 40
1.0
 40
1.0
 10
8.49986827927989
 20
-1.964143886616703
 30
0.0
 10
8.499868279279893
 20
-1.875762170577491
 30
0.0
 10
8.509001534011622
 20
-1.788115383887039
 30
0.0
 10
8.546594526590644
 20
-1.614576566157978
 30
0.0
 10
8.575632702287638
 20
-1.527747675310635
 30
0.0
 10
8.690193083097716
 20
-1.282737101202294
 30
0.0
 10
8.806313481114353
 20
-1.133968230780674
 30
0.0
 10
9.02146748741571
 20
-0.9618231626639002
 30
0.0
 10
9.101345148566306
 20
-0.9118112542311223
 30
0.0
 10
9.26821842141403
 20
-0.8326293278695983
 30
0.0
 10
9.35573982280842
 20
-0.8027613779954547
 30
0.0
 10
9.63024323603776
 20
-0.7437491661853475
 30
0.0
 10
9.818695795174724
 20
-0.7475627317121617
 30
0.0
 10
9.999999999999961
 20
-0.7943170975982314
 30
0.0
  0
LINE
  5
A9
330
1F
100
AcDbEntity
  8
0
  6
Continuous
 62
     4
370
    25
100
AcDbLine
 10
8.49986827927989
 20
-1.964143886616703
 30
0.0
 11
8.49986827927989
 21
-4.989075628197419
 31
0.0
  0
SPLINE
  5
AA
330
1F
100
AcDbEntity
  8
0
  6
Continuous
 62
     4
370
    25
100
AcDbSpline
210
0.0
220
0.0
230
1.0
 70
     8
 71
     3
 72
    14
 73
    10
 74
     0
 42
0.000000001
 43
0.00000001
 40
0.0
 40
0.0
 40
0.0
 40
0.0
 40
0.25
 40
0.25
 40
0.5
 40
0.5
 40
0.75
 40
0.75
 40
1.0
 40
1.0
 40
1.0
 40
1.0
 10
9.105188064253422
 20
-5.506694134083062
 30
0.0
 10
9.010419486901174
 20
-5.48500104128244
 30
0.0
 10
8.925258961617168
 20
-5.458046742781692
 30
0.0
 10
8.773590767898549
 20
-5.391834731405636
 30
0.0
 10
8.708258247311331
 20
-5.352717948666834
 30
0.0
 10
8.604109425250334
 20
-5.264593241648391
 30
0.0
 10
8.56425465428297
 20
-5.214504100793394
 30
0.0
 10
8.512540181738721
 20
-5.107585386489572
 30
0.0
 10
8.49986827927989
 20
-5.049776509269438
 30
0.0
 10
8.49986827927989
 20
-4.989075628197419
 30
0.0
  0
SPLINE
  5
AB
330
1F
100
AcDbEntity
  8
0
  6
Continuous
 62
     4
370
    25
100
AcDbSpline
210
0.0
220
0.0
230
1.0
 70
     8
 71
     3
 72
     8
 73
     4
 74
     0
 42
0.000000001
 43
0.00000001
 40
0.0
 40
0.0
 40
0.0
 40
0.0
 40
1.0
 40
1.0
 40
1.0
 40
1.0
 10
10.00000000000004
 20
-5.69129983247146
 30
0.0
 10
9.702775773383618
 20
-5.636799003318653
 30
0.0
 10
9.404466886329153
 20
-5.575200842128478
 30
0.0
 10
9.105188064253419
 20
-5.506694134083061
 30
0.0
  0
SPLINE
  5
AC
330
1F
100
AcDbEntity
  8
0
  6
Continuous
 62
     4
370
    25
100
AcDbSpline
210
0.0
220
0.0
230
1.0
 70
     8
 71
     3
 72
    18
 73
    14
 74
     0
 42
0.000000001
 43
0.00000001
 40
0.0
 40
0.0
 40
0.0
 40
0.0
 40
0.1249999999999998
 40
0.1249999999999998
 40
0.2499999999999996
 40
0.2499999999999996
 40
0.4999999999999996
 40
0.4999999999999996
 40
0.6249999999999997
 40
0.6249999999999997
 40
0.7499999999999998
 40
0.7499999999999998
 40
1.0
 40
1.0
 40
1.0
 40
1.0
 10
8.49986827927989
 20
5.66940374225244
 30
0.0
 10
8.49986827927989
 20
5.700023259778307
 30
0.0
 10
8.509001534011622
 20
5.728073899445524
 30
0.0
 10
8.546594526590644
 20
5.779388353071289
 30
0.0
 10
8.575632702287638
 20
5.802850023659719
 30
0.0
 10
8.690193083097713
 20
5.863694309496226
 30
0.0
 10
8.806313481114353
 20
5.893019431036118
 30
0.0
 10
9.021467487415707
 20
5.922692520679287
 30
0.0
 10
9.101345148566303
 20
5.930446991592008
 30
0.0
 10
9.26821842141403
 20
5.942081258767558
 30
0.0
 10
9.355739822808417
 20
5.94608844647466
 30
0.0
 10
9.63024323603776
 20
5.953856880292087
 30
0.0
 10
9.818695795174724
 20
5.953433877004004
 30
0.0
 10
9.999999999999961
 20
5.947189281371745
 30
0.0
  0
LINE
  5
AD
330
1F
100
AcDbEntity
  8
0
  6
Continuous
 62
     4
370
    25
100
AcDbLine
 10
8.49986827927989
 20
5.669403742252439
 30
0.0
 11
8.49986827927989
 21
3.333035309762888
 31
0.0
  0
LINE
  5
AE
330
1F
100
AcDbEntity
  8
0
  6
Continuous
 62
     4
370
    25
100
AcDbLine
 10
-39.50000000000001
 20
5.999999999999988
 30
0.0
 11
-39.50000000000001
 21
-6.000000000000007
 31
0.0
  0
LINE
  5
AF
330
1F
100
AcDbEntity
  8
0
  6
Continuous
 62
     4
370
    25
100
AcDbLine
 10
9.999999999999995
 20
-5.691299832471453
 30
0.0
 11
9.999999999999995
 21
-6.000000000000004
 31
0.0
  0
LINE
  5
B0
330
1F
100
AcDbEntity
  8
0
  6
Continuous
 62
     4
370
    25
100
AcDbLine
 10
9.999999999999993
 20
1.899764779363562
 30
0.0
 11
9.999999999999995
 21
-0.7943170975979499
 31
0.0
  0
SPLINE
  5
B1
330
1F
100
AcDbEntity
  8
0
  6
Continuous
 62
     4
370
    25
100
AcDbSpline
210
0.0
220
0.0
230
1.0
 70
    24
 71
     3
 72
    12
 73
     8
 74
     0
 42
0.000000001
 43
0.00000001
 40
0.0
 40
0.0
 40
0.0
 40
0.0
 40
0.5
 40
0.5
 40
0.75
 40
0.75
 40
1.0
 40
1.0
 40
1.0
 40
1.0
 10
9.999999999999995
 20
-0.79431709759795
 30
0.0
 10
9.999999999999995
 20
-0.7894518961623713
 30
0.0
 10
9.999999999999995
 20
-0.8307308685042282
 30
0.0
 10
9.999999999999995
 20
-0.9646045933394676
 30
0.0
 10
9.999999999999995
 20
-1.021463786396368
 30
0.0
 10
9.999999999999995
 20
-1.15767945287308
 30
0.0
 10
9.999999999999995
 20
-1.237272550200594
 30
0.0
 10
9.999999999999995
 20
-1.328980991182865
 30
0.0
  0
LINE
  5
B2
330
1F
100
AcDbEntity
  8
0
  6
Continuous
 62
     4
370
    25
100
AcDbLine
 10
-40.00000000000001
 20
5.49999999999999
 30
0.0
 11
-40.00000000000001
 21
-5.500000000000005
 31
0.0
  0
SPLINE
  5
B3
330
1F
100
AcDbEntity
  8
0
  6
Continuous
 62
     4
370
    25
100
AcDbSpline
210
0.0
220
0.0
230
1.0
 70
    24
 71
     3
 72
    14
 73
    10
 74
     0
 42
0.000000001
 43
0.00000001
 40
0.0
 40
0.0
 40
0.0
 40
0.0
 40
0.1243947234131309
 40
0.2985036126801952
 40
0.4726125019472594
 40
0.646721391214324
 40
0.8208302804813887
 40
0.9949391697484538
 40
1.0
 40
1.0
 40
1.0
 40
1.0
 10
9.99999999999999
 20
3.895046600905971
 30
0.0
 10
9.99999999999999
 20
3.752957804924927
 30
0.0
 10
9.99999999999999
 20
3.411994637372723
 30
0.0
 10
9.999999999999993
 20
2.939376137127241
 30
0.0
 10
9.999999999999993
 20
2.50071221939833
 30
0.0
 10
9.999999999999993
 20
2.161540915966822
 30
0.0
 10
9.999999999999995
 20
1.943686197896098
 30
0.0
 10
9.999999999999986
 20
1.841362653400172
 30
0.0
 10
9.999999999999993
 20
1.84450773733858
 30
0.0
 10
9.999999999999993
 20
1.844596573420826
 30
0.0
  0
SPLINE
  5
B4
330
1F
100
AcDbEntity
  8
0
  6
Continuous
 62
     4
370
    25
100
AcDbSpline
210
0.0
220
0.0
230
1.0
 70
    24
 71
     3
 72
    12
 73
     8
 74
     0
 42
0.000000001
 43
0.00000001
 40
0.0
 40
0.0
 40
0.0
 40
0.0
 40
0.4999999999999994
 40
0.4999999999999994
 40
0.7499999999999997
 40
0.7499999999999997
 40
1.0
 40
1.0
 40
1.0
 40
1.0
 10
9.999999999999995
 20
5.947189281371784
 30
0.0
 10
9.999999999999995
 20
5.587132985610783
 30
0.0
 10
9.999999999999995
 20
5.233403427885903
 30
0.0
 10
9.999999999999993
 20
4.712674738098052
 30
0.0
 10
9.999999999999993
 20
4.541232185663328
 30
0.0
 10
9.999999999999993
 20
4.210505153738675
 30
0.0
 10
9.999999999999995
 20
4.050139732606232
 30
0.0
 10
9.999999999999995
 20
3.895046600905972
 30
0.0
  0
SPLINE
  5
B5
330
1F
100
AcDbEntity
  8
0
  6
Continuous
 62
     4
370
    25
100
AcDbSpline
210
0.0
220
0.0
230
1.0
 70
    24
 71
     3
 72
    14
 73
    10
 74
     0
 42
0.000000001
 43
0.00000001
 40
0.0
 40
0.0
 40
0.0
 40
0.0
 40
0.2499999999999999
 40
0.2499999999999999
 40
0.4999999999999999
 40
0.4999999999999999
 40
0.7499999999999998
 40
0.7499999999999998
 40
1.0
 40
1.0
 40
1.0
 40
1.0
 10
9.999999999999993
 20
-1.328980991184224
 30
0.0
 10
9.999999999999993
 20
-1.500656034302592
 30
0.0
 10
9.999999999999993
 20
-1.721192450983587
 30
0.0
 10
9.999999999999993
 20
-2.275979543061318
 30
0.0
 10
9.999999999999993
 20
-2.61089838193018
 30
0.0
 10
9.999999999999993
 20
-3.382800324067984
 30
0.0
 10
9.999999999999993
 20
-3.819835523770154
 30
0.0
 10
9.999999999999995
 20
-4.741533310494354
 30
0.0
 10
9.999999999999993
 20
-5.225080535231295
 30
0.0
 10
9.999999999999993
 20
-5.691299832471449
 30
0.0
  0
SPLINE
  5
B6
330
1F
100
AcDbEntity
  8
0
  6
Continuous
 62
     1
370
    25
100
AcDbSpline
210
0.0
220
0.0
230
1.0
 70
     8
 71
     3
 72
    27
 73
    23
 74
     0
 42
0.000000001
 43
0.00000001
 40
0.0
 40
0.0
 40
0.0
 40
0.0
 40
0.0075564787849417
 40
0.0568058754476959
 40
0.1125530067083998
 40
0.1683002991507883
 40
0.2240477614974204
 40
0.2797954024637277
 40
0.3355432307576514
 40
0.3912912550792798
 40
0.447039484120486
 40
0.5027879265645671
 40
0.5585365910858834
 40
0.6142854863495005
 40
0.6700346210108281
 40
0.7257840037152643
 40
0.7787096153875371
 40
0.8316383897350036
 40
0.8845619838520687
 40
0.9374805606894753
 40
0.9903949363801334
 40
1.0
 40
1.0
 40
1.0
 40
1.0
 10
19.18820215298402
 20
5.065969866883393
 30
0.0
 10
19.28513976221442
 20
5.099203284213401
 30
0.0
 10
20.01386883204426
 20
5.349035702099857
 30
0.0
 10
21.45772144455418
 20
5.673622937762739
 30
0.0
 10
23.52024244149096
 20
5.982249858113995
 30
0.0
 10
25.66600413489802
 20
6.030635360171916
 30
0.0
 10
27.81181062896179
 20
5.827800976846035
 30
0.0
 10
29.9576154708843
 20
5.376051585367161
 30
0.0
 10
32.10343161623852
 20
4.696268848602927
 30
0.0
 10
34.24925610806117
 20
3.816877883956287
 30
0.0
 10
36.39509022863586
 20
2.775358352950594
 30
0.0
 10
38.54093421349442
 20
1.615924408181988
 30
0.0
 10
40.68678824342884
 20
0.3878394523529871
 30
0.0
 10
42.83265376237367
 20
-0.8567208682537019
 30
0.0
 10
44.97852721371613
 20
-2.064901415547042
 30
0.0
 10
47.08818976736737
 20
-3.166385709675269
 30
0.0
 10
49.16162624836947
 20
-4.121722905873417
 30
0.0
 10
51.19886926772595
 20
-4.90106623023844
 30
0.0
 10
53.23595539281683
 20
-5.498304992199082
 30
0.0
 10
55.27282209591363
 20
-5.86435276301036
 30
0.0
 10
56.7538876072207
 20
-6.023303704293487
 30
0.0
 10
57.55599691173576
 20
-5.98829097781261
 30
0.0
 10
57.6792275578343
 20
-5.98291185942859
 30
0.0
  0
SPLINE
  5
B7
330
1F
100
AcDbEntity
  8
0
  6
Continuous
 62
     1
370
    25
100
AcDbSpline
210
0.0
220
0.0
230
1.0
 70
     8
 71
     3
 72
    22
 73
    18
 74
     0
 42
0.000000001
 43
0.00000001
 40
0.0
 40
0.0
 40
0.0
 40
0.0
 40
0.0707589876375722
 40
0.1415175949158735
 40
0.2122758327218889
 40
0.2830337119580084
 40
0.353791243541584
 40
0.4245484384044807
 40
0.495305307492624
 40
0.5660618617655556
 40
0.636818112195975
 40
0.707574069769291
 40
0.7783297454831649
 40
0.8490851503470574
 40
0.9198402953817707
 40
0.990595191618991
 40
1.0
 40
1.0
 40
1.0
 40
1.0
 10
59.99999999999999
 20
-5.850994190131568
 30
0.0
 10
59.28467838809356
 20
-5.735441961756373
 30
0.0
 10
57.85403900943472
 20
-5.504338126147734
 30
0.0
 10
55.70808853565056
 20
-4.857225633230928
 30
0.0
 10
53.56215133352115
 20
-4.02160452535026
 30
0.0
 10
51.4162272221991
 20
-3.010347599631546
 30
0.0
 10
49.27031574699144
 20
-1.872482482573455
 30
0.0
 10
47.12441652585802
 20
-0.6547231520348936
 30
0.0
 10
44.97852915668755
 20
0.5907478744472208
 30
0.0
 10
42.83265324180037
 20
1.811178514400066
 30
0.0
 10
40.68678838276244
 20
2.954526756399617
 30
0.0
 10
38.54093417673022
 20
3.972835287709395
 30
0.0
 10
36.39509023635984
 20
4.820575291055839
 30
0.0
 10
34.24925611392924
 20
5.470190838279079
 30
0.0
 10
32.10343158504248
 20
5.862522159000989
 30
0.0
 10
30.57781051530939
 20
6.030436347473374
 30
0.0
 10
29.76746464485937
 20
5.990033348130647
 30
0.0
 10
29.67239009748896
 20
5.985293030428054
 30
0.0
  0
LINE
  5
B8
330
1F
100
AcDbEntity
  8
0
  6
Continuous
 62
     1
370
    25
100
AcDbLine
 10
59.99999999999999
 20
-6.000000000000014
 30
0.0
 11
59.99999999999999
 21
-5.850994190131575
 31
0.0
  0
SPLINE
  5
B9
330
1F
100
AcDbEntity
  8
0
  6
Continuous
 62
     1
370
    25
100
AcDbSpline
210
0.0
220
0.0
230
1.0
 70
     8
 71
     3
 72
    27
 73
    23
 74
     0
 42
0.000000001
 43
0.00000001
 40
0.0
 40
0.0
 40
0.0
 40
0.0
 40
0.0111481478291408
 40
0.0668901049953233
 40
0.1226317968968866
 40
0.1783732321569032
 40
0.234114419409172
 40
0.2898553672978576
 40
0.3455960844771367
 40
0.4013365796108386
 40
0.4570768613720877
 40
0.5128169384429435
 40
0.5685568195140394
 40
0.624296513284224
 40
0.6800360284601963
 40
0.7357753737561462
 40
0.7915145578933889
 40
0.8407569337278648
 40
0.8899932706128546
 40
0.9392302427906962
 40
0.9884745223076948
 40
1.0
 40
1.0
 40
1.0
 40
1.0
 10
51.84539737400892
 20
-5.057679077432679
 30
0.0
 10
51.70233959105352
 20
-5.106967547445649
 30
0.0
 10
50.84397726316333
 20
-5.402703752666073
 30
0.0
 10
49.27031586355258
 20
-5.733898163109131
 30
0.0
 10
47.12441649462301
 20
-6.010285821380518
 30
0.0
 10
44.97852916506727
 20
-6.013016629951813
 30
0.0
 10
42.83265323951628
 20
-5.765199825077837
 30
0.0
 10
40.68678838351913
 20
-5.271142110385379
 30
0.0
 10
38.54093417598754
 20
-4.553501331163429
 30
0.0
 10
36.39509023857387
 20
-3.642319561627506
 30
0.0
 10
34.24925610581585
 20
-2.576427086522746
 30
0.0
 10
32.10343161528189
 20
-1.401075445198901
 30
0.0
 10
29.95761547695611
 20
-0.1662036675865812
 30
0.0
 10
27.81181060563125
 20
1.075720828323659
 30
0.0
 10
25.66600422214796
 20
2.2719697502563
 30
0.0
 10
23.52024211582308
 20
3.371602161009324
 30
0.0
 10
21.45772260009748
 20
4.291185700067468
 30
0.0
 10
19.47909741718387
 20
5.012701252706475
 30
0.0
 10
17.58386502243341
 20
5.541920291875015
 30
0.0
 10
15.68861437057727
 20
5.870857350807047
 30
0.0
 10
14.27718555596221
 20
6.016241294371262
 30
0.0
 10
13.49742222836544
 20
5.987564719287671
 30
0.0
 10
13.34953378433989
 20
5.98212597406973
 30
0.0
  0
SPLINE
  5
BA
330
1F
100
AcDbEntity
  8
0
  6
Continuous
 62
     1
370
    25
100
AcDbSpline
210
0.0
220
0.0
230
1.0
 70
     8
 71
     3
 72
    19
 73
    15
 74
     0
 42
0.000000001
 43
0.00000001
 40
0.0
 40
0.0
 40
0.0
 40
0.0
 40
0.0370381062536396
 40
0.1270710538043752
 40
0.217104360006711
 40
0.3071380388546049
 40
0.3971721043264219
 40
0.4872065703843574
 40
0.5726806860883068
 40
0.658159909468046
 40
0.7436307668488161
 40
0.8290935213937669
 40
0.9145494911460257
 40
0.9999999999999999
 40
0.9999999999999999
 40
0.9999999999999999
 40
0.9999999999999999
 10
35.51232280204792
 20
5.050741950792445
 30
0.0
 10
35.80657776079741
 20
5.147604007598193
 30
0.0
 10
36.81611338444412
 20
5.479920232074601
 30
0.0
 10
38.54093427805504
 20
5.814547002984989
 30
0.0
 10
40.68678822602232
 20
6.032517623406887
 30
0.0
 10
42.83265376743879
 20
5.981157493323574
 30
0.0
 10
44.97852721086236
 20
5.679206581482538
 30
0.0
 10
47.08818977356191
 20
5.144175869054608
 30
0.0
 10
49.16162622757562
 20
4.41331074216484
 30
0.0
 10
51.19886934518008
 20
3.526270376819712
 30
0.0
 10
53.23595510383824
 20
2.504003140288906
 30
0.0
 10
55.27282317423881
 20
1.386602699835921
 30
0.0
 10
57.30949708487172
 20
0.2135213109295018
 30
0.0
 10
58.66720869606991
 20
-0.5674383834149522
 30
0.0
 10
59.34604281049302
 20
-0.957905753759238
 30
0.0
  0
SPLINE
  5
BB
330
1F
100
AcDbEntity
  8
0
  6
Continuous
 62
     1
370
    25
100
AcDbSpline
210
0.0
220
0.0
230
1.0
 70
     8
 71
     3
 72
     8
 73
     4
 74
     0
 42
0.000000001
 43
0.00000001
 40
0.0
 40
0.0
 40
0.0
 40
0.0
 40
1.0
 40
1.0
 40
1.0
 40
1.0
 10
59.99999999999999
 20
-4.474290814540883
 30
0.0
 10
59.01126683977461
 20
-3.917955780000533
 30
0.0
 10
58.07855960571101
 20
-3.235662551569955
 30
0.0
 10
57.18130034237623
 20
-2.473674748217337
 30
0.0
  0
LINE
  5
BC
330
1F
100
AcDbEntity
  8
0
  6
Continuous
 62
     1
370
    25
100
AcDbLine
 10
59.99999999999999
 20
-5.850994190131575
 30
0.0
 11
59.99999999999999
 21
-4.474290814540883
 31
0.0
  0
SPLINE
  5
BD
330
1F
100
AcDbEntity
  8
0
  6
Continuous
 62
     1
370
    25
100
AcDbSpline
210
0.0
220
0.0
230
1.0
 70
    24
 71
     3
 72
    16
 73
    12
 74
     0
 42
0.000000001
 43
0.00000001
 40
0.0
 40
0.0
 40
0.0
 40
0.0
 40
0.1307541084718805
 40
0.2880923414516359
 40
0.3895347567144359
 40
0.4937467760527022
 40
0.5952731263890364
 40
0.7000513961946331
 40
0.7973003652962158
 40
0.8969080326171527
 40
1.0
 40
1.0
 40
1.0
 40
1.0
 10
59.3409882258995
 20
-0.9614450119941422
 30
0.0
 10
59.33620158136394
 20
-0.9647966565806734
 30
0.0
 10
59.32565510104251
 20
-0.9721813816033298
 30
0.0
 10
59.20245014370348
 20
-1.058450421476895
 30
0.0
 10
59.01581764188751
 20
-1.189131906123415
 30
0.0
 10
58.80231535221475
 20
-1.338627818777287
 30
0.0
 10
58.53550320387132
 20
-1.525451696333267
 30
0.0
 10
58.23209778176399
 20
-1.737898460026535
 30
0.0
 10
57.90007059433668
 20
-1.97038639955372
 30
0.0
 10
57.55028088813982
 20
-2.215311788620925
 30
0.0
 10
57.30569529020734
 20
-2.386572468030771
 30
0.0
 10
57.18130034237623
 20
-2.473674748217338
 30
0.0
  0
SPLINE
  5
BE
330
1F
100
AcDbEntity
  8
0
  6
Continuous
 62
     1
370
    25
100
AcDbSpline
210
0.0
220
0.0
230
1.0
 70
     8
 71
     3
 72
    20
 73
    16
 74
     0
 42
0.000000001
 43
0.00000001
 40
0.0
 40
0.0
 40
0.0
 40
0.0
 40
0.0495056737454769
 40
0.1336107899344011
 40
0.2177156103831067
 40
0.3018201482171168
 40
0.3859244165738001
 40
0.4700284286018276
 40
0.5541321974606218
 40
0.6284330588626007
 40
0.7027248082113698
 40
0.777017516141144
 40
0.8513212499725875
 40
0.9256460389418876
 40
1.0
 40
1.0
 40
1.0
 40
1.0
 10
35.51232280204785
 20
-5.05074195079245
 30
0.0
 10
35.09129973828062
 20
-5.183353975224787
 30
0.0
 10
33.95500121177724
 20
-5.54126037258643
 30
0.0
 10
32.10343166218183
 20
-5.872039061032064
 30
0.0
 10
29.95761546361548
 20
-6.042127949574099
 30
0.0
 10
27.81181061209409
 20
-5.945829366220472
 30
0.0
 10
25.66600420963726
 20
-5.599534648776288
 30
0.0
 10
23.52024215940289
 20
-5.014663695218762
 30
0.0
 10
21.4577224462692
 20
-4.247927926907299
 30
0.0
 10
19.47909791712756
 20
-3.356611684997936
 30
0.0
 10
17.58386314918495
 20
-2.391509335194866
 30
0.0
 10
15.68862136426086
 20
-1.346718042250628
 30
0.0
 10
13.79303361845948
 20
-0.258387650815264
 30
0.0
 10
11.89682992950331
 20
0.8431772395667564
 30
0.0
 10
10.6323593432805
 20
1.547522866479349
 30
0.0
 10
9.999999999999735
 20
1.899764779363704
 30
0.0
  0
SPLINE
  5
BF
330
1F
100
AcDbEntity
  8
0
  6
Continuous
 62
     4
370
    25
100
AcDbSpline
210
0.0
220
0.0
230
1.0
 70
    24
 71
     3
 72
    22
 73
    18
 74
     0
 42
0.000000001
 43
0.00000001
 40
0.0
 40
0.0
 40
0.0
 40
0.0
 40
0.0624999999999998
 40
0.0624999999999998
 40
0.1249999999999996
 40
0.1249999999999996
 40
0.2499999999999998
 40
0.2499999999999998
 40
0.4999999999999999
 40
0.4999999999999999
 40
0.6249999999999999
 40
0.6249999999999999
 40
0.75
 40
0.75
 40
0.875
 40
0.875
 40
1.0
 40
1.0
 40
1.0
 40
1.0
 10
9.999999999999995
 20
5.953570593710592
 30
0.0
 10
9.999999999999995
 20
5.860076061691906
 30
0.0
 10
9.999999999999995
 20
5.769528646597202
 30
0.0
 10
9.999999999999995
 20
5.594324067407535
 30
0.0
 10
9.999999999999998
 20
5.508564588885512
 30
0.0
 10
9.999999999999998
 20
5.239279878433308
 30
0.0
 10
9.999999999999998
 20
5.050251030902487
 30
0.0
 10
9.999999999999998
 20
4.459480209594522
 30
0.0
 10
9.999999999999998
 20
4.031088909738147
 30
0.0
 10
9.999999999999998
 20
3.397312451069966
 30
0.0
 10
9.999999999999998
 20
3.188243652950117
 30
0.0
 10
9.999999999999998
 20
2.793531056396744
 30
0.0
 10
9.999999999999998
 20
2.608000541221666
 30
0.0
 10
9.999999999999998
 20
2.283906105236296
 30
0.0
 10
9.999999999999998
 20
2.145565707293856
 30
0.0
 10
9.999999999999998
 20
1.938775700854265
 30
0.0
 10
9.999999999999998
 20
1.870577651581339
 30
0.0
 10
9.999999999999998
 20
1.844703807853127
 30
0.0
  0
SPLINE
  5
C0
330
1F
100
AcDbEntity
  8
0
  6
Continuous
 62
     1
370
    25
100
AcDbSpline
210
0.0
220
0.0
230
1.0
 70
     8
 71
     3
 72
    23
 73
    19
 74
     0
 42
0.000000001
 43
0.00000001
 40
0.0
 40
0.0
 40
0.0
 40
0.0
 40
0.0605020765702202
 40
0.1209804157103709
 40
0.1814416222116593
 40
0.2418938568984328
 40
0.3023453115845106
 40
0.3628041807799587
 40
0.4312397098483041
 40
0.4996754367842993
 40
0.568111372295813
 40
0.6365475270819637
 40
0.704983911832675
 40
0.7734205372282298
 40
0.8418574139388264
 40
0.9102945526241347
 40
0.9787319639328544
 40
1.0
 40
1.0
 40
1.0
 40
1.0
 10
10.00000000000005
 20
5.953570593710245
 30
0.0
 10
10.63235934328077
 20
5.889139950308242
 30
0.0
 10
11.89682992950349
 20
5.760303942271162
 30
0.0
 10
13.79303361845997
 20
5.322856686867483
 30
0.0
 10
15.68862136425994
 20
4.722971840669309
 30
0.0
 10
17.58386314918901
 20
3.962597547096264
 30
0.0
 10
19.47909791711281
 20
3.07173790599657
 30
0.0
 10
21.45772244632752
 20
2.035088908581118
 30
0.0
 10
23.52024215915311
 20
0.8747840066313193
 30
0.0
 10
25.66600421056564
 20
-0.3696143018622385
 30
0.0
 10
27.81181060863037
 20
-1.598328265307674
 30
0.0
 10
29.95761547654201
 20
-2.759050058137728
 30
0.0
 10
32.10343161393914
 20
-3.802914271095248
 30
0.0
 10
34.24925611160095
 20
-4.683900395756984
 30
0.0
 10
36.39509021677608
 20
-5.370829702769175
 30
0.0
 10
38.54093425739401
 20
-5.811196087533513
 30
0.0
 10
40.19378683561503
 20
-6.01310646524497
 30
0.0
 10
41.13135872080866
 20
-5.980394464402708
 30
0.0
 10
41.35364525137228
 20
-5.972638859430061
 30
0.0
  0
SPLINE
  5
C1
330
1F
100
AcDbEntity
  8
0
  6
Continuous
 62
     1
370
    25
100
AcDbSpline
210
0.0
220
0.0
230
1.0
 70
     8
 71
     3
 72
    14
 73
    10
 74
     0
 42
0.000000001
 43
0.00000001
 40
0.0
 40
0.0
 40
0.0
 40
0.0
 40
0.1532396237278666
 40
0.3064784237284089
 40
0.4597164235790908
 40
0.6129536468907386
 40
0.7661901173065806
 40
0.9194258585012753
 40
1.0
 40
1.0
 40
1.0
 40
1.0
 10
59.99999999999999
 20
1.328859280378007
 30
0.0
 10
59.2846783881902
 20
1.726085447794696
 30
0.0
 10
57.85403900972465
 20
2.520535647370624
 30
0.0
 10
55.70808853449082
 20
3.590228615885504
 30
0.0
 10
53.56215133787017
 20
4.510533086859696
 30
0.0
 10
51.41622720596276
 20
5.241535220908218
 30
0.0
 10
49.27031580758732
 20
5.737403829388336
 30
0.0
 10
47.46359515317155
 20
5.989641882722652
 30
0.0
 10
46.37217899353463
 20
5.973648897406517
 30
0.0
 10
45.99606178639377
 20
5.968137491956051
 30
0.0
  0
SPLINE
  5
C2
330
1F
100
AcDbEntity
  8
0
  6
Continuous
 62
     1
370
    25
100
AcDbSpline
210
0.0
220
0.0
230
1.0
 70
     8
 71
     3
 72
    12
 73
     8
 74
     0
 42
0.000000001
 43
0.00000001
 40
0.0
 40
0.0
 40
0.0
 40
0.0
 40
0.17461787460124
 40
0.3808909672322126
 40
0.5871946731885004
 40
0.7935568385619028
 40
1.0
 40
1.0
 40
1.0
 40
1.0
 10
19.18820215298402
 20
-5.065969866883399
 30
0.0
 10
18.65342580905459
 20
-5.223359924529222
 30
0.0
 10
17.48692736576896
 20
-5.566672150876903
 30
0.0
 10
15.68862099081159
 20
-5.878805699130269
 30
0.0
 10
13.7930337180824
 20
-6.026376040282073
 30
0.0
 10
11.89682990458324
 20
-5.982857193082573
 30
0.0
 10
10.63235933497272
 20
-5.788498330985716
 30
0.0
 10
9.999999999999735
 20
-5.691299832471407
 30
0.0
  0
LINE
  5
C3
330
1F
100
AcDbEntity
  8
0
  6
Continuous
 62
     1
370
    25
100
AcDbLine
 10
59.99999999999999
 20
-0.5000000000000221
 30
0.0
 11
59.99999999999999
 21
1.328859280378007
 31
0.0
  0
LINE
  5
C4
330
1F
100
AcDbEntity
  8
0
  6
Continuous
 62
     1
370
    25
100
AcDbLine
 10
59.99999999999999
 20
-0.5000000000000258
 30
0.0
 11
59.34604281049302
 21
-0.9579057537592542
 31
0.0
  0
SPLINE
  5
C5
330
1F
100
AcDbEntity
  8
0
  6
Continuous
 62
     1
370
    25
100
AcDbSpline
210
0.0
220
0.0
230
1.0
 70
     8
 71
     3
 72
    15
 73
    11
 74
     0
 42
0.000000001
 43
0.00000001
 40
0.0
 40
0.0
 40
0.0
 40
0.0
 40
0.1262010055817899
 40
0.2523524973664589
 40
0.378468252257863
 40
0.5045652928822888
 40
0.6306607065068206
 40
0.7567715860226325
 40
0.8995209439876125
 40
1.0
 40
1.0
 40
1.0
 40
1.0
 10
10.00000000000005
 20
-0.7449813324562531
 30
0.0
 10
10.63235934349333
 20
-1.104682094177954
 30
0.0
 10
11.8968299301411
 20
-1.823942492354896
 30
0.0
 10
13.79303361591099
 20
-2.835788998270356
 30
0.0
 10
15.68862137381509
 20
-3.755311671621566
 30
0.0
 10
17.58386311352219
 20
-4.549140512692922
 30
0.0
 10
19.47909805023221
 20
-5.194186852935786
 30
0.0
 10
21.45772192174262
 20
-5.679606384210208
 30
0.0
 10
23.30843153091822
 20
-5.967840927386348
 30
0.0
 10
24.52714461865332
 20
-5.971758347368776
 30
0.0
 10
25.03060200096787
 20
-5.973376656082804
 30
0.0
  0
SPLINE
  5
C6
330
1F
100
AcDbEntity
  8
0
  6
Continuous
 62
     1
370
    25
100
AcDbSpline
210
0.0
220
0.0
230
1.0
 70
     8
 71
     3
 72
    11
 73
     7
 74
     0
 42
0.000000001
 43
0.00000001
 40
0.0
 40
0.0
 40
0.0
 40
0.0
 40
0.1853944933802523
 40
0.4569498185161436
 40
0.7284835851778747
 40
1.0
 40
1.0
 40
1.0
 40
1.0
 10
51.84539737400893
 20
5.057679077432675
 30
0.0
 10
52.30893783286588
 20
5.199975297618406
 30
0.0
 10
53.45144603085819
 20
5.55069893996543
 30
0.0
 10
55.27282191218578
 20
5.869919810275283
 30
0.0
 10
57.30949740035106
 20
6.046043976126743
 30
0.0
 10
58.66720880122747
 20
5.964041224401544
 30
0.0
 10
59.34604281049303
 20
5.923041158637574
 30
0.0
  0
LINE
  5
C7
330
1F
100
AcDbEntity
  8
0
  6
Continuous
 62
     4
370
    25
100
AcDbLine
 10
9.999999999999998
 20
-0.7449813324562233
 30
0.0
 11
9.999999999999993
 21
1.89976477936267
 31
0.0
  0
LINE
  5
C8
330
1F
100
AcDbEntity
  8
0
  6
Continuous
 62
     1
370
    25
100
AcDbLine
 10
59.99999999999999
 20
5.979130371550704
 30
0.0
 11
59.99999999999999
 21
6.000000000000005
 31
0.0
  0
ELLIPSE
  5
C9
330
1F
100
AcDbEntity
  8
0
  6
Continuous
 62
     1
370
    25
100
AcDbEllipse
 10
60.71407400337105
 20
-0.0000000000000043
 30
0.0
 11
8.56888804045267
 21
5.350968460038300E-17
 31
0.0
210
0.0
220
0.0
230
1.0
 40
0.7002075382097119
 41
1.654226413405512
 42
1.731133393454129
  0
SPLINE
  5
CA
330
1F
100
AcDbEntity
  8
0
  6
Continuous
 62
     1
370
    25
100
AcDbSpline
210
0.0
220
0.0
230
1.0
 70
     8
 71
     3
 72
    20
 73
    16
 74
     0
 42
0.000000001
 43
0.00000001
 40
0.0
 40
0.0
 40
0.0
 40
0.0
 40
0.2500000000000012
 40
0.2500000000000012
 40
0.375000000000001
 40
0.375000000000001
 40
0.5000000000000008
 40
0.5000000000000008
 40
0.6250000000000006
 40
0.6250000000000006
 40
0.7500000000000004
 40
0.7500000000000004
 40
0.8750000000000002
 40
0.8750000000000002
 40
1.0
 40
1.0
 40
1.0
 40
1.0
 10
59.34604281049302
 20
5.923041158637584
 30
0.0
 10
59.35112885140027
 20
5.542534979233886
 30
0.0
 10
59.31712971161334
 20
5.169800947532965
 30
0.0
 10
59.18707733190628
 20
4.626419842655087
 30
0.0
 10
59.12953167146964
 20
4.4469111234904
 30
0.0
 10
58.9880893569288
 20
4.110784893826114
 30
0.0
 10
58.90394834380399
 20
3.952221520663261
 30
0.0
 10
58.70565846706187
 20
3.656336941975038
 30
0.0
 10
58.5945852972681
 20
3.523839668565567
 30
0.0
 10
58.35152993231176
 20
3.291097136675004
 30
0.0
 10
58.21750383993012
 20
3.189532317023824
 30
0.0
 10
57.9377562980897
 20
3.02413511992617
 30
0.0
 10
57.79214789655805
 20
2.959667403985349
 30
0.0
 10
57.490480022127
 20
2.863956824433933
 30
0.0
 10
57.33578115845351
 20
2.83339459018315
 30
0.0
 10
57.18130034237636
 20
2.818699657623621
 30
0.0
  0
SPLINE
  5
CB
330
1F
100
AcDbEntity
  8
0
  6
Continuous
 62
     1
370
    25
100
AcDbSpline
210
0.0
220
0.0
230
1.0
 70
     8
 71
     3
 72
     9
 73
     5
 74
     0
 42
0.000000001
 43
0.00000001
 40
0.0
 40
0.0
 40
0.0
 40
0.0
 40
0.5885155129044564
 40
0.9999999999999999
 40
0.9999999999999999
 40
0.9999999999999999
 40
0.9999999999999999
 10
59.99999999999999
 20
1.446523558810439
 30
0.0
 10
59.51683644656146
 20
1.701079144513171
 30
0.0
 10
58.69584950085804
 20
2.13361759102997
 30
0.0
 10
57.92680614488276
 20
2.479025742372559
 30
0.0
 10
57.61035673399504
 20
2.621155838366384
 30
0.0
  0
SPLINE
  5
CC
330
1F
100
AcDbEntity
  8
0
  6
Continuous
 62
     4
370
    25
100
AcDbSpline
210
0.0
220
0.0
230
1.0
 70
    24
 71
     3
 72
    17
 73
    13
 74
     0
 42
0.000000001
 43
0.00000001
 40
0.0
 40
0.0
 40
0.0
 40
0.0
 40
0.0236342005149017
 40
0.1385969665938712
 40
0.2535597326728408
 40
0.3685224987518094
 40
0.4834852648307781
 40
0.598448030909747
 40
0.7134107969887159
 40
0.8283735630676853
 40
0.9433363291466546
 40
1.0
 40
1.0
 40
1.0
 40
1.0
 10
10.0
 20
-0.9187286380500616
 30
0.0
 10
10.0
 20
-0.9297973243693198
 30
0.0
 10
10.0
 20
-0.9947069178654478
 30
0.0
 10
9.999999999999995
 20
-1.21859075319844
 30
0.0
 10
9.99999999999999
 20
-1.594409779334639
 30
0.0
 10
9.99999999999999
 20
-2.075926438324696
 30
0.0
 10
9.999999999999993
 20
-2.634877254558462
 30
0.0
 10
9.999999999999993
 20
-3.261329833031249
 30
0.0
 10
9.999999999999993
 20
-3.934498527520795
 30
0.0
 10
9.999999999999993
 20
-4.636614857881719
 30
0.0
 10
9.999999999999993
 20
-5.228231759004695
 30
0.0
 10
9.999999999999993
 20
-5.576362145714148
 30
0.0
 10
9.999999999999993
 20
-5.69129983246652
 30
0.0
  0
LINE
  5
CD
330
1F
100
AcDbEntity
  8
0
  6
Continuous
 62
     1
370
    25
100
AcDbLine
 10
59.99999999999999
 20
1.333758352813693
 30
0.0
 11
59.99999999999999
 21
1.446523558810439
 31
0.0
  0
LINE
  5
CE
330
1F
100
AcDbEntity
  8
0
  6
Continuous
 62
     1
370
    25
100
AcDbLine
 10
59.99999999999999
 20
-0.5000000000000012
 30
0.0
 11
59.99999999999999
 21
-4.474290814540883
 31
0.0
  0
LINE
  5
CF
330
1F
100
AcDbEntity
  8
0
  6
Continuous
 62
     1
370
    25
100
AcDbLine
 10
59.99999999999999
 20
1.446523558810439
 30
0.0
 11
59.99999999999999
 21
5.979130371550704
 31
0.0
  0
LINE
  5
D0
330
1F
100
AcDbEntity
  8
중심선
100
AcDbLine
 10
-43.0
 20
-0.0000000000000096
 30
0.0
 11
63.00000000000001
 21
0.0000000000000096
 31
0.0
  0
CIRCLE
  5
D1
330
1F
100
AcDbEntity
  8
해칭선
100
AcDbCircle
 10
0.0000419624633218
 20
-0.0000000000000043
 30
0.0
 40
3.000000000000003
  0
INSERT
  5
D2
330
1F
100
AcDbEntity
  8
0
  6
Continuous
 62
     7
100
AcDbBlockReference
 66
     1
  2
블럭10
 10
-2.440099248941783
 20
-52.04717430164393
 30
0.0
  0
ATTRIB
  5
D3
330
D2
100
AcDbEntity
  8
FORMAT
 62
     2
100
AcDbText
 10
-18.55936028837734
 20
-49.97180738881174
 30
0.0
 40
4.233333333333333
  1
SEME7212050E [ 4 FLUTE ]
 41
0.75
  7
SLDTEXTSTYLE0
 11
-18.55936028837734
 21
-52.08847405547841
 31
0.0
100
AcDbAttribute
  2
AUTOATTR0
 70
     0
 74
     1
  0
SEQEND
  5
D4
330
D2
100
AcDbEntity
  8
0
  6
Continuous
 62
     7
  0
HATCH
  5
D5
330
1F
100
AcDbEntity
  8
중심선
100
AcDbHatch
 10
0.0
 20
0.0
 30
0.0
210
0.0
220
0.0
230
1.0
  2
SOLID
 70
     1
 71
     0
 91
        1
 92
        0
 93
        4
 72
     1
 10
3.274810055439059
 20
-35.8
 11
-0.1714651883982232
 21
-35.8
 72
     1
 10
-0.1714651883982232
 20
-35.8
 11
-2.299695047602246
 21
-38.33632558057257
 72
     1
 10
-2.299695047602246
 20
-38.33632558057257
 11
1.146613281348186
 21
-38.33628615127008
 72
     1
 10
1.146613281348186
 20
-38.33628615127008
 11
3.274810055439059
 21
-35.8
 97
        0
 75
     0
 76
     1
 98
        1
 10
0.0
 20
0.0
  0
HATCH
  5
D6
330
1F
100
AcDbEntity
  8
중심선
100
AcDbHatch
 10
0.0
 20
0.0
 30
0.0
210
0.0
220
0.0
230
1.0
  2
SOLID
 70
     1
 71
     0
 91
        1
 92
        0
 93
        4
 72
     1
 10
8.287574046475065
 20
-35.79999999999997
 11
4.841298802637755
 21
-35.79999999999997
 72
     1
 10
4.841298802637755
 20
-35.79999999999997
 11
0.3101607942803399
 21
-41.20000000000002
 72
     1
 10
0.3101607942803397
 20
-41.20000000000002
 11
3.756436038117622
 21
-41.20000000000002
 72
     1
 10
3.756436038117622
 20
-41.20000000000002
 11
8.287574046475065
 21
-35.79999999999997
 97
        0
 75
     0
 76
     1
 98
        1
 10
0.0
 20
0.0
  0
HATCH
  5
D7
330
1F
100
AcDbEntity
  8
중심선
100
AcDbHatch
 10
0.0
 20
0.0
 30
0.0
210
0.0
220
0.0
230
1.0
  2
SOLID
 70
     1
 71
     0
 91
        1
 92
        0
 93
        4
 72
     1
 10
13.30033803751093
 20
-35.79999999999997
 11
9.854062793673817
 21
-35.79999999999997
 72
     1
 10
9.854062793673817
 20
-35.79999999999997
 11
2.805625891784541
 21
-44.20000000000002
 72
     1
 10
2.805625891784541
 20
-44.20000000000002
 11
6.251901135621823
 21
-44.20000000000002
 72
     1
 10
6.251901135621823
 20
-44.20000000000002
 11
13.30033803751093
 21
-35.79999999999997
 97
        0
 75
     0
 76
     1
 98
        1
 10
0.0
 20
0.0
  0
HATCH
  5
D8
330
1F
100
AcDbEntity
  8
중심선
100
AcDbHatch
 10
0.0
 20
0.0
 30
0.0
210
0.0
220
0.0
230
1.0
  2
SOLID
 70
     1
 71
     0
 91
        1
 92
        0
 93
        6
 72
     3
 10
18.10022846852311
 20
-40.00000000005127
 11
3.960054785062284
 21
1.540850780301639E-10
 40
0.3939339440162633
 50
17.09539180608434
 51
320.0019657685081
 73
     0
 72
     1
 10
19.78322812422367
 20
-38.58789400463833
 11
22.08852999792474
 21
-36.65356729459038
 72
     3
 10
18.10022846847026
 20
-40.00000000000015
 11
6.600054785286829
 21
-1.249000902703301E-13
 40
0.6363583540795982
 50
39.9987384933741
 51
368.4976242363725
 73
     1
 72
     1
 10
24.52556096037087
 20
-39.03999999993002
 11
16.78029577530618
 21
-39.03999999993002
 72
     1
 10
16.78029577530618
 20
-39.03999999993002
 11
16.78027073086025
 21
-40.95999999992991
 72
     1
 10
16.78027073086025
 20
-40.95999999992991
 11
21.22165050033228
 21
-40.95999999992988
 97
        0
 75
     0
 76
     1
 98
        1
 10
0.0
 20
0.0
  0
DIMENSION
  5
D9
330
1F
100
AcDbEntity
  8
치수문자_일반주서
100
AcDbDimension
  2
_D
 10
74.96865026832582
 20
6.000000000000052
 30
0.0
 11
74.96865026832577
 21
16.54150000000005
 31
0.0
 70
   160
  1
%%c<>
 71
     2
 42
12.00000000000001
 52
-270.0
  3
SLDDIMSTYLE0
100
AcDbAlignedDimension
 13
59.99999999999999
 23
-6.000000000000008
 33
0.0
 14
59.99999999999999
 24
5.999999999999997
 34
0.0
 50
90.0000000000002
100
AcDbRotatedDimension
  0
DIMENSION
  5
E7
330
1F
100
AcDbEntity
  8
치수문자_일반주서
100
AcDbDimension
  2
_D_1
 10
60.0
 20
23.38913260158164
 30
0.0
 11
9.999999999999996
 21
23.38913260158164
 31
0.0
 70
   160
  1
<>
 71
     2
 42
100.0
  3
SLDDIMSTYLE1
100
AcDbAlignedDimension
 13
-40.00000000000001
 23
5.49999999999999
 33
0.0
 14
59.99999999999999
 24
6.000000000000005
 34
0.0
 50
-0.0000000000000041
100
AcDbRotatedDimension
  0
DIMENSION
  5
F2
330
1F
100
AcDbEntity
  8
치수문자_일반주서
100
AcDbDimension
  2
_D_2
 10
-52.16291755254384
 20
-6.00000000000006
 30
0.0
 11
-52.16291755254392
 21
16.54149999999996
 31
0.0
 70
   160
  1
%%c<>
 71
     2
 42
12.00000000000001
 52
-270.0
  3
SLDDIMSTYLE2
100
AcDbAlignedDimension
 13
-39.49999999999999
 23
6.000000000000001
 33
0.0
 14
-39.49999999999999
 24
-6.00000000000001
 34
0.0
 50
90.0000000000002
100
AcDbRotatedDimension
  0
DIMENSION
  5
100
330
1F
100
AcDbEntity
  8
치수문자_일반주서
100
AcDbDimension
  2
_D_3
 10
59.99999999999999
 20
16.79948889629795
 30
0.0
 11
35.00000000000001
 21
16.79948889629795
 31
0.0
 70
   160
  1
<>
 71
     2
 42
49.99999999999999
  3
SLDDIMSTYLE1
100
AcDbAlignedDimension
 13
9.999999999999998
 23
5.953570593710305
 33
0.0
 14
59.99999999999999
 24
6.000000000000005
 34
0.0
 50
-0.0000000000000204
100
AcDbRotatedDimension
  0
INSERT
  5
110
330
1F
100
AcDbEntity
  8
해칭선
100
AcDbBlockReference
  2
SW_DOWELSYMBOL_0
 10
0.0000419624633218
 20
-0.0000000000000043
 30
0.0
  0
ENDSEC
  0
SECTION
  2
OBJECTS
  0
DICTIONARY
  5
C
330
0
100
AcDbDictionary
281
     1
  3
ACAD_GROUP
350
D
  3
ACAD_IMAGE_VARS
350
134
  3
ACAD_LAYOUT
350
1A
  3
ACAD_MLINESTYLE
350
17
  3
ACAD_PLOTSETTINGS
350
19
  3
ACAD_PLOTSTYLENAME
350
E
  3
ACAD_SCALELIST
350
47
  3
APPDATA
350
132
  3
DWGPROPS
350
143
  0
DICTIONARY
  5
D
102
{ACAD_REACTORS
330
C
102
}
330
C
100
AcDbDictionary
281
     1
  0
RASTERVARIABLES
  5
134
102
{ACAD_REACTORS
330
C
102
}
330
C
100
AcDbRasterVariables
 90
        0
 70
     1
 71
     1
 72
     1
  0
DICTIONARY
  5
1A
102
{ACAD_REACTORS
330
C
102
}
330
C
100
AcDbDictionary
281
     1
  3
Layout1
350
1E
  3
Layout2
350
26
  3
Model
350
22
  0
DICTIONARY
  5
17
102
{ACAD_REACTORS
330
C
102
}
330
C
100
AcDbDictionary
281
     1
  3
Standard
350
18
  0
DICTIONARY
  5
19
102
{ACAD_REACTORS
330
C
102
}
330
C
100
AcDbDictionary
281
     1
  0
ACDBDICTIONARYWDFLT
  5
E
102
{ACAD_REACTORS
330
C
102
}
330
C
100
AcDbDictionary
281
     1
  3
Normal
350
F
100
AcDbDictionaryWithDefault
340
F
  0
DICTIONARY
  5
47
102
{ACAD_REACTORS
330
C
102
}
330
C
100
AcDbDictionary
281
     1
  3
A0
350
48
  3
A1
350
49
  3
A2
350
4A
  3
A3
350
4B
  3
A4
350
4C
  3
A5
350
4D
  3
A6
350
4E
  3
A7
350
4F
  3
A8
350
50
  3
A9
350
51
  3
B0
350
52
  3
B1
350
53
  3
B2
350
54
  3
B3
350
55
  3
B4
350
56
  3
B5
350
57
  3
B6
350
58
  3
B7
350
59
  3
B8
350
5A
  3
B9
350
5B
  3
C0
350
5C
  3
C1
350
5D
  3
C2
350
5E
  3
C3
350
5F
  3
C4
350
60
  3
C5
350
61
  3
C6
350
62
  3
C7
350
63
  3
C8
350
64
  3
C9
350
65
  3
D0
350
66
  3
D1
350
67
  3
D2
350
68
  0
DICTIONARY
  5
132
102
{ACAD_REACTORS
330
C
102
}
330
C
100
AcDbDictionary
281
     1
  0
XRECORD
  5
143
102
{ACAD_REACTORS
330
C
102
}
330
C
100
AcDbXrecord
280
     1
  1
DWGPROPS COOKIE
  2

  3

  4

  6

  7

  8
12014102
  9

300
=
301
=
302
=
303
=
304
=
305
=
306
=
307
=
308
=
309
=
 40
0.0
 41
2458260.205805428
 42
2458268.212827431
  1

 90
        0
  0
LAYOUT
  5
1E
102
{ACAD_REACTORS
330
1A
102
}
330
1A
100
AcDbPlotSettings
  1

  2
none_device
  4

  6

 40
0.0
 41
0.0
 42
0.0
 43
0.0
 44
0.0
 45
0.0
 46
0.0
 47
0.0
 48
0.0
 49
0.0
140
0.0
141
0.0
142
1.0
143
1.0
 70
   688
 72
     1
 73
     0
 74
     5
  7

 75
    16
147
1.0
148
0.0
149
0.0
100
AcDbLayout
  1
Layout1
 70
     1
 71
     1
 10
0.0
 20
0.0
 11
420.0
 21
297.0
 12
0.0
 22
0.0
 32
0.0
 14
1.000000000000000E+20
 24
1.000000000000000E+20
 34
1.000000000000000E+20
 15
-1.000000000000000E+20
 25
-1.000000000000000E+20
 35
-1.000000000000000E+20
146
0.0
 13
0.0
 23
0.0
 33
0.0
 16
1.0
 26
0.0
 36
0.0
 17
0.0
 27
1.0
 37
0.0
 76
     0
330
1B
  0
LAYOUT
  5
26
102
{ACAD_REACTORS
330
1A
102
}
330
1A
100
AcDbPlotSettings
  1

  2
none_device
  4

  6

 40
0.0
 41
0.0
 42
0.0
 43
0.0
 44
0.0
 45
0.0
 46
0.0
 47
0.0
 48
0.0
 49
0.0
140
0.0
141
0.0
142
1.0
143
1.0
 70
   688
 72
     1
 73
     0
 74
     5
  7

 75
    16
147
1.0
148
0.0
149
0.0
100
AcDbLayout
  1
Layout2
 70
     1
 71
     2
 10
0.0
 20
0.0
 11
0.0
 21
0.0
 12
0.0
 22
0.0
 32
0.0
 14
0.0
 24
0.0
 34
0.0
 15
0.0
 25
0.0
 35
0.0
146
0.0
 13
0.0
 23
0.0
 33
0.0
 16
1.0
 26
0.0
 36
0.0
 17
0.0
 27
1.0
 37
0.0
 76
     0
330
23
  0
LAYOUT
  5
22
102
{ACAD_REACTORS
330
1A
102
}
330
1A
100
AcDbPlotSettings
  1

  2
none_device
  4
ANSI_A_(11.00_x_8.50_Inches)
  6

 40
6.35
 41
19.05
 42
6.35000508
 43
19.05000254
 44
279.4
 45
215.9
 46
111.0478719131386
 47
112.2969007652476
 48
0.0
 49
0.0
140
0.0
141
0.0
142
0.0807487851913164
143
1.0
 70
  1696
 72
     0
 73
     0
 74
     0
  7

 75
     0
147
0.0235690232323232
148
0.0
149
0.0
100
AcDbLayout
  1
Model
 70
     1
 71
     0
 10
0.0
 20
0.0
 11
420.0
 21
297.0
 12
0.0
 22
0.0
 32
0.0
 14
-56.53791755254393
 24
-49.97180738881174
 34
0.0
 15
75.5189836016592
 25
27.76413260158165
 35
0.0
146
0.0
 13
0.0
 23
0.0
 33
0.0
 16
1.0
 26
0.0
 36
0.0
 17
0.0
 27
1.0
 37
0.0
 76
     0
330
1F
331
29
  0
MLINESTYLE
  5
18
102
{ACAD_REACTORS
330
17
102
}
330
17
100
AcDbMlineStyle
  2
Standard
 70
     0
  3

 62
   256
 51
90.0
 52
90.0
 71
     2
 49
0.5
 62
   256
  6
BYLAYER
 49
-0.5
 62
   256
  6
BYLAYER
  0
ACDBPLACEHOLDER
  5
F
102
{ACAD_REACTORS
330
E
102
}
330
E
  0
SCALE
  5
48
102
{ACAD_REACTORS
330
47
102
}
330
47
100
AcDbScale
 70
     0
300
1:1
140
1.0
141
1.0
290
     1
  0
SCALE
  5
49
102
{ACAD_REACTORS
330
47
102
}
330
47
100
AcDbScale
 70
     0
300
1:2
140
1.0
141
2.0
290
     0
  0
SCALE
  5
4A
102
{ACAD_REACTORS
330
47
102
}
330
47
100
AcDbScale
 70
     0
300
1:4
140
1.0
141
4.0
290
     0
  0
SCALE
  5
4B
102
{ACAD_REACTORS
330
47
102
}
330
47
100
AcDbScale
 70
     0
300
1:5
140
1.0
141
5.0
290
     0
  0
SCALE
  5
4C
102
{ACAD_REACTORS
330
47
102
}
330
47
100
AcDbScale
 70
     0
300
1:8
140
1.0
141
8.0
290
     0
  0
SCALE
  5
4D
102
{ACAD_REACTORS
330
47
102
}
330
47
100
AcDbScale
 70
     0
300
1:10
140
1.0
141
10.0
290
     0
  0
SCALE
  5
4E
102
{ACAD_REACTORS
330
47
102
}
330
47
100
AcDbScale
 70
     0
300
1:16
140
1.0
141
16.0
290
     0
  0
SCALE
  5
4F
102
{ACAD_REACTORS
330
47
102
}
330
47
100
AcDbScale
 70
     0
300
1:20
140
1.0
141
20.0
290
     0
  0
SCALE
  5
50
102
{ACAD_REACTORS
330
47
102
}
330
47
100
AcDbScale
 70
     0
300
1:30
140
1.0
141
30.0
290
     0
  0
SCALE
  5
51
102
{ACAD_REACTORS
330
47
102
}
330
47
100
AcDbScale
 70
     0
300
1:40
140
1.0
141
40.0
290
     0
  0
SCALE
  5
52
102
{ACAD_REACTORS
330
47
102
}
330
47
100
AcDbScale
 70
     0
300
1:50
140
1.0
141
50.0
290
     0
  0
SCALE
  5
53
102
{ACAD_REACTORS
330
47
102
}
330
47
100
AcDbScale
 70
     0
300
1:100
140
1.0
141
100.0
290
     0
  0
SCALE
  5
54
102
{ACAD_REACTORS
330
47
102
}
330
47
100
AcDbScale
 70
     0
300
2:1
140
2.0
141
1.0
290
     0
  0
SCALE
  5
55
102
{ACAD_REACTORS
330
47
102
}
330
47
100
AcDbScale
 70
     0
300
4:1
140
4.0
141
1.0
290
     0
  0
SCALE
  5
56
102
{ACAD_REACTORS
330
47
102
}
330
47
100
AcDbScale
 70
     0
300
8:1
140
8.0
141
1.0
290
     0
  0
SCALE
  5
57
102
{ACAD_REACTORS
330
47
102
}
330
47
100
AcDbScale
 70
     0
300
10:1
140
10.0
141
1.0
290
     0
  0
SCALE
  5
58
102
{ACAD_REACTORS
330
47
102
}
330
47
100
AcDbScale
 70
     0
300
100:1
140
100.0
141
1.0
290
     0
  0
SCALE
  5
59
102
{ACAD_REACTORS
330
47
102
}
330
47
100
AcDbScale
 70
     0
300
1/128" = 1'-0"
140
0.0078125
141
12.0
290
     0
  0
SCALE
  5
5A
102
{ACAD_REACTORS
330
47
102
}
330
47
100
AcDbScale
 70
     0
300
1/64" = 1'-0"
140
0.015625
141
12.0
290
     0
  0
SCALE
  5
5B
102
{ACAD_REACTORS
330
47
102
}
330
47
100
AcDbScale
 70
     0
300
1/32" = 1'-0"
140
0.03125
141
12.0
290
     0
  0
SCALE
  5
5C
102
{ACAD_REACTORS
330
47
102
}
330
47
100
AcDbScale
 70
     0
300
1/16" = 1'-0"
140
0.0625
141
12.0
290
     0
  0
SCALE
  5
5D
102
{ACAD_REACTORS
330
47
102
}
330
47
100
AcDbScale
 70
     0
300
3/32" = 1'-0"
140
0.09375
141
12.0
290
     0
  0
SCALE
  5
5E
102
{ACAD_REACTORS
330
47
102
}
330
47
100
AcDbScale
 70
     0
300
1/8" = 1'-0"
140
0.125
141
12.0
290
     0
  0
SCALE
  5
5F
102
{ACAD_REACTORS
330
47
102
}
330
47
100
AcDbScale
 70
     0
300
3/16" = 1'-0"
140
0.1875
141
12.0
290
     0
  0
SCALE
  5
60
102
{ACAD_REACTORS
330
47
102
}
330
47
100
AcDbScale
 70
     0
300
1/4" = 1'-0"
140
0.25
141
12.0
290
     0
  0
SCALE
  5
61
102
{ACAD_REACTORS
330
47
102
}
330
47
100
AcDbScale
 70
     0
300
3/8" = 1'-0"
140
0.375
141
12.0
290
     0
  0
SCALE
  5
62
102
{ACAD_REACTORS
330
47
102
}
330
47
100
AcDbScale
 70
     0
300
1/2" = 1'-0"
140
0.5
141
12.0
290
     0
  0
SCALE
  5
63
102
{ACAD_REACTORS
330
47
102
}
330
47
100
AcDbScale
 70
     0
300
3/4" = 1'-0"
140
0.75
141
12.0
290
     0
  0
SCALE
  5
64
102
{ACAD_REACTORS
330
47
102
}
330
47
100
AcDbScale
 70
     0
300
1" = 1'-0"
140
1.0
141
12.0
290
     0
  0
SCALE
  5
65
102
{ACAD_REACTORS
330
47
102
}
330
47
100
AcDbScale
 70
     0
300
1-1/2" = 1'-0"
140
1.5
141
12.0
290
     0
  0
SCALE
  5
66
102
{ACAD_REACTORS
330
47
102
}
330
47
100
AcDbScale
 70
     0
300
3" = 1'-0"
140
3.0
141
12.0
290
     0
  0
SCALE
  5
67
102
{ACAD_REACTORS
330
47
102
}
330
47
100
AcDbScale
 70
     0
300
6" = 1'-0"
140
6.0
141
12.0
290
     0
  0
SCALE
  5
68
102
{ACAD_REACTORS
330
47
102
}
330
47
100
AcDbScale
 70
     0
300
1'-0" = 1'-0"
140
12.0
141
12.0
290
     0
  0
ENDSEC
  0
EOF
