  0
SECTION
  2
HEADER
  9
$ACADVER
  1
AC1015
  9
$ACADMAINTVER
 70
     6
  9
$DWGCODEPAGE
  3
ANSI_949
  9
$INSBASE
 10
0.0
 20
0.0
 30
0.0
  9
$EXTMIN
 10
-146.2360096676906
 20
-49.97180738881174
 30
0.0
  9
$EXTMAX
 10
84.44546710633921
 20
26.76413260158162
 30
0.0
  9
$LIMMIN
 10
0.0
 20
0.0
  9
$LIMMAX
 10
420.0
 20
297.0
  9
$ORTHOMODE
 70
     0
  9
$REGENMODE
 70
     1
  9
$FILLMODE
 70
     1
  9
$QTEXTMODE
 70
     0
  9
$MIRRTEXT
 70
     1
  9
$LTSCALE
 40
1.0
  9
$ATTMODE
 70
     1
  9
$TEXTSIZE
 40
3.5
  9
$TRACEWID
 40
1.0
  9
$TEXTSTYLE
  7
Standard
  9
$CLAYER
  8
0
  9
$CELTYPE
  6
ByLayer
  9
$CECOLOR
 62
   256
  9
$CELTSCALE
 40
1.0
  9
$DISPSILH
 70
     0
  9
$DIMSCALE
 40
1.0
  9
$DIMASZ
 40
3.302
  9
$DIMEXO
 40
1.0
  9
$DIMDLI
 40
3.75
  9
$DIMRND
 40
0.0
  9
$DIMDLE
 40
0.0
  9
$DIMEXE
 40
1.0
  9
$DIMTP
 40
0.0
  9
$DIMTM
 40
0.0
  9
$DIMTXT
 40
3.5
  9
$DIMCEN
 40
2.5
  9
$DIMTSZ
 40
0.0
  9
$DIMTOL
 70
     0
  9
$DIMLIM
 70
     0
  9
$DIMTIH
 70
     1
  9
$DIMTOH
 70
     1
  9
$DIMSE1
 70
     0
  9
$DIMSE2
 70
     0
  9
$DIMTAD
 70
     1
  9
$DIMZIN
 70
     0
  9
$DIMBLK
  1

  9
$DIMASO
 70
     1
  9
$DIMSHO
 70
     1
  9
$DIMPOST
  1

  9
$DIMAPOST
  1

  9
$DIMALT
 70
     0
  9
$DIMALTD
 70
     3
  9
$DIMALTF
 40
0.0393700787401575
  9
$DIMLFAC
 40
1.0
  9
$DIMTOFL
 70
     1
  9
$DIMTVP
 40
0.0
  9
$DIMTIX
 70
     0
  9
$DIMSOXD
 70
     0
  9
$DIMSAH
 70
     0
  9
$DIMBLK1
  1

  9
$DIMBLK2
  1

  9
$DIMSTYLE
  2
ISO-25
  9
$DIMCLRD
 70
     0
  9
$DIMCLRE
 70
     0
  9
$DIMCLRT
 70
     0
  9
$DIMTFAC
 40
1.0
  9
$DIMGAP
 40
1.524
  9
$DIMJUST
 70
     0
  9
$DIMSD1
 70
     0
  9
$DIMSD2
 70
     0
  9
$DIMTOLJ
 70
     0
  9
$DIMTZIN
 70
     0
  9
$DIMALTZ
 70
     0
  9
$DIMALTTZ
 70
     0
  9
$DIMUPT
 70
     0
  9
$DIMDEC
 70
     2
  9
$DIMTDEC
 70
     2
  9
$DIMALTU
 70
     2
  9
$DIMALTTD
 70
     3
  9
$DIMTXSTY
  7
Standard
  9
$DIMAUNIT
 70
     0
  9
$DIMADEC
 70
     2
  9
$DIMALTRND
 40
0.0
  9
$DIMAZIN
 70
     0
  9
$DIMDSEP
 70
    44
  9
$DIMATFIT
 70
     3
  9
$DIMFRAC
 70
     0
  9
$DIMLDRBLK
  1

  9
$DIMLUNIT
 70
     2
  9
$DIMLWD
 70
    -2
  9
$DIMLWE
 70
    -2
  9
$DIMTMOVE
 70
     0
  9
$LUNITS
 70
     2
  9
$LUPREC
 70
     2
  9
$SKETCHINC
 40
1.0
  9
$FILLETRAD
 40
10.0
  9
$AUNITS
 70
     0
  9
$AUPREC
 70
     2
  9
$MENU
  1
.
  9
$ELEVATION
 40
0.0
  9
$PELEVATION
 40
0.0
  9
$THICKNESS
 40
0.0
  9
$LIMCHECK
 70
     0
  9
$CHAMFERA
 40
0.0
  9
$CHAMFERB
 40
0.0
  9
$CHAMFERC
 40
0.0
  9
$CHAMFERD
 40
0.0
  9
$SKPOLY
 70
     0
  9
$TDCREATE
 40
2458260.579481956
  9
$TDUCREATE
 40
2458260.204481956
  9
$TDUPDATE
 40
2458268.651933762
  9
$TDUUPDATE
 40
2458268.276933762
  9
$TDINDWG
 40
0.0046693287
  9
$TDUSRTIMER
 40
2458268.272264479
  9
$USRTIMER
 70
     1
  9
$ANGBASE
 50
0.0
  9
$ANGDIR
 70
     0
  9
$PDMODE
 70
     0
  9
$PDSIZE
 40
-1.0
  9
$PLINEWID
 40
0.0
  9
$SPLFRAME
 70
     0
  9
$SPLINETYPE
 70
     6
  9
$SPLINESEGS
 70
     8
  9
$HANDSEED
  5
149
  9
$SURFTAB1
 70
     6
  9
$SURFTAB2
 70
     6
  9
$SURFTYPE
 70
     6
  9
$SURFU
 70
     6
  9
$SURFV
 70
     6
  9
$UCSBASE
  2

  9
$UCSNAME
  2

  9
$UCSORG
 10
0.0
 20
0.0
 30
0.0
  9
$UCSXDIR
 10
1.0
 20
0.0
 30
0.0
  9
$UCSYDIR
 10
0.0
 20
1.0
 30
0.0
  9
$UCSORTHOREF
  2

  9
$UCSORTHOVIEW
 70
     0
  9
$UCSORGTOP
 10
0.0
 20
0.0
 30
0.0
  9
$UCSORGBOTTOM
 10
0.0
 20
0.0
 30
0.0
  9
$UCSORGLEFT
 10
0.0
 20
0.0
 30
0.0
  9
$UCSORGRIGHT
 10
0.0
 20
0.0
 30
0.0
  9
$UCSORGFRONT
 10
0.0
 20
0.0
 30
0.0
  9
$UCSORGBACK
 10
0.0
 20
0.0
 30
0.0
  9
$PUCSBASE
  2

  9
$PUCSNAME
  2

  9
$PUCSORG
 10
0.0
 20
0.0
 30
0.0
  9
$PUCSXDIR
 10
1.0
 20
0.0
 30
0.0
  9
$PUCSYDIR
 10
0.0
 20
1.0
 30
0.0
  9
$PUCSORTHOREF
  2

  9
$PUCSORTHOVIEW
 70
     0
  9
$PUCSORGTOP
 10
0.0
 20
0.0
 30
0.0
  9
$PUCSORGBOTTOM
 10
0.0
 20
0.0
 30
0.0
  9
$PUCSORGLEFT
 10
0.0
 20
0.0
 30
0.0
  9
$PUCSORGRIGHT
 10
0.0
 20
0.0
 30
0.0
  9
$PUCSORGFRONT
 10
0.0
 20
0.0
 30
0.0
  9
$PUCSORGBACK
 10
0.0
 20
0.0
 30
0.0
  9
$USERI1
 70
     0
  9
$USERI2
 70
     0
  9
$USERI3
 70
     0
  9
$USERI4
 70
     0
  9
$USERI5
 70
     0
  9
$USERR1
 40
0.0
  9
$USERR2
 40
0.0
  9
$USERR3
 40
0.0
  9
$USERR4
 40
0.0
  9
$USERR5
 40
0.0
  9
$WORLDVIEW
 70
     1
  9
$SHADEDGE
 70
     3
  9
$SHADEDIF
 70
    70
  9
$TILEMODE
 70
     1
  9
$MAXACTVP
 70
    64
  9
$PINSBASE
 10
0.0
 20
0.0
 30
0.0
  9
$PLIMCHECK
 70
     0
  9
$PEXTMIN
 10
1.000000000000000E+20
 20
1.000000000000000E+20
 30
1.000000000000000E+20
  9
$PEXTMAX
 10
-1.000000000000000E+20
 20
-1.000000000000000E+20
 30
-1.000000000000000E+20
  9
$PLIMMIN
 10
0.0
 20
0.0
  9
$PLIMMAX
 10
0.0
 20
0.0
  9
$UNITMODE
 70
     0
  9
$VISRETAIN
 70
     1
  9
$PLINEGEN
 70
     0
  9
$PSLTSCALE
 70
     1
  9
$TREEDEPTH
 70
  3020
  9
$CMLSTYLE
  2
Standard
  9
$CMLJUST
 70
     0
  9
$CMLSCALE
 40
20.0
  9
$PROXYGRAPHICS
 70
     1
  9
$MEASUREMENT
 70
     1
  9
$CELWEIGHT
370
    -1
  9
$ENDCAPS
280
     0
  9
$JOINSTYLE
280
     0
  9
$LWDISPLAY
290
     1
  9
$INSUNITS
 70
     4
  9
$HYPERLINKBASE
  1

  9
$STYLESHEET
  1

  9
$XEDIT
290
     1
  9
$CEPSNTYPE
380
     0
  9
$PSTYLEMODE
290
     1
  9
$FINGERPRINTGUID
  2
{A2D831F3-7213-4E2A-89EA-4872E35E1AE2}
  9
$VERSIONGUID
  2
{FAEB1C32-E019-11D5-929B-00C0DF256EC4}
  9
$EXTNAMES
290
     1
  9
$PSVPSCALE
 40
0.0
  9
$OLESTARTUP
290
     0
  0
ENDSEC
  0
SECTION
  2
CLASSES
  0
CLASS
  1
ACDBDICTIONARYWDFLT
  2
AcDbDictionaryWithDefault
  3
ObjectDBX Classes
 90
        0
280
     0
281
     0
  0
CLASS
  1
VISUALSTYLE
  2
AcDbVisualStyle
  3
ObjectDBX Classes
 90
     4095
280
     0
281
     0
  0
CLASS
  1
MATERIAL
  2
AcDbMaterial
  3
ObjectDBX Classes
 90
     1153
280
     0
281
     0
  0
CLASS
  1
SCALE
  2
AcDbScale
  3
ObjectDBX Classes
 90
     1153
280
     0
281
     0
  0
CLASS
  1
TABLESTYLE
  2
AcDbTableStyle
  3
ObjectDBX Classes
 90
     4095
280
     0
281
     0
  0
CLASS
  1
MLEADERSTYLE
  2
AcDbMLeaderStyle
  3
ACDB_MLEADERSTYLE_CLASS
 90
     4095
280
     0
281
     0
  0
CLASS
  1
SUN
  2
AcDbSun
  3
SCENEOE
 90
     1153
280
     0
281
     0
  0
CLASS
  1
ACDBPLACEHOLDER
  2
AcDbPlaceHolder
  3
ObjectDBX Classes
 90
        0
280
     0
281
     0
  0
CLASS
  1
LAYOUT
  2
AcDbLayout
  3
ObjectDBX Classes
 90
        0
280
     0
281
     0
  0
CLASS
  1
RASTERVARIABLES
  2
AcDbRasterVariables
  3
ISM
 90
        0
280
     0
281
     0
  0
ENDSEC
  0
SECTION
  2
TABLES
  0
TABLE
  2
VPORT
  5
8
330
0
100
AcDbSymbolTable
 70
     1
  0
VPORT
  5
29
330
8
100
AcDbSymbolTableRecord
100
AcDbViewportTableRecord
  2
*Active
 70
     0
 10
0.0
 20
0.0
 11
1.0
 21
1.0
 12
-30.89527128067569
 22
-11.60383739361506
 13
0.0
 23
0.0
 14
10.0
 24
10.0
 15
10.0
 25
10.0
 16
0.0
 26
0.0
 36
1.0
 17
0.0
 27
0.0
 37
0.0
 40
135.8079137088449
 41
1.732558139534884
 42
50.0
 43
0.0
 44
0.0
 50
0.0
 51
0.0
 71
    16
 72
  2000
 73
     1
 74
     3
 75
     0
 76
     0
 77
     0
 78
     0
281
     0
 65
     1
110
0.0
120
0.0
130
0.0
111
1.0
121
0.0
131
0.0
112
0.0
122
1.0
132
0.0
 79
     0
146
0.0
  0
ENDTAB
  0
TABLE
  2
LTYPE
  5
5
330
0
100
AcDbSymbolTable
 70
     6
  0
LTYPE
  5
14
330
5
100
AcDbSymbolTableRecord
100
AcDbLinetypeTableRecord
  2
ByBlock
 70
     0
  3

 72
    65
 73
     0
 40
0.0
  0
LTYPE
  5
15
330
5
100
AcDbSymbolTableRecord
100
AcDbLinetypeTableRecord
  2
ByLayer
 70
     0
  3

 72
    65
 73
     0
 40
0.0
  0
LTYPE
  5
16
330
5
100
AcDbSymbolTableRecord
100
AcDbLinetypeTableRecord
  2
Continuous
 70
     0
  3
Solid line
 72
    65
 73
     0
 40
0.0
  0
LTYPE
  5
6E
330
5
100
AcDbSymbolTableRecord
100
AcDbLinetypeTableRecord
  2
HIDDEN
 70
     0
  3
Hidden __ __ __ __ __ __ __ __ __ __ __ __ __ __
 72
    65
 73
     2
 40
1.905
 49
1.27
 74
     0
 49
-0.635
 74
     0
  0
LTYPE
  5
6F
330
5
100
AcDbSymbolTableRecord
100
AcDbLinetypeTableRecord
  2
PHANTOM
 70
     0
  3
Phantom ______  __  __  ______  __  __  ______
 72
    65
 73
     6
 40
12.7
 49
6.35
 74
     0
 49
-1.27
 74
     0
 49
1.27
 74
     0
 49
-1.27
 74
     0
 49
1.27
 74
     0
 49
-1.27
 74
     0
  0
LTYPE
  5
70
330
5
100
AcDbSymbolTableRecord
100
AcDbLinetypeTableRecord
  2
CENTER
 70
     0
  3
Center ____ _ ____ _ ____ _ ____ _ ____ _ ____
 72
    65
 73
     4
 40
10.16
 49
6.35
 74
     0
 49
-1.27
 74
     0
 49
1.27
 74
     0
 49
-1.27
 74
     0
  0
LTYPE
  5
71
330
5
100
AcDbSymbolTableRecord
100
AcDbLinetypeTableRecord
  2
CENTERX2
 70
     0
  3
Center (2x) ________  __  ________  __  _____
 72
    65
 73
     4
 40
20.32
 49
12.7
 74
     0
 49
-2.54
 74
     0
 49
2.54
 74
     0
 49
-2.54
 74
     0
  0
LTYPE
  5
72
330
5
100
AcDbSymbolTableRecord
100
AcDbLinetypeTableRecord
  2
DOT2
 70
     0
  3
Dot (.5x) ........................................
 72
    65
 73
     2
 40
0.635
 49
0.0
 74
     0
 49
-0.635
 74
     0
  0
ENDTAB
  0
TABLE
  2
LAYER
  5
2
330
0
100
AcDbSymbolTable
 70
    17
  0
LAYER
  5
10
330
2
100
AcDbSymbolTableRecord
100
AcDbLayerTableRecord
  2
0
 70
     0
 62
     7
  6
Continuous
370
    -3
390
F
  0
LAYER
  5
73
330
2
100
AcDbSymbolTableRecord
100
AcDbLayerTableRecord
  2
FORMAT
 70
     0
 62
     2
  6
Continuous
370
    -3
390
F
  0
LAYER
  5
74
330
2
100
AcDbSymbolTableRecord
100
AcDbLayerTableRecord
  2
외형선
 70
     0
 62
   100
  6
Continuous
370
    35
390
F
  0
LAYER
  5
75
330
2
100
AcDbSymbolTableRecord
100
AcDbLayerTableRecord
  2
숨은선
 70
     0
 62
     2
  6
HIDDEN
370
    25
390
F
  0
LAYER
  5
76
330
2
100
AcDbSymbolTableRecord
100
AcDbLayerTableRecord
  2
중심선
 70
     0
 62
     1
  6
CENTERX2
370
    -3
390
F
  0
LAYER
  5
77
330
2
100
AcDbSymbolTableRecord
100
AcDbLayerTableRecord
  2
파단선
 70
     0
 62
     4
  6
Continuous
370
    -3
390
F
  0
LAYER
  5
78
330
2
100
AcDbSymbolTableRecord
100
AcDbLayerTableRecord
  2
해칭선
 70
     0
 62
   100
  6
Continuous
370
    -3
390
F
  0
LAYER
  5
79
330
2
100
AcDbSymbolTableRecord
100
AcDbLayerTableRecord
  2
가는실선
 70
     0
 62
     4
  6
Continuous
370
    -3
390
F
  0
LAYER
  5
7A
330
2
100
AcDbSymbolTableRecord
100
AcDbLayerTableRecord
  2
치수_보조선
 70
     0
 62
     4
  6
Continuous
370
    -3
390
F
  0
LAYER
  5
7B
330
2
100
AcDbSymbolTableRecord
100
AcDbLayerTableRecord
  2
치수문자_일반주서
 70
     0
 62
     7
  6
Continuous
370
    25
390
F
  0
LAYER
  5
7C
330
2
100
AcDbSymbolTableRecord
100
AcDbLayerTableRecord
  2
개별주서
 70
     0
 62
   100
  6
Continuous
370
    35
390
F
  0
LAYER
  5
7D
330
2
100
AcDbSymbolTableRecord
100
AcDbLayerTableRecord
  2
중간선
 70
     0
 62
     2
  6
Continuous
370
    25
390
F
  0
LAYER
  5
7E
330
2
100
AcDbSymbolTableRecord
100
AcDbLayerTableRecord
  2
윤곽선
 70
     0
 62
     3
  6
Continuous
370
    50
390
F
  0
LAYER
  5
7F
330
2
100
AcDbSymbolTableRecord
100
AcDbLayerTableRecord
  2
중심마크
 70
     0
 62
   100
  6
Continuous
370
    35
390
F
  0
LAYER
  5
80
330
2
100
AcDbSymbolTableRecord
100
AcDbLayerTableRecord
  2
가상선
 70
     0
 62
     4
  6
PHANTOM
370
    -3
390
F
  0
LAYER
  5
81
330
2
100
AcDbSymbolTableRecord
100
AcDbLayerTableRecord
  2
특수지정선
 70
     0
 62
     5
  6
CENTERX2
370
    70
390
F
  0
LAYER
  5
13A
330
2
100
AcDbSymbolTableRecord
100
AcDbLayerTableRecord
  2
Defpoints
 70
     0
 62
     7
  6
Continuous
290
     0
370
    -3
390
F
  0
ENDTAB
  0
TABLE
  2
STYLE
  5
3
330
0
100
AcDbSymbolTable
 70
     2
  0
STYLE
  5
11
330
3
100
AcDbSymbolTableRecord
100
AcDbTextStyleTableRecord
  2
Standard
 70
     0
 40
0.0
 41
1.0
 50
0.0
 71
     0
 42
3.5
  3
txt
  4

  0
STYLE
  5
97
330
3
100
AcDbSymbolTableRecord
100
AcDbTextStyleTableRecord
  2
SLDTEXTSTYLE0
 70
     0
 40
0.0
 41
0.75
 50
0.0
 71
     0
 42
3.5
  3
TXT
  4

  0
ENDTAB
  0
TABLE
  2
VIEW
  5
6
330
0
100
AcDbSymbolTable
 70
     0
  0
ENDTAB
  0
TABLE
  2
UCS
  5
7
330
0
100
AcDbSymbolTable
 70
     0
  0
ENDTAB
  0
TABLE
  2
APPID
  5
9
330
0
100
AcDbSymbolTable
 70
     1
  0
APPID
  5
12
330
9
100
AcDbSymbolTableRecord
100
AcDbRegAppTableRecord
  2
ACAD
 70
     0
  0
ENDTAB
  0
TABLE
  2
DIMSTYLE
  5
A
330
0
100
AcDbSymbolTable
 70
     4
100
AcDbDimStyleTable
  0
DIMSTYLE
105
27
330
A
100
AcDbSymbolTableRecord
100
AcDbDimStyleTableRecord
  2
ISO-25
 70
     0
 41
2.5
 42
0.625
 43
3.75
 44
1.25
 73
     0
 74
     0
 77
     1
 78
     8
140
2.5
141
2.5
143
0.03937007874016
147
0.625
171
     3
172
     1
178
     0
271
     2
272
     2
274
     3
278
    44
283
     0
284
     8
340
11
  0
DIMSTYLE
105
DF
102
{ACAD_REACTORS
330
DE
102
}
330
A
100
AcDbSymbolTableRecord
100
AcDbDimStyleTableRecord
  2
SLDDIMSTYLE0
 70
     0
 41
3.302
 44
0.0
 45
0.000000001
 73
     0
 74
     0
 77
     1
 78
    12
 79
     3
140
3.5
147
0.875
172
     1
173
     1
178
     0
271
     1
272
     1
276
     2
284
    12
289
     0
340
97
  0
DIMSTYLE
105
ED
102
{ACAD_REACTORS
330
EC
330
105
102
}
330
A
100
AcDbSymbolTableRecord
100
AcDbDimStyleTableRecord
  2
SLDDIMSTYLE1
 70
     0
 41
3.302
 44
0.0
 45
0.000000001
 73
     0
 74
     0
 77
     1
 78
    12
 79
     3
140
3.5
147
0.875
173
     1
178
     0
271
     2
272
     2
276
     2
284
    12
340
97
  0
DIMSTYLE
105
F8
102
{ACAD_REACTORS
330
F7
102
}
330
A
100
AcDbSymbolTableRecord
100
AcDbDimStyleTableRecord
  2
SLDDIMSTYLE2
 70
     0
 41
3.302
 44
0.0
 45
0.000000001
 73
     0
 74
     0
 77
     1
 78
    12
 79
     3
140
3.5
147
0.875
172
     1
173
     1
178
     0
271
     2
272
     2
276
     2
284
    12
289
     0
340
97
  0
ENDTAB
  0
TABLE
  2
BLOCK_RECORD
  5
1
330
0
100
AcDbSymbolTable
 70
     7
  0
BLOCK_RECORD
  5
1F
330
1
100
AcDbSymbolTableRecord
100
AcDbBlockTableRecord
  2
*Model_Space
340
22
  0
BLOCK_RECORD
  5
1B
330
1
100
AcDbSymbolTableRecord
100
AcDbBlockTableRecord
  2
*Paper_Space
340
1E
  0
BLOCK_RECORD
  5
23
330
1
100
AcDbSymbolTableRecord
100
AcDbBlockTableRecord
  2
*Paper_Space0
340
26
  0
BLOCK_RECORD
  5
82
330
1
100
AcDbSymbolTableRecord
100
AcDbBlockTableRecord
  2
블럭10
340
0
102
{BLKREFS
331
D7
102
}
  0
BLOCK_RECORD
  5
E0
330
1
100
AcDbSymbolTableRecord
100
AcDbBlockTableRecord
  2
_D
340
0
  0
BLOCK_RECORD
  5
EE
330
1
100
AcDbSymbolTableRecord
100
AcDbBlockTableRecord
  2
_D_1
340
0
  0
BLOCK_RECORD
  5
F9
330
1
100
AcDbSymbolTableRecord
100
AcDbBlockTableRecord
  2
_D_2
340
0
  0
BLOCK_RECORD
  5
106
330
1
100
AcDbSymbolTableRecord
100
AcDbBlockTableRecord
  2
_D_3
340
0
  0
BLOCK_RECORD
  5
10F
330
1
100
AcDbSymbolTableRecord
100
AcDbBlockTableRecord
  2
SW_DOWELSYMBOL_0
340
0
102
{BLKREFS
331
115
102
}
  0
ENDTAB
  0
ENDSEC
  0
SECTION
  2
BLOCKS
  0
BLOCK
  5
20
330
1F
100
AcDbEntity
  8
0
100
AcDbBlockBegin
  2
*Model_Space
 70
     0
 10
0.0
 20
0.0
 30
0.0
  3
*Model_Space
  1

  0
ENDBLK
  5
21
330
1F
100
AcDbEntity
  8
0
100
AcDbBlockEnd
  0
BLOCK
  5
1C
330
1B
100
AcDbEntity
 67
     1
  8
0
100
AcDbBlockBegin
  2
*Paper_Space
 70
     0
 10
0.0
 20
0.0
 30
0.0
  3
*Paper_Space
  1

  0
ENDBLK
  5
1D
330
1B
100
AcDbEntity
 67
     1
  8
0
100
AcDbBlockEnd
  0
BLOCK
  5
24
330
23
100
AcDbEntity
  8
0
100
AcDbBlockBegin
  2
*Paper_Space0
 70
     0
 10
0.0
 20
0.0
 30
0.0
  3
*Paper_Space0
  1

  0
ENDBLK
  5
25
330
23
100
AcDbEntity
  8
0
100
AcDbBlockEnd
  0
BLOCK
  5
83
330
82
100
AcDbEntity
  8
0
100
AcDbBlockBegin
  2
블럭10
 70
     2
 10
0.0
 20
0.0
 30
0.0
  3
블럭10
  1

  0
ELLIPSE
  5
85
330
82
100
AcDbEntity
  8
중심선
100
AcDbEllipse
 10
20.54032771741204
 20
12.0471743016438
 30
0.0
 11
6.600054785286829
 21
-1.261213355974178E-13
 31
0.0
210
0.0
220
0.0
230
1.0
 40
0.636358354079598
 41
0.9219305317359503
 42
6.513795318482858
  0
ELLIPSE
  5
86
330
82
100
AcDbEntity
  8
중심선
100
AcDbEllipse
 10
20.54032771746488
 20
12.04717430159265
 30
0.0
 11
3.960054785062283
 21
1.540847449632565E-10
 31
0.0
210
0.0
220
0.0
230
1.0
 40
0.3939339440162632
 41
1.131841032648279
 42
5.62031148352944
  0
LINE
  5
87
330
82
100
AcDbEntity
  8
중심선
100
AcDbLine
 10
2.268634060543552
 20
16.24717430164393
 30
0.0
 11
5.714909304380834
 21
16.24717430164393
 31
0.0
  0
LINE
  5
88
330
82
100
AcDbEntity
  8
중심선
100
AcDbLine
 10
5.245725140726316
 20
7.84717430164391
 30
0.0
 11
8.692000384563599
 21
7.84717430164391
 31
0.0
  0
LINE
  5
89
330
82
100
AcDbEntity
  8
중심선
100
AcDbLine
 10
15.74043728645272
 20
16.24717430164393
 30
0.0
 11
8.692000384563599
 21
7.84717430164391
 31
0.0
  0
LINE
  5
8A
330
82
100
AcDbEntity
  8
중심선
100
AcDbLine
 10
0.1404042013395286
 20
13.71084872107135
 30
0.0
 11
3.58671253028996
 21
13.71088815037384
 31
0.0
  0
LINE
  5
8B
330
82
100
AcDbEntity
  8
중심선
100
AcDbLine
 10
2.750260043222114
 20
10.84717430164391
 30
0.0
 11
6.196535287059397
 21
10.84717430164391
 31
0.0
  0
LINE
  5
8C
330
82
100
AcDbEntity
  8
중심선
100
AcDbLine
 10
12.29416204261559
 20
16.24717430164393
 30
0.0
 11
5.245725140726316
 21
7.84717430164391
 31
0.0
  0
LINE
  5
8D
330
82
100
AcDbEntity
  8
중심선
100
AcDbLine
 10
10.72767329541681
 20
16.24717430164393
 30
0.0
 11
6.196535287059397
 21
10.84717430164391
 31
0.0
  0
LINE
  5
8E
330
82
100
AcDbEntity
  8
중심선
100
AcDbLine
 10
7.28139805157953
 20
16.24717430164393
 30
0.0
 11
2.750260043222114
 21
10.84717430164391
 31
0.0
  0
LINE
  5
8F
330
82
100
AcDbEntity
  8
중심선
100
AcDbLine
 10
5.714909304380834
 20
16.24717430164393
 30
0.0
 11
3.58671253028996
 21
13.71088815037384
 31
0.0
  0
LINE
  5
90
330
82
100
AcDbEntity
  8
중심선
100
AcDbLine
 10
2.268634060543552
 20
16.24717430164393
 30
0.0
 11
0.1404042013395286
 21
13.71084872107135
 31
0.0
  0
LINE
  5
91
330
82
100
AcDbEntity
  8
중심선
100
AcDbLine
 10
7.28139805157953
 20
16.24717430164393
 30
0.0
 11
10.72767329541681
 21
16.24717430164393
 31
0.0
  0
LINE
  5
92
330
82
100
AcDbEntity
  8
중심선
100
AcDbLine
 10
12.29416204261559
 20
16.24717430164393
 30
0.0
 11
15.74043728645272
 21
16.24717430164393
 31
0.0
  0
LINE
  5
93
330
82
100
AcDbEntity
  8
중심선
100
AcDbLine
 10
19.22036997980202
 20
11.08717430171403
 30
0.0
 11
23.66174974927406
 21
11.08717430171406
 31
0.0
  0
LINE
  5
94
330
82
100
AcDbEntity
  8
중심선
100
AcDbLine
 10
19.22039502424796
 20
13.00717430171391
 30
0.0
 11
19.22036997980202
 21
11.08717430171403
 31
0.0
  0
LINE
  5
95
330
82
100
AcDbEntity
  8
중심선
100
AcDbLine
 10
19.22039502424796
 20
13.00717430171391
 30
0.0
 11
26.96566020931264
 21
13.00717430171391
 31
0.0
  0
LINE
  5
96
330
82
100
AcDbEntity
  8
중심선
100
AcDbLine
 10
22.22332737316547
 20
13.45928029700563
 30
0.0
 11
24.52862924686651
 21
15.39360700705356
 31
0.0
  0
ATTDEF
  5
98
330
82
100
AcDbEntity
  8
FORMAT
 62
     2
100
AcDbText
 10
-20.85824753159254
 20
2.075366912832191
 30
0.0
 40
4.233333333333333
  1
SEME7210060200E [ 4 FLUTE ]
 41
0.75
  7
SLDTEXTSTYLE0
 11
-20.85824753159254
 21
-0.0412997538344756
 31
0.0
100
AcDbAttributeDefinition
  3

  2
AUTOATTR0
 70
     0
 74
     1
  0
ENDBLK
  5
84
330
82
100
AcDbEntity
  8
0
100
AcDbBlockEnd
  0
BLOCK
  5
E1
330
E0
100
AcDbEntity
  8
0
100
AcDbBlockBegin
  2
_D
 70
     0
 10
0.0
 20
0.0
 30
0.0
  3
_D
  1

  0
LINE
  5
E3
330
E0
100
AcDbEntity
  8
치수문자_일반주서
 62
     0
370
    -2
100
AcDbLine
 10
70.0625
 20
-5.000000000000018
 30
0.0
 11
83.89513377300588
 21
-4.999999999999968
 31
0.0
  0
LINE
  5
E4
330
E0
100
AcDbEntity
  8
치수문자_일반주서
 62
     0
370
    -2
100
AcDbLine
 10
70.0625
 20
4.999999999999991
 30
0.0
 11
83.89513377300585
 21
5.000000000000043
 31
0.0
  0
LINE
  5
E5
330
E0
100
AcDbEntity
  8
치수문자_일반주서
 62
     0
370
    -2
100
AcDbLine
 10
83.89513377300588
 20
-4.999999999999968
 30
0.0
 11
83.89513377300581
 21
19.04150000000004
 31
0.0
  0
LINE
  5
E6
330
E0
100
AcDbEntity
  8
치수문자_일반주서
 62
     0
370
    -2
100
AcDbLine
 10
83.89513377300588
 20
-4.999999999999968
 30
0.0
 11
83.89513377300585
 21
5.000000000000043
 31
0.0
  0
LINE
  5
E7
330
E0
100
AcDbEntity
  8
치수문자_일반주서
 62
     0
370
    -2
100
AcDbLine
 10
83.8951337730059
 20
-8.301999999999968
 30
0.0
 11
83.89513377300591
 21
-11.60399999999997
 31
0.0
  0
LINE
  5
E8
330
E0
100
AcDbEntity
  8
치수문자_일반주서
 62
     0
370
    -2
100
AcDbLine
 10
83.89513377300584
 20
8.302000000000042
 30
0.0
 11
83.89513377300582
 21
11.60400000000004
 31
0.0
  0
SOLID
  5
E9
330
E0
100
AcDbEntity
  8
치수문자_일반주서
 62
     0
100
AcDbTrace
 10
84.44546710633922
 20
-8.301999999999966
 30
0.0
 11
83.34480043967257
 21
-8.30199999999997
 31
0.0
 12
83.89513377300588
 22
-4.999999999999968
 32
0.0
 13
83.89513377300588
 23
-4.999999999999968
 33
0.0
  0
SOLID
  5
EA
330
E0
100
AcDbEntity
  8
치수문자_일반주서
 62
     0
100
AcDbTrace
 10
83.34480043967251
 20
8.30200000000004
 30
0.0
 11
84.44546710633917
 21
8.302000000000044
 31
0.0
 12
83.89513377300585
 22
5.000000000000043
 32
0.0
 13
83.89513377300585
 23
5.000000000000043
 33
0.0
  0
MTEXT
  5
EB
330
E0
100
AcDbEntity
  8
치수문자_일반주서
 62
     0
100
AcDbMText
 10
79.52013377300582
 20
15.32275000000003
 30
0.0
 40
3.5
 41
0.0
 71
     2
 72
     1
  1
\A1;%%c10
  7
SLDTEXTSTYLE0
 11
-2.842170943040398E-15
 21
1.0
 31
0.0
 73
     1
 44
1.0
  0
POINT
  5
144
330
E0
100
AcDbEntity
  8
Defpoints
 62
     0
100
AcDbPoint
 10
70.0
 20
-5.000000000000018
 30
0.0
  0
POINT
  5
145
330
E0
100
AcDbEntity
  8
Defpoints
 62
     0
100
AcDbPoint
 10
70.0
 20
4.999999999999991
 30
0.0
  0
POINT
  5
146
330
E0
100
AcDbEntity
  8
Defpoints
 62
     0
100
AcDbPoint
 10
83.89513377300585
 20
5.000000000000043
 30
0.0
  0
ENDBLK
  5
E2
330
E0
100
AcDbEntity
  8
0
100
AcDbBlockEnd
  0
BLOCK
  5
EF
330
EE
100
AcDbEntity
  8
0
100
AcDbBlockBegin
  2
_D_1
 70
     0
 10
0.0
 20
0.0
 30
0.0
  3
_D_1
  1

  0
LINE
  5
F1
330
EE
100
AcDbEntity
  8
치수문자_일반주서
 62
     0
370
    -2
100
AcDbLine
 10
-130.0
 20
4.562499999999971
 30
0.0
 11
-130.0
 21
22.38913260158162
 31
0.0
  0
LINE
  5
F2
330
EE
100
AcDbEntity
  8
치수문자_일반주서
 62
     0
370
    -2
100
AcDbLine
 10
70.0
 20
5.062499999999994
 30
0.0
 11
70.0
 21
22.38913260158162
 31
0.0
  0
LINE
  5
F3
330
EE
100
AcDbEntity
  8
치수문자_일반주서
 62
     0
370
    -2
100
AcDbLine
 10
-126.698
 20
22.38913260158162
 30
0.0
 11
66.69800000000001
 21
22.38913260158162
 31
0.0
  0
SOLID
  5
F4
330
EE
100
AcDbEntity
  8
치수문자_일반주서
 62
     0
100
AcDbTrace
 10
-126.698
 20
22.93946593491495
 30
0.0
 11
-126.698
 21
21.83879926824828
 31
0.0
 12
-130.0
 22
22.38913260158162
 32
0.0
 13
-130.0
 23
22.38913260158162
 33
0.0
  0
SOLID
  5
F5
330
EE
100
AcDbEntity
  8
치수문자_일반주서
 62
     0
100
AcDbTrace
 10
66.69800000000001
 20
21.83879926824828
 30
0.0
 11
66.69800000000001
 21
22.93946593491495
 31
0.0
 12
70.0
 22
22.38913260158162
 32
0.0
 13
70.0
 23
22.38913260158162
 33
0.0
  0
MTEXT
  5
F6
330
EE
100
AcDbEntity
  8
치수문자_일반주서
 62
     0
100
AcDbMText
 10
-30.00000000000001
 20
26.76413260158162
 30
0.0
 40
3.5
 41
0.0
 71
     2
 72
     1
  1
\A1;200
  7
SLDTEXTSTYLE0
 73
     1
 44
1.0
  0
POINT
  5
13B
330
EE
100
AcDbEntity
  8
Defpoints
 62
     0
100
AcDbPoint
 10
-130.0
 20
4.499999999999971
 30
0.0
  0
POINT
  5
13C
330
EE
100
AcDbEntity
  8
Defpoints
 62
     0
100
AcDbPoint
 10
70.0
 20
4.999999999999994
 30
0.0
  0
POINT
  5
13D
330
EE
100
AcDbEntity
  8
Defpoints
 62
     0
100
AcDbPoint
 10
70.0
 20
22.38913260158162
 30
0.0
  0
ENDBLK
  5
F0
330
EE
100
AcDbEntity
  8
0
100
AcDbBlockEnd
  0
BLOCK
  5
FA
330
F9
100
AcDbEntity
  8
0
100
AcDbBlockBegin
  2
_D_2
 70
     0
 10
0.0
 20
0.0
 30
0.0
  3
_D_2
  1

  0
LINE
  5
FC
330
F9
100
AcDbEntity
  8
치수문자_일반주서
 62
     0
370
    -2
100
AcDbLine
 10
-129.5625
 20
4.999999999999992
 30
0.0
 11
-141.8610096676906
 21
4.999999999999947
 31
0.0
  0
LINE
  5
FD
330
F9
100
AcDbEntity
  8
치수문자_일반주서
 62
     0
370
    -2
100
AcDbLine
 10
-129.5625
 20
-5.000000000000017
 30
0.0
 11
-141.8610096676906
 21
-5.000000000000064
 31
0.0
  0
LINE
  5
FE
330
F9
100
AcDbEntity
  8
치수문자_일반주서
 62
     0
370
    -2
100
AcDbLine
 10
-141.8610096676906
 20
4.999999999999947
 30
0.0
 11
-141.8610096676906
 21
19.04149999999995
 31
0.0
  0
LINE
  5
FF
330
F9
100
AcDbEntity
  8
치수문자_일반주서
 62
     0
370
    -2
100
AcDbLine
 10
-141.8610096676906
 20
4.999999999999947
 30
0.0
 11
-141.8610096676906
 21
-5.000000000000064
 31
0.0
  0
LINE
  5
100
330
F9
100
AcDbEntity
  8
치수문자_일반주서
 62
     0
370
    -2
100
AcDbLine
 10
-141.8610096676906
 20
8.301999999999946
 30
0.0
 11
-141.8610096676906
 21
11.60399999999995
 31
0.0
  0
LINE
  5
101
330
F9
100
AcDbEntity
  8
치수문자_일반주서
 62
     0
370
    -2
100
AcDbLine
 10
-141.8610096676906
 20
-8.302000000000064
 30
0.0
 11
-141.8610096676906
 21
-11.60400000000006
 31
0.0
  0
SOLID
  5
102
330
F9
100
AcDbEntity
  8
치수문자_일반주서
 62
     0
100
AcDbTrace
 10
-142.4113430010239
 20
8.301999999999945
 30
0.0
 11
-141.3106763343573
 21
8.301999999999948
 31
0.0
 12
-141.8610096676906
 22
4.999999999999947
 32
0.0
 13
-141.8610096676906
 23
4.999999999999947
 33
0.0
  0
SOLID
  5
103
330
F9
100
AcDbEntity
  8
치수문자_일반주서
 62
     0
100
AcDbTrace
 10
-141.3106763343572
 20
-8.302000000000062
 30
0.0
 11
-142.4113430010239
 21
-8.302000000000065
 31
0.0
 12
-141.8610096676906
 22
-5.000000000000064
 32
0.0
 13
-141.8610096676906
 23
-5.000000000000064
 33
0.0
  0
MTEXT
  5
104
330
F9
100
AcDbEntity
  8
치수문자_일반주서
 62
     0
100
AcDbMText
 10
-146.2360096676906
 20
15.32274999999993
 30
0.0
 40
3.5
 41
0.0
 71
     2
 72
     1
  1
\A1;%%c10
  7
SLDTEXTSTYLE0
 11
-2.842170943040398E-15
 21
1.0
 31
0.0
 73
     1
 44
1.0
  0
POINT
  5
141
330
F9
100
AcDbEntity
  8
Defpoints
 62
     0
100
AcDbPoint
 10
-129.5
 20
4.999999999999992
 30
0.0
  0
POINT
  5
142
330
F9
100
AcDbEntity
  8
Defpoints
 62
     0
100
AcDbPoint
 10
-129.5
 20
-5.000000000000017
 30
0.0
  0
POINT
  5
143
330
F9
100
AcDbEntity
  8
Defpoints
 62
     0
100
AcDbPoint
 10
-141.8610096676906
 20
-5.000000000000063
 30
0.0
  0
ENDBLK
  5
FB
330
F9
100
AcDbEntity
  8
0
100
AcDbBlockEnd
  0
BLOCK
  5
107
330
106
100
AcDbEntity
  8
0
100
AcDbBlockBegin
  2
_D_3
 70
     0
 10
0.0
 20
0.0
 30
0.0
  3
_D_3
  1

  0
LINE
  5
109
330
106
100
AcDbEntity
  8
치수문자_일반주서
 62
     0
370
    -2
100
AcDbLine
 10
9.999999999999995
 20
4.62465235755407
 30
0.0
 11
9.999999999999993
 21
15.40807066014172
 31
0.0
  0
LINE
  5
10A
330
106
100
AcDbEntity
  8
치수문자_일반주서
 62
     0
370
    -2
100
AcDbLine
 10
70.0
 20
5.062499999999994
 30
0.0
 11
70.0
 21
15.40807066014172
 31
0.0
  0
LINE
  5
10B
330
106
100
AcDbEntity
  8
치수문자_일반주서
 62
     0
370
    -2
100
AcDbLine
 10
13.30199999999999
 20
15.40807066014172
 30
0.0
 11
66.69800000000001
 21
15.40807066014172
 31
0.0
  0
SOLID
  5
10C
330
106
100
AcDbEntity
  8
치수문자_일반주서
 62
     0
100
AcDbTrace
 10
13.30199999999999
 20
15.95840399347505
 30
0.0
 11
13.30199999999999
 21
14.85773732680839
 31
0.0
 12
9.999999999999993
 22
15.40807066014172
 32
0.0
 13
9.999999999999993
 23
15.40807066014172
 33
0.0
  0
SOLID
  5
10D
330
106
100
AcDbEntity
  8
치수문자_일반주서
 62
     0
100
AcDbTrace
 10
66.69800000000001
 20
14.85773732680839
 30
0.0
 11
66.69800000000001
 21
15.95840399347505
 31
0.0
 12
70.0
 22
15.40807066014172
 32
0.0
 13
70.0
 23
15.40807066014172
 33
0.0
  0
MTEXT
  5
10E
330
106
100
AcDbEntity
  8
치수문자_일반주서
 62
     0
100
AcDbMText
 10
39.99999999999999
 20
19.78307066014172
 30
0.0
 40
3.5
 41
0.0
 71
     2
 72
     1
  1
\A1;60
  7
SLDTEXTSTYLE0
 73
     1
 44
1.0
  0
POINT
  5
13E
330
106
100
AcDbEntity
  8
Defpoints
 62
     0
100
AcDbPoint
 10
9.999999999999995
 20
4.56215235755407
 30
0.0
  0
POINT
  5
13F
330
106
100
AcDbEntity
  8
Defpoints
 62
     0
100
AcDbPoint
 10
70.0
 20
4.999999999999994
 30
0.0
  0
POINT
  5
140
330
106
100
AcDbEntity
  8
Defpoints
 62
     0
100
AcDbPoint
 10
70.0
 20
15.40807066014172
 30
0.0
  0
ENDBLK
  5
108
330
106
100
AcDbEntity
  8
0
100
AcDbBlockEnd
  0
BLOCK
  5
110
330
10F
100
AcDbEntity
  8
0
100
AcDbBlockBegin
  2
SW_DOWELSYMBOL_0
 70
     0
 10
0.0
 20
0.0
 30
0.0
  3
SW_DOWELSYMBOL_0
  1

  0
CIRCLE
  5
112
330
10F
100
AcDbEntity
  8
해칭선
 62
     0
100
AcDbCircle
 10
0.0
 20
0.0
 30
0.0
 40
3.0
  0
HATCH
  5
113
330
10F
100
AcDbEntity
  8
0
  6
Continuous
 62
     0
370
    18
100
AcDbHatch
 10
0.0
 20
0.0
 30
0.0
210
0.0
220
0.0
230
1.0
  2
SOLID
 70
     1
 71
     0
 91
        1
 92
        0
 93
        3
 72
     2
 10
0.0
 20
0.0
 40
3.0
 50
0.0
 51
90.0
 73
     1
 72
     1
 10
0.0
 20
3.0
 11
0.0
 21
0.0
 72
     1
 10
0.0
 20
0.0
 11
3.0
 21
0.0
 97
        0
 75
     0
 76
     1
 98
        1
 10
0.0
 20
0.0
  0
HATCH
  5
114
330
10F
100
AcDbEntity
  8
0
  6
Continuous
 62
     0
370
    18
100
AcDbHatch
 10
0.0
 20
0.0
 30
0.0
210
0.0
220
0.0
230
1.0
  2
SOLID
 70
     1
 71
     0
 91
        1
 92
        0
 93
        3
 72
     2
 10
0.0
 20
0.0
 40
3.0
 50
180.0
 51
270.0000000000008
 73
     1
 72
     1
 10
0.0
 20
-3.0
 11
0.0
 21
0.0
 72
     1
 10
0.0
 20
0.0
 11
-3.0
 21
0.0
 97
        0
 75
     0
 76
     1
 98
        1
 10
0.0
 20
0.0
  0
ENDBLK
  5
111
330
10F
100
AcDbEntity
  8
0
100
AcDbBlockEnd
  0
ENDSEC
  0
SECTION
  2
ENTITIES
  0
LINE
  5
99
330
1F
100
AcDbEntity
  8
0
  6
Continuous
 62
     4
370
    25
100
AcDbLine
 10
8.499875011763754
 20
4.999999999999988
 30
0.0
 11
-129.5
 21
4.999999999999979
 31
0.0
  0
LINE
  5
9A
330
1F
100
AcDbEntity
  8
0
  6
Continuous
 62
     4
370
    25
100
AcDbLine
 10
-129.5
 20
-5.000000000000021
 30
0.0
 11
8.499875011763761
 21
-5.000000000000012
 31
0.0
  0
LINE
  5
9B
330
1F
100
AcDbEntity
  8
0
  6
Continuous
 62
     4
370
    25
100
AcDbLine
 10
-129.5
 20
4.999999999999972
 30
0.0
 11
-130.0
 21
4.499999999999971
 31
0.0
  0
LINE
  5
9C
330
1F
100
AcDbEntity
  8
0
  6
Continuous
 62
     4
370
    25
100
AcDbLine
 10
-130.0
 20
-4.500000000000013
 30
0.0
 11
-129.5
 21
-5.000000000000013
 31
0.0
  0
LINE
  5
9D
330
1F
100
AcDbEntity
  8
0
  6
Continuous
 62
     1
370
    25
100
AcDbLine
 10
68.06552462241334
 20
-5.000000000000019
 30
0.0
 11
70.0
 21
-5.000000000000019
 31
0.0
  0
LINE
  5
9E
330
1F
100
AcDbEntity
  8
0
  6
Continuous
 62
     1
370
    25
100
AcDbLine
 10
13.65023611289835
 20
-5.000000000000019
 30
0.0
 11
17.52185616864689
 21
-5.000000000000019
 31
0.0
  0
LINE
  5
9F
330
1F
100
AcDbEntity
  8
0
  6
Continuous
 62
     1
370
    25
100
AcDbLine
 10
44.72605821344028
 20
4.999999999999994
 30
0.0
 11
40.85975227469515
 21
4.999999999999994
 31
0.0
  0
LINE
  5
A0
330
1F
100
AcDbEntity
  8
0
  6
Continuous
 62
     1
370
    25
100
AcDbLine
 10
27.25437098735232
 20
-5.000000000000019
 30
0.0
 11
31.12478963907123
 21
-5.000000000000019
 31
0.0
  0
LINE
  5
A1
330
1F
100
AcDbEntity
  8
0
  6
Continuous
 62
     1
370
    25
100
AcDbLine
 10
58.3302087478601
 20
4.999999999999994
 30
0.0
 11
54.46293691962025
 21
4.999999999999994
 31
0.0
  0
LINE
  5
A2
330
1F
100
AcDbEntity
  8
0
  6
Continuous
 62
     1
370
    25
100
AcDbLine
 10
54.46293691962013
 20
-5.000000000000019
 30
0.0
 11
58.33020874786012
 21
-5.000000000000019
 31
0.0
  0
LINE
  5
A3
330
1F
100
AcDbEntity
  8
0
  6
Continuous
 62
     1
370
    25
100
AcDbLine
 10
31.1247896390712
 20
4.999999999999994
 30
0.0
 11
27.25437098735225
 21
4.999999999999994
 31
0.0
  0
LINE
  5
A4
330
1F
100
AcDbEntity
  8
0
  6
Continuous
 62
     1
370
    25
100
AcDbLine
 10
40.85975227469515
 20
-5.000000000000019
 30
0.0
 11
44.72605821344028
 21
-5.000000000000019
 31
0.0
  0
LINE
  5
A5
330
1F
100
AcDbEntity
  8
0
  6
Continuous
 62
     1
370
    25
100
AcDbLine
 10
17.52185616864683
 20
4.999999999999994
 30
0.0
 11
13.65023611289838
 21
4.999999999999994
 31
0.0
  0
LINE
  5
A6
330
1F
100
AcDbEntity
  8
0
  6
Continuous
 62
     1
370
    25
100
AcDbLine
 10
70.0
 20
4.999999999999994
 30
0.0
 11
68.06552462241334
 21
4.999999999999994
 31
0.0
  0
LINE
  5
A7
330
1F
100
AcDbEntity
  8
0
  6
Continuous
 62
     4
370
    25
100
AcDbLine
 10
9.996560775501901
 20
4.561338235954785
 30
0.0
 11
10.00000000000009
 21
4.56215235755408
 31
0.0
  0
SPLINE
  5
A8
330
1F
100
AcDbEntity
  8
0
  6
Continuous
 62
     4
370
    25
100
AcDbSpline
210
0.0
220
0.0
230
1.0
 70
     8
 71
     3
 72
    20
 73
    16
 74
     0
 42
0.000000001
 43
0.00000001
 40
0.0
 40
0.0
 40
0.0
 40
0.0
 40
0.125
 40
0.125
 40
0.2500000000000001
 40
0.2500000000000001
 40
0.3750000000000001
 40
0.3750000000000001
 40
0.5000000000000001
 40
0.5000000000000001
 40
0.6250000000000001
 40
0.6250000000000001
 40
0.7500000000000002
 40
0.7500000000000002
 40
1.0
 40
1.0
 40
1.0
 40
1.0
 10
8.499875011763754
 20
4.854883927278997
 30
0.0
 10
8.499875011763754
 20
4.833550824420417
 30
0.0
 10
8.509813991881874
 20
4.810300336350812
 30
0.0
 10
8.5510715734414
 20
4.760533305995645
 30
0.0
 10
8.582835827286164
 20
4.733931250028064
 30
0.0
 10
8.665771859788618
 20
4.681730281110752
 30
0.0
 10
8.718170268084219
 20
4.655364190205905
 30
0.0
 10
8.839517718478577
 20
4.606911490982228
 30
0.0
 10
8.908049791567556
 20
4.58481568005455
 30
0.0
 10
9.06054127277441
 20
4.547017552123513
 30
0.0
 10
9.141287381026368
 20
4.532105001035671
 30
0.0
 10
9.311557594982899
 20
4.51129331268335
 30
0.0
 10
9.400306248183746
 20
4.505656952083537
 30
0.0
 10
9.664652422974044
 20
4.504335436681838
 30
0.0
 10
9.84189979112739
 20
4.524710572988244
 30
0.0
 10
9.996560775501804
 20
4.561338235954773
 30
0.0
  0
LINE
  5
A9
330
1F
100
AcDbEntity
  8
0
  6
Continuous
 62
     4
370
    25
100
AcDbLine
 10
8.499875011763754
 20
4.999999999999988
 30
0.0
 11
8.499875011763754
 21
4.591974037165715
 31
0.0
  0
SPLINE
  5
AA
330
1F
100
AcDbEntity
  8
0
  6
Continuous
 62
     4
370
    25
100
AcDbSpline
210
0.0
220
0.0
230
1.0
 70
     8
 71
     3
 72
    14
 73
    10
 74
     0
 42
0.000000001
 43
0.00000001
 40
0.0
 40
0.0
 40
0.0
 40
0.0
 40
0.2500000000000001
 40
0.2500000000000001
 40
0.5
 40
0.5
 40
0.75
 40
0.75
 40
1.0
 40
1.0
 40
1.0
 40
1.0
 10
9.004400619231108
 20
4.161817977065563
 30
0.0
 10
8.925413951744174
 20
4.187047632828401
 30
0.0
 10
8.854434546810175
 20
4.217136089387631
 30
0.0
 10
8.728021035817452
 20
4.285129224746051
 30
0.0
 10
8.67356733642808
 20
4.322768681175988
 30
0.0
 10
8.586759688218162
 20
4.399840011193678
 30
0.0
 10
8.553540930989367
 20
4.440137473703374
 30
0.0
 10
8.510437121139466
 20
4.517795402845284
 30
0.0
 10
8.49987501176375
 20
4.555941324771902
 30
0.0
 10
8.49987501176375
 20
4.591974037165715
 30
0.0
  0
SPLINE
  5
AB
330
1F
100
AcDbEntity
  8
0
  6
Continuous
 62
     4
370
    25
100
AcDbSpline
210
0.0
220
0.0
230
1.0
 70
     8
 71
     3
 72
     8
 73
     4
 74
     0
 42
0.000000001
 43
0.00000001
 40
0.0
 40
0.0
 40
0.0
 40
0.0
 40
1.0
 40
1.0
 40
1.0
 40
1.0
 10
10.00000000000009
 20
3.81605687249677
 30
0.0
 10
9.668289274461562
 20
3.939979829308527
 30
0.0
 10
9.337709592398758
 20
4.055353545494552
 30
0.0
 10
9.004400619231111
 20
4.161817977065563
 30
0.0
  0
LINE
  5
AC
330
1F
100
AcDbEntity
  8
0
  6
Continuous
 62
     4
370
    25
100
AcDbLine
 10
9.999999999999995
 20
3.816056872496806
 30
0.0
 11
9.999999999999995
 21
2.04615880773307
 31
0.0
  0
LINE
  5
AD
330
1F
100
AcDbEntity
  8
0
  6
Continuous
 62
     4
370
    25
100
AcDbLine
 10
9.996560775501901
 20
2.047973021603685
 30
0.0
 11
10.00000000000009
 21
2.046158807733012
 31
0.0
  0
SPLINE
  5
AE
330
1F
100
AcDbEntity
  8
0
  6
Continuous
 62
     4
370
    25
100
AcDbSpline
210
0.0
220
0.0
230
1.0
 70
     8
 71
     3
 72
    20
 73
    16
 74
     0
 42
0.000000001
 43
0.00000001
 40
0.0
 40
0.0
 40
0.0
 40
0.0
 40
0.125
 40
0.125
 40
0.25
 40
0.25
 40
0.375
 40
0.375
 40
0.5
 40
0.5
 40
0.625
 40
0.625
 40
0.75
 40
0.75
 40
1.0
 40
1.0
 40
1.0
 40
1.0
 10
8.499875011763754
 20
1.19586874390456
 30
0.0
 10
8.499875011763754
 20
1.282475019647619
 30
0.0
 10
8.509813991881874
 20
1.366887971782741
 30
0.0
 10
8.5510715734414
 20
1.53123959451395
 30
0.0
 10
8.582835827286164
 20
1.611179527556645
 30
0.0
 10
8.665771859788618
 20
1.75710162624151
 30
0.0
 10
8.718170268084219
 20
1.825298465136842
 30
0.0
 10
8.839517718478577
 20
1.944349954236195
 30
0.0
 10
8.908049791567556
 20
1.995398603743043
 30
0.0
 10
9.06054127277441
 20
2.080091774074992
 30
0.0
 10
9.141287381026368
 20
2.112017675096537
 30
0.0
 10
9.311557594982899
 20
2.156113876229922
 30
0.0
 10
9.400306248183746
 20
2.167730717047269
 30
0.0
 10
9.664652422974044
 20
2.170476076764926
 30
0.0
 10
9.84189979112739
 20
2.129551810884893
 30
0.0
 10
9.996560775501804
 20
2.047973021603744
 30
0.0
  0
SPLINE
  5
AF
330
1F
100
AcDbEntity
  8
0
  6
Continuous
 62
     4
370
    25
100
AcDbSpline
210
0.0
220
0.0
230
1.0
 70
     8
 71
     3
 72
    14
 73
    10
 74
     0
 42
0.000000001
 43
0.00000001
 40
0.0
 40
0.0
 40
0.0
 40
0.0
 40
0.25
 40
0.25
 40
0.5
 40
0.5
 40
0.75
 40
0.75
 40
1.0
 40
1.0
 40
1.0
 40
1.0
 10
9.004400619231108
 20
-2.771149784071962
 30
0.0
 10
8.925413951744174
 20
-2.733258928979074
 30
0.0
 10
8.854434546810175
 20
-2.686993471715397
 30
0.0
 10
8.728021035817452
 20
-2.577176408530089
 30
0.0
 10
8.67356733642808
 20
-2.5139371761186
 30
0.0
 10
8.586759688218162
 20
-2.376471559334631
 30
0.0
 10
8.553540930989367
 20
-2.300611001194708
 30
0.0
 10
8.510437121139466
 20
-2.144098053315923
 30
0.0
 10
8.49987501176375
 20
-2.061963178752593
 30
0.0
 10
8.49987501176375
 20
-1.978326171791701
 30
0.0
  0
SPLINE
  5
B0
330
1F
100
AcDbEntity
  8
0
  6
Continuous
 62
     4
370
    25
100
AcDbSpline
210
0.0
220
0.0
230
1.0
 70
     8
 71
     3
 72
     8
 73
     4
 74
     0
 42
0.000000001
 43
0.00000001
 40
0.0
 40
0.0
 40
0.0
 40
0.0
 40
1.0
 40
1.0
 40
1.0
 40
1.0
 10
10.00000000000009
 20
-3.230744487863187
 30
0.0
 10
9.668289274461562
 20
-3.084370470116457
 30
0.0
 10
9.337709592398758
 20
-2.931042110274274
 30
0.0
 10
9.004400619231111
 20
-2.771149784071962
 30
0.0
  0
LINE
  5
B1
330
1F
100
AcDbEntity
  8
0
  6
Continuous
 62
     4
370
    25
100
AcDbLine
 10
9.999999999999995
 20
-3.230744487863144
 30
0.0
 11
9.999999999999995
 21
-4.562152357554095
 31
0.0
  0
LINE
  5
B2
330
1F
100
AcDbEntity
  8
0
  6
Continuous
 62
     4
370
    25
100
AcDbLine
 10
9.996560775501901
 20
-4.56133823595481
 30
0.0
 11
10.00000000000009
 21
-4.562152357554105
 31
0.0
  0
SPLINE
  5
B3
330
1F
100
AcDbEntity
  8
0
  6
Continuous
 62
     4
370
    25
100
AcDbSpline
210
0.0
220
0.0
230
1.0
 70
     8
 71
     3
 72
    20
 73
    16
 74
     0
 42
0.000000001
 43
0.00000001
 40
0.0
 40
0.0
 40
0.0
 40
0.0
 40
0.125
 40
0.125
 40
0.25
 40
0.25
 40
0.375
 40
0.375
 40
0.5
 40
0.5
 40
0.625
 40
0.625
 40
0.75
 40
0.75
 40
1.0
 40
1.0
 40
1.0
 40
1.0
 10
8.499875011763754
 20
-4.854883927279022
 30
0.0
 10
8.499875011763754
 20
-4.833550824420443
 30
0.0
 10
8.509813991881874
 20
-4.810300336350838
 30
0.0
 10
8.5510715734414
 20
-4.760533305995669
 30
0.0
 10
8.582835827286164
 20
-4.733931250028089
 30
0.0
 10
8.665771859788618
 20
-4.681730281110775
 30
0.0
 10
8.718170268084222
 20
-4.655364190205931
 30
0.0
 10
8.83951771847858
 20
-4.606911490982255
 30
0.0
 10
8.908049791567556
 20
-4.584815680054576
 30
0.0
 10
9.06054127277441
 20
-4.547017552123539
 30
0.0
 10
9.141287381026372
 20
-4.532105001035695
 30
0.0
 10
9.311557594982899
 20
-4.511293312683373
 30
0.0
 10
9.400306248183746
 20
-4.505656952083562
 30
0.0
 10
9.664652422974044
 20
-4.504335436681862
 30
0.0
 10
9.84189979112739
 20
-4.52471057298827
 30
0.0
 10
9.996560775501804
 20
-4.561338235954798
 30
0.0
  0
LINE
  5
B4
330
1F
100
AcDbEntity
  8
0
  6
Continuous
 62
     4
370
    25
100
AcDbLine
 10
8.499875011763754
 20
-4.854883927279022
 30
0.0
 11
8.499875011763754
 21
-5.000000000000012
 31
0.0
  0
LINE
  5
B5
330
1F
100
AcDbEntity
  8
0
  6
Continuous
 62
     4
370
    25
100
AcDbLine
 10
-129.5
 20
4.999999999999972
 30
0.0
 11
-129.5
 21
-5.000000000000013
 31
0.0
  0
LINE
  5
B6
330
1F
100
AcDbEntity
  8
0
  6
Continuous
 62
     4
370
    25
100
AcDbLine
 10
8.499875011763754
 20
1.19586874390456
 30
0.0
 11
8.499875011763754
 21
-1.978326171791701
 31
0.0
  0
LINE
  5
B7
330
1F
100
AcDbEntity
  8
0
  6
Continuous
 62
     4
370
    25
100
AcDbLine
 10
-130.0
 20
4.499999999999971
 30
0.0
 11
-130.0
 21
-4.500000000000013
 31
0.0
  0
SPLINE
  5
B8
330
1F
100
AcDbEntity
  8
0
  6
Continuous
 62
     4
370
    25
100
AcDbSpline
210
0.0
220
0.0
230
1.0
 70
    24
 71
     3
 72
    24
 73
    20
 74
     0
 42
0.000000001
 43
0.00000001
 40
0.0
 40
0.0
 40
0.0
 40
0.0
 40
0.0624999999999999
 40
0.0624999999999999
 40
0.1249999999999999
 40
0.1249999999999999
 40
0.2499999999999998
 40
0.2499999999999998
 40
0.3749999999999999
 40
0.3749999999999999
 40
0.4999999999999999
 40
0.4999999999999999
 40
0.6249999999999999
 40
0.6249999999999999
 40
0.75
 40
0.75
 40
0.875
 40
0.875
 40
1.0
 40
1.0
 40
1.0
 40
1.0
 10
9.999999999999995
 20
2.046158807733073
 30
0.0
 10
9.999999999999995
 20
1.999071022509269
 30
0.0
 10
9.999999999999995
 20
1.950832183306032
 30
0.0
 10
9.999999999999995
 20
1.853151173261045
 30
0.0
 10
9.999999999999995
 20
1.801650622361271
 30
0.0
 10
9.999999999999995
 20
1.632166191454514
 30
0.0
 10
9.999999999999995
 20
1.501489943877063
 30
0.0
 10
9.999999999999995
 20
1.197390891265264
 30
0.0
 10
9.999999999999995
 20
1.0238586471237
 30
0.0
 10
9.999999999999995
 20
0.6291041739125612
 30
0.0
 10
9.999999999999995
 20
0.407723919575513
 30
0.0
 10
9.999999999999995
 20
-0.0810540693955593
 30
0.0
 10
9.999999999999995
 20
-0.3485919649939103
 30
0.0
 10
9.999999999999995
 20
-0.9165799009193615
 30
0.0
 10
9.999999999999995
 20
-1.217008906209593
 30
0.0
 10
9.999999999999995
 20
-1.823850536273263
 30
0.0
 10
9.999999999999995
 20
-2.129965727606168
 30
0.0
 10
9.999999999999995
 20
-2.711907530696337
 30
0.0
 10
9.999999999999995
 20
-2.987271849739285
 30
0.0
 10
9.999999999999995
 20
-3.23074448786314
 30
0.0
  0
SPLINE
  5
B9
330
1F
100
AcDbEntity
  8
0
  6
Continuous
 62
     4
370
    25
100
AcDbSpline
210
0.0
220
0.0
230
1.0
 70
    24
 71
     3
 72
     9
 73
     5
 74
     0
 42
0.000000001
 43
0.00000001
 40
0.0
 40
0.0
 40
0.0
 40
0.0
 40
0.7085706819818539
 40
0.9999999999999999
 40
0.9999999999999999
 40
0.9999999999999999
 40
0.9999999999999999
 10
9.999999999999995
 20
4.56215235755407
 30
0.0
 10
9.999999999999995
 20
4.396458405478901
 30
0.0
 10
9.999999999999995
 20
4.162615888015819
 30
0.0
 10
9.999999999999995
 20
4.000248272346579
 30
0.0
 10
9.999999999999995
 20
3.95292958884386
 30
0.0
  0
SPLINE
  5
BA
330
1F
100
AcDbEntity
  8
0
  6
Continuous
 62
     1
370
    25
100
AcDbSpline
210
0.0
220
0.0
230
1.0
 70
     8
 71
     3
 72
     9
 73
     5
 74
     0
 42
0.000000001
 43
0.00000001
 40
0.0
 40
0.0
 40
0.0
 40
0.0
 40
0.7605480100144512
 40
0.9999999999999999
 40
0.9999999999999999
 40
0.9999999999999999
 40
0.9999999999999999
 10
10.00000000000009
 20
-4.562152357554107
 30
0.0
 10
10.92544319500929
 20
-4.76378721194181
 30
0.0
 10
12.14225420867774
 20
-5.028905063455052
 30
0.0
 10
13.35890633913921
 20
-4.961037911026935
 30
0.0
 10
13.65023611289836
 20
-4.944786986323368
 30
0.0
  0
SPLINE
  5
BB
330
1F
100
AcDbEntity
  8
0
  6
Continuous
 62
     1
370
    25
100
AcDbSpline
210
0.0
220
0.0
230
1.0
 70
     8
 71
     3
 72
    21
 73
    17
 74
     0
 42
0.000000001
 43
0.00000001
 40
0.0
 40
0.0
 40
0.0
 40
0.0
 40
0.021836726629096
 40
0.101662570035707
 40
0.1815752966841288
 40
0.2614897246498091
 40
0.3413160722077636
 40
0.4212187784478134
 40
0.5011403723098228
 40
0.5809723168759762
 40
0.6572697858464277
 40
0.7336063980082399
 40
0.8099154426013605
 40
0.8861831377639299
 40
0.9727101739774842
 40
1.0
 40
1.0
 40
1.0
 40
1.0
 10
35.98843404395543
 20
4.1940889041443
 30
0.0
 10
36.22194352212664
 20
4.276384528363839
 30
0.0
 10
37.30906496124152
 20
4.659518173023908
 30
0.0
 10
39.24991260381007
 20
4.969097877173525
 30
0.0
 10
41.81281405024851
 20
5.047311001945363
 30
0.0
 10
44.37569033957048
 20
4.660027823980836
 30
0.0
 10
46.93738226207525
 20
3.874135246941186
 30
0.0
 10
49.50010561694256
 20
2.750333467529985
 30
0.0
 10
52.06308117645033
 20
1.388557872653571
 30
0.0
 10
54.58651709005243
 20
-0.0734456404303734
 30
0.0
 10
57.07196854902178
 20
-1.504500737870892
 30
0.0
 10
59.52005583691943
 20
-2.792450630842104
 30
0.0
 10
61.96779552048268
 20
-3.865444921092998
 30
0.0
 10
64.52320143497701
 20
-4.641619983415015
 30
0.0
 10
66.55698143791665
 20
-5.013080829192973
 30
0.0
 10
67.77377458873013
 20
-4.968359440491057
 30
0.0
 10
68.06552462241334
 20
-4.957636610031813
 30
0.0
  0
SPLINE
  5
BC
330
1F
100
AcDbEntity
  8
0
  6
Continuous
 62
     1
370
    25
100
AcDbSpline
210
0.0
220
0.0
230
1.0
 70
     8
 71
     3
 72
    17
 73
    13
 74
     0
 42
0.000000001
 43
0.00000001
 40
0.0
 40
0.0
 40
0.0
 40
0.0
 40
0.1013554612368879
 40
0.2028002206569996
 40
0.3041774281191482
 40
0.4055128705629585
 40
0.5069545963953098
 40
0.6083505491817963
 40
0.7096724273505972
 40
0.8111080874782612
 40
0.9125197756315298
 40
1.0
 40
1.0
 40
1.0
 40
1.0
 10
70.0
 20
-4.875828491775123
 30
0.0
 10
69.14621070706505
 20
-4.72520395744232
 30
0.0
 10
67.43787989894892
 20
-4.423822182585051
 30
0.0
 10
64.8747472459292
 20
-3.474444883343573
 30
0.0
 10
62.31239782188935
 20
-2.253065664023086
 30
0.0
 10
59.75048944862851
 20
-0.8269684012892964
 30
0.0
 10
57.18741112368469
 20
0.6674297629344887
 30
0.0
 10
54.62486244272426
 20
2.104285799352497
 30
0.0
 10
52.06310065822819
 20
3.36208973953702
 30
0.0
 10
49.50009060554799
 20
4.314897033050447
 30
0.0
 10
47.05398351063177
 20
4.907591861772613
 30
0.0
 10
45.46291768705738
 20
4.953204854515068
 30
0.0
 10
44.72605821344028
 20
4.974329289044619
 30
0.0
  0
SPLINE
  5
BD
330
1F
100
AcDbEntity
  8
0
  6
Continuous
 62
     1
370
    25
100
AcDbSpline
210
0.0
220
0.0
230
1.0
 70
     8
 71
     3
 72
    13
 73
     9
 74
     0
 42
0.000000001
 43
0.00000001
 40
0.0
 40
0.0
 40
0.0
 40
0.0
 40
0.1029800157436854
 40
0.3260723310774089
 40
0.5490856218918776
 40
0.7558595566488238
 40
0.962815667447263
 40
0.9999999999999999
 40
0.9999999999999999
 40
0.9999999999999999
 40
0.9999999999999999
 10
22.38951187932519
 20
-4.177150509686046
 30
0.0
 10
21.96425983262425
 20
-4.319583196348439
 30
0.0
 10
20.61775657991214
 20
-4.77057708896175
 30
0.0
 10
18.34944224567585
 20
-5.047147555433437
 30
0.0
 10
15.65285547085919
 20
-4.96577132442654
 30
0.0
 10
13.0242199652814
 20
-4.402637596811835
 30
0.0
 10
11.16073022280227
 20
-3.734776614461811
 30
0.0
 10
10.153420467394
 20
-3.297365346807074
 30
0.0
 10
9.999999999999995
 20
-3.230744487864042
 30
0.0
  0
LINE
  5
BE
330
1F
100
AcDbEntity
  8
0
  6
Continuous
 62
     1
370
    25
100
AcDbLine
 10
70.0
 20
-5.000000000000024
 30
0.0
 11
70.0
 21
-4.875828491776326
 31
0.0
  0
SPLINE
  5
BF
330
1F
100
AcDbEntity
  8
0
  6
Continuous
 62
     1
370
    25
100
AcDbSpline
210
0.0
220
0.0
230
1.0
 70
     8
 71
     3
 72
    14
 73
    10
 74
     0
 42
0.000000001
 43
0.00000001
 40
0.0
 40
0.0
 40
0.0
 40
0.0
 40
0.1608852508059997
 40
0.3217003026518994
 40
0.4824850633553701
 40
0.6433859477994958
 40
0.8040982484028794
 40
0.9527090575423663
 40
1.0
 40
1.0
 40
1.0
 40
1.0
 10
10.00000000000009
 20
2.046158807733013
 30
0.0
 10
10.92542780902545
 20
1.538514583535429
 30
0.0
 10
12.77587963574342
 20
0.5234476352247048
 30
0.0
 10
15.55090692715033
 20
-1.109137881014898
 30
0.0
 10
18.32567187225959
 20
-2.611880373258492
 30
0.0
 10
21.10090353271989
 20
-3.860422809176558
 30
0.0
 10
23.80465607252364
 20
-4.661351653434216
 30
0.0
 10
25.8558466794418
 20
-5.020928782983765
 30
0.0
 10
26.98241572640971
 20
-4.965902653367888
 30
0.0
 10
27.25437098735232
 20
-4.952619272754311
 30
0.0
  0
SPLINE
  5
C0
330
1F
100
AcDbEntity
  8
0
  6
Continuous
 62
     1
370
    25
100
AcDbSpline
210
0.0
220
0.0
230
1.0
 70
     8
 71
     3
 72
    15
 73
    11
 74
     0
 42
0.000000001
 43
0.00000001
 40
0.0
 40
0.0
 40
0.0
 40
0.0
 40
0.1238518948618403
 40
0.2523721732632517
 40
0.3752023511662817
 40
0.4980955451198231
 40
0.6209443584482608
 40
0.743726603934025
 40
0.8830252123275596
 40
1.0
 40
1.0
 40
1.0
 40
1.0
 10
49.5958399693144
 20
4.224141667145309
 30
0.0
 10
50.41856753222939
 20
4.446716233426406
 30
0.0
 10
52.09503395438677
 20
4.900254930336509
 30
0.0
 10
54.58651866220183
 20
5.065041933681543
 30
0.0
 10
57.07196745502965
 20
4.839753237434756
 30
0.0
 10
59.52005868158624
 20
4.227073104241068
 30
0.0
 10
61.96778524272314
 20
3.280755575288537
 30
0.0
 10
64.52324185588611
 20
2.020098443362886
 30
0.0
 10
67.04225428053184
 20
0.5939607199799265
 30
0.0
 10
68.74400290622907
 20
-0.3875588254570796
 30
0.0
 10
69.52075807168356
 20
-0.8355688108333479
 30
0.0
  0
SPLINE
  5
C1
330
1F
100
AcDbEntity
  8
0
  6
Continuous
 62
     1
370
    25
100
AcDbSpline
210
0.0
220
0.0
230
1.0
 70
     8
 71
     3
 72
    12
 73
     8
 74
     0
 42
0.000000001
 43
0.00000001
 40
0.0
 40
0.0
 40
0.0
 40
0.0
 40
0.2195120499071936
 40
0.4392174986407872
 40
0.658776645748531
 40
0.8782453396663039
 40
1.0
 40
1.0
 40
1.0
 40
1.0
 10
70.0
 20
1.107382733648232
 30
0.0
 10
69.1462105369506
 20
1.578580934834386
 30
0.0
 10
67.43787938845577
 20
2.521392481519499
 30
0.0
 10
64.87474928943368
 20
3.694493833028364
 30
0.0
 10
62.31239016600194
 20
4.53385515109998
 30
0.0
 10
60.13143557411509
 20
4.976560278226982
 30
0.0
 10
58.80389811000209
 20
4.954038822750864
 30
0.0
 10
58.3302087478601
 20
4.946002760366651
 30
0.0
  0
SPLINE
  5
C2
330
1F
100
AcDbEntity
  8
0
  6
Continuous
 62
     1
370
    25
100
AcDbSpline
210
0.0
220
0.0
230
1.0
 70
     8
 71
     3
 72
    18
 73
    14
 74
     0
 42
0.000000001
 43
0.00000001
 40
0.0
 40
0.0
 40
0.0
 40
0.0
 40
0.0716768163209781
 40
0.170327058826176
 40
0.2688662927734034
 40
0.3674826971854587
 40
0.4661394224050587
 40
0.5723704996838204
 40
0.6787235988398364
 40
0.7850390252390859
 40
0.8836127871958288
 40
0.9822733965483496
 40
1.0
 40
1.0
 40
1.0
 40
1.0
 10
35.98843404395543
 20
-4.194088904144321
 30
0.0
 10
35.36752033017976
 20
-4.381108510887282
 30
0.0
 10
33.89203059611222
 20
-4.825526960176495
 30
0.0
 10
31.56251810378512
 20
-5.058809536611697
 30
0.0
 10
29.00079737946445
 20
-4.923916895385563
 30
0.0
 10
26.43818893229236
 20
-4.348056485869001
 30
0.0
 10
23.80866112127657
 20
-3.374068440172514
 30
0.0
 10
21.11285704390772
 20
-2.048791717938492
 30
0.0
 10
18.34945169396053
 20
-0.4868674848082392
 30
0.0
 10
15.6528531363057
 20
1.087600396959698
 30
0.0
 10
13.02422059753818
 20
2.516516582404817
 30
0.0
 10
11.1607302009763
 20
3.374534708039081
 30
0.0
 10
10.15342046450913
 20
3.75769831897213
 30
0.0
 10
9.999999999999995
 20
3.816056872497601
 30
0.0
  0
LINE
  5
C3
330
1F
100
AcDbEntity
  8
0
  6
Continuous
 62
     1
370
    25
100
AcDbLine
 10
70.0
 20
-0.500000000000026
 30
0.0
 11
70.0
 21
1.107382733648327
 31
0.0
  0
LINE
  5
C4
330
1F
100
AcDbEntity
  8
0
  6
Continuous
 62
     1
370
    25
100
AcDbLine
 10
70.0
 20
-0.5000000000000255
 30
0.0
 11
69.52075807168356
 21
-0.835568810833359
 31
0.0
  0
SPLINE
  5
C5
330
1F
100
AcDbEntity
  8
0
  6
Continuous
 62
     1
370
    25
100
AcDbSpline
210
0.0
220
0.0
230
1.0
 70
     8
 71
     3
 72
    20
 73
    16
 74
     0
 42
0.000000001
 43
0.00000001
 40
0.0
 40
0.0
 40
0.0
 40
0.0
 40
0.0462956362440482
 40
0.1262319375941929
 40
0.2061355691368268
 40
0.2859766735530223
 40
0.3659077223042095
 40
0.4458232831737713
 40
0.525659798044491
 40
0.6055832077719492
 40
0.6855083190441055
 40
0.7653453381335659
 40
0.8452587261130805
 40
0.9251910042395337
 40
1.0
 40
1.0
 40
1.0
 40
1.0
 10
22.38951187932513
 20
4.177150509686024
 30
0.0
 10
22.88446554485618
 20
4.338697406654573
 30
0.0
 10
24.23403032651235
 20
4.779179047498014
 30
0.0
 10
26.43818041042942
 20
5.03885824157415
 30
0.0
 10
29.00079588813635
 20
4.974181521345753
 30
0.0
 10
31.5625325749966
 20
4.457594745544266
 30
0.0
 10
34.12551178980278
 20
3.559388806711169
 30
0.0
 10
36.68826015600573
 20
2.350624721676581
 30
0.0
 10
39.24994419347861
 20
0.9363937587559109
 30
0.0
 10
41.81280553001793
 20
-0.5578194299736642
 30
0.0
 10
44.37569281151943
 20
-2.002857872664964
 30
0.0
 10
46.93738088417847
 20
-3.277973933190472
 30
0.0
 10
49.50010865897779
 20
-4.257072905044974
 30
0.0
 10
52.00924640658963
 20
-4.889107401538831
 30
0.0
 10
53.66329454294699
 20
-4.95520186629617
 30
0.0
 10
54.46293691962014
 20
-4.987154947782598
 30
0.0
  0
SPLINE
  5
C6
330
1F
100
AcDbEntity
  8
0
  6
Continuous
 62
     1
370
    25
100
AcDbSpline
210
0.0
220
0.0
230
1.0
 70
     8
 71
     3
 72
    21
 73
    17
 74
     0
 42
0.000000001
 43
0.00000001
 40
0.0
 40
0.0
 40
0.0
 40
0.0
 40
0.0276781798140851
 40
0.1075271908390761
 40
0.1874599496946258
 40
0.2673566408885977
 40
0.347194963708962
 40
0.4271229429878033
 40
0.5070320331356392
 40
0.5868647585006255
 40
0.6667855713106112
 40
0.7467046826674099
 40
0.8265369038407728
 40
0.9064481667617956
 40
0.9863749167314882
 40
1.0
 40
1.0
 40
1.0
 40
1.0
 10
63.19987646508759
 20
-4.189120384362529
 30
0.0
 10
62.90395009823676
 20
-4.291264880552108
 30
0.0
 10
61.75430329572222
 20
-4.688086882891612
 30
0.0
 10
59.75051083281082
 20
-4.990176046029318
 30
0.0
 10
57.18740520263243
 20
-5.033481327039392
 30
0.0
 10
54.62486474125851
 20
-4.615245965426296
 30
0.0
 10
52.06309737956958
 20
-3.801576345631113
 30
0.0
 10
49.50010143305474
 20
-2.656845439681617
 30
0.0
 10
46.93738278970335
 20
-1.281599600103802
 30
0.0
 10
44.37569240617036
 20
0.2065559525298308
 30
0.0
 10
41.81280524380455
 20
1.675692837707916
 30
0.0
 10
39.24994574301085
 20
2.996572587722966
 30
0.0
 10
36.68825424875337
 20
4.068863337604602
 30
0.0
 10
34.12553389751459
 20
4.746779791870146
 30
0.0
 10
32.2705186396859
 20
5.045871854010516
 30
0.0
 10
31.27044276611882
 20
4.978918090050563
 30
0.0
 10
31.1247896390712
 20
4.969166804826982
 30
0.0
  0
SPLINE
  5
C7
330
1F
100
AcDbEntity
  8
0
  6
Continuous
 62
     4
370
    25
100
AcDbSpline
210
0.0
220
0.0
230
1.0
 70
    24
 71
     3
 72
    24
 73
    20
 74
     0
 42
0.000000001
 43
0.00000001
 40
0.0
 40
0.0
 40
0.0
 40
0.0
 40
0.0624999999999998
 40
0.0624999999999998
 40
0.1249999999999997
 40
0.1249999999999997
 40
0.2499999999999997
 40
0.2499999999999997
 40
0.3749999999999996
 40
0.3749999999999996
 40
0.4999999999999997
 40
0.4999999999999997
 40
0.6249999999999998
 40
0.6249999999999998
 40
0.7499999999999998
 40
0.7499999999999998
 40
0.8749999999999999
 40
0.8749999999999999
 40
1.0
 40
1.0
 40
1.0
 40
1.0
 10
9.999999999999995
 20
2.046158807733074
 30
0.0
 10
9.999999999999995
 20
1.999071022509263
 30
0.0
 10
9.999999999999995
 20
1.950832183306018
 30
0.0
 10
9.999999999999995
 20
1.853151173261015
 30
0.0
 10
9.999999999999995
 20
1.80165062236123
 30
0.0
 10
9.999999999999995
 20
1.632166191454439
 30
0.0
 10
9.999999999999995
 20
1.501489943876959
 30
0.0
 10
9.999999999999995
 20
1.197390891265088
 30
0.0
 10
9.999999999999995
 20
1.02385864712348
 30
0.0
 10
9.999999999999995
 20
0.6291041739122372
 30
0.0
 10
9.999999999999995
 20
0.4077239195751285
 30
0.0
 10
9.999999999999995
 20
-0.0810540693960747
 30
0.0
 10
9.999999999999995
 20
-0.3485919649944954
 30
0.0
 10
9.999999999999995
 20
-0.9165799009200823
 30
0.0
 10
9.999999999999995
 20
-1.217008906210381
 30
0.0
 10
9.999999999999995
 20
-1.823850536274154
 30
0.0
 10
9.999999999999995
 20
-2.129965727607095
 30
0.0
 10
9.999999999999995
 20
-2.711907530697288
 30
0.0
 10
9.999999999999995
 20
-2.987271849740224
 30
0.0
 10
9.999999999999995
 20
-3.230744487864039
 30
0.0
  0
SPLINE
  5
C8
330
1F
100
AcDbEntity
  8
0
  6
Continuous
 62
     1
370
    25
100
AcDbSpline
210
0.0
220
0.0
230
1.0
 70
     8
 71
     3
 72
     8
 73
     4
 74
     0
 42
0.000000001
 43
0.00000001
 40
0.0
 40
0.0
 40
0.0
 40
0.0
 40
1.0
 40
1.0
 40
1.0
 40
1.0
 10
70.0
 20
-3.778128546404893
 30
0.0
 10
69.18469570654707
 20
-3.319047671130693
 30
0.0
 10
68.41618671949516
 20
-2.75542190577149
 30
0.0
 10
67.67680798191736
 20
-2.126716563770124
 30
0.0
  0
LINE
  5
C9
330
1F
100
AcDbEntity
  8
0
  6
Continuous
 62
     1
370
    25
100
AcDbLine
 10
70.0
 20
-4.875828491776326
 30
0.0
 11
70.0
 21
-3.778128546404893
 31
0.0
  0
SPLINE
  5
CA
330
1F
100
AcDbEntity
  8
0
  6
Continuous
 62
     1
370
    25
100
AcDbSpline
210
0.0
220
0.0
230
1.0
 70
    24
 71
     3
 72
    12
 73
     8
 74
     0
 42
0.000000001
 43
0.00000001
 40
0.0
 40
0.0
 40
0.0
 40
0.0
 40
0.0119838913498515
 40
0.2891902807627779
 40
0.5671810772116546
 40
0.831957453212512
 40
1.0
 40
1.0
 40
1.0
 40
1.0
 10
69.38235043189343
 20
-0.9324828835601989
 30
0.0
 10
69.38104671071449
 20
-0.93339575895742
 30
0.0
 10
69.34958585357131
 20
-0.9554248882875201
 30
0.0
 10
69.08365680139505
 20
-1.141630415250423
 30
0.0
 10
68.63006508042122
 20
-1.459238757545824
 30
0.0
 10
68.12241170989265
 20
-1.814701474387268
 30
0.0
 10
67.80142969440669
 20
-2.039455501260768
 30
0.0
 10
67.67680798191839
 20
-2.126716563769894
 30
0.0
  0
SPLINE
  5
CB
330
1F
100
AcDbEntity
  8
0
  6
Continuous
 62
     1
370
    25
100
AcDbSpline
210
0.0
220
0.0
230
1.0
 70
     8
 71
     3
 72
    21
 73
    17
 74
     0
 42
0.000000001
 43
0.00000001
 40
0.0
 40
0.0
 40
0.0
 40
0.0
 40
0.0029898994576305
 40
0.0829040069435183
 40
0.1627417448517587
 40
0.2426675757358397
 40
0.3225917050599027
 40
0.4024289387448626
 40
0.4823452191403615
 40
0.5622769875569322
 40
0.64211881082869
 40
0.7220231617898544
 40
0.8019601828526746
 40
0.8880343541071588
 40
0.9742073940941143
 40
1.0
 40
1.0
 40
1.0
 40
1.0
 10
49.59583996931433
 20
-4.224141667145334
 30
0.0
 10
49.56387189266518
 20
-4.236044455462612
 30
0.0
 10
48.67746026376276
 20
-4.566085267632542
 30
0.0
 10
46.93736607959415
 20
-4.883906169930542
 30
0.0
 10
44.37569678055717
 20
-5.076036161532767
 30
0.0
 10
41.81280447019405
 20
-4.787070731279689
 30
0.0
 10
39.24994446149871
 20
-4.093212564801887
 30
0.0
 10
36.68826014231995
 20
-3.039507593897659
 30
0.0
 10
34.12551157605881
 20
-1.72345560555348
 30
0.0
 10
31.56253344338569
 20
-0.2580186270430717
 30
0.0
 10
29.00079263131638
 20
1.232227010651202
 30
0.0
 10
26.43819258329012
 20
2.611685582852127
 30
0.0
 10
23.80865091947631
 20
3.80284381822025
 30
0.0
 10
21.11289721109733
 20
4.631250719728019
 30
0.0
 10
18.99477185181433
 20
5.028200750862275
 30
0.0
 10
17.79763154509429
 20
4.962014829512719
 30
0.0
 10
17.52185616864683
 20
4.946768122611917
 30
0.0
  0
SPLINE
  5
CC
330
1F
100
AcDbEntity
  8
0
  6
Continuous
 62
     4
370
    25
100
AcDbSpline
210
0.0
220
0.0
230
1.0
 70
    24
 71
     3
 72
     9
 73
     5
 74
     0
 42
0.000000001
 43
0.00000001
 40
0.0
 40
0.0
 40
0.0
 40
0.0
 40
0.7085706819818531
 40
1.0
 40
1.0
 40
1.0
 40
1.0
 10
9.999999999999995
 20
4.562152357554067
 30
0.0
 10
9.999999999999995
 20
4.396458405478899
 30
0.0
 10
9.999999999999995
 20
4.162615888015819
 30
0.0
 10
9.999999999999993
 20
4.00024827234658
 30
0.0
 10
9.999999999999993
 20
3.952929588843861
 30
0.0
  0
SPLINE
  5
CD
330
1F
100
AcDbEntity
  8
0
  6
Continuous
 62
     1
370
    25
100
AcDbSpline
210
0.0
220
0.0
230
1.0
 70
     8
 71
     3
 72
    19
 73
    15
 74
     0
 42
0.000000001
 43
0.00000001
 40
0.0
 40
0.0
 40
0.0
 40
0.0
 40
0.0899483700468242
 40
0.1798574929780282
 40
0.269749680616067
 40
0.3597067911798764
 40
0.4495584675350995
 40
0.5326443936002255
 40
0.6156963626124788
 40
0.6986833408243499
 40
0.7817638073292855
 40
0.8648281757040112
 40
0.9478103835345959
 40
1.0
 40
1.0
 40
1.0
 40
1.0
 10
10.00000000000009
 20
4.562152357554082
 30
0.0
 10
10.92542784945569
 20
4.735241901991344
 30
0.0
 10
12.77587975701651
 20
5.081345466814021
 30
0.0
 10
15.55090644234293
 20
4.958955365325482
 30
0.0
 10
18.32567369048565
 20
4.364552600097397
 30
0.0
 10
21.10089674253228
 20
3.318391675022745
 30
0.0
 10
23.80468057546764
 20
1.969549107189352
 30
0.0
 10
26.43819022057357
 20
0.4784421113276647
 30
0.0
 10
29.00079304348199
 20
-1.015185877454633
 30
0.0
 10
31.56253415436755
 20
-2.42048579641726
 30
0.0
 10
34.12550831532182
 20
-3.618580777100573
 30
0.0
 10
36.68827246502997
 20
-4.484738905462481
 30
0.0
 10
38.93233764442643
 20
-4.961312809895058
 30
0.0
 10
40.32287003299827
 20
-4.952413293617517
 30
0.0
 10
40.85975227469515
 20
-4.948977205189538
 30
0.0
  0
SPLINE
  5
CE
330
1F
100
AcDbEntity
  8
0
  6
Continuous
 62
     1
370
    25
100
AcDbSpline
210
0.0
220
0.0
230
1.0
 70
     8
 71
     3
 72
    10
 73
     6
 74
     0
 42
0.000000001
 43
0.00000001
 40
0.0
 40
0.0
 40
0.0
 40
0.0
 40
0.1921252573850659
 40
0.631249369095725
 40
1.0
 40
1.0
 40
1.0
 40
1.0
 10
63.19987646508759
 20
4.189120384362512
 30
0.0
 10
63.60454077010667
 20
4.321155177924632
 30
0.0
 10
64.93411133628618
 20
4.754970498560612
 30
0.0
 10
67.04227145271153
 20
5.047632573362723
 30
0.0
 10
68.74400828793532
 20
4.966651520870969
 30
0.0
 10
69.52075807168356
 20
4.929688099906761
 30
0.0
  0
SPLINE
  5
CF
330
1F
100
AcDbEntity
  8
0
  6
Continuous
 62
     1
370
    25
100
AcDbSpline
210
0.0
220
0.0
230
1.0
 70
     8
 71
     3
 72
    18
 73
    14
 74
     0
 42
0.000000001
 43
0.00000001
 40
0.0
 40
0.0
 40
0.0
 40
0.0
 40
0.249999999999999
 40
0.249999999999999
 40
0.3749999999999985
 40
0.3749999999999985
 40
0.499999999999998
 40
0.499999999999998
 40
0.6249999999999976
 40
0.6249999999999976
 40
0.749999999999997
 40
0.749999999999997
 40
1.0
 40
1.0
 40
1.0
 40
1.0
 10
69.52075807168356
 20
4.92968809990677
 30
0.0
 10
69.52699347436376
 20
4.606851837981952
 30
0.0
 10
69.49969480875362
 20
4.29033770537186
 30
0.0
 10
69.39005607498703
 20
3.828516671281815
 30
0.0
 10
69.34125743286381
 20
3.676235446349217
 30
0.0
 10
69.22075046690128
 20
3.391480187959258
 30
0.0
 10
69.14856080958637
 20
3.256893544584263
 30
0.0
 10
68.978623680364
 20
3.007383037770175
 30
0.0
 10
68.88382477663743
 20
2.896667102584317
 30
0.0
 10
68.67533102073347
 20
2.702221710530225
 30
0.0
 10
68.56025913724946
 20
2.617982717210613
 30
0.0
 10
68.20199878948117
 20
2.415034884755317
 30
0.0
 10
67.93943782007102
 20
2.341734955811777
 30
0.0
 10
67.67680798191739
 20
2.323192018082628
 30
0.0
  0
LINE
  5
D0
330
1F
100
AcDbEntity
  8
0
  6
Continuous
 62
     1
370
    25
100
AcDbLine
 10
70.0
 20
1.111805039640119
 30
0.0
 11
70.0
 21
1.193141214989686
 31
0.0
  0
LINE
  5
D1
330
1F
100
AcDbEntity
  8
0
  6
Continuous
 62
     1
370
    25
100
AcDbLine
 10
70.0
 20
4.974937185533099
 30
0.0
 11
70.0
 21
4.999999999999999
 31
0.0
  0
ELLIPSE
  5
D2
330
1F
100
AcDbEntity
  8
0
  6
Continuous
 62
     1
370
    25
100
AcDbEllipse
 10
70.71407400337105
 20
-0.0000000000000123
 30
0.0
 11
7.140740033710557
 21
0.0
 31
0.0
210
0.0
220
0.0
230
1.0
 40
0.7002075382097122
 41
1.670963747956454
 42
1.738697861005222
  0
LINE
  5
D3
330
1F
100
AcDbEntity
  8
0
  6
Continuous
 62
     1
370
    25
100
AcDbLine
 10
70.0
 20
1.193141214989686
 30
0.0
 11
70.0
 21
4.974937185533099
 31
0.0
  0
LINE
  5
D4
330
1F
100
AcDbEntity
  8
0
  6
Continuous
 62
     1
370
    25
100
AcDbLine
 10
70.0
 20
-0.5000000000000087
 30
0.0
 11
70.0
 21
-3.778128546404893
 31
0.0
  0
LINE
  5
D5
330
1F
100
AcDbEntity
  8
중심선
100
AcDbLine
 10
-133.0
 20
-0.0000000000000175
 30
0.0
 11
73.0
 21
0.0000000000000077
 31
0.0
  0
CIRCLE
  5
D6
330
1F
100
AcDbEntity
  8
해칭선
100
AcDbCircle
 10
0.0000486949471874
 20
-0.0000000000000043
 30
0.0
 40
3.0
  0
INSERT
  5
D7
330
1F
100
AcDbEntity
  8
0
  6
Continuous
 62
     7
100
AcDbBlockReference
 66
     1
  2
블럭10
 10
-42.44009924894178
 20
-52.04717430164393
 30
0.0
  0
ATTRIB
  5
D8
330
D7
100
AcDbEntity
  8
FORMAT
 62
     2
100
AcDbText
 10
-63.29834678053432
 20
-49.97180738881174
 30
0.0
 40
4.233333333333333
  1
SEME7210060200E [ 4 FLUTE ]
 41
0.75
  7
SLDTEXTSTYLE0
 11
-63.29834678053432
 21
-52.08847405547841
 31
0.0
100
AcDbAttribute
  2
AUTOATTR0
 70
     0
 74
     1
  0
SEQEND
  5
D9
330
D7
100
AcDbEntity
  8
0
  6
Continuous
 62
     7
  0
HATCH
  5
DA
330
1F
100
AcDbEntity
  8
중심선
100
AcDbHatch
 10
0.0
 20
0.0
 30
0.0
210
0.0
220
0.0
230
1.0
  2
SOLID
 70
     1
 71
     0
 91
        1
 92
        0
 93
        4
 72
     1
 10
-36.72518994456095
 20
-35.8
 11
-40.17146518839823
 21
-35.8
 72
     1
 10
-40.17146518839823
 20
-35.8
 11
-42.29969504760226
 21
-38.33632558057259
 72
     1
 10
-42.29969504760226
 20
-38.33632558057259
 11
-38.85338671865182
 21
-38.3362861512701
 72
     1
 10
-38.85338671865182
 20
-38.3362861512701
 11
-36.72518994456095
 21
-35.8
 97
        0
 75
     0
 76
     1
 98
        1
 10
0.0
 20
0.0
  0
HATCH
  5
DB
330
1F
100
AcDbEntity
  8
중심선
100
AcDbHatch
 10
0.0
 20
0.0
 30
0.0
210
0.0
220
0.0
230
1.0
  2
SOLID
 70
     1
 71
     0
 91
        1
 92
        0
 93
        4
 72
     1
 10
-31.71242595352497
 20
-35.8
 11
-35.15870119736228
 21
-35.80000000000003
 72
     1
 10
-35.15870119736228
 20
-35.80000000000003
 11
-39.68983920571966
 21
-41.20000000000002
 72
     1
 10
-39.68983920571966
 20
-41.20000000000002
 11
-36.24356396188239
 21
-41.20000000000002
 72
     1
 10
-36.24356396188239
 20
-41.20000000000002
 11
-31.71242595352497
 21
-35.8
 97
        0
 75
     0
 76
     1
 98
        1
 10
0.0
 20
0.0
  0
HATCH
  5
DC
330
1F
100
AcDbEntity
  8
중심선
100
AcDbHatch
 10
0.0
 20
0.0
 30
0.0
210
0.0
220
0.0
230
1.0
  2
SOLID
 70
     1
 71
     0
 91
        1
 92
        0
 93
        4
 72
     1
 10
-26.6996619624891
 20
-35.79999999999997
 11
-30.14593720632619
 21
-35.79999999999997
 72
     1
 10
-30.14593720632619
 20
-35.79999999999997
 11
-37.19437410821547
 21
-44.20000000000002
 72
     1
 10
-37.19437410821547
 20
-44.20000000000002
 11
-33.74809886437819
 21
-44.20000000000002
 72
     1
 10
-33.74809886437819
 20
-44.20000000000002
 11
-26.6996619624891
 21
-35.79999999999997
 97
        0
 75
     0
 76
     1
 98
        1
 10
0.0
 20
0.0
  0
HATCH
  5
DD
330
1F
100
AcDbEntity
  8
중심선
100
AcDbHatch
 10
0.0
 20
0.0
 30
0.0
210
0.0
220
0.0
230
1.0
  2
SOLID
 70
     1
 71
     0
 91
        1
 92
        0
 93
        6
 72
     3
 10
-21.8997715314769
 20
-40.00000000005127
 11
3.960054785062284
 21
1.540850780301639E-10
 40
0.3939339440162633
 50
17.09539180608434
 51
320.0019657685075
 73
     0
 72
     1
 10
-20.21677187577633
 20
-38.5878940046383
 11
-17.91147000207527
 21
-36.65356729459035
 72
     3
 10
-21.89977153152975
 20
-40.00000000000015
 11
6.600054785286829
 21
-1.249000902703301E-13
 40
0.6363583540795982
 50
39.99873849337433
 51
368.4976242363725
 73
     1
 72
     1
 10
-15.47443903962914
 20
-39.03999999993002
 11
-23.21970422469383
 21
-39.03999999993002
 72
     1
 10
-23.21970422469383
 20
-39.03999999993002
 11
-23.21972926913976
 21
-40.95999999992991
 72
     1
 10
-23.21972926913976
 20
-40.95999999992991
 11
-18.77834949966772
 21
-40.95999999992988
 97
        0
 75
     0
 76
     1
 98
        1
 10
0.0
 20
0.0
  0
DIMENSION
  5
DE
330
1F
100
AcDbEntity
  8
치수문자_일반주서
100
AcDbDimension
  2
_D
 10
83.89513377300585
 20
5.000000000000043
 30
0.0
 11
83.89513377300582
 21
15.32275000000004
 31
0.0
 70
   160
  1
%%c<>
 71
     2
 42
10.00000000000001
 52
-270.0
  3
SLDDIMSTYLE0
100
AcDbAlignedDimension
 13
70.0
 23
-5.000000000000018
 33
0.0
 14
70.0
 24
4.999999999999991
 34
0.0
 50
90.0000000000002
100
AcDbRotatedDimension
  0
DIMENSION
  5
EC
330
1F
100
AcDbEntity
  8
치수문자_일반주서
100
AcDbDimension
  2
_D_1
 10
70.0
 20
22.38913260158162
 30
0.0
 11
-30.00000000000001
 21
22.38913260158162
 31
0.0
 70
   160
  1
<>
 71
     2
 42
200.0
  3
SLDDIMSTYLE1
100
AcDbAlignedDimension
 13
-130.0
 23
4.499999999999971
 33
0.0
 14
70.0
 24
4.999999999999994
 34
0.0
 50
-0.0000000000000051
100
AcDbRotatedDimension
  0
DIMENSION
  5
F7
330
1F
100
AcDbEntity
  8
치수문자_일반주서
100
AcDbDimension
  2
_D_2
 10
-141.8610096676906
 20
-5.000000000000064
 30
0.0
 11
-141.8610096676906
 21
15.32274999999995
 31
0.0
 70
   160
  1
%%c<>
 71
     2
 42
10.00000000000001
 52
-270.0
  3
SLDDIMSTYLE2
100
AcDbAlignedDimension
 13
-129.5
 23
4.999999999999992
 33
0.0
 14
-129.5
 24
-5.000000000000017
 34
0.0
 50
90.0000000000002
100
AcDbRotatedDimension
  0
DIMENSION
  5
105
330
1F
100
AcDbEntity
  8
치수문자_일반주서
100
AcDbDimension
  2
_D_3
 10
70.0
 20
15.40807066014172
 30
0.0
 11
39.99999999999999
 21
15.40807066014172
 31
0.0
 70
   160
  1
<>
 71
     2
 42
60.00000000000001
  3
SLDDIMSTYLE1
100
AcDbAlignedDimension
 13
9.999999999999995
 23
4.56215235755407
 33
0.0
 14
70.0
 24
4.999999999999994
 34
0.0
 50
-0.0000000000000034
100
AcDbRotatedDimension
  0
INSERT
  5
115
330
1F
100
AcDbEntity
  8
해칭선
100
AcDbBlockReference
  2
SW_DOWELSYMBOL_0
 10
0.0000486949471874
 20
-0.0000000000000043
 30
0.0
  0
ENDSEC
  0
SECTION
  2
OBJECTS
  0
DICTIONARY
  5
C
330
0
100
AcDbDictionary
281
     1
  3
ACAD_GROUP
350
D
  3
ACAD_IMAGE_VARS
350
139
  3
ACAD_LAYOUT
350
1A
  3
ACAD_MLINESTYLE
350
17
  3
ACAD_PLOTSETTINGS
350
19
  3
ACAD_PLOTSTYLENAME
350
E
  3
ACAD_SCALELIST
350
47
  3
APPDATA
350
137
  3
DWGPROPS
350
148
  0
DICTIONARY
  5
D
102
{ACAD_REACTORS
330
C
102
}
330
C
100
AcDbDictionary
281
     1
  0
RASTERVARIABLES
  5
139
102
{ACAD_REACTORS
330
C
102
}
330
C
100
AcDbRasterVariables
 90
        0
 70
     1
 71
     1
 72
     1
  0
DICTIONARY
  5
1A
102
{ACAD_REACTORS
330
C
102
}
330
C
100
AcDbDictionary
281
     1
  3
Layout1
350
1E
  3
Layout2
350
26
  3
Model
350
22
  0
DICTIONARY
  5
17
102
{ACAD_REACTORS
330
C
102
}
330
C
100
AcDbDictionary
281
     1
  3
Standard
350
18
  0
DICTIONARY
  5
19
102
{ACAD_REACTORS
330
C
102
}
330
C
100
AcDbDictionary
281
     1
  0
ACDBDICTIONARYWDFLT
  5
E
102
{ACAD_REACTORS
330
C
102
}
330
C
100
AcDbDictionary
281
     1
  3
Normal
350
F
100
AcDbDictionaryWithDefault
340
F
  0
DICTIONARY
  5
47
102
{ACAD_REACTORS
330
C
102
}
330
C
100
AcDbDictionary
281
     1
  3
A0
350
48
  3
A1
350
49
  3
A2
350
4A
  3
A3
350
4B
  3
A4
350
4C
  3
A5
350
4D
  3
A6
350
4E
  3
A7
350
4F
  3
A8
350
50
  3
A9
350
51
  3
B0
350
52
  3
B1
350
53
  3
B2
350
54
  3
B3
350
55
  3
B4
350
56
  3
B5
350
57
  3
B6
350
58
  3
B7
350
59
  3
B8
350
5A
  3
B9
350
5B
  3
C0
350
5C
  3
C1
350
5D
  3
C2
350
5E
  3
C3
350
5F
  3
C4
350
60
  3
C5
350
61
  3
C6
350
62
  3
C7
350
63
  3
C8
350
64
  3
C9
350
65
  3
D0
350
66
  3
D1
350
67
  3
D2
350
68
  0
DICTIONARY
  5
137
102
{ACAD_REACTORS
330
C
102
}
330
C
100
AcDbDictionary
281
     1
  0
XRECORD
  5
148
102
{ACAD_REACTORS
330
C
102
}
330
C
100
AcDbXrecord
280
     1
  1
DWGPROPS COOKIE
  2

  3

  4

  6

  7

  8
12014102
  9

300
=
301
=
302
=
303
=
304
=
305
=
306
=
307
=
308
=
309
=
 40
0.0
 41
2458260.204481956
 42
2458268.276933762
  1

 90
        0
  0
LAYOUT
  5
1E
102
{ACAD_REACTORS
330
1A
102
}
330
1A
100
AcDbPlotSettings
  1

  2
none_device
  4

  6

 40
0.0
 41
0.0
 42
0.0
 43
0.0
 44
0.0
 45
0.0
 46
0.0
 47
0.0
 48
0.0
 49
0.0
140
0.0
141
0.0
142
1.0
143
1.0
 70
   688
 72
     1
 73
     0
 74
     5
  7

 75
    16
147
1.0
148
0.0
149
0.0
100
AcDbLayout
  1
Layout1
 70
     1
 71
     1
 10
0.0
 20
0.0
 11
420.0
 21
297.0
 12
0.0
 22
0.0
 32
0.0
 14
1.000000000000000E+20
 24
1.000000000000000E+20
 34
1.000000000000000E+20
 15
-1.000000000000000E+20
 25
-1.000000000000000E+20
 35
-1.000000000000000E+20
146
0.0
 13
0.0
 23
0.0
 33
0.0
 16
1.0
 26
0.0
 36
0.0
 17
0.0
 27
1.0
 37
0.0
 76
     0
330
1B
  0
LAYOUT
  5
26
102
{ACAD_REACTORS
330
1A
102
}
330
1A
100
AcDbPlotSettings
  1

  2
none_device
  4

  6

 40
0.0
 41
0.0
 42
0.0
 43
0.0
 44
0.0
 45
0.0
 46
0.0
 47
0.0
 48
0.0
 49
0.0
140
0.0
141
0.0
142
1.0
143
1.0
 70
   688
 72
     1
 73
     0
 74
     5
  7

 75
    16
147
1.0
148
0.0
149
0.0
100
AcDbLayout
  1
Layout2
 70
     1
 71
     2
 10
0.0
 20
0.0
 11
0.0
 21
0.0
 12
0.0
 22
0.0
 32
0.0
 14
0.0
 24
0.0
 34
0.0
 15
0.0
 25
0.0
 35
0.0
146
0.0
 13
0.0
 23
0.0
 33
0.0
 16
1.0
 26
0.0
 36
0.0
 17
0.0
 27
1.0
 37
0.0
 76
     0
330
23
  0
LAYOUT
  5
22
102
{ACAD_REACTORS
330
1A
102
}
330
1A
100
AcDbPlotSettings
  1

  2
none_device
  4
ANSI_A_(11.00_x_8.50_Inches)
  6

 40
6.35
 41
19.05
 42
6.35000508
 43
19.05000254
 44
279.4
 45
215.9
 46
167.6530799291851
 47
102.9238197702383
 48
0.0
 49
0.0
140
0.0
141
0.0
142
0.0463675140258003
143
1.0
 70
  1696
 72
     0
 73
     0
 74
     0
  7

 75
     0
147
0.0235690232323232
148
0.0
149
0.0
100
AcDbLayout
  1
Model
 70
     1
 71
     0
 10
0.0
 20
0.0
 11
420.0
 21
297.0
 12
0.0
 22
0.0
 32
0.0
 14
-146.2360096676906
 24
-49.97180738881174
 34
0.0
 15
84.44546710633921
 25
26.76413260158162
 35
0.0
146
0.0
 13
0.0
 23
0.0
 33
0.0
 16
1.0
 26
0.0
 36
0.0
 17
0.0
 27
1.0
 37
0.0
 76
     0
330
1F
331
29
  0
MLINESTYLE
  5
18
102
{ACAD_REACTORS
330
17
102
}
330
17
100
AcDbMlineStyle
  2
Standard
 70
     0
  3

 62
   256
 51
90.0
 52
90.0
 71
     2
 49
0.5
 62
   256
  6
BYLAYER
 49
-0.5
 62
   256
  6
BYLAYER
  0
ACDBPLACEHOLDER
  5
F
102
{ACAD_REACTORS
330
E
102
}
330
E
  0
SCALE
  5
48
102
{ACAD_REACTORS
330
47
102
}
330
47
100
AcDbScale
 70
     0
300
1:1
140
1.0
141
1.0
290
     1
  0
SCALE
  5
49
102
{ACAD_REACTORS
330
47
102
}
330
47
100
AcDbScale
 70
     0
300
1:2
140
1.0
141
2.0
290
     0
  0
SCALE
  5
4A
102
{ACAD_REACTORS
330
47
102
}
330
47
100
AcDbScale
 70
     0
300
1:4
140
1.0
141
4.0
290
     0
  0
SCALE
  5
4B
102
{ACAD_REACTORS
330
47
102
}
330
47
100
AcDbScale
 70
     0
300
1:5
140
1.0
141
5.0
290
     0
  0
SCALE
  5
4C
102
{ACAD_REACTORS
330
47
102
}
330
47
100
AcDbScale
 70
     0
300
1:8
140
1.0
141
8.0
290
     0
  0
SCALE
  5
4D
102
{ACAD_REACTORS
330
47
102
}
330
47
100
AcDbScale
 70
     0
300
1:10
140
1.0
141
10.0
290
     0
  0
SCALE
  5
4E
102
{ACAD_REACTORS
330
47
102
}
330
47
100
AcDbScale
 70
     0
300
1:16
140
1.0
141
16.0
290
     0
  0
SCALE
  5
4F
102
{ACAD_REACTORS
330
47
102
}
330
47
100
AcDbScale
 70
     0
300
1:20
140
1.0
141
20.0
290
     0
  0
SCALE
  5
50
102
{ACAD_REACTORS
330
47
102
}
330
47
100
AcDbScale
 70
     0
300
1:30
140
1.0
141
30.0
290
     0
  0
SCALE
  5
51
102
{ACAD_REACTORS
330
47
102
}
330
47
100
AcDbScale
 70
     0
300
1:40
140
1.0
141
40.0
290
     0
  0
SCALE
  5
52
102
{ACAD_REACTORS
330
47
102
}
330
47
100
AcDbScale
 70
     0
300
1:50
140
1.0
141
50.0
290
     0
  0
SCALE
  5
53
102
{ACAD_REACTORS
330
47
102
}
330
47
100
AcDbScale
 70
     0
300
1:100
140
1.0
141
100.0
290
     0
  0
SCALE
  5
54
102
{ACAD_REACTORS
330
47
102
}
330
47
100
AcDbScale
 70
     0
300
2:1
140
2.0
141
1.0
290
     0
  0
SCALE
  5
55
102
{ACAD_REACTORS
330
47
102
}
330
47
100
AcDbScale
 70
     0
300
4:1
140
4.0
141
1.0
290
     0
  0
SCALE
  5
56
102
{ACAD_REACTORS
330
47
102
}
330
47
100
AcDbScale
 70
     0
300
8:1
140
8.0
141
1.0
290
     0
  0
SCALE
  5
57
102
{ACAD_REACTORS
330
47
102
}
330
47
100
AcDbScale
 70
     0
300
10:1
140
10.0
141
1.0
290
     0
  0
SCALE
  5
58
102
{ACAD_REACTORS
330
47
102
}
330
47
100
AcDbScale
 70
     0
300
100:1
140
100.0
141
1.0
290
     0
  0
SCALE
  5
59
102
{ACAD_REACTORS
330
47
102
}
330
47
100
AcDbScale
 70
     0
300
1/128" = 1'-0"
140
0.0078125
141
12.0
290
     0
  0
SCALE
  5
5A
102
{ACAD_REACTORS
330
47
102
}
330
47
100
AcDbScale
 70
     0
300
1/64" = 1'-0"
140
0.015625
141
12.0
290
     0
  0
SCALE
  5
5B
102
{ACAD_REACTORS
330
47
102
}
330
47
100
AcDbScale
 70
     0
300
1/32" = 1'-0"
140
0.03125
141
12.0
290
     0
  0
SCALE
  5
5C
102
{ACAD_REACTORS
330
47
102
}
330
47
100
AcDbScale
 70
     0
300
1/16" = 1'-0"
140
0.0625
141
12.0
290
     0
  0
SCALE
  5
5D
102
{ACAD_REACTORS
330
47
102
}
330
47
100
AcDbScale
 70
     0
300
3/32" = 1'-0"
140
0.09375
141
12.0
290
     0
  0
SCALE
  5
5E
102
{ACAD_REACTORS
330
47
102
}
330
47
100
AcDbScale
 70
     0
300
1/8" = 1'-0"
140
0.125
141
12.0
290
     0
  0
SCALE
  5
5F
102
{ACAD_REACTORS
330
47
102
}
330
47
100
AcDbScale
 70
     0
300
3/16" = 1'-0"
140
0.1875
141
12.0
290
     0
  0
SCALE
  5
60
102
{ACAD_REACTORS
330
47
102
}
330
47
100
AcDbScale
 70
     0
300
1/4" = 1'-0"
140
0.25
141
12.0
290
     0
  0
SCALE
  5
61
102
{ACAD_REACTORS
330
47
102
}
330
47
100
AcDbScale
 70
     0
300
3/8" = 1'-0"
140
0.375
141
12.0
290
     0
  0
SCALE
  5
62
102
{ACAD_REACTORS
330
47
102
}
330
47
100
AcDbScale
 70
     0
300
1/2" = 1'-0"
140
0.5
141
12.0
290
     0
  0
SCALE
  5
63
102
{ACAD_REACTORS
330
47
102
}
330
47
100
AcDbScale
 70
     0
300
3/4" = 1'-0"
140
0.75
141
12.0
290
     0
  0
SCALE
  5
64
102
{ACAD_REACTORS
330
47
102
}
330
47
100
AcDbScale
 70
     0
300
1" = 1'-0"
140
1.0
141
12.0
290
     0
  0
SCALE
  5
65
102
{ACAD_REACTORS
330
47
102
}
330
47
100
AcDbScale
 70
     0
300
1-1/2" = 1'-0"
140
1.5
141
12.0
290
     0
  0
SCALE
  5
66
102
{ACAD_REACTORS
330
47
102
}
330
47
100
AcDbScale
 70
     0
300
3" = 1'-0"
140
3.0
141
12.0
290
     0
  0
SCALE
  5
67
102
{ACAD_REACTORS
330
47
102
}
330
47
100
AcDbScale
 70
     0
300
6" = 1'-0"
140
6.0
141
12.0
290
     0
  0
SCALE
  5
68
102
{ACAD_REACTORS
330
47
102
}
330
47
100
AcDbScale
 70
     0
300
1'-0" = 1'-0"
140
12.0
141
12.0
290
     0
  0
ENDSEC
  0
EOF
