  0
SECTION
  2
HEADER
  9
$ACADVER
  1
AC1015
  9
$ACADMAINTVER
 70
     6
  9
$DWGCODEPAGE
  3
ANSI_949
  9
$INSBASE
 10
0.0
 20
0.0
 30
0.0
  9
$EXTMIN
 10
-60.00597665030361
 20
-49.97180738881174
 30
0.0
  9
$EXTMAX
 10
70.5632037074358
 20
26.76413260158164
 30
0.0
  9
$LIMMIN
 10
0.0
 20
0.0
  9
$LIMMAX
 10
420.0
 20
297.0
  9
$ORTHOMODE
 70
     0
  9
$REGENMODE
 70
     1
  9
$FILLMODE
 70
     1
  9
$QTEXTMODE
 70
     0
  9
$MIRRTEXT
 70
     1
  9
$LTSCALE
 40
1.0
  9
$ATTMODE
 70
     1
  9
$TEXTSIZE
 40
3.5
  9
$TRACEWID
 40
1.0
  9
$TEXTSTYLE
  7
Standard
  9
$CLAYER
  8
0
  9
$CELTYPE
  6
ByLayer
  9
$CECOLOR
 62
   256
  9
$CELTSCALE
 40
1.0
  9
$DISPSILH
 70
     0
  9
$DIMSCALE
 40
1.0
  9
$DIMASZ
 40
3.302
  9
$DIMEXO
 40
1.0
  9
$DIMDLI
 40
3.75
  9
$DIMRND
 40
0.0
  9
$DIMDLE
 40
0.0
  9
$DIMEXE
 40
1.0
  9
$DIMTP
 40
0.0
  9
$DIMTM
 40
0.0
  9
$DIMTXT
 40
3.5
  9
$DIMCEN
 40
2.5
  9
$DIMTSZ
 40
0.0
  9
$DIMTOL
 70
     0
  9
$DIMLIM
 70
     0
  9
$DIMTIH
 70
     1
  9
$DIMTOH
 70
     1
  9
$DIMSE1
 70
     0
  9
$DIMSE2
 70
     0
  9
$DIMTAD
 70
     1
  9
$DIMZIN
 70
     0
  9
$DIMBLK
  1

  9
$DIMASO
 70
     1
  9
$DIMSHO
 70
     1
  9
$DIMPOST
  1

  9
$DIMAPOST
  1

  9
$DIMALT
 70
     0
  9
$DIMALTD
 70
     3
  9
$DIMALTF
 40
0.0393700787401575
  9
$DIMLFAC
 40
1.0
  9
$DIMTOFL
 70
     1
  9
$DIMTVP
 40
0.0
  9
$DIMTIX
 70
     0
  9
$DIMSOXD
 70
     0
  9
$DIMSAH
 70
     0
  9
$DIMBLK1
  1

  9
$DIMBLK2
  1

  9
$DIMSTYLE
  2
ISO-25
  9
$DIMCLRD
 70
     0
  9
$DIMCLRE
 70
     0
  9
$DIMCLRT
 70
     0
  9
$DIMTFAC
 40
1.0
  9
$DIMGAP
 40
1.524
  9
$DIMJUST
 70
     0
  9
$DIMSD1
 70
     0
  9
$DIMSD2
 70
     0
  9
$DIMTOLJ
 70
     0
  9
$DIMTZIN
 70
     0
  9
$DIMALTZ
 70
     0
  9
$DIMALTTZ
 70
     0
  9
$DIMUPT
 70
     0
  9
$DIMDEC
 70
     2
  9
$DIMTDEC
 70
     2
  9
$DIMALTU
 70
     2
  9
$DIMALTTD
 70
     3
  9
$DIMTXSTY
  7
Standard
  9
$DIMAUNIT
 70
     0
  9
$DIMADEC
 70
     2
  9
$DIMALTRND
 40
0.0
  9
$DIMAZIN
 70
     0
  9
$DIMDSEP
 70
    44
  9
$DIMATFIT
 70
     3
  9
$DIMFRAC
 70
     0
  9
$DIMLDRBLK
  1

  9
$DIMLUNIT
 70
     2
  9
$DIMLWD
 70
    -2
  9
$DIMLWE
 70
    -2
  9
$DIMTMOVE
 70
     0
  9
$LUNITS
 70
     2
  9
$LUPREC
 70
     2
  9
$SKETCHINC
 40
1.0
  9
$FILLETRAD
 40
10.0
  9
$AUNITS
 70
     0
  9
$AUPREC
 70
     2
  9
$MENU
  1
.
  9
$ELEVATION
 40
0.0
  9
$PELEVATION
 40
0.0
  9
$THICKNESS
 40
0.0
  9
$LIMCHECK
 70
     0
  9
$CHAMFERA
 40
0.0
  9
$CHAMFERB
 40
0.0
  9
$CHAMFERC
 40
0.0
  9
$CHAMFERD
 40
0.0
  9
$SKPOLY
 70
     0
  9
$TDCREATE
 40
2458260.578536747
  9
$TDUCREATE
 40
2458260.203536747
  9
$TDUPDATE
 40
2458268.583182511
  9
$TDUUPDATE
 40
2458268.208182511
  9
$TDINDWG
 40
0.0007183796
  9
$TDUSRTIMER
 40
2458268.207464178
  9
$USRTIMER
 70
     1
  9
$ANGBASE
 50
0.0
  9
$ANGDIR
 70
     0
  9
$PDMODE
 70
     0
  9
$PDSIZE
 40
-1.0
  9
$PLINEWID
 40
0.0
  9
$SPLFRAME
 70
     0
  9
$SPLINETYPE
 70
     6
  9
$SPLINESEGS
 70
     8
  9
$HANDSEED
  5
15C
  9
$SURFTAB1
 70
     6
  9
$SURFTAB2
 70
     6
  9
$SURFTYPE
 70
     6
  9
$SURFU
 70
     6
  9
$SURFV
 70
     6
  9
$UCSBASE
  2

  9
$UCSNAME
  2

  9
$UCSORG
 10
0.0
 20
0.0
 30
0.0
  9
$UCSXDIR
 10
1.0
 20
0.0
 30
0.0
  9
$UCSYDIR
 10
0.0
 20
1.0
 30
0.0
  9
$UCSORTHOREF
  2

  9
$UCSORTHOVIEW
 70
     0
  9
$UCSORGTOP
 10
0.0
 20
0.0
 30
0.0
  9
$UCSORGBOTTOM
 10
0.0
 20
0.0
 30
0.0
  9
$UCSORGLEFT
 10
0.0
 20
0.0
 30
0.0
  9
$UCSORGRIGHT
 10
0.0
 20
0.0
 30
0.0
  9
$UCSORGFRONT
 10
0.0
 20
0.0
 30
0.0
  9
$UCSORGBACK
 10
0.0
 20
0.0
 30
0.0
  9
$PUCSBASE
  2

  9
$PUCSNAME
  2

  9
$PUCSORG
 10
0.0
 20
0.0
 30
0.0
  9
$PUCSXDIR
 10
1.0
 20
0.0
 30
0.0
  9
$PUCSYDIR
 10
0.0
 20
1.0
 30
0.0
  9
$PUCSORTHOREF
  2

  9
$PUCSORTHOVIEW
 70
     0
  9
$PUCSORGTOP
 10
0.0
 20
0.0
 30
0.0
  9
$PUCSORGBOTTOM
 10
0.0
 20
0.0
 30
0.0
  9
$PUCSORGLEFT
 10
0.0
 20
0.0
 30
0.0
  9
$PUCSORGRIGHT
 10
0.0
 20
0.0
 30
0.0
  9
$PUCSORGFRONT
 10
0.0
 20
0.0
 30
0.0
  9
$PUCSORGBACK
 10
0.0
 20
0.0
 30
0.0
  9
$USERI1
 70
     0
  9
$USERI2
 70
     0
  9
$USERI3
 70
     0
  9
$USERI4
 70
     0
  9
$USERI5
 70
     0
  9
$USERR1
 40
0.0
  9
$USERR2
 40
0.0
  9
$USERR3
 40
0.0
  9
$USERR4
 40
0.0
  9
$USERR5
 40
0.0
  9
$WORLDVIEW
 70
     1
  9
$SHADEDGE
 70
     3
  9
$SHADEDIF
 70
    70
  9
$TILEMODE
 70
     1
  9
$MAXACTVP
 70
    64
  9
$PINSBASE
 10
0.0
 20
0.0
 30
0.0
  9
$PLIMCHECK
 70
     0
  9
$PEXTMIN
 10
1.000000000000000E+20
 20
1.000000000000000E+20
 30
1.000000000000000E+20
  9
$PEXTMAX
 10
-1.000000000000000E+20
 20
-1.000000000000000E+20
 30
-1.000000000000000E+20
  9
$PLIMMIN
 10
0.0
 20
0.0
  9
$PLIMMAX
 10
0.0
 20
0.0
  9
$UNITMODE
 70
     0
  9
$VISRETAIN
 70
     1
  9
$PLINEGEN
 70
     0
  9
$PSLTSCALE
 70
     1
  9
$TREEDEPTH
 70
  3020
  9
$CMLSTYLE
  2
Standard
  9
$CMLJUST
 70
     0
  9
$CMLSCALE
 40
20.0
  9
$PROXYGRAPHICS
 70
     1
  9
$MEASUREMENT
 70
     1
  9
$CELWEIGHT
370
    -1
  9
$ENDCAPS
280
     0
  9
$JOINSTYLE
280
     0
  9
$LWDISPLAY
290
     1
  9
$INSUNITS
 70
     4
  9
$HYPERLINKBASE
  1

  9
$STYLESHEET
  1

  9
$XEDIT
290
     1
  9
$CEPSNTYPE
380
     0
  9
$PSTYLEMODE
290
     1
  9
$FINGERPRINTGUID
  2
{9C4AD8DF-BE1B-4B24-A72D-07FCD3908945}
  9
$VERSIONGUID
  2
{FAEB1C32-E019-11D5-929B-00C0DF256EC4}
  9
$EXTNAMES
290
     1
  9
$PSVPSCALE
 40
0.0
  9
$OLESTARTUP
290
     0
  0
ENDSEC
  0
SECTION
  2
CLASSES
  0
CLASS
  1
ACDBDICTIONARYWDFLT
  2
AcDbDictionaryWithDefault
  3
ObjectDBX Classes
 90
        0
280
     0
281
     0
  0
CLASS
  1
VISUALSTYLE
  2
AcDbVisualStyle
  3
ObjectDBX Classes
 90
     4095
280
     0
281
     0
  0
CLASS
  1
MATERIAL
  2
AcDbMaterial
  3
ObjectDBX Classes
 90
     1153
280
     0
281
     0
  0
CLASS
  1
SCALE
  2
AcDbScale
  3
ObjectDBX Classes
 90
     1153
280
     0
281
     0
  0
CLASS
  1
TABLESTYLE
  2
AcDbTableStyle
  3
ObjectDBX Classes
 90
     4095
280
     0
281
     0
  0
CLASS
  1
MLEADERSTYLE
  2
AcDbMLeaderStyle
  3
ACDB_MLEADERSTYLE_CLASS
 90
     4095
280
     0
281
     0
  0
CLASS
  1
SUN
  2
AcDbSun
  3
SCENEOE
 90
     1153
280
     0
281
     0
  0
CLASS
  1
ACDBPLACEHOLDER
  2
AcDbPlaceHolder
  3
ObjectDBX Classes
 90
        0
280
     0
281
     0
  0
CLASS
  1
LAYOUT
  2
AcDbLayout
  3
ObjectDBX Classes
 90
        0
280
     0
281
     0
  0
CLASS
  1
RASTERVARIABLES
  2
AcDbRasterVariables
  3
ISM
 90
        0
280
     0
281
     0
  0
CLASS
  1
DIMASSOC
  2
AcDbDimAssoc
  3
"AcDbDimAssoc|Product Desc:     AcDim ARX App For Dimension|Company:          Autodesk, Inc.|WEB Address:      www.autodesk.com"
 90
        0
280
     0
281
     0
  0
ENDSEC
  0
SECTION
  2
TABLES
  0
TABLE
  2
VPORT
  5
8
330
0
100
AcDbSymbolTable
 70
     1
  0
VPORT
  5
29
330
8
100
AcDbSymbolTableRecord
100
AcDbViewportTableRecord
  2
*Active
 70
     0
 10
0.0
 20
0.0
 11
1.0
 21
1.0
 12
5.278613528566098
 22
-11.60383739361505
 13
0.0
 23
0.0
 14
10.0
 24
10.0
 15
10.0
 25
10.0
 16
0.0
 26
0.0
 36
1.0
 17
0.0
 27
0.0
 37
0.0
 40
78.27065879020124
 41
1.739018087855297
 42
50.0
 43
0.0
 44
0.0
 50
0.0
 51
0.0
 71
    16
 72
  2000
 73
     1
 74
     3
 75
     0
 76
     0
 77
     0
 78
     0
281
     0
 65
     1
110
0.0
120
0.0
130
0.0
111
1.0
121
0.0
131
0.0
112
0.0
122
1.0
132
0.0
 79
     0
146
0.0
  0
ENDTAB
  0
TABLE
  2
LTYPE
  5
5
330
0
100
AcDbSymbolTable
 70
     6
  0
LTYPE
  5
14
330
5
100
AcDbSymbolTableRecord
100
AcDbLinetypeTableRecord
  2
ByBlock
 70
     0
  3

 72
    65
 73
     0
 40
0.0
  0
LTYPE
  5
15
330
5
100
AcDbSymbolTableRecord
100
AcDbLinetypeTableRecord
  2
ByLayer
 70
     0
  3

 72
    65
 73
     0
 40
0.0
  0
LTYPE
  5
16
330
5
100
AcDbSymbolTableRecord
100
AcDbLinetypeTableRecord
  2
Continuous
 70
     0
  3
Solid line
 72
    65
 73
     0
 40
0.0
  0
LTYPE
  5
6E
330
5
100
AcDbSymbolTableRecord
100
AcDbLinetypeTableRecord
  2
HIDDEN
 70
     0
  3
Hidden __ __ __ __ __ __ __ __ __ __ __ __ __ __
 72
    65
 73
     2
 40
1.905
 49
1.27
 74
     0
 49
-0.635
 74
     0
  0
LTYPE
  5
6F
330
5
100
AcDbSymbolTableRecord
100
AcDbLinetypeTableRecord
  2
PHANTOM
 70
     0
  3
Phantom ______  __  __  ______  __  __  ______
 72
    65
 73
     6
 40
12.7
 49
6.35
 74
     0
 49
-1.27
 74
     0
 49
1.27
 74
     0
 49
-1.27
 74
     0
 49
1.27
 74
     0
 49
-1.27
 74
     0
  0
LTYPE
  5
70
330
5
100
AcDbSymbolTableRecord
100
AcDbLinetypeTableRecord
  2
CENTER
 70
     0
  3
Center ____ _ ____ _ ____ _ ____ _ ____ _ ____
 72
    65
 73
     4
 40
10.16
 49
6.35
 74
     0
 49
-1.27
 74
     0
 49
1.27
 74
     0
 49
-1.27
 74
     0
  0
LTYPE
  5
71
330
5
100
AcDbSymbolTableRecord
100
AcDbLinetypeTableRecord
  2
CENTERX2
 70
     0
  3
Center (2x) ________  __  ________  __  _____
 72
    65
 73
     4
 40
20.32
 49
12.7
 74
     0
 49
-2.54
 74
     0
 49
2.54
 74
     0
 49
-2.54
 74
     0
  0
LTYPE
  5
72
330
5
100
AcDbSymbolTableRecord
100
AcDbLinetypeTableRecord
  2
DOT2
 70
     0
  3
Dot (.5x) ........................................
 72
    65
 73
     2
 40
0.635
 49
0.0
 74
     0
 49
-0.635
 74
     0
  0
ENDTAB
  0
TABLE
  2
LAYER
  5
2
330
0
100
AcDbSymbolTable
 70
    17
  0
LAYER
  5
10
330
2
100
AcDbSymbolTableRecord
100
AcDbLayerTableRecord
  2
0
 70
     0
 62
     7
  6
Continuous
370
    -3
390
F
  0
LAYER
  5
73
330
2
100
AcDbSymbolTableRecord
100
AcDbLayerTableRecord
  2
FORMAT
 70
     0
 62
     2
  6
Continuous
370
    -3
390
F
  0
LAYER
  5
74
330
2
100
AcDbSymbolTableRecord
100
AcDbLayerTableRecord
  2
외형선
 70
     0
 62
   100
  6
Continuous
370
    35
390
F
  0
LAYER
  5
75
330
2
100
AcDbSymbolTableRecord
100
AcDbLayerTableRecord
  2
숨은선
 70
     0
 62
     2
  6
HIDDEN
370
    25
390
F
  0
LAYER
  5
76
330
2
100
AcDbSymbolTableRecord
100
AcDbLayerTableRecord
  2
중심선
 70
     0
 62
     1
  6
CENTERX2
370
    -3
390
F
  0
LAYER
  5
77
330
2
100
AcDbSymbolTableRecord
100
AcDbLayerTableRecord
  2
파단선
 70
     0
 62
     4
  6
Continuous
370
    -3
390
F
  0
LAYER
  5
78
330
2
100
AcDbSymbolTableRecord
100
AcDbLayerTableRecord
  2
해칭선
 70
     0
 62
   100
  6
Continuous
370
    -3
390
F
  0
LAYER
  5
79
330
2
100
AcDbSymbolTableRecord
100
AcDbLayerTableRecord
  2
가는실선
 70
     0
 62
     4
  6
Continuous
370
    -3
390
F
  0
LAYER
  5
7A
330
2
100
AcDbSymbolTableRecord
100
AcDbLayerTableRecord
  2
치수_보조선
 70
     0
 62
     4
  6
Continuous
370
    -3
390
F
  0
LAYER
  5
7B
330
2
100
AcDbSymbolTableRecord
100
AcDbLayerTableRecord
  2
치수문자_일반주서
 70
     0
 62
     7
  6
Continuous
370
    25
390
F
  0
LAYER
  5
7C
330
2
100
AcDbSymbolTableRecord
100
AcDbLayerTableRecord
  2
개별주서
 70
     0
 62
   100
  6
Continuous
370
    35
390
F
  0
LAYER
  5
7D
330
2
100
AcDbSymbolTableRecord
100
AcDbLayerTableRecord
  2
중간선
 70
     0
 62
     2
  6
Continuous
370
    25
390
F
  0
LAYER
  5
7E
330
2
100
AcDbSymbolTableRecord
100
AcDbLayerTableRecord
  2
윤곽선
 70
     0
 62
     3
  6
Continuous
370
    50
390
F
  0
LAYER
  5
7F
330
2
100
AcDbSymbolTableRecord
100
AcDbLayerTableRecord
  2
중심마크
 70
     0
 62
   100
  6
Continuous
370
    35
390
F
  0
LAYER
  5
80
330
2
100
AcDbSymbolTableRecord
100
AcDbLayerTableRecord
  2
가상선
 70
     0
 62
     4
  6
PHANTOM
370
    -3
390
F
  0
LAYER
  5
81
330
2
100
AcDbSymbolTableRecord
100
AcDbLayerTableRecord
  2
특수지정선
 70
     0
 62
     5
  6
CENTERX2
370
    70
390
F
  0
LAYER
  5
13B
330
2
100
AcDbSymbolTableRecord
100
AcDbLayerTableRecord
  2
Defpoints
 70
     0
 62
     7
  6
Continuous
290
     0
370
    -3
390
F
  0
ENDTAB
  0
TABLE
  2
STYLE
  5
3
330
0
100
AcDbSymbolTable
 70
     2
  0
STYLE
  5
11
330
3
100
AcDbSymbolTableRecord
100
AcDbTextStyleTableRecord
  2
Standard
 70
     0
 40
0.0
 41
1.0
 50
0.0
 71
     0
 42
3.5
  3
txt
  4

  0
STYLE
  5
97
330
3
100
AcDbSymbolTableRecord
100
AcDbTextStyleTableRecord
  2
SLDTEXTSTYLE0
 70
     0
 40
0.0
 41
0.75
 50
0.0
 71
     0
 42
3.5
  3
TXT
  4

  0
ENDTAB
  0
TABLE
  2
VIEW
  5
6
330
0
100
AcDbSymbolTable
 70
     0
  0
ENDTAB
  0
TABLE
  2
UCS
  5
7
330
0
100
AcDbSymbolTable
 70
     0
  0
ENDTAB
  0
TABLE
  2
APPID
  5
9
330
0
100
AcDbSymbolTable
 70
     1
  0
APPID
  5
12
330
9
100
AcDbSymbolTableRecord
100
AcDbRegAppTableRecord
  2
ACAD
 70
     0
  0
ENDTAB
  0
TABLE
  2
DIMSTYLE
  5
A
330
0
100
AcDbSymbolTable
 70
     4
100
AcDbDimStyleTable
  0
DIMSTYLE
105
27
330
A
100
AcDbSymbolTableRecord
100
AcDbDimStyleTableRecord
  2
ISO-25
 70
     0
 41
2.5
 42
0.625
 43
3.75
 44
1.25
 73
     0
 74
     0
 77
     1
 78
     8
140
2.5
141
2.5
143
0.03937007874016
147
0.625
171
     3
172
     1
178
     0
271
     2
272
     2
274
     3
278
    44
283
     0
284
     8
340
11
  0
DIMSTYLE
105
E0
102
{ACAD_REACTORS
330
DF
102
}
330
A
100
AcDbSymbolTableRecord
100
AcDbDimStyleTableRecord
  2
SLDDIMSTYLE0
 70
     0
 41
3.302
 44
0.0
 45
0.000000001
 73
     0
 74
     0
 77
     1
 78
    12
 79
     3
140
3.5
147
0.875
172
     1
173
     1
178
     0
271
     1
272
     1
276
     2
284
    12
289
     0
340
97
  0
DIMSTYLE
105
EE
102
{ACAD_REACTORS
330
ED
330
106
102
}
330
A
100
AcDbSymbolTableRecord
100
AcDbDimStyleTableRecord
  2
SLDDIMSTYLE1
 70
     0
 41
3.302
 44
0.0
 45
0.000000001
 73
     0
 74
     0
 77
     1
 78
    12
 79
     3
140
3.5
147
0.875
173
     1
178
     0
271
     2
272
     2
276
     2
284
    12
340
97
  0
DIMSTYLE
105
F9
102
{ACAD_REACTORS
330
F8
102
}
330
A
100
AcDbSymbolTableRecord
100
AcDbDimStyleTableRecord
  2
SLDDIMSTYLE2
 70
     0
 41
3.302
 44
0.0
 45
0.000000001
 73
     0
 74
     0
 77
     1
 78
    12
 79
     3
140
3.5
147
0.875
172
     1
173
     1
178
     0
271
     2
272
     2
276
     2
284
    12
289
     0
340
97
  0
ENDTAB
  0
TABLE
  2
BLOCK_RECORD
  5
1
330
0
100
AcDbSymbolTable
 70
     8
  0
BLOCK_RECORD
  5
1F
330
1
100
AcDbSymbolTableRecord
100
AcDbBlockTableRecord
  2
*Model_Space
340
22
  0
BLOCK_RECORD
  5
1B
330
1
100
AcDbSymbolTableRecord
100
AcDbBlockTableRecord
  2
*Paper_Space
340
1E
  0
BLOCK_RECORD
  5
23
330
1
100
AcDbSymbolTableRecord
100
AcDbBlockTableRecord
  2
*Paper_Space0
340
26
  0
BLOCK_RECORD
  5
82
330
1
100
AcDbSymbolTableRecord
100
AcDbBlockTableRecord
  2
블럭10
340
0
102
{BLKREFS
331
D8
102
}
  0
BLOCK_RECORD
  5
E1
330
1
100
AcDbSymbolTableRecord
100
AcDbBlockTableRecord
  2
_D
340
0
  0
BLOCK_RECORD
  5
EF
330
1
100
AcDbSymbolTableRecord
100
AcDbBlockTableRecord
  2
_D_1
340
0
  0
BLOCK_RECORD
  5
FA
330
1
100
AcDbSymbolTableRecord
100
AcDbBlockTableRecord
  2
_D_2
340
0
  0
BLOCK_RECORD
  5
107
330
1
100
AcDbSymbolTableRecord
100
AcDbBlockTableRecord
  2
_D_3
340
0
  0
BLOCK_RECORD
  5
110
330
1
100
AcDbSymbolTableRecord
100
AcDbBlockTableRecord
  2
SW_DOWELSYMBOL_0
340
0
102
{BLKREFS
331
116
102
}
  0
BLOCK_RECORD
  5
14B
330
1
100
AcDbSymbolTableRecord
100
AcDbBlockTableRecord
  2
*D7
340
0
  0
ENDTAB
  0
ENDSEC
  0
SECTION
  2
BLOCKS
  0
BLOCK
  5
20
330
1F
100
AcDbEntity
  8
0
100
AcDbBlockBegin
  2
*Model_Space
 70
     0
 10
0.0
 20
0.0
 30
0.0
  3
*Model_Space
  1

  0
ENDBLK
  5
21
330
1F
100
AcDbEntity
  8
0
100
AcDbBlockEnd
  0
BLOCK
  5
1C
330
1B
100
AcDbEntity
 67
     1
  8
0
100
AcDbBlockBegin
  2
*Paper_Space
 70
     0
 10
0.0
 20
0.0
 30
0.0
  3
*Paper_Space
  1

  0
ENDBLK
  5
1D
330
1B
100
AcDbEntity
 67
     1
  8
0
100
AcDbBlockEnd
  0
BLOCK
  5
24
330
23
100
AcDbEntity
  8
0
100
AcDbBlockBegin
  2
*Paper_Space0
 70
     0
 10
0.0
 20
0.0
 30
0.0
  3
*Paper_Space0
  1

  0
ENDBLK
  5
25
330
23
100
AcDbEntity
  8
0
100
AcDbBlockEnd
  0
BLOCK
  5
83
330
82
100
AcDbEntity
  8
0
100
AcDbBlockBegin
  2
블럭10
 70
     2
 10
0.0
 20
0.0
 30
0.0
  3
블럭10
  1

  0
ELLIPSE
  5
85
330
82
100
AcDbEntity
  8
중심선
100
AcDbEllipse
 10
20.54032771741204
 20
12.0471743016438
 30
0.0
 11
6.600054785286829
 21
-1.261213355974178E-13
 31
0.0
210
0.0
220
0.0
230
1.0
 40
0.636358354079598
 41
0.9219305317359503
 42
6.513795318482858
  0
ELLIPSE
  5
86
330
82
100
AcDbEntity
  8
중심선
100
AcDbEllipse
 10
20.54032771746488
 20
12.04717430159265
 30
0.0
 11
3.960054785062283
 21
1.540847449632565E-10
 31
0.0
210
0.0
220
0.0
230
1.0
 40
0.3939339440162632
 41
1.131841032648279
 42
5.62031148352944
  0
LINE
  5
87
330
82
100
AcDbEntity
  8
중심선
100
AcDbLine
 10
2.268634060543552
 20
16.24717430164393
 30
0.0
 11
5.714909304380834
 21
16.24717430164393
 31
0.0
  0
LINE
  5
88
330
82
100
AcDbEntity
  8
중심선
100
AcDbLine
 10
5.245725140726316
 20
7.84717430164391
 30
0.0
 11
8.692000384563599
 21
7.84717430164391
 31
0.0
  0
LINE
  5
89
330
82
100
AcDbEntity
  8
중심선
100
AcDbLine
 10
15.74043728645272
 20
16.24717430164393
 30
0.0
 11
8.692000384563599
 21
7.84717430164391
 31
0.0
  0
LINE
  5
8A
330
82
100
AcDbEntity
  8
중심선
100
AcDbLine
 10
0.1404042013395286
 20
13.71084872107135
 30
0.0
 11
3.58671253028996
 21
13.71088815037384
 31
0.0
  0
LINE
  5
8B
330
82
100
AcDbEntity
  8
중심선
100
AcDbLine
 10
2.750260043222114
 20
10.84717430164391
 30
0.0
 11
6.196535287059397
 21
10.84717430164391
 31
0.0
  0
LINE
  5
8C
330
82
100
AcDbEntity
  8
중심선
100
AcDbLine
 10
12.29416204261559
 20
16.24717430164393
 30
0.0
 11
5.245725140726316
 21
7.84717430164391
 31
0.0
  0
LINE
  5
8D
330
82
100
AcDbEntity
  8
중심선
100
AcDbLine
 10
10.72767329541681
 20
16.24717430164393
 30
0.0
 11
6.196535287059397
 21
10.84717430164391
 31
0.0
  0
LINE
  5
8E
330
82
100
AcDbEntity
  8
중심선
100
AcDbLine
 10
7.28139805157953
 20
16.24717430164393
 30
0.0
 11
2.750260043222114
 21
10.84717430164391
 31
0.0
  0
LINE
  5
8F
330
82
100
AcDbEntity
  8
중심선
100
AcDbLine
 10
5.714909304380834
 20
16.24717430164393
 30
0.0
 11
3.58671253028996
 21
13.71088815037384
 31
0.0
  0
LINE
  5
90
330
82
100
AcDbEntity
  8
중심선
100
AcDbLine
 10
2.268634060543552
 20
16.24717430164393
 30
0.0
 11
0.1404042013395286
 21
13.71084872107135
 31
0.0
  0
LINE
  5
91
330
82
100
AcDbEntity
  8
중심선
100
AcDbLine
 10
7.28139805157953
 20
16.24717430164393
 30
0.0
 11
10.72767329541681
 21
16.24717430164393
 31
0.0
  0
LINE
  5
92
330
82
100
AcDbEntity
  8
중심선
100
AcDbLine
 10
12.29416204261559
 20
16.24717430164393
 30
0.0
 11
15.74043728645272
 21
16.24717430164393
 31
0.0
  0
LINE
  5
93
330
82
100
AcDbEntity
  8
중심선
100
AcDbLine
 10
19.22036997980202
 20
11.08717430171403
 30
0.0
 11
23.66174974927406
 21
11.08717430171406
 31
0.0
  0
LINE
  5
94
330
82
100
AcDbEntity
  8
중심선
100
AcDbLine
 10
19.22039502424796
 20
13.00717430171391
 30
0.0
 11
19.22036997980202
 21
11.08717430171403
 31
0.0
  0
LINE
  5
95
330
82
100
AcDbEntity
  8
중심선
100
AcDbLine
 10
19.22039502424796
 20
13.00717430171391
 30
0.0
 11
26.96566020931264
 21
13.00717430171391
 31
0.0
  0
LINE
  5
96
330
82
100
AcDbEntity
  8
중심선
100
AcDbLine
 10
22.22332737316547
 20
13.45928029700563
 30
0.0
 11
24.52862924686651
 21
15.39360700705356
 31
0.0
  0
ATTDEF
  5
98
330
82
100
AcDbEntity
  8
FORMAT
 62
     2
100
AcDbText
 10
-16.11926103943555
 20
2.075366912832191
 30
0.0
 40
4.233333333333333
  1
SEME7210045E [ 4 FLUTE ]
 41
0.75
  7
SLDTEXTSTYLE0
 11
-16.11926103943555
 21
-0.0412997538344756
 31
0.0
100
AcDbAttributeDefinition
  3

  2
AUTOATTR0
 70
     0
 74
     1
  0
ENDBLK
  5
84
330
82
100
AcDbEntity
  8
0
100
AcDbBlockEnd
  0
BLOCK
  5
E2
330
E1
100
AcDbEntity
  8
0
100
AcDbBlockBegin
  2
_D
 70
     0
 10
0.0
 20
0.0
 30
0.0
  3
_D
  1

  0
LINE
  5
E4
330
E1
100
AcDbEntity
  8
치수문자_일반주서
 62
     0
370
    -2
100
AcDbLine
 10
55.06249999999999
 20
-5.000000000000007
 30
0.0
 11
70.01287037410245
 21
-4.999999999999948
 31
0.0
  0
LINE
  5
E5
330
E1
100
AcDbEntity
  8
치수문자_일반주서
 62
     0
370
    -2
100
AcDbLine
 10
55.06249999999999
 20
5.000000000000002
 30
0.0
 11
70.01287037410242
 21
5.000000000000059
 31
0.0
  0
LINE
  5
E6
330
E1
100
AcDbEntity
  8
치수문자_일반주서
 62
     0
370
    -2
100
AcDbLine
 10
70.01287037410245
 20
-4.999999999999948
 30
0.0
 11
70.01287037410238
 21
19.04150000000006
 31
0.0
  0
LINE
  5
E7
330
E1
100
AcDbEntity
  8
치수문자_일반주서
 62
     0
370
    -2
100
AcDbLine
 10
70.01287037410245
 20
-4.999999999999948
 30
0.0
 11
70.01287037410242
 21
5.000000000000059
 31
0.0
  0
LINE
  5
E8
330
E1
100
AcDbEntity
  8
치수문자_일반주서
 62
     0
370
    -2
100
AcDbLine
 10
70.01287037410246
 20
-8.301999999999948
 30
0.0
 11
70.01287037410248
 21
-11.60399999999995
 31
0.0
  0
LINE
  5
E9
330
E1
100
AcDbEntity
  8
치수문자_일반주서
 62
     0
370
    -2
100
AcDbLine
 10
70.0128703741024
 20
8.302000000000058
 30
0.0
 11
70.01287037410239
 21
11.60400000000006
 31
0.0
  0
SOLID
  5
EA
330
E1
100
AcDbEntity
  8
치수문자_일반주서
 62
     0
100
AcDbTrace
 10
70.56320370743579
 20
-8.301999999999946
 30
0.0
 11
69.46253704076913
 21
-8.30199999999995
 31
0.0
 12
70.01287037410245
 22
-4.999999999999948
 32
0.0
 13
70.01287037410245
 23
-4.999999999999948
 33
0.0
  0
SOLID
  5
EB
330
E1
100
AcDbEntity
  8
치수문자_일반주서
 62
     0
100
AcDbTrace
 10
69.46253704076908
 20
8.302000000000056
 30
0.0
 11
70.56320370743573
 21
8.30200000000006
 31
0.0
 12
70.01287037410242
 22
5.000000000000059
 32
0.0
 13
70.01287037410242
 23
5.000000000000059
 33
0.0
  0
MTEXT
  5
EC
330
E1
100
AcDbEntity
  8
치수문자_일반주서
 62
     0
100
AcDbMText
 10
65.63787037410239
 20
15.32275000000005
 30
0.0
 40
3.5
 41
0.0
 71
     2
 72
     1
  1
\A1;%%c10
  7
SLDTEXTSTYLE0
 11
-2.842170943040399E-15
 21
1.0
 31
0.0
 73
     1
 44
1.0
  0
POINT
  5
145
330
E1
100
AcDbEntity
  8
Defpoints
 62
     0
100
AcDbPoint
 10
54.99999999999999
 20
-5.000000000000007
 30
0.0
  0
POINT
  5
146
330
E1
100
AcDbEntity
  8
Defpoints
 62
     0
100
AcDbPoint
 10
54.99999999999999
 20
5.000000000000002
 30
0.0
  0
POINT
  5
147
330
E1
100
AcDbEntity
  8
Defpoints
 62
     0
100
AcDbPoint
 10
70.01287037410239
 20
5.000000000000058
 30
0.0
  0
ENDBLK
  5
E3
330
E1
100
AcDbEntity
  8
0
100
AcDbBlockEnd
  0
BLOCK
  5
F0
330
EF
100
AcDbEntity
  8
0
100
AcDbBlockBegin
  2
_D_1
 70
     0
 10
0.0
 20
0.0
 30
0.0
  3
_D_1
  1

  0
LINE
  5
F2
330
EF
100
AcDbEntity
  8
치수문자_일반주서
 62
     0
370
    -2
100
AcDbLine
 10
-45.00000000000001
 20
4.562499999999992
 30
0.0
 11
-45.00000000000001
 21
22.38913260158164
 31
0.0
  0
LINE
  5
F3
330
EF
100
AcDbEntity
  8
치수문자_일반주서
 62
     0
370
    -2
100
AcDbLine
 10
54.99999999999999
 20
5.062500000000003
 30
0.0
 11
54.99999999999999
 21
22.38913260158164
 31
0.0
  0
LINE
  5
F4
330
EF
100
AcDbEntity
  8
치수문자_일반주서
 62
     0
370
    -2
100
AcDbLine
 10
-41.69800000000001
 20
22.38913260158164
 30
0.0
 11
51.69799999999999
 21
22.38913260158164
 31
0.0
  0
SOLID
  5
F5
330
EF
100
AcDbEntity
  8
치수문자_일반주서
 62
     0
100
AcDbTrace
 10
-41.69800000000001
 20
22.93946593491497
 30
0.0
 11
-41.69800000000001
 21
21.83879926824831
 31
0.0
 12
-45.00000000000001
 22
22.38913260158164
 32
0.0
 13
-45.00000000000001
 23
22.38913260158164
 33
0.0
  0
SOLID
  5
F6
330
EF
100
AcDbEntity
  8
치수문자_일반주서
 62
     0
100
AcDbTrace
 10
51.69799999999999
 20
21.83879926824831
 30
0.0
 11
51.69799999999999
 21
22.93946593491497
 31
0.0
 12
54.99999999999999
 22
22.38913260158164
 32
0.0
 13
54.99999999999999
 23
22.38913260158164
 33
0.0
  0
MTEXT
  5
F7
330
EF
100
AcDbEntity
  8
치수문자_일반주서
 62
     0
100
AcDbMText
 10
4.999999999999988
 20
26.76413260158164
 30
0.0
 40
3.5
 41
0.0
 71
     2
 72
     1
  1
\A1;100
  7
SLDTEXTSTYLE0
 73
     1
 44
1.0
  0
POINT
  5
13C
330
EF
100
AcDbEntity
  8
Defpoints
 62
     0
100
AcDbPoint
 10
-45.00000000000001
 20
4.499999999999992
 30
0.0
  0
POINT
  5
13D
330
EF
100
AcDbEntity
  8
Defpoints
 62
     0
100
AcDbPoint
 10
54.99999999999999
 20
5.000000000000003
 30
0.0
  0
POINT
  5
13E
330
EF
100
AcDbEntity
  8
Defpoints
 62
     0
100
AcDbPoint
 10
54.99999999999999
 20
22.38913260158164
 30
0.0
  0
ENDBLK
  5
F1
330
EF
100
AcDbEntity
  8
0
100
AcDbBlockEnd
  0
BLOCK
  5
FB
330
FA
100
AcDbEntity
  8
0
100
AcDbBlockBegin
  2
_D_2
 70
     0
 10
0.0
 20
0.0
 30
0.0
  3
_D_2
  1

  0
LINE
  5
FD
330
FA
100
AcDbEntity
  8
치수문자_일반주서
 62
     0
370
    -2
100
AcDbLine
 10
-44.5625
 20
5.000000000000003
 30
0.0
 11
-55.63097665030356
 21
4.999999999999961
 31
0.0
  0
LINE
  5
FE
330
FA
100
AcDbEntity
  8
치수문자_일반주서
 62
     0
370
    -2
100
AcDbLine
 10
-44.5625
 20
-5.000000000000006
 30
0.0
 11
-55.63097665030352
 21
-5.00000000000005
 31
0.0
  0
LINE
  5
FF
330
FA
100
AcDbEntity
  8
치수문자_일반주서
 62
     0
370
    -2
100
AcDbLine
 10
-55.63097665030356
 20
4.999999999999961
 30
0.0
 11
-55.63097665030361
 21
19.04149999999996
 31
0.0
  0
LINE
  5
100
330
FA
100
AcDbEntity
  8
치수문자_일반주서
 62
     0
370
    -2
100
AcDbLine
 10
-55.63097665030356
 20
4.999999999999961
 30
0.0
 11
-55.63097665030352
 21
-5.00000000000005
 31
0.0
  0
LINE
  5
101
330
FA
100
AcDbEntity
  8
치수문자_일반주서
 62
     0
370
    -2
100
AcDbLine
 10
-55.63097665030357
 20
8.30199999999996
 30
0.0
 11
-55.63097665030359
 21
11.60399999999996
 31
0.0
  0
LINE
  5
102
330
FA
100
AcDbEntity
  8
치수문자_일반주서
 62
     0
370
    -2
100
AcDbLine
 10
-55.63097665030351
 20
-8.30200000000005
 30
0.0
 11
-55.6309766503035
 21
-11.60400000000005
 31
0.0
  0
SOLID
  5
103
330
FA
100
AcDbEntity
  8
치수문자_일반주서
 62
     0
100
AcDbTrace
 10
-56.18130998363691
 20
8.301999999999959
 30
0.0
 11
-55.08064331697024
 21
8.301999999999962
 31
0.0
 12
-55.63097665030356
 22
4.999999999999961
 32
0.0
 13
-55.63097665030356
 23
4.999999999999961
 33
0.0
  0
SOLID
  5
104
330
FA
100
AcDbEntity
  8
치수문자_일반주서
 62
     0
100
AcDbTrace
 10
-55.08064331697017
 20
-8.302000000000048
 30
0.0
 11
-56.18130998363684
 21
-8.302000000000051
 31
0.0
 12
-55.63097665030352
 22
-5.00000000000005
 32
0.0
 13
-55.63097665030352
 23
-5.00000000000005
 33
0.0
  0
MTEXT
  5
105
330
FA
100
AcDbEntity
  8
치수문자_일반주서
 62
     0
100
AcDbMText
 10
-60.00597665030359
 20
15.32274999999995
 30
0.0
 40
3.5
 41
0.0
 71
     2
 72
     1
  1
\A1;%%c10
  7
SLDTEXTSTYLE0
 11
-3.552713678800498E-15
 21
1.0
 31
0.0
 73
     1
 44
1.0
  0
POINT
  5
142
330
FA
100
AcDbEntity
  8
Defpoints
 62
     0
100
AcDbPoint
 10
-44.5
 20
5.000000000000003
 30
0.0
  0
POINT
  5
143
330
FA
100
AcDbEntity
  8
Defpoints
 62
     0
100
AcDbPoint
 10
-44.5
 20
-5.000000000000006
 30
0.0
  0
POINT
  5
144
330
FA
100
AcDbEntity
  8
Defpoints
 62
     0
100
AcDbPoint
 10
-55.63097665030353
 20
-5.000000000000048
 30
0.0
  0
ENDBLK
  5
FC
330
FA
100
AcDbEntity
  8
0
100
AcDbBlockEnd
  0
BLOCK
  5
108
330
107
100
AcDbEntity
  8
0
100
AcDbBlockBegin
  2
_D_3
 70
     0
 10
0.0
 20
0.0
 30
0.0
  3
_D_3
  1

  0
LINE
  5
10A
330
107
100
AcDbEntity
  8
치수문자_일반주서
 62
     0
370
    -2
100
AcDbLine
 10
9.999999999999991
 20
4.893780160168293
 30
0.0
 11
9.999999999999993
 21
15.67719846275594
 31
0.0
  0
LINE
  5
10B
330
107
100
AcDbEntity
  8
치수문자_일반주서
 62
     0
370
    -2
100
AcDbLine
 10
54.99999999999999
 20
5.062500000000003
 30
0.0
 11
54.99999999999999
 21
15.67719846275594
 31
0.0
  0
LINE
  5
10C
330
107
100
AcDbEntity
  8
치수문자_일반주서
 62
     0
370
    -2
100
AcDbLine
 10
13.30199999999999
 20
15.67719846275594
 30
0.0
 11
51.69799999999999
 21
15.67719846275594
 31
0.0
  0
SOLID
  5
10D
330
107
100
AcDbEntity
  8
치수문자_일반주서
 62
     0
100
AcDbTrace
 10
13.30199999999999
 20
16.22753179608927
 30
0.0
 11
13.30199999999999
 21
15.12686512942261
 31
0.0
 12
9.999999999999993
 22
15.67719846275594
 32
0.0
 13
9.999999999999993
 23
15.67719846275594
 33
0.0
  0
SOLID
  5
10E
330
107
100
AcDbEntity
  8
치수문자_일반주서
 62
     0
100
AcDbTrace
 10
51.69799999999999
 20
15.12686512942261
 30
0.0
 11
51.69799999999999
 21
16.22753179608927
 31
0.0
 12
54.99999999999999
 22
15.67719846275594
 32
0.0
 13
54.99999999999999
 23
15.67719846275594
 33
0.0
  0
MTEXT
  5
10F
330
107
100
AcDbEntity
  8
치수문자_일반주서
 62
     0
100
AcDbMText
 10
32.49999999999999
 20
20.05219846275594
 30
0.0
 40
3.5
 41
0.0
 71
     2
 72
     1
  1
\A1;45
  7
SLDTEXTSTYLE0
 73
     1
 44
1.0
  0
POINT
  5
13F
330
107
100
AcDbEntity
  8
Defpoints
 62
     0
100
AcDbPoint
 10
9.999999999999991
 20
4.831280160168293
 30
0.0
  0
POINT
  5
140
330
107
100
AcDbEntity
  8
Defpoints
 62
     0
100
AcDbPoint
 10
54.99999999999999
 20
5.000000000000003
 30
0.0
  0
POINT
  5
141
330
107
100
AcDbEntity
  8
Defpoints
 62
     0
100
AcDbPoint
 10
54.99999999999999
 20
15.67719846275594
 30
0.0
  0
ENDBLK
  5
109
330
107
100
AcDbEntity
  8
0
100
AcDbBlockEnd
  0
BLOCK
  5
111
330
110
100
AcDbEntity
  8
0
100
AcDbBlockBegin
  2
SW_DOWELSYMBOL_0
 70
     0
 10
0.0
 20
0.0
 30
0.0
  3
SW_DOWELSYMBOL_0
  1

  0
CIRCLE
  5
113
330
110
100
AcDbEntity
  8
해칭선
 62
     0
100
AcDbCircle
 10
0.0
 20
0.0
 30
0.0
 40
3.0
  0
HATCH
  5
114
330
110
100
AcDbEntity
  8
0
  6
Continuous
 62
     0
370
    18
100
AcDbHatch
 10
0.0
 20
0.0
 30
0.0
210
0.0
220
0.0
230
1.0
  2
SOLID
 70
     1
 71
     0
 91
        1
 92
        0
 93
        3
 72
     2
 10
0.0
 20
0.0
 40
3.0
 50
0.0
 51
90.0
 73
     1
 72
     1
 10
0.0
 20
3.0
 11
0.0
 21
0.0
 72
     1
 10
0.0
 20
0.0
 11
3.0
 21
0.0
 97
        0
 75
     0
 76
     1
 98
        1
 10
0.0
 20
0.0
  0
HATCH
  5
115
330
110
100
AcDbEntity
  8
0
  6
Continuous
 62
     0
370
    18
100
AcDbHatch
 10
0.0
 20
0.0
 30
0.0
210
0.0
220
0.0
230
1.0
  2
SOLID
 70
     1
 71
     0
 91
        1
 92
        0
 93
        3
 72
     2
 10
0.0
 20
0.0
 40
3.0
 50
180.0
 51
270.0000000000008
 73
     1
 72
     1
 10
0.0
 20
-3.0
 11
0.0
 21
0.0
 72
     1
 10
0.0
 20
0.0
 11
-3.0
 21
0.0
 97
        0
 75
     0
 76
     1
 98
        1
 10
0.0
 20
0.0
  0
ENDBLK
  5
112
330
110
100
AcDbEntity
  8
0
100
AcDbBlockEnd
  0
BLOCK
  5
14C
330
14B
100
AcDbEntity
  8
0
100
AcDbBlockBegin
  2
*D7
 70
     1
 10
0.0
 20
0.0
 30
0.0
  3
*D7
  1

  0
LINE
  5
14E
330
14B
100
AcDbEntity
  8
0
 62
     0
370
    -2
100
AcDbLine
 10
54.99999999999999
 20
-0.9999999999999944
 30
0.0
 11
54.99999999999999
 21
-11.86628690160639
 31
0.0
  0
LINE
  5
14F
330
14B
100
AcDbEntity
  8
0
 62
     0
370
    -2
100
AcDbLine
 10
58.0
 20
-0.9999999999999941
 30
0.0
 11
58.0
 21
-11.86628690160639
 31
0.0
  0
LINE
  5
150
330
14B
100
AcDbEntity
  8
0
 62
     0
370
    -2
100
AcDbLine
 10
54.99999999999999
 20
-10.86628690160639
 30
0.0
 11
77.56866666666667
 21
-10.86628690160639
 31
0.0
  0
LINE
  5
151
330
14B
100
AcDbEntity
  8
0
 62
     0
370
    -2
100
AcDbLine
 10
54.99999999999999
 20
-10.86628690160639
 30
0.0
 11
58.0
 21
-10.86628690160639
 31
0.0
  0
LINE
  5
152
330
14B
100
AcDbEntity
  8
0
 62
     0
370
    -2
100
AcDbLine
 10
58.0
 20
-10.86628690160639
 30
0.0
 11
54.99999999999999
 21
-10.86628690160639
 31
0.0
  0
LINE
  5
153
330
14B
100
AcDbEntity
  8
0
 62
     0
370
    -2
100
AcDbLine
 10
51.69799999999999
 20
-10.86628690160639
 30
0.0
 11
48.39599999999999
 21
-10.86628690160639
 31
0.0
  0
SOLID
  5
154
330
14B
100
AcDbEntity
  8
0
 62
     0
100
AcDbTrace
 10
51.69799999999999
 20
-11.41662023493972
 30
0.0
 11
51.69799999999999
 21
-10.31595356827306
 31
0.0
 12
54.99999999999999
 22
-10.86628690160639
 32
0.0
 13
54.99999999999999
 23
-10.86628690160639
 33
0.0
  0
SOLID
  5
155
330
14B
100
AcDbEntity
  8
0
 62
     0
100
AcDbTrace
 10
61.302
 20
-10.31595356827306
 30
0.0
 11
61.302
 21
-11.41662023493972
 31
0.0
 12
58.0
 22
-10.86628690160639
 32
0.0
 13
58.0
 23
-10.86628690160639
 33
0.0
  0
MTEXT
  5
156
330
14B
100
AcDbEntity
  8
0
 62
     0
100
AcDbMText
 10
71.08633333333333
 20
-7.300620234939721
 30
0.0
 40
3.5
 41
0.0
 71
     5
 72
     1
  1
3,00
 73
     1
 44
1.0
  0
POINT
  5
157
330
14B
100
AcDbEntity
  8
Defpoints
 62
     0
100
AcDbPoint
 10
54.99999999999999
 20
0.0000000000000056
 30
0.0
  0
POINT
  5
158
330
14B
100
AcDbEntity
  8
Defpoints
 62
     0
100
AcDbPoint
 10
58.0
 20
0.0000000000000059
 30
0.0
  0
POINT
  5
159
330
14B
100
AcDbEntity
  8
Defpoints
 62
     0
100
AcDbPoint
 10
58.0
 20
-10.86628690160639
 30
0.0
  0
ENDBLK
  5
14D
330
14B
100
AcDbEntity
  8
0
100
AcDbBlockEnd
  0
ENDSEC
  0
SECTION
  2
ENTITIES
  0
LINE
  5
99
330
1F
100
AcDbEntity
  8
0
  6
Continuous
 62
     4
370
    25
100
AcDbLine
 10
8.499892116230649
 20
4.999999999999998
 30
0.0
 11
-44.50000000000001
 21
4.999999999999995
 31
0.0
  0
LINE
  5
9A
330
1F
100
AcDbEntity
  8
0
  6
Continuous
 62
     4
370
    25
100
AcDbLine
 10
-44.50000000000001
 20
-5.000000000000005
 30
0.0
 11
8.499892116230649
 21
-5.000000000000002
 31
0.0
  0
LINE
  5
9B
330
1F
100
AcDbEntity
  8
0
  6
Continuous
 62
     4
370
    25
100
AcDbLine
 10
-44.50000000000001
 20
4.999999999999992
 30
0.0
 11
-45.00000000000001
 21
4.499999999999992
 31
0.0
  0
LINE
  5
9C
330
1F
100
AcDbEntity
  8
0
  6
Continuous
 62
     4
370
    25
100
AcDbLine
 10
-45.00000000000001
 20
-4.500000000000003
 30
0.0
 11
-44.50000000000001
 21
-5.000000000000003
 31
0.0
  0
LINE
  5
9D
330
1F
100
AcDbEntity
  8
0
  6
Continuous
 62
     1
370
    25
100
AcDbLine
 10
53.06601530144555
 20
-5.000000000000006
 30
0.0
 11
54.99999999999999
 21
-5.000000000000006
 31
0.0
  0
LINE
  5
9E
330
1F
100
AcDbEntity
  8
0
  6
Continuous
 62
     1
370
    25
100
AcDbLine
 10
29.72711664616054
 20
5.000000000000003
 30
0.0
 11
25.85889723168443
 21
5.000000000000003
 31
0.0
  0
LINE
  5
9F
330
1F
100
AcDbEntity
  8
0
  6
Continuous
 62
     1
370
    25
100
AcDbLine
 10
39.46238911716839
 20
-5.000000000000006
 30
0.0
 11
43.33061778095188
 21
-5.000000000000006
 31
0.0
  0
LINE
  5
A0
330
1F
100
AcDbEntity
  8
0
  6
Continuous
 62
     1
370
    25
100
AcDbLine
 10
16.12343350111561
 20
5.000000000000003
 30
0.0
 11
12.25562360492459
 21
5.000000000000003
 31
0.0
  0
LINE
  5
A1
330
1F
100
AcDbEntity
  8
0
  6
Continuous
 62
     1
370
    25
100
AcDbLine
 10
14.79085144916814
 20
0.763841926552699
 30
0.0
 11
14.88133273010906
 21
0.7144555196425946
 31
0.0
  0
LINE
  5
A2
330
1F
100
AcDbEntity
  8
0
  6
Continuous
 62
     1
370
    25
100
AcDbLine
 10
27.22001922067627
 20
-0.7790607252436859
 30
0.0
 11
27.10098197935919
 21
-0.7143362047381211
 31
0.0
  0
LINE
  5
A3
330
1F
100
AcDbEntity
  8
0
  6
Continuous
 62
     1
370
    25
100
AcDbLine
 10
54.39436077079361
 20
-0.7628664321642626
 30
0.0
 11
54.29626165931913
 21
-0.7076543945418047
 31
0.0
  0
LINE
  5
A4
330
1F
100
AcDbEntity
  8
0
  6
Continuous
 62
     1
370
    25
100
AcDbLine
 10
41.97551275631881
 20
0.7759904302522662
 30
0.0
 11
42.08869114513057
 21
0.7142455938688069
 31
0.0
  0
LINE
  5
A5
330
1F
100
AcDbEntity
  8
0
  6
Continuous
 62
     1
370
    25
100
AcDbLine
 10
12.25562360492464
 20
-5.000000000000006
 30
0.0
 11
16.12343350111561
 21
-5.000000000000006
 31
0.0
  0
LINE
  5
A6
330
1F
100
AcDbEntity
  8
0
  6
Continuous
 62
     1
370
    25
100
AcDbLine
 10
43.33061778095194
 20
5.000000000000003
 30
0.0
 11
39.46238911716844
 21
5.000000000000003
 31
0.0
  0
LINE
  5
A7
330
1F
100
AcDbEntity
  8
0
  6
Continuous
 62
     1
370
    25
100
AcDbLine
 10
25.85889723168447
 20
-5.000000000000006
 30
0.0
 11
29.7271166461605
 21
-5.000000000000006
 31
0.0
  0
LINE
  5
A8
330
1F
100
AcDbEntity
  8
0
  6
Continuous
 62
     1
370
    25
100
AcDbLine
 10
54.99999999999999
 20
5.000000000000003
 30
0.0
 11
53.06601530144555
 21
5.000000000000003
 31
0.0
  0
SPLINE
  5
A9
330
1F
100
AcDbEntity
  8
0
  6
Continuous
 62
     4
370
    25
100
AcDbSpline
210
0.0
220
0.0
230
1.0
 70
     8
 71
     3
 72
    14
 73
    10
 74
     0
 42
0.000000001
 43
0.00000001
 40
0.0
 40
0.0
 40
0.0
 40
0.0
 40
0.2500000000000003
 40
0.2500000000000003
 40
0.5000000000000007
 40
0.5000000000000007
 40
0.7500000000000003
 40
0.7500000000000003
 40
1.0
 40
1.0
 40
1.0
 40
1.0
 10
9.004272692522367
 20
-3.403794129031627
 30
0.0
 10
8.925306075890767
 20
-3.370444447166898
 30
0.0
 10
8.854345878005953
 20
-3.329612616595526
 30
0.0
 10
8.72796887010435
 20
-3.232149807458058
 30
0.0
 10
8.673530734727116
 20
-3.175783291181284
 30
0.0
 10
8.586749726778983
 20
-3.052500333313726
 30
0.0
 10
8.553541148792009
 20
-2.984108922727359
 30
0.0
 10
8.510450693757573
 20
-2.84212722882086
 30
0.0
 10
8.499892116230649
 20
-2.767201867299866
 30
0.0
 10
8.499892116230649
 20
-2.690453349336583
 30
0.0
  0
SPLINE
  5
AA
330
1F
100
AcDbEntity
  8
0
  6
Continuous
 62
     4
370
    25
100
AcDbSpline
210
0.0
220
0.0
230
1.0
 70
     8
 71
     3
 72
    20
 73
    16
 74
     0
 42
0.000000001
 43
0.00000001
 40
0.0
 40
0.0
 40
0.0
 40
0.0
 40
0.1249999999999999
 40
0.1249999999999999
 40
0.2499999999999999
 40
0.2499999999999999
 40
0.3749999999999998
 40
0.3749999999999998
 40
0.4999999999999998
 40
0.4999999999999998
 40
0.6249999999999998
 40
0.6249999999999998
 40
0.7499999999999998
 40
0.7499999999999998
 40
1.0
 40
1.0
 40
1.0
 40
1.0
 10
8.499892116230649
 20
0.4016584706606561
 30
0.0
 10
8.499892116230649
 20
0.490554714886067
 30
0.0
 10
8.509828070313715
 20
0.5775941585740564
 30
0.0
 10
8.551073722558291
 20
0.7477816749553927
 30
0.0
 10
8.58282935753259
 20
0.8309461723365253
 30
0.0
 10
8.665743731416875
 20
0.9833405435387587
 30
0.0
 10
8.71812803800438
 20
1.054878917233137
 30
0.0
 10
8.839448326745998
 20
1.180160843894299
 30
0.0
 10
8.907961418400387
 20
1.23409217654103
 30
0.0
 10
9.060425554730458
 20
1.323764663128836
 30
0.0
 10
9.141157194813125
 20
1.357677226163197
 30
0.0
 10
9.311395772539928
 20
1.404562498845237
 30
0.0
 10
9.4001347556588
 20
1.416947994837416
 30
0.0
 10
9.664447263440485
 20
1.4199203899748
 30
0.0
 10
9.841681420114098
 20
1.376303677055099
 30
0.0
 10
9.996348048577211
 20
1.28995665778091
 30
0.0
  0
SPLINE
  5
AB
330
1F
100
AcDbEntity
  8
0
  6
Continuous
 62
     4
370
    25
100
AcDbSpline
210
0.0
220
0.0
230
1.0
 70
     8
 71
     3
 72
    14
 73
    10
 74
     0
 42
0.000000001
 43
0.00000001
 40
0.0
 40
0.0
 40
0.0
 40
0.0
 40
0.25
 40
0.25
 40
0.5
 40
0.5
 40
0.75
 40
0.75
 40
1.0
 40
1.0
 40
1.0
 40
1.0
 10
9.004272692522367
 20
3.662538126375984
 30
0.0
 10
8.925306075890767
 20
3.693531783621145
 30
0.0
 10
8.854345878005953
 20
3.730663506864649
 30
0.0
 10
8.72796887010435
 20
3.815413214868421
 30
0.0
 10
8.673530734727116
 20
3.862720316206859
 30
0.0
 10
8.586749726778983
 20
3.960864737516676
 30
0.0
 10
8.553541148792009
 20
4.012819892813608
 30
0.0
 10
8.510450693757573
 20
4.11460111919208
 30
0.0
 10
8.499892116230649
 20
4.16543931883076
 30
0.0
 10
8.499892116230649
 20
4.214434810866495
 30
0.0
  0
SPLINE
  5
AC
330
1F
100
AcDbEntity
  8
0
  6
Continuous
 62
     4
370
    25
100
AcDbSpline
210
0.0
220
0.0
230
1.0
 70
     8
 71
     3
 72
     8
 73
     4
 74
     0
 42
0.000000001
 43
0.00000001
 40
0.0
 40
0.0
 40
0.0
 40
0.0
 40
1.0
 40
1.0
 40
1.0
 40
1.0
 10
9.999999999999991
 20
3.248452514378913
 30
0.0
 10
9.669201252407326
 20
3.39376823432147
 30
0.0
 10
9.336199021636718
 20
3.532260151783136
 30
0.0
 10
9.004272692522367
 20
3.662538126375985
 30
0.0
  0
LINE
  5
AD
330
1F
100
AcDbEntity
  8
0
  6
Continuous
 62
     4
370
    25
100
AcDbLine
 10
9.996348048577207
 20
1.289956657780905
 30
0.0
 11
9.999999999999991
 21
1.287917704655202
 31
0.0
  0
SPLINE
  5
AE
330
1F
100
AcDbEntity
  8
0
  6
Continuous
 62
     4
370
    25
100
AcDbSpline
210
0.0
220
0.0
230
1.0
 70
     8
 71
     3
 72
     8
 73
     4
 74
     0
 42
0.000000001
 43
0.00000001
 40
0.0
 40
0.0
 40
0.0
 40
0.0
 40
1.0
 40
1.0
 40
1.0
 40
1.0
 10
9.999999999999991
 20
-3.800994114940615
 30
0.0
 10
9.669201252407326
 20
-3.676802600417958
 30
0.0
 10
9.336199021636718
 20
-3.543975359413234
 30
0.0
 10
9.004272692522367
 20
-3.403794129031625
 30
0.0
  0
LINE
  5
AF
330
1F
100
AcDbEntity
  8
0
  6
Continuous
 62
     4
370
    25
100
AcDbLine
 10
9.996348048577207
 20
-4.830736157258706
 30
0.0
 11
9.999999999999991
 21
-4.831280160168273
 31
0.0
  0
SPLINE
  5
B0
330
1F
100
AcDbEntity
  8
0
  6
Continuous
 62
     4
370
    25
100
AcDbSpline
210
0.0
220
0.0
230
1.0
 70
     8
 71
     3
 72
    20
 73
    16
 74
     0
 42
0.000000001
 43
0.00000001
 40
0.0
 40
0.0
 40
0.0
 40
0.0
 40
0.125
 40
0.125
 40
0.2499999999999999
 40
0.2499999999999999
 40
0.3749999999999999
 40
0.3749999999999999
 40
0.4999999999999999
 40
0.4999999999999999
 40
0.6249999999999999
 40
0.6249999999999999
 40
0.7499999999999999
 40
0.7499999999999999
 40
1.0
 40
1.0
 40
1.0
 40
1.0
 10
8.499892116230649
 20
-4.983840935758942
 30
0.0
 10
8.499892116230649
 20
-4.976676596053223
 30
0.0
 10
8.509828070313715
 20
-4.967268404866203
 30
0.0
 10
8.551073722558291
 20
-4.944511399987042
 30
0.0
 10
8.58282935753259
 20
-4.931078187110217
 30
0.0
 10
8.665743731416875
 20
-4.902962880151939
 30
0.0
 10
8.71812803800438
 20
-4.887878955225677
 30
0.0
 10
8.839448326745998
 20
-4.859151221509753
 30
0.0
 10
8.907961418400387
 20
-4.845530674959083
 30
0.0
 10
9.060425554730458
 20
-4.821804448421836
 30
0.0
 10
9.141157194813125
 20
-4.812204017016967
 30
0.0
 10
9.311395772539932
 20
-4.798728908645916
 30
0.0
 10
9.4001347556588
 20
-4.795024447013906
 30
0.0
 10
9.664447263440488
 20
-4.794145425023399
 30
0.0
 10
9.841681420114098
 20
-4.807678820081468
 30
0.0
 10
9.996348048577211
 20
-4.830736157258722
 30
0.0
  0
LINE
  5
B1
330
1F
100
AcDbEntity
  8
0
  6
Continuous
 62
     4
370
    25
100
AcDbLine
 10
8.499892116230649
 20
-4.983840935758942
 30
0.0
 11
8.499892116230649
 21
-5.000000000000002
 31
0.0
  0
LINE
  5
B2
330
1F
100
AcDbEntity
  8
0
  6
Continuous
 62
     4
370
    25
100
AcDbLine
 10
9.9963480485772
 20
4.830736157258712
 30
0.0
 11
9.999999999999991
 21
4.831280160168278
 31
0.0
  0
SPLINE
  5
B3
330
1F
100
AcDbEntity
  8
0
  6
Continuous
 62
     4
370
    25
100
AcDbSpline
210
0.0
220
0.0
230
1.0
 70
     8
 71
     3
 72
    20
 73
    16
 74
     0
 42
0.000000001
 43
0.00000001
 40
0.0
 40
0.0
 40
0.0
 40
0.0
 40
0.1249999999999999
 40
0.1249999999999999
 40
0.2499999999999998
 40
0.2499999999999998
 40
0.3749999999999998
 40
0.3749999999999998
 40
0.4999999999999999
 40
0.4999999999999999
 40
0.6249999999999999
 40
0.6249999999999999
 40
0.7499999999999999
 40
0.7499999999999999
 40
1.0
 40
1.0
 40
1.0
 40
1.0
 10
8.499892116230649
 20
4.983840935758941
 30
0.0
 10
8.499892116230649
 20
4.976676596053223
 30
0.0
 10
8.509828070313715
 20
4.967268404866203
 30
0.0
 10
8.551073722558291
 20
4.944511399987043
 30
0.0
 10
8.582829357532587
 20
4.931078187110221
 30
0.0
 10
8.665743731416875
 20
4.902962880151946
 30
0.0
 10
8.71812803800438
 20
4.887878955225683
 30
0.0
 10
8.839448326745998
 20
4.85915122150976
 30
0.0
 10
8.907961418400383
 20
4.845530674959089
 30
0.0
 10
9.060425554730454
 20
4.821804448421841
 30
0.0
 10
9.141157194813122
 20
4.812204017016972
 30
0.0
 10
9.311395772539925
 20
4.798728908645925
 30
0.0
 10
9.400134755658794
 20
4.795024447013911
 30
0.0
 10
9.664447263440481
 20
4.794145425023405
 30
0.0
 10
9.841681420114087
 20
4.807678820081473
 30
0.0
 10
9.996348048577204
 20
4.830736157258726
 30
0.0
  0
LINE
  5
B4
330
1F
100
AcDbEntity
  8
0
  6
Continuous
 62
     4
370
    25
100
AcDbLine
 10
8.499892116230649
 20
4.999999999999998
 30
0.0
 11
8.499892116230649
 21
4.214434810866495
 31
0.0
  0
LINE
  5
B5
330
1F
100
AcDbEntity
  8
0
  6
Continuous
 62
     4
370
    25
100
AcDbLine
 10
-44.50000000000001
 20
4.999999999999992
 30
0.0
 11
-44.50000000000001
 21
-5.000000000000003
 31
0.0
  0
LINE
  5
B6
330
1F
100
AcDbEntity
  8
0
  6
Continuous
 62
     4
370
    25
100
AcDbLine
 10
8.499892116230649
 20
0.4016584706606562
 30
0.0
 11
8.499892116230649
 21
-2.690453349336584
 31
0.0
  0
LINE
  5
B7
330
1F
100
AcDbEntity
  8
0
  6
Continuous
 62
     4
370
    25
100
AcDbLine
 10
9.999999999999991
 20
-3.800994114940615
 30
0.0
 11
9.999999999999991
 21
-4.831280160168287
 31
0.0
  0
LINE
  5
B8
330
1F
100
AcDbEntity
  8
0
  6
Continuous
 62
     4
370
    25
100
AcDbLine
 10
9.999999999999991
 20
3.248452514378913
 30
0.0
 11
9.999999999999991
 21
1.287917704655208
 31
0.0
  0
LINE
  5
B9
330
1F
100
AcDbEntity
  8
0
  6
Continuous
 62
     4
370
    25
100
AcDbLine
 10
-45.00000000000001
 20
4.499999999999992
 30
0.0
 11
-45.00000000000001
 21
-4.5
 31
0.0
  0
SPLINE
  5
BA
330
1F
100
AcDbEntity
  8
0
  6
Continuous
 62
     4
370
    25
100
AcDbSpline
210
0.0
220
0.0
230
1.0
 70
    24
 71
     3
 72
    24
 73
    20
 74
     0
 42
0.000000001
 43
0.00000001
 40
0.0
 40
0.0
 40
0.0
 40
0.0
 40
0.0625
 40
0.0625
 40
0.125
 40
0.125
 40
0.25
 40
0.25
 40
0.375
 40
0.375
 40
0.5
 40
0.5
 40
0.625
 40
0.625
 40
0.75
 40
0.75
 40
0.875
 40
0.875
 40
1.0
 40
1.0
 40
1.0
 40
1.0
 10
9.999999999999991
 20
1.287917704655211
 30
0.0
 10
9.999999999999991
 20
1.253354561282693
 30
0.0
 10
9.999999999999991
 20
1.216955547739418
 30
0.0
 10
9.999999999999991
 20
1.141680283821134
 30
0.0
 10
9.999999999999991
 20
1.101237378675685
 30
0.0
 10
9.999999999999991
 20
0.965598889855673
 30
0.0
 10
9.999999999999991
 20
0.8578718428760197
 30
0.0
 10
9.999999999999991
 20
0.5989389315493235
 30
0.0
 10
9.999999999999991
 20
0.4476291613959575
 30
0.0
 10
9.999999999999991
 20
0.0941659542873263
 30
0.0
 10
9.999999999999991
 20
-0.1081518376852102
 30
0.0
 10
9.999999999999991
 20
-0.5653430183259428
 30
0.0
 10
9.999999999999991
 20
-0.820385635990153
 30
0.0
 10
9.999999999999991
 20
-1.373776625570152
 30
0.0
 10
9.999999999999991
 20
-1.672155903285973
 30
0.0
 10
9.999999999999991
 20
-2.288381542018755
 30
0.0
 10
9.999999999999991
 20
-2.605978544358267
 30
0.0
 10
9.999999999999991
 20
-3.225058570338471
 30
0.0
 10
9.999999999999991
 20
-3.526081075495145
 30
0.0
 10
9.999999999999991
 20
-3.800994114940615
 30
0.0
  0
SPLINE
  5
BB
330
1F
100
AcDbEntity
  8
0
  6
Continuous
 62
     4
370
    25
100
AcDbSpline
210
0.0
220
0.0
230
1.0
 70
    24
 71
     3
 72
    12
 73
     8
 74
     0
 42
0.000000001
 43
0.00000001
 40
0.0
 40
0.0
 40
0.0
 40
0.0
 40
0.2102871124032711
 40
0.4240646205407948
 40
0.6990783938700693
 40
0.9820675852566493
 40
1.0
 40
1.0
 40
1.0
 40
1.0
 10
9.999999999999991
 20
4.831280160168293
 30
0.0
 10
9.999999999999991
 20
4.697181862652099
 30
0.0
 10
9.999999999999991
 20
4.42675947203827
 30
0.0
 10
9.999999999999991
 20
4.017876755852066
 30
0.0
 10
9.999999999999991
 20
3.622144896689063
 30
0.0
 10
9.999999999999991
 20
3.353334890388783
 30
0.0
 10
9.999999999999991
 20
3.254351120458044
 30
0.0
 10
9.999999999999991
 20
3.248452514378918
 30
0.0
  0
SPLINE
  5
BC
330
1F
100
AcDbEntity
  8
0
  6
Continuous
 62
     1
370
    25
100
AcDbSpline
210
0.0
220
0.0
230
1.0
 70
     8
 71
     3
 72
    25
 73
    21
 74
     0
 42
0.000000001
 43
0.00000001
 40
0.0
 40
0.0
 40
0.0
 40
0.0
 40
0.0333927083639628
 40
0.0937982665980897
 40
0.1542038405584692
 40
0.2146094303487465
 40
0.2750150360725314
 40
0.3354206578333991
 40
0.3958262957348893
 40
0.4562319498805062
 40
0.5166376203737191
 40
0.5770433073179595
 40
0.6374490108166253
 40
0.697854730973076
 40
0.7557789234090065
 40
0.8137002197589638
 40
0.871618317827588
 40
0.9295335426334591
 40
0.9874462205415735
 40
1.0
 40
1.0
 40
1.0
 40
1.0
 10
20.99131962954791
 20
4.204623287431873
 30
0.0
 10
21.34834209261487
 20
4.318440525367447
 30
0.0
 10
22.35119839906533
 20
4.638146837026207
 30
0.0
 10
23.99988882706935
 20
4.919882966863926
 30
0.0
 10
25.93739107491342
 20
5.043369025346732
 30
0.0
 10
27.87489393655704
 20
4.905399587598948
 30
0.0
 10
29.8123974101871
 20
4.525631740604003
 30
0.0
 10
31.7499015004382
 20
3.919569653230462
 30
0.0
 10
33.68740621447884
 20
3.118338670653088
 30
0.0
 10
35.62491154288561
 20
2.161628765893059
 30
0.0
 10
37.56241754006047
 20
1.097190135826839
 30
0.0
 10
39.49992402168724
 20
-0.0219370302347876
 30
0.0
 10
41.43743169448834
 20
-1.139979165561751
 30
0.0
 10
43.34840619232814
 20
-2.1866355956512
 30
0.0
 10
45.23282579219971
 20
-3.114351749233092
 30
0.0
 10
47.0906238676845
 20
-3.884972171322633
 30
0.0
 10
48.94830645081139
 20
-4.482703941100396
 30
0.0
 10
50.80587719658615
 20
-4.855625197626197
 30
0.0
 10
52.17843548679186
 20
-5.020196964861499
 30
0.0
 10
52.93180126314542
 20
-4.986512535644697
 30
0.0
 10
53.06601530144555
 20
-4.980511568498425
 30
0.0
  0
SPLINE
  5
BD
330
1F
100
AcDbEntity
  8
0
  6
Continuous
 62
     1
370
    25
100
AcDbSpline
210
0.0
220
0.0
230
1.0
 70
     8
 71
     3
 72
    21
 73
    17
 74
     0
 42
0.000000001
 43
0.00000001
 40
0.0
 40
0.0
 40
0.0
 40
0.0
 40
0.0766636369078479
 40
0.1533272518884917
 40
0.2299908450728288
 40
0.3066544165918021
 40
0.3833179665764035
 40
0.4599814951576725
 40
0.5366450024666943
 40
0.6133084886346027
 40
0.6899719537925751
 40
0.7666353980718379
 40
0.8432988216036608
 40
0.9199622245193615
 40
0.9966256069503012
 40
1.0
 40
1.0
 40
1.0
 40
1.0
 10
54.99999999999999
 20
-4.875828491775108
 30
0.0
 10
54.35416272406634
 20
-4.769666696781663
 30
0.0
 10
53.06248835692034
 20
-4.557343137158988
 30
0.0
 10
51.12497722253455
 20
-3.946587534678851
 30
0.0
 10
49.18746674091771
 20
-3.156570522375775
 30
0.0
 10
47.24995691822811
 20
-2.204546153253021
 30
0.0
 10
45.31244774778366
 20
-1.143890681182094
 30
0.0
 10
43.37493922634758
 20
-0.0258952682835831
 30
0.0
 10
41.43743134973369
 20
1.09334000159606
 30
0.0
 10
39.49992411409886
 20
2.157957557605775
 30
0.0
 10
37.56241751516843
 20
3.115556004284723
 30
0.0
 10
35.62491155004211
 20
3.915828489969239
 30
0.0
 10
33.68740621074488
 20
4.528534449357384
 30
0.0
 10
31.74990150821753
 20
4.88712313574431
 30
0.0
 10
30.42980504756309
 20
5.037697703578701
 30
0.0
 10
29.75554351599948
 20
4.996491221532621
 30
0.0
 10
29.72711664616054
 20
4.994753956025381
 30
0.0
  0
LINE
  5
BE
330
1F
100
AcDbEntity
  8
0
  6
Continuous
 62
     1
370
    25
100
AcDbLine
 10
54.99999999999999
 20
-5.000000000000011
 30
0.0
 11
54.99999999999999
 21
-4.875828491776314
 31
0.0
  0
SPLINE
  5
BF
330
1F
100
AcDbEntity
  8
0
  6
Continuous
 62
     1
370
    25
100
AcDbSpline
210
0.0
220
0.0
230
1.0
 70
     8
 71
     3
 72
    23
 73
    19
 74
     0
 42
0.000000001
 43
0.00000001
 40
0.0
 40
0.0
 40
0.0
 40
0.0
 40
0.0572882358478485
 40
0.1145611921398655
 40
0.1718283352153297
 40
0.2290991553964909
 40
0.2863831278327463
 40
0.3436896734767826
 40
0.4094480205728937
 40
0.4752063846759647
 40
0.5409647658988618
 40
0.6067231643544145
 40
0.6724815801554139
 40
0.7382400134146138
 40
0.8039984642447284
 40
0.8697569327584344
 40
0.9355154190683695
 40
1.0
 40
1.0
 40
1.0
 40
1.0
 10
9.999999999999991
 20
4.83128016016828
 30
0.0
 10
10.5625788919593
 20
4.897232533482057
 30
0.0
 10
11.687586628395
 20
5.029119689709847
 30
0.0
 10
13.37483712538112
 20
4.987594672997508
 30
0.0
 10
15.0618924638354
 20
4.7703868666047
 30
0.0
 10
16.74907586886529
 20
4.369092433495141
 30
0.0
 10
18.43672088023138
 20
3.803229964764674
 30
0.0
 10
20.20786548348919
 20
3.058437170670082
 30
0.0
 10
22.06239520127225
 20
2.139972238725366
 30
0.0
 10
23.9998866741618
 20
1.073827602724406
 30
0.0
 10
25.93739165177327
 20
-0.0458712622470229
 30
0.0
 10
27.87489378202596
 20
-1.163251398402238
 30
0.0
 10
29.81239745145136
 20
-2.222750350531472
 30
0.0
 10
31.74990148991234
 20
-3.171099679552979
 30
0.0
 10
33.68740621531796
 20
-3.96273965523593
 30
0.0
 10
35.62491155005496
 20
-4.55183741342607
 30
0.0
 10
37.54990589873981
 20
-4.930362241178081
 30
0.0
 10
38.82906518994952
 20
-4.975355581120001
 30
0.0
 10
39.46238911716837
 20
-4.997632211518209
 30
0.0
  0
SPLINE
  5
C0
330
1F
100
AcDbEntity
  8
0
  6
Continuous
 62
     1
370
    25
100
AcDbSpline
210
0.0
220
0.0
230
1.0
 70
     8
 71
     3
 72
    25
 73
    21
 74
     0
 42
0.000000001
 43
0.00000001
 40
0.0
 40
0.0
 40
0.0
 40
0.0
 40
0.0294167526651627
 40
0.0898309514679076
 40
0.1502451334038993
 40
0.2106592985764386
 40
0.2710734470888645
 40
0.3314875790445507
 40
0.3919016945469091
 40
0.4523157936993861
 40
0.5127298766054655
 40
0.5731439433686658
 40
0.6335579940925415
 40
0.6939720288806818
 40
0.7543860478367113
 40
0.8148000510642893
 40
0.875214038667109
 40
0.9278631256801857
 40
0.9804914740713948
 40
0.9999999999999999
 40
0.9999999999999999
 40
0.9999999999999999
 40
0.9999999999999999
 10
48.19336463482456
 20
-4.205846183951462
 30
0.0
 10
47.87889533898458
 20
-4.307826267436802
 30
0.0
 10
46.91858961203043
 20
-4.619246363140083
 30
0.0
 10
45.31244775145305
 20
-4.903358474400121
 30
0.0
 10
43.37493922535796
 20
-5.043709485482339
 30
0.0
 10
41.43743135002278
 20
-4.921407634886025
 30
0.0
 10
39.49992411393217
 20
-4.556825322944434
 30
0.0
 10
37.56241751554616
 20
-3.964309158775563
 30
0.0
 10
35.62491154869797
 20
-3.174416816392718
 30
0.0
 10
33.68740621574379
 20
-2.226244757423693
 30
0.0
 10
31.74990148956604
 20
-1.167124351148361
 30
0.0
 10
29.81239745241077
 20
-0.0498326868339331
 30
0.0
 10
27.87489377853462
 20
1.069962600156457
 30
0.0
 10
25.9373916647792
 20
2.136349482679876
 30
0.0
 10
23.9998866256294
 20
3.09654767642999
 30
0.0
 10
22.06239538239577
 20
3.901310561094287
 30
0.0
 10
20.20786484424747
 20
4.489383319378351
 30
0.0
 10
18.4367229269499
 20
4.845481940984639
 30
0.0
 10
17.10294192769052
 20
5.00509533200266
 30
0.0
 10
16.33194113472653
 20
4.983669170749022
 30
0.0
 10
16.12343350111561
 20
4.977874730300799
 30
0.0
  0
SPLINE
  5
C1
330
1F
100
AcDbEntity
  8
0
  6
Continuous
 62
     1
370
    25
100
AcDbSpline
210
0.0
220
0.0
230
1.0
 70
     8
 71
     3
 72
    21
 73
    17
 74
     0
 42
0.000000001
 43
0.00000001
 40
0.0
 40
0.0
 40
0.0
 40
0.0
 40
0.0368905052184344
 40
0.1156625317497349
 40
0.1944345372328418
 40
0.2732065218027768
 40
0.3519784855946064
 40
0.4307504287434437
 40
0.5095223513844469
 40
0.5882942536528181
 40
0.6569417457531322
 40
0.7255621974153004
 40
0.7941668939954349
 40
0.8627671857718695
 40
0.9313744411984928
 40
1.0
 40
1.0
 40
1.0
 40
1.0
 10
34.59477805918772
 20
-4.204433856774846
 30
0.0
 10
34.2923207229438
 20
-4.303083270712404
 30
0.0
 10
33.34402844423649
 20
-4.612378058194572
 30
0.0
 10
31.74990149318058
 20
-4.897657984869327
 30
0.0
 10
29.81239745057563
 20
-5.043588092766718
 30
0.0
 10
27.87489378226061
 20
-4.926524475411301
 30
0.0
 10
25.9373916517104
 20
-4.567022019158375
 30
0.0
 10
23.99988667417864
 20
-3.979039939073419
 30
0.0
 10
22.0623952012677
 20
-3.193002958629557
 30
0.0
 10
20.20786548349023
 20
-2.288081676156559
 30
0.0
 10
18.43672088023112
 20
-1.328531710431717
 30
0.0
 10
16.74907586886538
 20
-0.3636007934159514
 30
0.0
 10
15.06189246383542
 20
0.6155895227968711
 30
0.0
 10
13.37483712538116
 20
1.569097784369796
 30
0.0
 10
11.68758662839506
 20
2.472081300034593
 30
0.0
 10
10.56257889195936
 20
2.989639099905279
 30
0.0
 10
10.00000000000006
 20
3.248452514378884
 30
0.0
  0
SPLINE
  5
C2
330
1F
100
AcDbEntity
  8
0
  6
Continuous
 62
     4
370
    25
100
AcDbSpline
210
0.0
220
0.0
230
1.0
 70
    24
 71
     3
 72
    11
 73
     7
 74
     0
 42
0.000000001
 43
0.00000001
 40
0.0
 40
0.0
 40
0.0
 40
0.0
 40
0.2231054560089346
 40
0.4499140696818934
 40
0.7416916903175302
 40
1.0
 40
1.0
 40
1.0
 40
1.0
 10
9.999999999999991
 20
4.831280160168292
 30
0.0
 10
9.999999999999991
 20
4.697024221488838
 30
0.0
 10
9.99999999999999
 20
4.426283931982799
 30
0.0
 10
9.999999999999991
 20
4.02004762243255
 30
0.0
 10
9.999999999999991
 20
3.632166283630591
 30
0.0
 10
9.999999999999991
 20
3.418001939430251
 30
0.0
 10
9.999999999999991
 20
3.317435052157469
 30
0.0
  0
SPLINE
  5
C3
330
1F
100
AcDbEntity
  8
0
  6
Continuous
 62
     1
370
    25
100
AcDbSpline
210
0.0
220
0.0
230
1.0
 70
     8
 71
     3
 72
     9
 73
     5
 74
     0
 42
0.000000001
 43
0.00000001
 40
0.0
 40
0.0
 40
0.0
 40
0.0
 40
0.7482154797219188
 40
0.9999999999999999
 40
0.9999999999999999
 40
0.9999999999999999
 40
0.9999999999999999
 10
9.999999999999991
 20
-4.831280160168273
 30
0.0
 10
10.562582951489
 20
-4.907485806698243
 30
0.0
 10
11.31448259368579
 20
-5.009335672940373
 30
0.0
 10
12.06632206445172
 20
-4.984961359072817
 30
0.0
 10
12.25562360492464
 20
-4.978824284148567
 30
0.0
  0
SPLINE
  5
C4
330
1F
100
AcDbEntity
  8
0
  6
Continuous
 62
     1
370
    25
100
AcDbSpline
210
0.0
220
0.0
230
1.0
 70
     8
 71
     3
 72
    18
 73
    14
 74
     0
 42
0.000000001
 43
0.00000001
 40
0.0
 40
0.0
 40
0.0
 40
0.0
 40
0.0516972996602375
 40
0.1489311409882966
 40
0.2461650087972573
 40
0.3433989032535568
 40
0.4406328245235711
 40
0.5338722785414527
 40
0.6271070707856681
 40
0.720336714818183
 40
0.8135617338151281
 40
0.906782653119936
 40
1.0
 40
1.0
 40
1.0
 40
1.0
 10
34.59477805918779
 20
4.204433856774845
 30
0.0
 10
34.93815583329908
 20
4.314542745434117
 30
0.0
 10
35.92736888745303
 20
4.631747754762514
 30
0.0
 10
37.56241754365195
 20
4.914502019755918
 30
0.0
 10
39.49992402093143
 20
5.043589214015319
 30
0.0
 10
41.43743169392002
 20
4.910857126064007
 30
0.0
 10
43.34840619530796
 20
4.541232132304819
 30
0.0
 10
45.23282578136497
 20
3.960835702777243
 30
0.0
 10
47.09062390823503
 20
3.207309936257847
 30
0.0
 10
48.94830629945534
 20
2.306568052246907
 30
0.0
 10
50.80587776142249
 20
1.300890451068409
 30
0.0
 10
52.66335213741304
 20
0.2328663198375122
 30
0.0
 10
53.90163066932465
 20
-0.479428316805547
 30
0.0
 10
54.52075807168356
 20
-0.8355688108333386
 30
0.0
  0
SPLINE
  5
C5
330
1F
100
AcDbEntity
  8
0
  6
Continuous
 62
     1
370
    25
100
AcDbSpline
210
0.0
220
0.0
230
1.0
 70
     8
 71
     3
 72
     8
 73
     4
 74
     0
 42
0.000000001
 43
0.00000001
 40
0.0
 40
0.0
 40
0.0
 40
0.0
 40
1.0
 40
1.0
 40
1.0
 40
1.0
 10
54.99999999999999
 20
-3.778128546404885
 30
0.0
 10
54.18469570654706
 20
-3.319047671130691
 30
0.0
 10
53.41618671949516
 20
-2.755421905771478
 30
0.0
 10
52.67680798191734
 20
-2.12671656377011
 30
0.0
  0
LINE
  5
C6
330
1F
100
AcDbEntity
  8
0
  6
Continuous
 62
     1
370
    25
100
AcDbLine
 10
54.99999999999999
 20
-4.875828491776314
 30
0.0
 11
54.99999999999999
 21
-3.778128546404885
 31
0.0
  0
SPLINE
  5
C7
330
1F
100
AcDbEntity
  8
0
  6
Continuous
 62
     1
370
    25
100
AcDbSpline
210
0.0
220
0.0
230
1.0
 70
    24
 71
     3
 72
    14
 73
    10
 74
     0
 42
0.000000001
 43
0.00000001
 40
0.0
 40
0.0
 40
0.0
 40
0.0
 40
0.1212801015907424
 40
0.2748351023253152
 40
0.4780729785445887
 40
0.5803647508220392
 40
0.682672542861241
 40
0.876797174856261
 40
1.0
 40
1.0
 40
1.0
 40
1.0
 10
54.51483430608474
 20
-0.8397166761602185
 30
0.0
 10
54.5115982665786
 20
-0.8419825754163609
 30
0.0
 10
54.50426501704192
 20
-0.8471173720215137
 30
0.0
 10
54.38156181982964
 20
-0.9330350756719648
 30
0.0
 10
54.15221567851491
 20
-1.093624972679873
 30
0.0
 10
53.85968587645685
 20
-1.298456545231919
 30
0.0
 10
53.52826831140845
 20
-1.530517622573947
 30
0.0
 10
53.1229513905064
 20
-1.81432358595324
 30
0.0
 10
52.80158062654229
 20
-2.039349817441665
 30
0.0
 10
52.67680798191839
 20
-2.126716563769891
 30
0.0
  0
SPLINE
  5
C8
330
1F
100
AcDbEntity
  8
0
  6
Continuous
 62
     1
370
    25
100
AcDbSpline
210
0.0
220
0.0
230
1.0
 70
     8
 71
     3
 72
    14
 73
    10
 74
     0
 42
0.000000001
 43
0.00000001
 40
0.0
 40
0.0
 40
0.0
 40
0.0
 40
0.1660337704602239
 40
0.3320674934317487
 40
0.4981011691980647
 40
0.6641347980427609
 40
0.8301683802495319
 40
0.9962019161021756
 40
1.0
 40
1.0
 40
1.0
 40
1.0
 10
54.99999999999999
 20
1.107382733648243
 30
0.0
 10
54.35416272407902
 20
1.46560213166027
 30
0.0
 10
53.06248835695834
 20
2.182040825227017
 30
0.0
 10
51.12497722238251
 20
3.133676568147131
 30
0.0
 10
49.1874667414878
 20
3.930976668483013
 30
0.0
 10
47.24995691609986
 20
4.53918270036499
 30
0.0
 10
45.31244775572657
 20
4.891935454523473
 30
0.0
 10
44.00600144101635
 20
5.039547275247118
 30
0.0
 10
43.34539154229716
 20
4.998140000265485
 30
0.0
 10
43.33061778095193
 20
4.997213975391015
 30
0.0
  0
SPLINE
  5
C9
330
1F
100
AcDbEntity
  8
0
  6
Continuous
 62
     1
370
    25
100
AcDbSpline
210
0.0
220
0.0
230
1.0
 70
     8
 71
     3
 72
    14
 73
    10
 74
     0
 42
0.000000001
 43
0.00000001
 40
0.0
 40
0.0
 40
0.0
 40
0.0
 40
0.0788176324262467
 40
0.2324148553507032
 40
0.3859515759016746
 40
0.5394530448101857
 40
0.692944658069275
 40
0.8464518523393766
 40
0.9999999999999999
 40
0.9999999999999999
 40
0.9999999999999999
 40
0.9999999999999999
 10
20.99131962954791
 20
-4.204623287431875
 30
0.0
 10
20.70250572017289
 20
-4.299514743773553
 30
0.0
 10
19.85086071505959
 20
-4.579327565102659
 30
0.0
 10
18.43672300580513
 20
-4.846959319599812
 30
0.0
 10
16.74907529957292
 20
-5.020156920420534
 30
0.0
 10
15.06189261629815
 20
-4.994007653266163
 30
0.0
 10
13.37483708472129
 20
-4.778738600305068
 30
0.0
 10
11.68758663856362
 20
-4.392157625508975
 30
0.0
 10
10.56257889534919
 20
-3.998066139064587
 30
0.0
 10
10.00000000000006
 20
-3.800994114940645
 30
0.0
  0
SPLINE
  5
CA
330
1F
100
AcDbEntity
  8
0
  6
Continuous
 62
     4
370
    25
100
AcDbSpline
210
0.0
220
0.0
230
1.0
 70
    24
 71
     3
 72
    24
 73
    20
 74
     0
 42
0.000000001
 43
0.00000001
 40
0.0
 40
0.0
 40
0.0
 40
0.0
 40
0.0624999999999996
 40
0.0624999999999996
 40
0.1249999999999992
 40
0.1249999999999992
 40
0.249999999999999
 40
0.249999999999999
 40
0.3749999999999991
 40
0.3749999999999991
 40
0.4999999999999993
 40
0.4999999999999993
 40
0.6249999999999996
 40
0.6249999999999996
 40
0.7499999999999997
 40
0.7499999999999997
 40
0.8749999999999998
 40
0.8749999999999998
 40
1.0
 40
1.0
 40
1.0
 40
1.0
 10
9.999999999999991
 20
1.287917704655211
 30
0.0
 10
9.999999999999991
 20
1.253354561282687
 30
0.0
 10
9.999999999999991
 20
1.216955547739408
 30
0.0
 10
9.999999999999991
 20
1.141680283821111
 30
0.0
 10
9.999999999999991
 20
1.101237378675653
 30
0.0
 10
9.999999999999991
 20
0.9655988898556124
 30
0.0
 10
9.999999999999991
 20
0.8578718428759331
 30
0.0
 10
9.999999999999991
 20
0.5989389315491702
 30
0.0
 10
9.999999999999991
 20
0.4476291613957633
 30
0.0
 10
9.999999999999991
 20
0.0941659542870313
 30
0.0
 10
9.999999999999991
 20
-0.1081518376855663
 30
0.0
 10
9.999999999999991
 20
-0.5653430183264329
 30
0.0
 10
9.999999999999991
 20
-0.8203856359907147
 30
0.0
 10
9.999999999999991
 20
-1.373776625570863
 30
0.0
 10
9.999999999999991
 20
-1.672155903286761
 30
0.0
 10
9.999999999999991
 20
-2.288381542019673
 30
0.0
 10
9.999999999999991
 20
-2.605978544359237
 30
0.0
 10
9.999999999999991
 20
-3.225058570339498
 30
0.0
 10
9.999999999999991
 20
-3.52608107549618
 30
0.0
 10
9.999999999999991
 20
-3.800994114941629
 30
0.0
  0
SPLINE
  5
CB
330
1F
100
AcDbEntity
  8
0
  6
Continuous
 62
     1
370
    25
100
AcDbSpline
210
0.0
220
0.0
230
1.0
 70
     8
 71
     3
 72
    16
 73
    12
 74
     0
 42
0.000000001
 43
0.00000001
 40
0.0
 40
0.0
 40
0.0
 40
0.0
 40
0.1064242253304272
 40
0.2128200658647667
 40
0.3192051071999486
 40
0.4255969794860137
 40
0.532013284686429
 40
0.6384715240835562
 40
0.7606306557995276
 40
0.88278981910929
 40
1.0
 40
1.0
 40
1.0
 40
1.0
 10
9.999999999999991
 20
1.287917704655203
 30
0.0
 10
10.56257889195668
 20
0.969365066435606
 30
0.0
 10
11.68758662838716
 20
0.3323447523407556
 30
0.0
 10
13.37483712541249
 20
-0.6489774640019667
 30
0.0
 10
15.06189246371777
 20
-1.602156789372159
 30
0.0
 10
16.7490758693045
 20
-2.49572903615642
 30
0.0
 10
18.4367208785915
 20
-3.29436128777685
 30
0.0
 10
20.2078654899936
 20
-4.002539216316969
 30
0.0
 10
22.06239517297973
 20
-4.561891829194562
 30
0.0
 10
23.97372235233091
 20
-4.933495062481295
 30
0.0
 10
25.23922707938632
 20
-4.974886246824608
 30
0.0
 10
25.85889723168447
 20
-4.995153955792792
 30
0.0
  0
SPLINE
  5
CC
330
1F
100
AcDbEntity
  8
0
  6
Continuous
 62
     1
370
    25
100
AcDbSpline
210
0.0
220
0.0
230
1.0
 70
     8
 71
     3
 72
    11
 73
     7
 74
     0
 42
0.000000001
 43
0.00000001
 40
0.0
 40
0.0
 40
0.0
 40
0.0
 40
0.1193156522389094
 40
0.4128894583141783
 40
0.706450354097369
 40
1.0
 40
1.0
 40
1.0
 40
1.0
 10
48.19336463482456
 20
4.205846183951464
 30
0.0
 10
48.44502137671208
 20
4.289104922191649
 30
0.0
 10
49.31587456226895
 20
4.577220141669128
 30
0.0
 10
50.80587702554975
 20
4.857614282707885
 30
0.0
 10
52.66335232136963
 20
5.04504057322898
 30
0.0
 10
53.90163073064272
 20
4.968138433162384
 30
0.0
 10
54.52075807168357
 20
4.92968809990677
 30
0.0
  0
SPLINE
  5
CD
330
1F
100
AcDbEntity
  8
0
  6
Continuous
 62
     1
370
    25
100
AcDbSpline
210
0.0
220
0.0
230
1.0
 70
     8
 71
     3
 72
    18
 73
    14
 74
     0
 42
0.000000001
 43
0.00000001
 40
0.0
 40
0.0
 40
0.0
 40
0.0
 40
0.2500000000000015
 40
0.2500000000000015
 40
0.3750000000000019
 40
0.3750000000000019
 40
0.5000000000000023
 40
0.5000000000000023
 40
0.6250000000000028
 40
0.6250000000000028
 40
0.7500000000000031
 40
0.7500000000000031
 40
1.0
 40
1.0
 40
1.0
 40
1.0
 10
54.52075807168357
 20
4.929688099906779
 30
0.0
 10
54.52699347436378
 20
4.606851837981965
 30
0.0
 10
54.49969480875363
 20
4.290337705371875
 30
0.0
 10
54.39005607498703
 20
3.82851667128183
 30
0.0
 10
54.34125743286381
 20
3.676235446349222
 30
0.0
 10
54.22075046690126
 20
3.391480187959265
 30
0.0
 10
54.14856080958637
 20
3.256893544584276
 30
0.0
 10
53.97862368036398
 20
3.007383037770189
 30
0.0
 10
53.88382477663744
 20
2.896667102584325
 30
0.0
 10
53.67533102073348
 20
2.702221710530233
 30
0.0
 10
53.56025913724947
 20
2.617982717210623
 30
0.0
 10
53.20199878948117
 20
2.415034884755328
 30
0.0
 10
52.93943782007098
 20
2.341734955811785
 30
0.0
 10
52.67680798191734
 20
2.323192018082637
 30
0.0
  0
SPLINE
  5
CE
330
1F
100
AcDbEntity
  8
0
  6
Continuous
 62
     1
370
    25
100
AcDbSpline
210
0.0
220
0.0
230
1.0
 70
     8
 71
     3
 72
     9
 73
     5
 74
     0
 42
0.000000001
 43
0.00000001
 40
0.0
 40
0.0
 40
0.0
 40
0.0
 40
0.6644874080602087
 40
1.0
 40
1.0
 40
1.0
 40
1.0
 10
54.99999999999999
 20
1.193141214989697
 30
0.0
 10
54.60110788842405
 20
1.403894045296923
 30
0.0
 10
54.00080740607123
 20
1.721060070944365
 30
0.0
 10
53.43852700119855
 20
1.974539147830088
 30
0.0
 10
53.24987484516274
 20
2.059584569918523
 30
0.0
  0
LINE
  5
CF
330
1F
100
AcDbEntity
  8
0
  6
Continuous
 62
     1
370
    25
100
AcDbLine
 10
54.99999999999999
 20
1.11159060535153
 30
0.0
 11
54.99999999999999
 21
1.193141214989697
 31
0.0
  0
LINE
  5
D0
102
{ACAD_REACTORS
330
14A
102
}
330
1F
100
AcDbEntity
  8
0
  6
Continuous
 62
     1
370
    25
100
AcDbLine
 10
54.99999999999999
 20
-0.5000000000000164
 30
0.0
 11
54.99999999999999
 21
1.107382733648337
 31
0.0
  0
LINE
  5
D1
330
1F
100
AcDbEntity
  8
0
  6
Continuous
 62
     1
370
    25
100
AcDbLine
 10
54.99999999999999
 20
-0.500000000000017
 30
0.0
 11
54.52075807168356
 21
-0.8355688108333436
 31
0.0
  0
LINE
  5
D2
330
1F
100
AcDbEntity
  8
0
  6
Continuous
 62
     1
370
    25
100
AcDbLine
 10
54.99999999999999
 20
4.974937185533107
 30
0.0
 11
54.99999999999999
 21
5.000000000000007
 31
0.0
  0
ELLIPSE
  5
D3
330
1F
100
AcDbEntity
  8
0
  6
Continuous
 62
     1
370
    25
100
AcDbEllipse
 10
55.71407400337104
 20
-0.0000000000000019
 30
0.0
 11
7.140740033710557
 21
0.0
 31
0.0
210
0.0
220
0.0
230
1.0
 40
0.7002075382097119
 41
1.670963747956457
 42
1.738697861005219
  0
LINE
  5
D4
330
1F
100
AcDbEntity
  8
0
  6
Continuous
 62
     1
370
    25
100
AcDbLine
 10
54.99999999999999
 20
1.193141214989697
 30
0.0
 11
54.99999999999999
 21
4.974937185533107
 31
0.0
  0
LINE
  5
D5
330
1F
100
AcDbEntity
  8
0
  6
Continuous
 62
     1
370
    25
100
AcDbLine
 10
54.99999999999999
 20
-0.4999999999999991
 30
0.0
 11
54.99999999999999
 21
-3.778128546404882
 31
0.0
  0
LINE
  5
D6
102
{ACAD_REACTORS
330
14A
102
}
330
1F
100
AcDbEntity
  8
중심선
100
AcDbLine
 10
-48.00000000000001
 20
-0.0000000000000071
 30
0.0
 11
58.0
 21
0.0000000000000059
 31
0.0
  0
CIRCLE
  5
D7
330
1F
100
AcDbEntity
  8
해칭선
100
AcDbCircle
 10
0.0000657994140858
 20
-0.0000000000000043
 30
0.0
 40
3.0
  0
INSERT
  5
D8
330
1F
100
AcDbEntity
  8
0
  6
Continuous
 62
     7
100
AcDbBlockReference
 66
     1
  2
블럭10
 10
-7.440099248941765
 20
-52.04717430164393
 30
0.0
  0
ATTRIB
  5
D9
330
D8
100
AcDbEntity
  8
FORMAT
 62
     2
100
AcDbText
 10
-23.55936028837732
 20
-49.97180738881174
 30
0.0
 40
4.233333333333333
  1
SEME7210045E [ 4 FLUTE ]
 41
0.75
  7
SLDTEXTSTYLE0
 11
-23.55936028837732
 21
-52.08847405547841
 31
0.0
100
AcDbAttribute
  2
AUTOATTR0
 70
     0
 74
     1
  0
SEQEND
  5
DA
330
D8
100
AcDbEntity
  8
0
  6
Continuous
 62
     7
  0
HATCH
  5
DB
330
1F
100
AcDbEntity
  8
중심선
100
AcDbHatch
 10
0.0
 20
0.0
 30
0.0
210
0.0
220
0.0
230
1.0
  2
SOLID
 70
     1
 71
     0
 91
        1
 92
        0
 93
        4
 72
     1
 10
-1.725189944560918
 20
-35.8
 11
-5.1714651883982
 21
-35.8
 72
     1
 10
-5.1714651883982
 20
-35.8
 11
-7.299695047602222
 21
-38.33632558057259
 72
     1
 10
-7.299695047602222
 20
-38.33632558057259
 11
-3.853386718651791
 21
-38.3362861512701
 72
     1
 10
-3.853386718651791
 20
-38.3362861512701
 11
-1.725189944560918
 21
-35.8
 97
        0
 75
     0
 76
     1
 98
        1
 10
0.0
 20
0.0
  0
HATCH
  5
DC
330
1F
100
AcDbEntity
  8
중심선
100
AcDbHatch
 10
0.0
 20
0.0
 30
0.0
210
0.0
220
0.0
230
1.0
  2
SOLID
 70
     1
 71
     0
 91
        1
 92
        0
 93
        4
 72
     1
 10
3.287574046475034
 20
-35.80000000000003
 11
-0.158701197362221
 21
-35.79999999999997
 72
     1
 10
-0.158701197362221
 20
-35.79999999999997
 11
-4.689839205719638
 21
-41.20000000000002
 72
     1
 10
-4.689839205719637
 20
-41.20000000000002
 11
-1.243563961882355
 21
-41.20000000000002
 72
     1
 10
-1.243563961882355
 20
-41.20000000000002
 11
3.287574046475033
 21
-35.80000000000003
 97
        0
 75
     0
 76
     1
 98
        1
 10
0.0
 20
0.0
  0
HATCH
  5
DD
330
1F
100
AcDbEntity
  8
중심선
100
AcDbHatch
 10
0.0
 20
0.0
 30
0.0
210
0.0
220
0.0
230
1.0
  2
SOLID
 70
     1
 71
     0
 91
        1
 92
        0
 93
        4
 72
     1
 10
8.30033803751093
 20
-35.79999999999997
 11
4.854062793673869
 21
-35.79999999999997
 72
     1
 10
4.854062793673869
 20
-35.79999999999997
 11
-2.194374108215436
 21
-44.20000000000002
 72
     1
 10
-2.194374108215436
 20
-44.20000000000002
 11
1.251901135621847
 21
-44.20000000000002
 72
     1
 10
1.251901135621847
 20
-44.20000000000002
 11
8.30033803751093
 21
-35.79999999999997
 97
        0
 75
     0
 76
     1
 98
        1
 10
0.0
 20
0.0
  0
HATCH
  5
DE
330
1F
100
AcDbEntity
  8
중심선
100
AcDbHatch
 10
0.0
 20
0.0
 30
0.0
210
0.0
220
0.0
230
1.0
  2
SOLID
 70
     1
 71
     0
 91
        1
 92
        0
 93
        6
 72
     3
 10
13.10022846852313
 20
-40.00000000005127
 11
3.960054785062284
 21
1.540850780301639E-10
 40
0.3939339440162633
 50
17.09539180608433
 51
320.0019657685087
 73
     0
 72
     1
 10
14.7832281242237
 20
-38.58789400463836
 11
17.08852999792476
 21
-36.6535672945904
 72
     3
 10
13.10022846847028
 20
-40.00000000000015
 11
6.600054785286829
 21
-1.249000902703301E-13
 40
0.6363583540795982
 50
39.9987384933739
 51
368.4976242363725
 73
     1
 72
     1
 10
19.52556096037089
 20
-39.03999999993002
 11
11.7802957753062
 21
-39.03999999993002
 72
     1
 10
11.7802957753062
 20
-39.03999999993002
 11
11.78027073086027
 21
-40.95999999992991
 72
     1
 10
11.78027073086027
 20
-40.95999999992991
 11
16.22165050033231
 21
-40.95999999992988
 97
        0
 75
     0
 76
     1
 98
        1
 10
0.0
 20
0.0
  0
DIMENSION
  5
DF
330
1F
100
AcDbEntity
  8
치수문자_일반주서
100
AcDbDimension
  2
_D
 10
70.01287037410242
 20
5.000000000000059
 30
0.0
 11
70.01287037410239
 21
15.32275000000006
 31
0.0
 70
   160
  1
%%c<>
 71
     2
 42
10.00000000000001
 52
-270.0
  3
SLDDIMSTYLE0
100
AcDbAlignedDimension
 13
54.99999999999999
 23
-5.000000000000007
 33
0.0
 14
54.99999999999999
 24
5.000000000000002
 34
0.0
 50
90.0000000000002
100
AcDbRotatedDimension
  0
DIMENSION
  5
ED
330
1F
100
AcDbEntity
  8
치수문자_일반주서
100
AcDbDimension
  2
_D_1
 10
54.99999999999999
 20
22.38913260158164
 30
0.0
 11
4.999999999999988
 21
22.38913260158164
 31
0.0
 70
   160
  1
<>
 71
     2
 42
100.0
  3
SLDDIMSTYLE1
100
AcDbAlignedDimension
 13
-45.00000000000001
 23
4.499999999999992
 33
0.0
 14
54.99999999999999
 24
5.000000000000003
 34
0.0
 50
-0.0000000000000061
100
AcDbRotatedDimension
  0
DIMENSION
  5
F8
330
1F
100
AcDbEntity
  8
치수문자_일반주서
100
AcDbDimension
  2
_D_2
 10
-55.63097665030352
 20
-5.00000000000005
 30
0.0
 11
-55.63097665030359
 21
15.32274999999996
 31
0.0
 70
   160
  1
%%c<>
 71
     2
 42
10.00000000000001
 52
-270.0
  3
SLDDIMSTYLE2
100
AcDbAlignedDimension
 13
-44.5
 23
5.000000000000003
 33
0.0
 14
-44.5
 24
-5.000000000000006
 34
0.0
 50
90.0000000000002
100
AcDbRotatedDimension
  0
DIMENSION
  5
106
330
1F
100
AcDbEntity
  8
치수문자_일반주서
100
AcDbDimension
  2
_D_3
 10
54.99999999999999
 20
15.67719846275594
 30
0.0
 11
32.49999999999999
 21
15.67719846275594
 31
0.0
 70
   160
  1
<>
 71
     2
 42
44.99999999999999
  3
SLDDIMSTYLE1
100
AcDbAlignedDimension
 13
9.999999999999991
 23
4.831280160168293
 33
0.0
 14
54.99999999999999
 24
5.000000000000003
 34
0.0
 50
-0.0000000000000045
100
AcDbRotatedDimension
  0
INSERT
  5
116
330
1F
100
AcDbEntity
  8
해칭선
100
AcDbBlockReference
  2
SW_DOWELSYMBOL_0
 10
0.0000657994140858
 20
-0.0000000000000043
 30
0.0
  0
ENDSEC
  0
SECTION
  2
OBJECTS
  0
DICTIONARY
  5
C
330
0
100
AcDbDictionary
281
     1
  3
ACAD_GROUP
350
D
  3
ACAD_IMAGE_VARS
350
13A
  3
ACAD_LAYOUT
350
1A
  3
ACAD_MLINESTYLE
350
17
  3
ACAD_PLOTSETTINGS
350
19
  3
ACAD_PLOTSTYLENAME
350
E
  3
ACAD_SCALELIST
350
47
  3
APPDATA
350
138
  3
DWGPROPS
350
15B
  0
DICTIONARY
  5
D
102
{ACAD_REACTORS
330
C
102
}
330
C
100
AcDbDictionary
281
     1
  0
RASTERVARIABLES
  5
13A
102
{ACAD_REACTORS
330
C
102
}
330
C
100
AcDbRasterVariables
 90
        0
 70
     1
 71
     1
 72
     1
  0
DICTIONARY
  5
1A
102
{ACAD_REACTORS
330
C
102
}
330
C
100
AcDbDictionary
281
     1
  3
Layout1
350
1E
  3
Layout2
350
26
  3
Model
350
22
  0
DICTIONARY
  5
17
102
{ACAD_REACTORS
330
C
102
}
330
C
100
AcDbDictionary
281
     1
  3
Standard
350
18
  0
DICTIONARY
  5
19
102
{ACAD_REACTORS
330
C
102
}
330
C
100
AcDbDictionary
281
     1
  0
ACDBDICTIONARYWDFLT
  5
E
102
{ACAD_REACTORS
330
C
102
}
330
C
100
AcDbDictionary
281
     1
  3
Normal
350
F
100
AcDbDictionaryWithDefault
340
F
  0
DICTIONARY
  5
47
102
{ACAD_REACTORS
330
C
102
}
330
C
100
AcDbDictionary
281
     1
  3
A0
350
48
  3
A1
350
49
  3
A2
350
4A
  3
A3
350
4B
  3
A4
350
4C
  3
A5
350
4D
  3
A6
350
4E
  3
A7
350
4F
  3
A8
350
50
  3
A9
350
51
  3
B0
350
52
  3
B1
350
53
  3
B2
350
54
  3
B3
350
55
  3
B4
350
56
  3
B5
350
57
  3
B6
350
58
  3
B7
350
59
  3
B8
350
5A
  3
B9
350
5B
  3
C0
350
5C
  3
C1
350
5D
  3
C2
350
5E
  3
C3
350
5F
  3
C4
350
60
  3
C5
350
61
  3
C6
350
62
  3
C7
350
63
  3
C8
350
64
  3
C9
350
65
  3
D0
350
66
  3
D1
350
67
  3
D2
350
68
  0
DICTIONARY
  5
138
102
{ACAD_REACTORS
330
C
102
}
330
C
100
AcDbDictionary
281
     1
  0
XRECORD
  5
15B
102
{ACAD_REACTORS
330
C
102
}
330
C
100
AcDbXrecord
280
     1
  1
DWGPROPS COOKIE
  2

  3

  4

  6

  7

  8
12014102
  9

300
=
301
=
302
=
303
=
304
=
305
=
306
=
307
=
308
=
309
=
 40
0.0
 41
2458260.203536747
 42
2458268.208182511
  1

 90
        0
  0
LAYOUT
  5
1E
102
{ACAD_REACTORS
330
1A
102
}
330
1A
100
AcDbPlotSettings
  1

  2
none_device
  4

  6

 40
0.0
 41
0.0
 42
0.0
 43
0.0
 44
0.0
 45
0.0
 46
0.0
 47
0.0
 48
0.0
 49
0.0
140
0.0
141
0.0
142
1.0
143
1.0
 70
   688
 72
     1
 73
     0
 74
     5
  7

 75
    16
147
1.0
148
0.0
149
0.0
100
AcDbLayout
  1
Layout1
 70
     1
 71
     1
 10
0.0
 20
0.0
 11
420.0
 21
297.0
 12
0.0
 22
0.0
 32
0.0
 14
1.000000000000000E+20
 24
1.000000000000000E+20
 34
1.000000000000000E+20
 15
-1.000000000000000E+20
 25
-1.000000000000000E+20
 35
-1.000000000000000E+20
146
0.0
 13
0.0
 23
0.0
 33
0.0
 16
1.0
 26
0.0
 36
0.0
 17
0.0
 27
1.0
 37
0.0
 76
     0
330
1B
  0
LAYOUT
  5
26
102
{ACAD_REACTORS
330
1A
102
}
330
1A
100
AcDbPlotSettings
  1

  2
none_device
  4

  6

 40
0.0
 41
0.0
 42
0.0
 43
0.0
 44
0.0
 45
0.0
 46
0.0
 47
0.0
 48
0.0
 49
0.0
140
0.0
141
0.0
142
1.0
143
1.0
 70
   688
 72
     1
 73
     0
 74
     5
  7

 75
    16
147
1.0
148
0.0
149
0.0
100
AcDbLayout
  1
Layout2
 70
     1
 71
     2
 10
0.0
 20
0.0
 11
0.0
 21
0.0
 12
0.0
 22
0.0
 32
0.0
 14
0.0
 24
0.0
 34
0.0
 15
0.0
 25
0.0
 35
0.0
146
0.0
 13
0.0
 23
0.0
 33
0.0
 16
1.0
 26
0.0
 36
0.0
 17
0.0
 27
1.0
 37
0.0
 76
     0
330
23
  0
LAYOUT
  5
22
102
{ACAD_REACTORS
330
1A
102
}
330
1A
100
AcDbPlotSettings
  1

  2
none_device
  4
ANSI_A_(11.00_x_8.50_Inches)
  6

 40
6.35
 41
19.05
 42
6.35000508
 43
19.05000254
 44
279.4
 45
215.9
 46
121.3029676324358
 47
113.3224103371773
 48
0.0
 49
0.0
140
0.0
141
0.0
142
0.0807487851913164
143
1.0
 70
  1696
 72
     0
 73
     0
 74
     0
  7

 75
     0
147
0.0235690232323232
148
0.0
149
0.0
100
AcDbLayout
  1
Model
 70
     1
 71
     0
 10
0.0
 20
0.0
 11
420.0
 21
297.0
 12
0.0
 22
0.0
 32
0.0
 14
-60.00597665030361
 24
-49.97180738881174
 34
0.0
 15
70.5632037074358
 25
26.76413260158164
 35
0.0
146
0.0
 13
0.0
 23
0.0
 33
0.0
 16
1.0
 26
0.0
 36
0.0
 17
0.0
 27
1.0
 37
0.0
 76
     0
330
1F
331
29
  0
MLINESTYLE
  5
18
102
{ACAD_REACTORS
330
17
102
}
330
17
100
AcDbMlineStyle
  2
Standard
 70
     0
  3

 62
   256
 51
90.0
 52
90.0
 71
     2
 49
0.5
 62
   256
  6
BYLAYER
 49
-0.5
 62
   256
  6
BYLAYER
  0
ACDBPLACEHOLDER
  5
F
102
{ACAD_REACTORS
330
E
102
}
330
E
  0
SCALE
  5
48
102
{ACAD_REACTORS
330
47
102
}
330
47
100
AcDbScale
 70
     0
300
1:1
140
1.0
141
1.0
290
     1
  0
SCALE
  5
49
102
{ACAD_REACTORS
330
47
102
}
330
47
100
AcDbScale
 70
     0
300
1:2
140
1.0
141
2.0
290
     0
  0
SCALE
  5
4A
102
{ACAD_REACTORS
330
47
102
}
330
47
100
AcDbScale
 70
     0
300
1:4
140
1.0
141
4.0
290
     0
  0
SCALE
  5
4B
102
{ACAD_REACTORS
330
47
102
}
330
47
100
AcDbScale
 70
     0
300
1:5
140
1.0
141
5.0
290
     0
  0
SCALE
  5
4C
102
{ACAD_REACTORS
330
47
102
}
330
47
100
AcDbScale
 70
     0
300
1:8
140
1.0
141
8.0
290
     0
  0
SCALE
  5
4D
102
{ACAD_REACTORS
330
47
102
}
330
47
100
AcDbScale
 70
     0
300
1:10
140
1.0
141
10.0
290
     0
  0
SCALE
  5
4E
102
{ACAD_REACTORS
330
47
102
}
330
47
100
AcDbScale
 70
     0
300
1:16
140
1.0
141
16.0
290
     0
  0
SCALE
  5
4F
102
{ACAD_REACTORS
330
47
102
}
330
47
100
AcDbScale
 70
     0
300
1:20
140
1.0
141
20.0
290
     0
  0
SCALE
  5
50
102
{ACAD_REACTORS
330
47
102
}
330
47
100
AcDbScale
 70
     0
300
1:30
140
1.0
141
30.0
290
     0
  0
SCALE
  5
51
102
{ACAD_REACTORS
330
47
102
}
330
47
100
AcDbScale
 70
     0
300
1:40
140
1.0
141
40.0
290
     0
  0
SCALE
  5
52
102
{ACAD_REACTORS
330
47
102
}
330
47
100
AcDbScale
 70
     0
300
1:50
140
1.0
141
50.0
290
     0
  0
SCALE
  5
53
102
{ACAD_REACTORS
330
47
102
}
330
47
100
AcDbScale
 70
     0
300
1:100
140
1.0
141
100.0
290
     0
  0
SCALE
  5
54
102
{ACAD_REACTORS
330
47
102
}
330
47
100
AcDbScale
 70
     0
300
2:1
140
2.0
141
1.0
290
     0
  0
SCALE
  5
55
102
{ACAD_REACTORS
330
47
102
}
330
47
100
AcDbScale
 70
     0
300
4:1
140
4.0
141
1.0
290
     0
  0
SCALE
  5
56
102
{ACAD_REACTORS
330
47
102
}
330
47
100
AcDbScale
 70
     0
300
8:1
140
8.0
141
1.0
290
     0
  0
SCALE
  5
57
102
{ACAD_REACTORS
330
47
102
}
330
47
100
AcDbScale
 70
     0
300
10:1
140
10.0
141
1.0
290
     0
  0
SCALE
  5
58
102
{ACAD_REACTORS
330
47
102
}
330
47
100
AcDbScale
 70
     0
300
100:1
140
100.0
141
1.0
290
     0
  0
SCALE
  5
59
102
{ACAD_REACTORS
330
47
102
}
330
47
100
AcDbScale
 70
     0
300
1/128" = 1'-0"
140
0.0078125
141
12.0
290
     0
  0
SCALE
  5
5A
102
{ACAD_REACTORS
330
47
102
}
330
47
100
AcDbScale
 70
     0
300
1/64" = 1'-0"
140
0.015625
141
12.0
290
     0
  0
SCALE
  5
5B
102
{ACAD_REACTORS
330
47
102
}
330
47
100
AcDbScale
 70
     0
300
1/32" = 1'-0"
140
0.03125
141
12.0
290
     0
  0
SCALE
  5
5C
102
{ACAD_REACTORS
330
47
102
}
330
47
100
AcDbScale
 70
     0
300
1/16" = 1'-0"
140
0.0625
141
12.0
290
     0
  0
SCALE
  5
5D
102
{ACAD_REACTORS
330
47
102
}
330
47
100
AcDbScale
 70
     0
300
3/32" = 1'-0"
140
0.09375
141
12.0
290
     0
  0
SCALE
  5
5E
102
{ACAD_REACTORS
330
47
102
}
330
47
100
AcDbScale
 70
     0
300
1/8" = 1'-0"
140
0.125
141
12.0
290
     0
  0
SCALE
  5
5F
102
{ACAD_REACTORS
330
47
102
}
330
47
100
AcDbScale
 70
     0
300
3/16" = 1'-0"
140
0.1875
141
12.0
290
     0
  0
SCALE
  5
60
102
{ACAD_REACTORS
330
47
102
}
330
47
100
AcDbScale
 70
     0
300
1/4" = 1'-0"
140
0.25
141
12.0
290
     0
  0
SCALE
  5
61
102
{ACAD_REACTORS
330
47
102
}
330
47
100
AcDbScale
 70
     0
300
3/8" = 1'-0"
140
0.375
141
12.0
290
     0
  0
SCALE
  5
62
102
{ACAD_REACTORS
330
47
102
}
330
47
100
AcDbScale
 70
     0
300
1/2" = 1'-0"
140
0.5
141
12.0
290
     0
  0
SCALE
  5
63
102
{ACAD_REACTORS
330
47
102
}
330
47
100
AcDbScale
 70
     0
300
3/4" = 1'-0"
140
0.75
141
12.0
290
     0
  0
SCALE
  5
64
102
{ACAD_REACTORS
330
47
102
}
330
47
100
AcDbScale
 70
     0
300
1" = 1'-0"
140
1.0
141
12.0
290
     0
  0
SCALE
  5
65
102
{ACAD_REACTORS
330
47
102
}
330
47
100
AcDbScale
 70
     0
300
1-1/2" = 1'-0"
140
1.5
141
12.0
290
     0
  0
SCALE
  5
66
102
{ACAD_REACTORS
330
47
102
}
330
47
100
AcDbScale
 70
     0
300
3" = 1'-0"
140
3.0
141
12.0
290
     0
  0
SCALE
  5
67
102
{ACAD_REACTORS
330
47
102
}
330
47
100
AcDbScale
 70
     0
300
6" = 1'-0"
140
6.0
141
12.0
290
     0
  0
SCALE
  5
68
102
{ACAD_REACTORS
330
47
102
}
330
47
100
AcDbScale
 70
     0
300
1'-0" = 1'-0"
140
12.0
141
12.0
290
     0
  0
ENDSEC
  0
EOF
