  0
SECTION
  2
HEADER
  9
$ACADVER
  1
AC1015
  9
$ACADMAINTVER
 70
     6
  9
$DWGCODEPAGE
  3
ANSI_949
  9
$INSBASE
 10
0.0
 20
0.0
 30
0.0
  9
$EXTMIN
 10
-55.747490511842
 20
-49.97180738881174
 30
0.0
  9
$EXTMAX
 10
56.37021790884715
 20
26.76413260158164
 30
0.0
  9
$LIMMIN
 10
0.0
 20
0.0
  9
$LIMMAX
 10
420.0
 20
297.0
  9
$ORTHOMODE
 70
     0
  9
$REGENMODE
 70
     1
  9
$FILLMODE
 70
     1
  9
$QTEXTMODE
 70
     0
  9
$MIRRTEXT
 70
     1
  9
$LTSCALE
 40
1.0
  9
$ATTMODE
 70
     1
  9
$TEXTSIZE
 40
3.5
  9
$TRACEWID
 40
1.0
  9
$TEXTSTYLE
  7
Standard
  9
$CLAYER
  8
0
  9
$CELTYPE
  6
ByLayer
  9
$CECOLOR
 62
   256
  9
$CELTSCALE
 40
1.0
  9
$DISPSILH
 70
     0
  9
$DIMSCALE
 40
1.0
  9
$DIMASZ
 40
3.302
  9
$DIMEXO
 40
1.0
  9
$DIMDLI
 40
3.75
  9
$DIMRND
 40
0.0
  9
$DIMDLE
 40
0.0
  9
$DIMEXE
 40
1.0
  9
$DIMTP
 40
0.0
  9
$DIMTM
 40
0.0
  9
$DIMTXT
 40
3.5
  9
$DIMCEN
 40
2.5
  9
$DIMTSZ
 40
0.0
  9
$DIMTOL
 70
     0
  9
$DIMLIM
 70
     0
  9
$DIMTIH
 70
     1
  9
$DIMTOH
 70
     1
  9
$DIMSE1
 70
     0
  9
$DIMSE2
 70
     0
  9
$DIMTAD
 70
     1
  9
$DIMZIN
 70
     0
  9
$DIMBLK
  1

  9
$DIMASO
 70
     1
  9
$DIMSHO
 70
     1
  9
$DIMPOST
  1

  9
$DIMAPOST
  1

  9
$DIMALT
 70
     0
  9
$DIMALTD
 70
     3
  9
$DIMALTF
 40
0.0393700787401575
  9
$DIMLFAC
 40
1.0
  9
$DIMTOFL
 70
     1
  9
$DIMTVP
 40
0.0
  9
$DIMTIX
 70
     0
  9
$DIMSOXD
 70
     0
  9
$DIMSAH
 70
     0
  9
$DIMBLK1
  1

  9
$DIMBLK2
  1

  9
$DIMSTYLE
  2
ISO-25
  9
$DIMCLRD
 70
     0
  9
$DIMCLRE
 70
     0
  9
$DIMCLRT
 70
     0
  9
$DIMTFAC
 40
1.0
  9
$DIMGAP
 40
1.524
  9
$DIMJUST
 70
     0
  9
$DIMSD1
 70
     0
  9
$DIMSD2
 70
     0
  9
$DIMTOLJ
 70
     0
  9
$DIMTZIN
 70
     0
  9
$DIMALTZ
 70
     0
  9
$DIMALTTZ
 70
     0
  9
$DIMUPT
 70
     0
  9
$DIMDEC
 70
     2
  9
$DIMTDEC
 70
     2
  9
$DIMALTU
 70
     2
  9
$DIMALTTD
 70
     3
  9
$DIMTXSTY
  7
Standard
  9
$DIMAUNIT
 70
     0
  9
$DIMADEC
 70
     2
  9
$DIMALTRND
 40
0.0
  9
$DIMAZIN
 70
     0
  9
$DIMDSEP
 70
    44
  9
$DIMATFIT
 70
     3
  9
$DIMFRAC
 70
     0
  9
$DIMLDRBLK
  1

  9
$DIMLUNIT
 70
     2
  9
$DIMLWD
 70
    -2
  9
$DIMLWE
 70
    -2
  9
$DIMTMOVE
 70
     0
  9
$LUNITS
 70
     2
  9
$LUPREC
 70
     2
  9
$SKETCHINC
 40
1.0
  9
$FILLETRAD
 40
10.0
  9
$AUNITS
 70
     0
  9
$AUPREC
 70
     2
  9
$MENU
  1
.
  9
$ELEVATION
 40
0.0
  9
$PELEVATION
 40
0.0
  9
$THICKNESS
 40
0.0
  9
$LIMCHECK
 70
     0
  9
$CHAMFERA
 40
0.0
  9
$CHAMFERB
 40
0.0
  9
$CHAMFERC
 40
0.0
  9
$CHAMFERD
 40
0.0
  9
$SKPOLY
 70
     0
  9
$TDCREATE
 40
2458260.577780764
  9
$TDUCREATE
 40
2458260.202780764
  9
$TDUPDATE
 40
2458268.58104794
  9
$TDUUPDATE
 40
2458268.20604794
  9
$TDINDWG
 40
0.0023056713
  9
$TDUSRTIMER
 40
2458268.203742303
  9
$USRTIMER
 70
     1
  9
$ANGBASE
 50
0.0
  9
$ANGDIR
 70
     0
  9
$PDMODE
 70
     0
  9
$PDSIZE
 40
-1.0
  9
$PLINEWID
 40
0.0
  9
$SPLFRAME
 70
     0
  9
$SPLINETYPE
 70
     6
  9
$SPLINESEGS
 70
     8
  9
$HANDSEED
  5
143
  9
$SURFTAB1
 70
     6
  9
$SURFTAB2
 70
     6
  9
$SURFTYPE
 70
     6
  9
$SURFU
 70
     6
  9
$SURFV
 70
     6
  9
$UCSBASE
  2

  9
$UCSNAME
  2

  9
$UCSORG
 10
0.0
 20
0.0
 30
0.0
  9
$UCSXDIR
 10
1.0
 20
0.0
 30
0.0
  9
$UCSYDIR
 10
0.0
 20
1.0
 30
0.0
  9
$UCSORTHOREF
  2

  9
$UCSORTHOVIEW
 70
     0
  9
$UCSORGTOP
 10
0.0
 20
0.0
 30
0.0
  9
$UCSORGBOTTOM
 10
0.0
 20
0.0
 30
0.0
  9
$UCSORGLEFT
 10
0.0
 20
0.0
 30
0.0
  9
$UCSORGRIGHT
 10
0.0
 20
0.0
 30
0.0
  9
$UCSORGFRONT
 10
0.0
 20
0.0
 30
0.0
  9
$UCSORGBACK
 10
0.0
 20
0.0
 30
0.0
  9
$PUCSBASE
  2

  9
$PUCSNAME
  2

  9
$PUCSORG
 10
0.0
 20
0.0
 30
0.0
  9
$PUCSXDIR
 10
1.0
 20
0.0
 30
0.0
  9
$PUCSYDIR
 10
0.0
 20
1.0
 30
0.0
  9
$PUCSORTHOREF
  2

  9
$PUCSORTHOVIEW
 70
     0
  9
$PUCSORGTOP
 10
0.0
 20
0.0
 30
0.0
  9
$PUCSORGBOTTOM
 10
0.0
 20
0.0
 30
0.0
  9
$PUCSORGLEFT
 10
0.0
 20
0.0
 30
0.0
  9
$PUCSORGRIGHT
 10
0.0
 20
0.0
 30
0.0
  9
$PUCSORGFRONT
 10
0.0
 20
0.0
 30
0.0
  9
$PUCSORGBACK
 10
0.0
 20
0.0
 30
0.0
  9
$USERI1
 70
     0
  9
$USERI2
 70
     0
  9
$USERI3
 70
     0
  9
$USERI4
 70
     0
  9
$USERI5
 70
     0
  9
$USERR1
 40
0.0
  9
$USERR2
 40
0.0
  9
$USERR3
 40
0.0
  9
$USERR4
 40
0.0
  9
$USERR5
 40
0.0
  9
$WORLDVIEW
 70
     1
  9
$SHADEDGE
 70
     3
  9
$SHADEDIF
 70
    70
  9
$TILEMODE
 70
     1
  9
$MAXACTVP
 70
    64
  9
$PINSBASE
 10
0.0
 20
0.0
 30
0.0
  9
$PLIMCHECK
 70
     0
  9
$PEXTMIN
 10
1.000000000000000E+20
 20
1.000000000000000E+20
 30
1.000000000000000E+20
  9
$PEXTMAX
 10
-1.000000000000000E+20
 20
-1.000000000000000E+20
 30
-1.000000000000000E+20
  9
$PLIMMIN
 10
0.0
 20
0.0
  9
$PLIMMAX
 10
0.0
 20
0.0
  9
$UNITMODE
 70
     0
  9
$VISRETAIN
 70
     1
  9
$PLINEGEN
 70
     0
  9
$PSLTSCALE
 70
     1
  9
$TREEDEPTH
 70
  3020
  9
$CMLSTYLE
  2
Standard
  9
$CMLJUST
 70
     0
  9
$CMLSCALE
 40
20.0
  9
$PROXYGRAPHICS
 70
     1
  9
$MEASUREMENT
 70
     1
  9
$CELWEIGHT
370
    -1
  9
$ENDCAPS
280
     0
  9
$JOINSTYLE
280
     0
  9
$LWDISPLAY
290
     1
  9
$INSUNITS
 70
     4
  9
$HYPERLINKBASE
  1

  9
$STYLESHEET
  1

  9
$XEDIT
290
     1
  9
$CEPSNTYPE
380
     0
  9
$PSTYLEMODE
290
     1
  9
$FINGERPRINTGUID
  2
{D6F03C03-337C-4401-ADB4-F4C2D8694410}
  9
$VERSIONGUID
  2
{FAEB1C32-E019-11D5-929B-00C0DF256EC4}
  9
$EXTNAMES
290
     1
  9
$PSVPSCALE
 40
0.0
  9
$OLESTARTUP
290
     0
  0
ENDSEC
  0
SECTION
  2
CLASSES
  0
CLASS
  1
ACDBDICTIONARYWDFLT
  2
AcDbDictionaryWithDefault
  3
ObjectDBX Classes
 90
        0
280
     0
281
     0
  0
CLASS
  1
VISUALSTYLE
  2
AcDbVisualStyle
  3
ObjectDBX Classes
 90
     4095
280
     0
281
     0
  0
CLASS
  1
MATERIAL
  2
AcDbMaterial
  3
ObjectDBX Classes
 90
     1153
280
     0
281
     0
  0
CLASS
  1
SCALE
  2
AcDbScale
  3
ObjectDBX Classes
 90
     1153
280
     0
281
     0
  0
CLASS
  1
TABLESTYLE
  2
AcDbTableStyle
  3
ObjectDBX Classes
 90
     4095
280
     0
281
     0
  0
CLASS
  1
MLEADERSTYLE
  2
AcDbMLeaderStyle
  3
ACDB_MLEADERSTYLE_CLASS
 90
     4095
280
     0
281
     0
  0
CLASS
  1
SUN
  2
AcDbSun
  3
SCENEOE
 90
     1153
280
     0
281
     0
  0
CLASS
  1
ACDBPLACEHOLDER
  2
AcDbPlaceHolder
  3
ObjectDBX Classes
 90
        0
280
     0
281
     0
  0
CLASS
  1
LAYOUT
  2
AcDbLayout
  3
ObjectDBX Classes
 90
        0
280
     0
281
     0
  0
CLASS
  1
RASTERVARIABLES
  2
AcDbRasterVariables
  3
ISM
 90
        0
280
     0
281
     0
  0
ENDSEC
  0
SECTION
  2
TABLES
  0
TABLE
  2
VPORT
  5
8
330
0
100
AcDbSymbolTable
 70
     1
  0
VPORT
  5
29
330
8
100
AcDbSymbolTableRecord
100
AcDbViewportTableRecord
  2
*Active
 70
     0
 10
0.0
 20
0.0
 11
1.0
 21
1.0
 12
0.3113636985025749
 22
-11.60383739361505
 13
0.0
 23
0.0
 14
10.0
 24
10.0
 15
10.0
 25
10.0
 16
0.0
 26
0.0
 36
1.0
 17
0.0
 27
0.0
 37
0.0
 40
78.27065879020124
 41
1.739018087855297
 42
50.0
 43
0.0
 44
0.0
 50
0.0
 51
0.0
 71
    16
 72
  2000
 73
     1
 74
     3
 75
     0
 76
     0
 77
     0
 78
     0
281
     0
 65
     1
110
0.0
120
0.0
130
0.0
111
1.0
121
0.0
131
0.0
112
0.0
122
1.0
132
0.0
 79
     0
146
0.0
  0
ENDTAB
  0
TABLE
  2
LTYPE
  5
5
330
0
100
AcDbSymbolTable
 70
     6
  0
LTYPE
  5
14
330
5
100
AcDbSymbolTableRecord
100
AcDbLinetypeTableRecord
  2
ByBlock
 70
     0
  3

 72
    65
 73
     0
 40
0.0
  0
LTYPE
  5
15
330
5
100
AcDbSymbolTableRecord
100
AcDbLinetypeTableRecord
  2
ByLayer
 70
     0
  3

 72
    65
 73
     0
 40
0.0
  0
LTYPE
  5
16
330
5
100
AcDbSymbolTableRecord
100
AcDbLinetypeTableRecord
  2
Continuous
 70
     0
  3
Solid line
 72
    65
 73
     0
 40
0.0
  0
LTYPE
  5
6E
330
5
100
AcDbSymbolTableRecord
100
AcDbLinetypeTableRecord
  2
HIDDEN
 70
     0
  3
Hidden __ __ __ __ __ __ __ __ __ __ __ __ __ __
 72
    65
 73
     2
 40
1.905
 49
1.27
 74
     0
 49
-0.635
 74
     0
  0
LTYPE
  5
6F
330
5
100
AcDbSymbolTableRecord
100
AcDbLinetypeTableRecord
  2
PHANTOM
 70
     0
  3
Phantom ______  __  __  ______  __  __  ______
 72
    65
 73
     6
 40
12.7
 49
6.35
 74
     0
 49
-1.27
 74
     0
 49
1.27
 74
     0
 49
-1.27
 74
     0
 49
1.27
 74
     0
 49
-1.27
 74
     0
  0
LTYPE
  5
70
330
5
100
AcDbSymbolTableRecord
100
AcDbLinetypeTableRecord
  2
CENTER
 70
     0
  3
Center ____ _ ____ _ ____ _ ____ _ ____ _ ____
 72
    65
 73
     4
 40
10.16
 49
6.35
 74
     0
 49
-1.27
 74
     0
 49
1.27
 74
     0
 49
-1.27
 74
     0
  0
LTYPE
  5
71
330
5
100
AcDbSymbolTableRecord
100
AcDbLinetypeTableRecord
  2
CENTERX2
 70
     0
  3
Center (2x) ________  __  ________  __  _____
 72
    65
 73
     4
 40
20.32
 49
12.7
 74
     0
 49
-2.54
 74
     0
 49
2.54
 74
     0
 49
-2.54
 74
     0
  0
LTYPE
  5
72
330
5
100
AcDbSymbolTableRecord
100
AcDbLinetypeTableRecord
  2
DOT2
 70
     0
  3
Dot (.5x) ........................................
 72
    65
 73
     2
 40
0.635
 49
0.0
 74
     0
 49
-0.635
 74
     0
  0
ENDTAB
  0
TABLE
  2
LAYER
  5
2
330
0
100
AcDbSymbolTable
 70
    17
  0
LAYER
  5
10
330
2
100
AcDbSymbolTableRecord
100
AcDbLayerTableRecord
  2
0
 70
     0
 62
     7
  6
Continuous
370
    -3
390
F
  0
LAYER
  5
73
330
2
100
AcDbSymbolTableRecord
100
AcDbLayerTableRecord
  2
FORMAT
 70
     0
 62
     2
  6
Continuous
370
    -3
390
F
  0
LAYER
  5
74
330
2
100
AcDbSymbolTableRecord
100
AcDbLayerTableRecord
  2
외형선
 70
     0
 62
   100
  6
Continuous
370
    35
390
F
  0
LAYER
  5
75
330
2
100
AcDbSymbolTableRecord
100
AcDbLayerTableRecord
  2
숨은선
 70
     0
 62
     2
  6
HIDDEN
370
    25
390
F
  0
LAYER
  5
76
330
2
100
AcDbSymbolTableRecord
100
AcDbLayerTableRecord
  2
중심선
 70
     0
 62
     1
  6
CENTERX2
370
    -3
390
F
  0
LAYER
  5
77
330
2
100
AcDbSymbolTableRecord
100
AcDbLayerTableRecord
  2
파단선
 70
     0
 62
     4
  6
Continuous
370
    -3
390
F
  0
LAYER
  5
78
330
2
100
AcDbSymbolTableRecord
100
AcDbLayerTableRecord
  2
해칭선
 70
     0
 62
   100
  6
Continuous
370
    -3
390
F
  0
LAYER
  5
79
330
2
100
AcDbSymbolTableRecord
100
AcDbLayerTableRecord
  2
가는실선
 70
     0
 62
     4
  6
Continuous
370
    -3
390
F
  0
LAYER
  5
7A
330
2
100
AcDbSymbolTableRecord
100
AcDbLayerTableRecord
  2
치수_보조선
 70
     0
 62
     4
  6
Continuous
370
    -3
390
F
  0
LAYER
  5
7B
330
2
100
AcDbSymbolTableRecord
100
AcDbLayerTableRecord
  2
치수문자_일반주서
 70
     0
 62
     7
  6
Continuous
370
    25
390
F
  0
LAYER
  5
7C
330
2
100
AcDbSymbolTableRecord
100
AcDbLayerTableRecord
  2
개별주서
 70
     0
 62
   100
  6
Continuous
370
    35
390
F
  0
LAYER
  5
7D
330
2
100
AcDbSymbolTableRecord
100
AcDbLayerTableRecord
  2
중간선
 70
     0
 62
     2
  6
Continuous
370
    25
390
F
  0
LAYER
  5
7E
330
2
100
AcDbSymbolTableRecord
100
AcDbLayerTableRecord
  2
윤곽선
 70
     0
 62
     3
  6
Continuous
370
    50
390
F
  0
LAYER
  5
7F
330
2
100
AcDbSymbolTableRecord
100
AcDbLayerTableRecord
  2
중심마크
 70
     0
 62
   100
  6
Continuous
370
    35
390
F
  0
LAYER
  5
80
330
2
100
AcDbSymbolTableRecord
100
AcDbLayerTableRecord
  2
가상선
 70
     0
 62
     4
  6
PHANTOM
370
    -3
390
F
  0
LAYER
  5
81
330
2
100
AcDbSymbolTableRecord
100
AcDbLayerTableRecord
  2
특수지정선
 70
     0
 62
     5
  6
CENTERX2
370
    70
390
F
  0
LAYER
  5
134
330
2
100
AcDbSymbolTableRecord
100
AcDbLayerTableRecord
  2
Defpoints
 70
     0
 62
     7
  6
Continuous
290
     0
370
    -3
390
F
  0
ENDTAB
  0
TABLE
  2
STYLE
  5
3
330
0
100
AcDbSymbolTable
 70
     2
  0
STYLE
  5
11
330
3
100
AcDbSymbolTableRecord
100
AcDbTextStyleTableRecord
  2
Standard
 70
     0
 40
0.0
 41
1.0
 50
0.0
 71
     0
 42
3.5
  3
txt
  4

  0
STYLE
  5
97
330
3
100
AcDbSymbolTableRecord
100
AcDbTextStyleTableRecord
  2
SLDTEXTSTYLE0
 70
     0
 40
0.0
 41
0.75
 50
0.0
 71
     0
 42
3.5
  3
TXT
  4

  0
ENDTAB
  0
TABLE
  2
VIEW
  5
6
330
0
100
AcDbSymbolTable
 70
     0
  0
ENDTAB
  0
TABLE
  2
UCS
  5
7
330
0
100
AcDbSymbolTable
 70
     0
  0
ENDTAB
  0
TABLE
  2
APPID
  5
9
330
0
100
AcDbSymbolTable
 70
     1
  0
APPID
  5
12
330
9
100
AcDbSymbolTableRecord
100
AcDbRegAppTableRecord
  2
ACAD
 70
     0
  0
ENDTAB
  0
TABLE
  2
DIMSTYLE
  5
A
330
0
100
AcDbSymbolTable
 70
     4
100
AcDbDimStyleTable
  0
DIMSTYLE
105
27
330
A
100
AcDbSymbolTableRecord
100
AcDbDimStyleTableRecord
  2
ISO-25
 70
     0
 41
2.5
 42
0.625
 43
3.75
 44
1.25
 73
     0
 74
     0
 77
     1
 78
     8
140
2.5
141
2.5
143
0.03937007874016
147
0.625
171
     3
172
     1
178
     0
271
     2
272
     2
274
     3
278
    44
283
     0
284
     8
340
11
  0
DIMSTYLE
105
D9
102
{ACAD_REACTORS
330
D8
102
}
330
A
100
AcDbSymbolTableRecord
100
AcDbDimStyleTableRecord
  2
SLDDIMSTYLE0
 70
     0
 41
3.302
 44
0.0
 45
0.000000001
 73
     0
 74
     0
 77
     1
 78
    12
 79
     3
140
3.5
147
0.875
172
     1
173
     1
178
     0
271
     1
272
     1
276
     2
284
    12
289
     0
340
97
  0
DIMSTYLE
105
E7
102
{ACAD_REACTORS
330
E6
330
FF
102
}
330
A
100
AcDbSymbolTableRecord
100
AcDbDimStyleTableRecord
  2
SLDDIMSTYLE1
 70
     0
 41
3.302
 44
0.0
 45
0.000000001
 73
     0
 74
     0
 77
     1
 78
    12
 79
     3
140
3.5
147
0.875
173
     1
178
     0
271
     2
272
     2
276
     2
284
    12
340
97
  0
DIMSTYLE
105
F2
102
{ACAD_REACTORS
330
F1
102
}
330
A
100
AcDbSymbolTableRecord
100
AcDbDimStyleTableRecord
  2
SLDDIMSTYLE2
 70
     0
 41
3.302
 44
0.0
 45
0.000000001
 73
     0
 74
     0
 77
     1
 78
    12
 79
     3
140
3.5
147
0.875
172
     1
173
     1
178
     0
271
     2
272
     2
276
     2
284
    12
289
     0
340
97
  0
ENDTAB
  0
TABLE
  2
BLOCK_RECORD
  5
1
330
0
100
AcDbSymbolTable
 70
     7
  0
BLOCK_RECORD
  5
1F
330
1
100
AcDbSymbolTableRecord
100
AcDbBlockTableRecord
  2
*Model_Space
340
22
  0
BLOCK_RECORD
  5
1B
330
1
100
AcDbSymbolTableRecord
100
AcDbBlockTableRecord
  2
*Paper_Space
340
1E
  0
BLOCK_RECORD
  5
23
330
1
100
AcDbSymbolTableRecord
100
AcDbBlockTableRecord
  2
*Paper_Space0
340
26
  0
BLOCK_RECORD
  5
82
330
1
100
AcDbSymbolTableRecord
100
AcDbBlockTableRecord
  2
블럭10
340
0
102
{BLKREFS
331
D1
102
}
  0
BLOCK_RECORD
  5
DA
330
1
100
AcDbSymbolTableRecord
100
AcDbBlockTableRecord
  2
_D
340
0
  0
BLOCK_RECORD
  5
E8
330
1
100
AcDbSymbolTableRecord
100
AcDbBlockTableRecord
  2
_D_1
340
0
  0
BLOCK_RECORD
  5
F3
330
1
100
AcDbSymbolTableRecord
100
AcDbBlockTableRecord
  2
_D_2
340
0
  0
BLOCK_RECORD
  5
100
330
1
100
AcDbSymbolTableRecord
100
AcDbBlockTableRecord
  2
_D_3
340
0
  0
BLOCK_RECORD
  5
109
330
1
100
AcDbSymbolTableRecord
100
AcDbBlockTableRecord
  2
SW_DOWELSYMBOL_0
340
0
102
{BLKREFS
331
10F
102
}
  0
ENDTAB
  0
ENDSEC
  0
SECTION
  2
BLOCKS
  0
BLOCK
  5
20
330
1F
100
AcDbEntity
  8
0
100
AcDbBlockBegin
  2
*Model_Space
 70
     0
 10
0.0
 20
0.0
 30
0.0
  3
*Model_Space
  1

  0
ENDBLK
  5
21
330
1F
100
AcDbEntity
  8
0
100
AcDbBlockEnd
  0
BLOCK
  5
1C
330
1B
100
AcDbEntity
 67
     1
  8
0
100
AcDbBlockBegin
  2
*Paper_Space
 70
     0
 10
0.0
 20
0.0
 30
0.0
  3
*Paper_Space
  1

  0
ENDBLK
  5
1D
330
1B
100
AcDbEntity
 67
     1
  8
0
100
AcDbBlockEnd
  0
BLOCK
  5
24
330
23
100
AcDbEntity
  8
0
100
AcDbBlockBegin
  2
*Paper_Space0
 70
     0
 10
0.0
 20
0.0
 30
0.0
  3
*Paper_Space0
  1

  0
ENDBLK
  5
25
330
23
100
AcDbEntity
  8
0
100
AcDbBlockEnd
  0
BLOCK
  5
83
330
82
100
AcDbEntity
  8
0
100
AcDbBlockBegin
  2
블럭10
 70
     2
 10
0.0
 20
0.0
 30
0.0
  3
블럭10
  1

  0
ELLIPSE
  5
85
330
82
100
AcDbEntity
  8
중심선
100
AcDbEllipse
 10
20.54032771741204
 20
12.0471743016438
 30
0.0
 11
6.600054785286829
 21
-1.261213355974178E-13
 31
0.0
210
0.0
220
0.0
230
1.0
 40
0.636358354079598
 41
0.9219305317359503
 42
6.513795318482858
  0
ELLIPSE
  5
86
330
82
100
AcDbEntity
  8
중심선
100
AcDbEllipse
 10
20.54032771746488
 20
12.04717430159265
 30
0.0
 11
3.960054785062283
 21
1.540847449632565E-10
 31
0.0
210
0.0
220
0.0
230
1.0
 40
0.3939339440162632
 41
1.131841032648279
 42
5.62031148352944
  0
LINE
  5
87
330
82
100
AcDbEntity
  8
중심선
100
AcDbLine
 10
2.268634060543552
 20
16.24717430164393
 30
0.0
 11
5.714909304380834
 21
16.24717430164393
 31
0.0
  0
LINE
  5
88
330
82
100
AcDbEntity
  8
중심선
100
AcDbLine
 10
5.245725140726316
 20
7.84717430164391
 30
0.0
 11
8.692000384563599
 21
7.84717430164391
 31
0.0
  0
LINE
  5
89
330
82
100
AcDbEntity
  8
중심선
100
AcDbLine
 10
15.74043728645272
 20
16.24717430164393
 30
0.0
 11
8.692000384563599
 21
7.84717430164391
 31
0.0
  0
LINE
  5
8A
330
82
100
AcDbEntity
  8
중심선
100
AcDbLine
 10
0.1404042013395286
 20
13.71084872107135
 30
0.0
 11
3.58671253028996
 21
13.71088815037384
 31
0.0
  0
LINE
  5
8B
330
82
100
AcDbEntity
  8
중심선
100
AcDbLine
 10
2.750260043222114
 20
10.84717430164391
 30
0.0
 11
6.196535287059397
 21
10.84717430164391
 31
0.0
  0
LINE
  5
8C
330
82
100
AcDbEntity
  8
중심선
100
AcDbLine
 10
12.29416204261559
 20
16.24717430164393
 30
0.0
 11
5.245725140726316
 21
7.84717430164391
 31
0.0
  0
LINE
  5
8D
330
82
100
AcDbEntity
  8
중심선
100
AcDbLine
 10
10.72767329541681
 20
16.24717430164393
 30
0.0
 11
6.196535287059397
 21
10.84717430164391
 31
0.0
  0
LINE
  5
8E
330
82
100
AcDbEntity
  8
중심선
100
AcDbLine
 10
7.28139805157953
 20
16.24717430164393
 30
0.0
 11
2.750260043222114
 21
10.84717430164391
 31
0.0
  0
LINE
  5
8F
330
82
100
AcDbEntity
  8
중심선
100
AcDbLine
 10
5.714909304380834
 20
16.24717430164393
 30
0.0
 11
3.58671253028996
 21
13.71088815037384
 31
0.0
  0
LINE
  5
90
330
82
100
AcDbEntity
  8
중심선
100
AcDbLine
 10
2.268634060543552
 20
16.24717430164393
 30
0.0
 11
0.1404042013395286
 21
13.71084872107135
 31
0.0
  0
LINE
  5
91
330
82
100
AcDbEntity
  8
중심선
100
AcDbLine
 10
7.28139805157953
 20
16.24717430164393
 30
0.0
 11
10.72767329541681
 21
16.24717430164393
 31
0.0
  0
LINE
  5
92
330
82
100
AcDbEntity
  8
중심선
100
AcDbLine
 10
12.29416204261559
 20
16.24717430164393
 30
0.0
 11
15.74043728645272
 21
16.24717430164393
 31
0.0
  0
LINE
  5
93
330
82
100
AcDbEntity
  8
중심선
100
AcDbLine
 10
19.22036997980202
 20
11.08717430171403
 30
0.0
 11
23.66174974927406
 21
11.08717430171406
 31
0.0
  0
LINE
  5
94
330
82
100
AcDbEntity
  8
중심선
100
AcDbLine
 10
19.22039502424796
 20
13.00717430171391
 30
0.0
 11
19.22036997980202
 21
11.08717430171403
 31
0.0
  0
LINE
  5
95
330
82
100
AcDbEntity
  8
중심선
100
AcDbLine
 10
19.22039502424796
 20
13.00717430171391
 30
0.0
 11
26.96566020931264
 21
13.00717430171391
 31
0.0
  0
LINE
  5
96
330
82
100
AcDbEntity
  8
중심선
100
AcDbLine
 10
22.22332737316547
 20
13.45928029700563
 30
0.0
 11
24.52862924686651
 21
15.39360700705356
 31
0.0
  0
ATTDEF
  5
98
330
82
100
AcDbEntity
  8
FORMAT
 62
     2
100
AcDbText
 10
-16.11926103943555
 20
2.075366912832191
 30
0.0
 40
4.233333333333333
  1
SEME7210030E [ 4 FLUTE ]
 41
0.75
  7
SLDTEXTSTYLE0
 11
-16.11926103943555
 21
-0.0412997538344756
 31
0.0
100
AcDbAttributeDefinition
  3

  2
AUTOATTR0
 70
     0
 74
     1
  0
ENDBLK
  5
84
330
82
100
AcDbEntity
  8
0
100
AcDbBlockEnd
  0
BLOCK
  5
DB
330
DA
100
AcDbEntity
  8
0
100
AcDbBlockBegin
  2
_D
 70
     0
 10
0.0
 20
0.0
 30
0.0
  3
_D
  1

  0
LINE
  5
DD
330
DA
100
AcDbEntity
  8
치수문자_일반주서
 62
     0
370
    -2
100
AcDbLine
 10
41.56267368318345
 20
-5.000000000000004
 30
0.0
 11
55.81988457551381
 21
-4.999999999999954
 31
0.0
  0
LINE
  5
DE
330
DA
100
AcDbEntity
  8
치수문자_일반주서
 62
     0
370
    -2
100
AcDbLine
 10
41.56267368318345
 20
5.000000000000004
 30
0.0
 11
55.81988457551378
 21
5.000000000000053
 31
0.0
  0
LINE
  5
DF
330
DA
100
AcDbEntity
  8
치수문자_일반주서
 62
     0
370
    -2
100
AcDbLine
 10
55.81988457551381
 20
-4.999999999999954
 30
0.0
 11
55.81988457551373
 21
19.04150000000006
 31
0.0
  0
LINE
  5
E0
330
DA
100
AcDbEntity
  8
치수문자_일반주서
 62
     0
370
    -2
100
AcDbLine
 10
55.81988457551381
 20
-4.999999999999954
 30
0.0
 11
55.81988457551378
 21
5.000000000000053
 31
0.0
  0
LINE
  5
E1
330
DA
100
AcDbEntity
  8
치수문자_일반주서
 62
     0
370
    -2
100
AcDbLine
 10
55.81988457551383
 20
-8.301999999999953
 30
0.0
 11
55.81988457551384
 21
-11.60399999999995
 31
0.0
  0
LINE
  5
E2
330
DA
100
AcDbEntity
  8
치수문자_일반주서
 62
     0
370
    -2
100
AcDbLine
 10
55.81988457551376
 20
8.302000000000053
 30
0.0
 11
55.81988457551375
 21
11.60400000000005
 31
0.0
  0
SOLID
  5
E3
330
DA
100
AcDbEntity
  8
치수문자_일반주서
 62
     0
100
AcDbTrace
 10
56.37021790884716
 20
-8.301999999999952
 30
0.0
 11
55.26955124218049
 21
-8.301999999999955
 31
0.0
 12
55.81988457551381
 22
-4.999999999999954
 32
0.0
 13
55.81988457551381
 23
-4.999999999999954
 33
0.0
  0
SOLID
  5
E4
330
DA
100
AcDbEntity
  8
치수문자_일반주서
 62
     0
100
AcDbTrace
 10
55.26955124218043
 20
8.302000000000051
 30
0.0
 11
56.3702179088471
 21
8.302000000000055
 31
0.0
 12
55.81988457551378
 22
5.000000000000053
 32
0.0
 13
55.81988457551378
 23
5.000000000000053
 33
0.0
  0
MTEXT
  5
E5
330
DA
100
AcDbEntity
  8
치수문자_일반주서
 62
     0
100
AcDbMText
 10
51.44488457551374
 20
15.32275000000004
 30
0.0
 40
3.5
 41
0.0
 71
     2
 72
     1
  1
\A1;%%c10
  7
SLDTEXTSTYLE0
 11
-3.552713678800498E-15
 21
1.0
 31
0.0
 73
     1
 44
1.0
  0
POINT
  5
13E
330
DA
100
AcDbEntity
  8
Defpoints
 62
     0
100
AcDbPoint
 10
41.50017368318345
 20
-5.000000000000004
 30
0.0
  0
POINT
  5
13F
330
DA
100
AcDbEntity
  8
Defpoints
 62
     0
100
AcDbPoint
 10
41.50017368318345
 20
5.000000000000004
 30
0.0
  0
POINT
  5
140
330
DA
100
AcDbEntity
  8
Defpoints
 62
     0
100
AcDbPoint
 10
55.81988457551378
 20
5.000000000000054
 30
0.0
  0
ENDBLK
  5
DC
330
DA
100
AcDbEntity
  8
0
100
AcDbBlockEnd
  0
BLOCK
  5
E9
330
E8
100
AcDbEntity
  8
0
100
AcDbBlockBegin
  2
_D_1
 70
     0
 10
0.0
 20
0.0
 30
0.0
  3
_D_1
  1

  0
LINE
  5
EB
330
E8
100
AcDbEntity
  8
치수문자_일반주서
 62
     0
370
    -2
100
AcDbLine
 10
-38.49982631681659
 20
4.562499999999995
 30
0.0
 11
-38.49982631681659
 21
22.38913260158164
 31
0.0
  0
LINE
  5
EC
330
E8
100
AcDbEntity
  8
치수문자_일반주서
 62
     0
370
    -2
100
AcDbLine
 10
41.50017368318341
 20
5.062500000000006
 30
0.0
 11
41.50017368318341
 21
22.38913260158164
 31
0.0
  0
LINE
  5
ED
330
E8
100
AcDbEntity
  8
치수문자_일반주서
 62
     0
370
    -2
100
AcDbLine
 10
-35.19782631681659
 20
22.38913260158164
 30
0.0
 11
38.19817368318341
 21
22.38913260158164
 31
0.0
  0
SOLID
  5
EE
330
E8
100
AcDbEntity
  8
치수문자_일반주서
 62
     0
100
AcDbTrace
 10
-35.19782631681659
 20
22.93946593491498
 30
0.0
 11
-35.19782631681659
 21
21.83879926824831
 31
0.0
 12
-38.49982631681659
 22
22.38913260158164
 32
0.0
 13
-38.49982631681659
 23
22.38913260158164
 33
0.0
  0
SOLID
  5
EF
330
E8
100
AcDbEntity
  8
치수문자_일반주서
 62
     0
100
AcDbTrace
 10
38.19817368318341
 20
21.83879926824831
 30
0.0
 11
38.19817368318341
 21
22.93946593491498
 31
0.0
 12
41.50017368318341
 22
22.38913260158164
 32
0.0
 13
41.50017368318341
 23
22.38913260158164
 33
0.0
  0
MTEXT
  5
F0
330
E8
100
AcDbEntity
  8
치수문자_일반주서
 62
     0
100
AcDbMText
 10
1.500173683183422
 20
26.76413260158164
 30
0.0
 40
3.5
 41
0.0
 71
     2
 72
     1
  1
\A1;80
  7
SLDTEXTSTYLE0
 73
     1
 44
1.0
  0
POINT
  5
135
330
E8
100
AcDbEntity
  8
Defpoints
 62
     0
100
AcDbPoint
 10
-38.49982631681659
 20
4.499999999999995
 30
0.0
  0
POINT
  5
136
330
E8
100
AcDbEntity
  8
Defpoints
 62
     0
100
AcDbPoint
 10
41.50017368318341
 20
5.000000000000006
 30
0.0
  0
POINT
  5
137
330
E8
100
AcDbEntity
  8
Defpoints
 62
     0
100
AcDbPoint
 10
41.50017368318341
 20
22.38913260158164
 30
0.0
  0
ENDBLK
  5
EA
330
E8
100
AcDbEntity
  8
0
100
AcDbBlockEnd
  0
BLOCK
  5
F4
330
F3
100
AcDbEntity
  8
0
100
AcDbBlockBegin
  2
_D_2
 70
     0
 10
0.0
 20
0.0
 30
0.0
  3
_D_2
  1

  0
LINE
  5
F6
330
F3
100
AcDbEntity
  8
치수문자_일반주서
 62
     0
370
    -2
100
AcDbLine
 10
-38.06232631681657
 20
5.000000000000005
 30
0.0
 11
-51.37249051184196
 21
4.999999999999959
 31
0.0
  0
LINE
  5
F7
330
F3
100
AcDbEntity
  8
치수문자_일반주서
 62
     0
370
    -2
100
AcDbLine
 10
-38.06232631681657
 20
-5.000000000000004
 30
0.0
 11
-51.37249051184192
 21
-5.00000000000005
 31
0.0
  0
LINE
  5
F8
330
F3
100
AcDbEntity
  8
치수문자_일반주서
 62
     0
370
    -2
100
AcDbLine
 10
-51.37249051184196
 20
4.999999999999959
 30
0.0
 11
-51.37249051184201
 21
19.04149999999996
 31
0.0
  0
LINE
  5
F9
330
F3
100
AcDbEntity
  8
치수문자_일반주서
 62
     0
370
    -2
100
AcDbLine
 10
-51.37249051184196
 20
4.999999999999959
 30
0.0
 11
-51.37249051184192
 21
-5.00000000000005
 31
0.0
  0
LINE
  5
FA
330
F3
100
AcDbEntity
  8
치수문자_일반주서
 62
     0
370
    -2
100
AcDbLine
 10
-51.37249051184197
 20
8.301999999999959
 30
0.0
 11
-51.37249051184199
 21
11.60399999999996
 31
0.0
  0
LINE
  5
FB
330
F3
100
AcDbEntity
  8
치수문자_일반주서
 62
     0
370
    -2
100
AcDbLine
 10
-51.37249051184191
 20
-8.30200000000005
 30
0.0
 11
-51.3724905118419
 21
-11.60400000000005
 31
0.0
  0
SOLID
  5
FC
330
F3
100
AcDbEntity
  8
치수문자_일반주서
 62
     0
100
AcDbTrace
 10
-51.92282384517531
 20
8.301999999999957
 30
0.0
 11
-50.82215717850864
 21
8.30199999999996
 31
0.0
 12
-51.37249051184196
 22
4.999999999999959
 32
0.0
 13
-51.37249051184196
 23
4.999999999999959
 33
0.0
  0
SOLID
  5
FD
330
F3
100
AcDbEntity
  8
치수문자_일반주서
 62
     0
100
AcDbTrace
 10
-50.82215717850858
 20
-8.302000000000048
 30
0.0
 11
-51.92282384517524
 21
-8.302000000000051
 31
0.0
 12
-51.37249051184192
 22
-5.00000000000005
 32
0.0
 13
-51.37249051184192
 23
-5.00000000000005
 33
0.0
  0
MTEXT
  5
FE
330
F3
100
AcDbEntity
  8
치수문자_일반주서
 62
     0
100
AcDbMText
 10
-55.747490511842
 20
15.32274999999994
 30
0.0
 40
3.5
 41
0.0
 71
     2
 72
     1
  1
\A1;%%c10
  7
SLDTEXTSTYLE0
 11
-3.552713678800497E-15
 21
1.0
 31
0.0
 73
     1
 44
1.0
  0
POINT
  5
13B
330
F3
100
AcDbEntity
  8
Defpoints
 62
     0
100
AcDbPoint
 10
-37.99982631681657
 20
5.000000000000005
 30
0.0
  0
POINT
  5
13C
330
F3
100
AcDbEntity
  8
Defpoints
 62
     0
100
AcDbPoint
 10
-37.99982631681657
 20
-5.000000000000004
 30
0.0
  0
POINT
  5
13D
330
F3
100
AcDbEntity
  8
Defpoints
 62
     0
100
AcDbPoint
 10
-51.37249051184192
 20
-5.000000000000051
 30
0.0
  0
ENDBLK
  5
F5
330
F3
100
AcDbEntity
  8
0
100
AcDbBlockEnd
  0
BLOCK
  5
101
330
100
100
AcDbEntity
  8
0
100
AcDbBlockBegin
  2
_D_3
 70
     0
 10
0.0
 20
0.0
 30
0.0
  3
_D_3
  1

  0
LINE
  5
103
330
100
100
AcDbEntity
  8
치수문자_일반주서
 62
     0
370
    -2
100
AcDbLine
 10
11.50017368318342
 20
5.037913773192224
 30
0.0
 11
11.50017368318342
 21
15.82133207577987
 31
0.0
  0
LINE
  5
104
330
100
100
AcDbEntity
  8
치수문자_일반주서
 62
     0
370
    -2
100
AcDbLine
 10
41.50017368318341
 20
5.062500000000006
 30
0.0
 11
41.50017368318341
 21
15.82133207577987
 31
0.0
  0
LINE
  5
105
330
100
100
AcDbEntity
  8
치수문자_일반주서
 62
     0
370
    -2
100
AcDbLine
 10
14.80217368318342
 20
15.82133207577987
 30
0.0
 11
38.19817368318341
 21
15.82133207577987
 31
0.0
  0
SOLID
  5
106
330
100
100
AcDbEntity
  8
치수문자_일반주서
 62
     0
100
AcDbTrace
 10
14.80217368318342
 20
16.37166540911321
 30
0.0
 11
14.80217368318342
 21
15.27099874244654
 31
0.0
 12
11.50017368318342
 22
15.82133207577987
 32
0.0
 13
11.50017368318342
 23
15.82133207577987
 33
0.0
  0
SOLID
  5
107
330
100
100
AcDbEntity
  8
치수문자_일반주서
 62
     0
100
AcDbTrace
 10
38.19817368318341
 20
15.27099874244654
 30
0.0
 11
38.19817368318341
 21
16.37166540911321
 31
0.0
 12
41.50017368318341
 22
15.82133207577987
 32
0.0
 13
41.50017368318341
 23
15.82133207577987
 33
0.0
  0
MTEXT
  5
108
330
100
100
AcDbEntity
  8
치수문자_일반주서
 62
     0
100
AcDbMText
 10
26.50017368318342
 20
20.19633207577987
 30
0.0
 40
3.5
 41
0.0
 71
     2
 72
     1
  1
\A1;30
  7
SLDTEXTSTYLE0
 73
     1
 44
1.0
  0
POINT
  5
138
330
100
100
AcDbEntity
  8
Defpoints
 62
     0
100
AcDbPoint
 10
11.50017368318342
 20
4.975413773192224
 30
0.0
  0
POINT
  5
139
330
100
100
AcDbEntity
  8
Defpoints
 62
     0
100
AcDbPoint
 10
41.50017368318341
 20
5.000000000000006
 30
0.0
  0
POINT
  5
13A
330
100
100
AcDbEntity
  8
Defpoints
 62
     0
100
AcDbPoint
 10
41.50017368318341
 20
15.82133207577987
 30
0.0
  0
ENDBLK
  5
102
330
100
100
AcDbEntity
  8
0
100
AcDbBlockEnd
  0
BLOCK
  5
10A
330
109
100
AcDbEntity
  8
0
100
AcDbBlockBegin
  2
SW_DOWELSYMBOL_0
 70
     0
 10
0.0
 20
0.0
 30
0.0
  3
SW_DOWELSYMBOL_0
  1

  0
CIRCLE
  5
10C
330
109
100
AcDbEntity
  8
해칭선
 62
     0
100
AcDbCircle
 10
0.0
 20
0.0
 30
0.0
 40
3.0
  0
HATCH
  5
10D
330
109
100
AcDbEntity
  8
0
  6
Continuous
 62
     0
370
    18
100
AcDbHatch
 10
0.0
 20
0.0
 30
0.0
210
0.0
220
0.0
230
1.0
  2
SOLID
 70
     1
 71
     0
 91
        1
 92
        0
 93
        3
 72
     2
 10
0.0
 20
0.0
 40
3.0
 50
0.0
 51
90.0
 73
     1
 72
     1
 10
0.0
 20
3.0
 11
0.0
 21
0.0
 72
     1
 10
0.0
 20
0.0
 11
3.0
 21
0.0
 97
        0
 75
     0
 76
     1
 98
        1
 10
0.0
 20
0.0
  0
HATCH
  5
10E
330
109
100
AcDbEntity
  8
0
  6
Continuous
 62
     0
370
    18
100
AcDbHatch
 10
0.0
 20
0.0
 30
0.0
210
0.0
220
0.0
230
1.0
  2
SOLID
 70
     1
 71
     0
 91
        1
 92
        0
 93
        3
 72
     2
 10
0.0
 20
0.0
 40
3.0
 50
180.0
 51
270.0000000000008
 73
     1
 72
     1
 10
0.0
 20
-3.0
 11
0.0
 21
0.0
 72
     1
 10
0.0
 20
0.0
 11
-3.0
 21
0.0
 97
        0
 75
     0
 76
     1
 98
        1
 10
0.0
 20
0.0
  0
ENDBLK
  5
10B
330
109
100
AcDbEntity
  8
0
100
AcDbBlockEnd
  0
ENDSEC
  0
SECTION
  2
ENTITIES
  0
LINE
  5
99
330
1F
100
AcDbEntity
  8
0
  6
Continuous
 62
     4
370
    25
100
AcDbLine
 10
10.08533141340037
 20
5.000000000000001
 30
0.0
 11
-37.99982631681658
 21
4.999999999999998
 31
0.0
  0
LINE
  5
9A
330
1F
100
AcDbEntity
  8
0
  6
Continuous
 62
     4
370
    25
100
AcDbLine
 10
-37.99982631681658
 20
-5.000000000000002
 30
0.0
 11
10.08533141340036
 21
-4.999999999999999
 31
0.0
  0
LINE
  5
9B
330
1F
100
AcDbEntity
  8
0
  6
Continuous
 62
     4
370
    25
100
AcDbLine
 10
-37.99982631681658
 20
4.999999999999995
 30
0.0
 11
-38.49982631681659
 21
4.499999999999994
 31
0.0
  0
LINE
  5
9C
330
1F
100
AcDbEntity
  8
0
  6
Continuous
 62
     4
370
    25
100
AcDbLine
 10
-38.49982631681659
 20
-4.499999999999998
 30
0.0
 11
-37.99982631681658
 21
-4.999999999999998
 31
0.0
  0
LINE
  5
9D
330
1F
100
AcDbEntity
  8
0
  6
Continuous
 62
     1
370
    25
100
AcDbLine
 10
39.5662834131007
 20
-5.000000000000002
 30
0.0
 11
41.50017368318342
 21
-5.000000000000002
 31
0.0
  0
LINE
  5
9E
330
1F
100
AcDbEntity
  8
0
  6
Continuous
 62
     1
370
    25
100
AcDbLine
 10
16.2270492800563
 20
5.000000000000004
 30
0.0
 11
12.35902955646613
 21
5.000000000000004
 31
0.0
  0
LINE
  5
9F
330
1F
100
AcDbEntity
  8
0
  6
Continuous
 62
     1
370
    25
100
AcDbLine
 10
25.96248069961507
 20
-5.000000000000002
 30
0.0
 11
29.83079286163275
 21
-5.000000000000002
 31
0.0
  0
LINE
  5
A0
330
1F
100
AcDbEntity
  8
0
  6
Continuous
 62
     1
370
    25
100
AcDbLine
 10
13.64716999317794
 20
-0.7396654120317339
 30
0.0
 11
13.6011964431786
 21
-0.7143594711384486
 31
0.0
  0
LINE
  5
A1
330
1F
100
AcDbEntity
  8
0
  6
Continuous
 62
     1
370
    25
100
AcDbLine
 10
13.72617056928077
 20
-0.7831509359780482
 30
0.0
 11
13.69579707891999
 21
-0.7664319801479305
 31
0.0
  0
LINE
  5
A2
330
1F
100
AcDbEntity
  8
0
  6
Continuous
 62
     1
370
    25
100
AcDbLine
 10
29.83079286163274
 20
5.000000000000004
 30
0.0
 11
25.96248069961513
 21
5.000000000000004
 31
0.0
  0
LINE
  5
A3
330
1F
100
AcDbEntity
  8
0
  6
Continuous
 62
     1
370
    25
100
AcDbLine
 10
12.35902955646617
 20
-5.000000000000002
 30
0.0
 11
16.22704928005624
 21
-5.000000000000002
 31
0.0
  0
LINE
  5
A4
330
1F
100
AcDbEntity
  8
0
  6
Continuous
 62
     1
370
    25
100
AcDbLine
 10
41.50017368318342
 20
5.000000000000004
 30
0.0
 11
39.56628341310073
 21
5.000000000000004
 31
0.0
  0
SPLINE
  5
A5
330
1F
100
AcDbEntity
  8
0
  6
Continuous
 62
     4
370
    25
100
AcDbSpline
210
0.0
220
0.0
230
1.0
 70
     8
 71
     3
 72
    14
 73
    10
 74
     0
 42
0.000000001
 43
0.00000001
 40
0.0
 40
0.0
 40
0.0
 40
0.0
 40
0.25
 40
0.25
 40
0.5
 40
0.5
 40
0.75
 40
0.75
 40
1.0
 40
1.0
 40
1.0
 40
1.0
 10
10.50308857082331
 20
-3.947106707948925
 30
0.0
 10
10.42435080852363
 20
-3.919117322526203
 30
0.0
 10
10.35360957715443
 20
-3.884755653602682
 30
0.0
 10
10.2276481363735
 20
-3.802184443958355
 30
0.0
 10
10.17338682642685
 20
-3.754174033624835
 30
0.0
 10
10.08690770569735
 20
-3.648371860434642
 30
0.0
 10
10.05381400268647
 20
-3.589293091476475
 30
0.0
 10
10.01087340129659
 20
-3.465690713887797
 30
0.0
 10
10.00035391049365
 20
-3.400031650887018
 30
0.0
 10
10.00035391049365
 20
-3.332268816268833
 30
0.0
  0
SPLINE
  5
A6
330
1F
100
AcDbEntity
  8
0
  6
Continuous
 62
     4
370
    25
100
AcDbSpline
210
0.0
220
0.0
230
1.0
 70
     8
 71
     3
 72
    20
 73
    16
 74
     0
 42
0.000000001
 43
0.00000001
 40
0.0
 40
0.0
 40
0.0
 40
0.0
 40
0.125
 40
0.125
 40
0.25
 40
0.25
 40
0.375
 40
0.375
 40
0.5
 40
0.5
 40
0.625
 40
0.625
 40
0.75
 40
0.75
 40
1.0
 40
1.0
 40
1.0
 40
1.0
 10
10.00035391049366
 20
-0.4042382156625134
 30
0.0
 10
10.00035391049366
 20
-0.3153951778178117
 30
0.0
 10
10.01027723288202
 20
-0.2280223922917503
 30
0.0
 10
10.05147038594214
 20
-0.0564803082843441
 30
0.0
 10
10.08318741192168
 20
0.0277251948352823
 30
0.0
 10
10.16600346834541
 20
0.1825990366958093
 30
0.0
 10
10.21832328175833
 20
0.2556076262926126
 30
0.0
 10
10.3395178562572
 20
0.3838731642866759
 30
0.0
 10
10.40794341015595
 20
0.4392880749909276
 30
0.0
 10
10.56027950288733
 20
0.531666223139097
 30
0.0
 10
10.6409434174734
 20
0.5667179081266004
 30
0.0
 10
10.81103417839327
 20
0.6152616521863281
 30
0.0
 10
10.89972698982676
 20
0.6281526097628906
 30
0.0
 10
11.16388072572465
 20
0.6314691318201864
 30
0.0
 10
11.341051263605
 20
0.5864648236112734
 30
0.0
 10
11.49574232852103
 20
0.4977757837579608
 30
0.0
  0
SPLINE
  5
A7
330
1F
100
AcDbEntity
  8
0
  6
Continuous
 62
     4
370
    25
100
AcDbSpline
210
0.0
220
0.0
230
1.0
 70
     8
 71
     3
 72
     8
 73
     4
 74
     0
 42
0.000000001
 43
0.00000001
 40
0.0
 40
0.0
 40
0.0
 40
0.0
 40
1.0
 40
1.0
 40
1.0
 40
1.0
 10
11.50017368318342
 20
-4.273389054037059
 30
0.0
 10
11.16711417715627
 20
-4.173758451664726
 30
0.0
 10
10.8336552781928
 20
-4.064615241468967
 30
0.0
 10
10.50308857082331
 20
-3.947106707948926
 30
0.0
  0
LINE
  5
A8
330
1F
100
AcDbEntity
  8
0
  6
Continuous
 62
     4
370
    25
100
AcDbLine
 10
11.50017368318342
 20
-4.273389054037059
 30
0.0
 11
11.50017368318342
 21
-4.975413773192218
 31
0.0
  0
LWPOLYLINE
  5
A9
330
1F
100
AcDbEntity
  8
0
  6
Continuous
 62
     4
370
    25
100
AcDbPolyline
 90
        3
 70
   128
 43
0.0
 10
11.49574232852103
 20
-4.975160225470526
 10
11.49822389290998
 20
-4.975302372145695
 10
11.50017368318342
 20
-4.975413773183764
  0
SPLINE
  5
AA
330
1F
100
AcDbEntity
  8
0
  6
Continuous
 62
     4
370
    25
100
AcDbSpline
210
0.0
220
0.0
230
1.0
 70
     8
 71
     3
 72
    13
 73
     9
 74
     0
 42
0.000000001
 43
0.00000001
 40
0.0
 40
0.0
 40
0.0
 40
0.0
 40
0.1749202652545389
 40
0.3737599750567012
 40
0.5692844664006506
 40
0.7654890919483704
 40
0.9622467178261987
 40
1.0
 40
1.0
 40
1.0
 40
1.0
 10
10.08533141340037
 20
-4.99861849374481
 30
0.0
 10
10.12690195473185
 20
-4.997599366025189
 30
0.0
 10
10.2157275946229
 20
-4.995421750123962
 30
0.0
 10
10.47001914354323
 20
-4.975793068219633
 30
0.0
 10
10.78318274375295
 20
-4.961012965348488
 30
0.0
 10
11.12184089045376
 20
-4.958725618862575
 30
0.0
 10
11.36087388732694
 20
-4.967625571033492
 30
0.0
 10
11.47704091092908
 20
-4.97411543902686
 30
0.0
 10
11.49574232852103
 20
-4.975160225470526
 30
0.0
  0
LWPOLYLINE
  5
AB
330
1F
100
AcDbEntity
  8
0
  6
Continuous
 62
     4
370
    25
100
AcDbPolyline
 90
        3
 70
   128
 43
0.0
 10
11.49574232852103
 20
4.975160225470527
 10
11.49822389290998
 20
4.975302372145697
 10
11.50017368318342
 20
4.975413773183766
  0
SPLINE
  5
AC
330
1F
100
AcDbEntity
  8
0
  6
Continuous
 62
     4
370
    25
100
AcDbSpline
210
0.0
220
0.0
230
1.0
 70
     8
 71
     3
 72
    20
 73
    16
 74
     0
 42
0.000000001
 43
0.00000001
 40
0.0
 40
0.0
 40
0.0
 40
0.0
 40
0.1250000000000001
 40
0.1250000000000001
 40
0.2500000000000001
 40
0.2500000000000001
 40
0.3750000000000002
 40
0.3750000000000002
 40
0.5000000000000002
 40
0.5000000000000002
 40
0.6250000000000001
 40
0.6250000000000001
 40
0.7500000000000001
 40
0.7500000000000001
 40
1.0
 40
1.0
 40
1.0
 40
1.0
 10
10.00035391049366
 20
4.98363235652451
 30
0.0
 10
10.00035391049366
 20
4.990838696905007
 30
0.0
 10
10.01027723288201
 20
4.995534848212472
 30
0.0
 10
10.05147038594214
 20
5.000417243177587
 30
0.0
 10
10.08318741192168
 20
5.000523017053998
 30
0.0
 10
10.16600346834541
 20
4.997264924167339
 30
0.0
 10
10.21832328175833
 20
4.993875713519574
 30
0.0
 10
10.3395178562572
 20
4.98565655600545
 30
0.0
 10
10.40794341015595
 20
4.980881420202577
 30
0.0
 10
10.56027950288733
 20
4.971869342824837
 30
0.0
 10
10.6409434174734
 20
4.967839397917607
 30
0.0
 10
10.81103417839327
 20
4.962061121171592
 30
0.0
 10
10.89972698982676
 20
4.960385624189231
 30
0.0
 10
11.16388072572465
 20
4.959964889272789
 30
0.0
 10
11.341051263605
 20
4.966286690886125
 30
0.0
 10
11.49574232852103
 20
4.975160225470543
 30
0.0
  0
LINE
  5
AD
330
1F
100
AcDbEntity
  8
0
  6
Continuous
 62
     4
370
    25
100
AcDbLine
 10
10.00035391049366
 20
4.98363235652451
 30
0.0
 11
10.00035391049366
 21
3.72773182191565
 31
0.0
  0
SPLINE
  5
AE
330
1F
100
AcDbEntity
  8
0
  6
Continuous
 62
     4
370
    25
100
AcDbSpline
210
0.0
220
0.0
230
1.0
 70
     8
 71
     3
 72
    14
 73
    10
 74
     0
 42
0.000000001
 43
0.00000001
 40
0.0
 40
0.0
 40
0.0
 40
0.0
 40
0.25
 40
0.25
 40
0.5
 40
0.5
 40
0.75
 40
0.75
 40
1.0
 40
1.0
 40
1.0
 40
1.0
 10
10.50308857082332
 20
3.069258646001174
 30
0.0
 10
10.42435080852364
 20
3.105253361238785
 30
0.0
 10
10.35360957715443
 20
3.148466274342548
 30
0.0
 10
10.2276481363735
 20
3.247700697877121
 30
0.0
 10
10.17338682642685
 20
3.303387418268598
 30
0.0
 10
10.08690770569735
 20
3.419879219783487
 30
0.0
 10
10.05381400268647
 20
3.482036663110321
 30
0.0
 10
10.01087340129659
 20
3.60507865315545
 30
0.0
 10
10.00035391049366
 20
3.667157727134303
 30
0.0
 10
10.00035391049366
 20
3.727731821915649
 30
0.0
  0
SPLINE
  5
AF
330
1F
100
AcDbEntity
  8
0
  6
Continuous
 62
     4
370
    25
100
AcDbSpline
210
0.0
220
0.0
230
1.0
 70
     8
 71
     3
 72
     8
 73
     4
 74
     0
 42
0.000000001
 43
0.00000001
 40
0.0
 40
0.0
 40
0.0
 40
0.0
 40
1.0
 40
1.0
 40
1.0
 40
1.0
 10
11.50017368318342
 20
2.595793904150445
 30
0.0
 10
11.16711417715628
 20
2.759813214367751
 30
0.0
 10
10.83365527819281
 20
2.918141137054024
 30
0.0
 10
10.50308857082332
 20
3.069258646001171
 30
0.0
  0
LINE
  5
B0
330
1F
100
AcDbEntity
  8
0
  6
Continuous
 62
     4
370
    25
100
AcDbLine
 10
11.50017368318342
 20
2.595793904150445
 30
0.0
 11
11.50017368318342
 21
0.4952350811636271
 31
0.0
  0
LWPOLYLINE
  5
B1
330
1F
100
AcDbEntity
  8
0
  6
Continuous
 62
     4
370
    25
100
AcDbPolyline
 90
        3
 70
   128
 43
0.0
 10
11.49574232852103
 20
0.4977757837579572
 10
11.49822389290998
 20
0.4963530051497612
 10
11.50017368318342
 20
0.4952350811615358
  0
LINE
  5
B2
330
1F
100
AcDbEntity
  8
0
  6
Continuous
 62
     4
370
    25
100
AcDbLine
 10
-37.99982631681658
 20
4.999999999999995
 30
0.0
 11
-37.99982631681658
 21
-4.999999999999998
 31
0.0
  0
LINE
  5
B3
330
1F
100
AcDbEntity
  8
0
  6
Continuous
 62
     4
370
    25
100
AcDbLine
 10
10.00035391049366
 20
-0.4042382156625134
 30
0.0
 11
10.00035391049366
 21
-3.332268816268833
 31
0.0
  0
LINE
  5
B4
330
1F
100
AcDbEntity
  8
0
  6
Continuous
 62
     4
370
    25
100
AcDbLine
 10
-38.49982631681659
 20
4.499999999999995
 30
0.0
 11
-38.49982631681659
 21
-4.500000000000004
 31
0.0
  0
SPLINE
  5
B5
330
1F
100
AcDbEntity
  8
0
  6
Continuous
 62
     4
370
    25
100
AcDbSpline
210
0.0
220
0.0
230
1.0
 70
    24
 71
     3
 72
    24
 73
    20
 74
     0
 42
0.000000001
 43
0.00000001
 40
0.0
 40
0.0
 40
0.0
 40
0.0
 40
0.0625000000000001
 40
0.0625000000000001
 40
0.1250000000000002
 40
0.1250000000000002
 40
0.2499999999999998
 40
0.2499999999999998
 40
0.3749999999999999
 40
0.3749999999999999
 40
0.4999999999999999
 40
0.4999999999999999
 40
0.6249999999999999
 40
0.6249999999999999
 40
0.75
 40
0.75
 40
0.875
 40
0.875
 40
1.0
 40
1.0
 40
1.0
 40
1.0
 10
11.50017368318342
 20
0.4952350811636575
 30
0.0
 10
11.50017368318342
 20
0.474110303631134
 30
0.0
 10
11.50017368318342
 20
0.4505115505135249
 30
0.0
 10
11.50017368318342
 20
0.3996254591934877
 30
0.0
 10
11.50017368318342
 20
0.3713045055736757
 30
0.0
 10
11.50017368318342
 20
0.273077081633413
 30
0.0
 10
11.50017368318342
 20
0.1911254243394846
 30
0.0
 10
11.50017368318342
 20
-0.0158618081868421
 30
0.0
 10
11.50017368318342
 20
-0.1409930524016347
 30
0.0
 10
11.50017368318342
 20
-0.4439379034317201
 30
0.0
 10
11.50017368318342
 20
-0.6219179390291469
 30
0.0
 10
11.50017368318342
 20
-1.035616887547626
 30
0.0
 10
11.50017368318342
 20
-1.271529745748609
 30
0.0
 10
11.50017368318342
 20
-1.795945202427447
 30
0.0
 10
11.50017368318342
 20
-2.084529915760943
 30
0.0
 10
11.50017368318342
 20
-2.694162981918765
 30
0.0
 10
11.50017368318342
 20
-3.015016585870302
 30
0.0
 10
11.50017368318342
 20
-3.655221665980963
 30
0.0
 10
11.50017368318342
 20
-3.974126349389135
 30
0.0
 10
11.50017368318342
 20
-4.273389054037062
 30
0.0
  0
SPLINE
  5
B6
330
1F
100
AcDbEntity
  8
0
  6
Continuous
 62
     4
370
    25
100
AcDbSpline
210
0.0
220
0.0
230
1.0
 70
    24
 71
     3
 72
    13
 73
     9
 74
     0
 42
0.000000001
 43
0.00000001
 40
0.0
 40
0.0
 40
0.0
 40
0.0
 40
0.1665867598906107
 40
0.3370174816510684
 40
0.522826113705755
 40
0.7140232086775983
 40
0.8998318407322847
 40
1.0
 40
1.0
 40
1.0
 40
1.0
 10
11.50017368318342
 20
4.97541377319222
 30
0.0
 10
11.50017368318342
 20
4.808421292607607
 30
0.0
 10
11.50017368318342
 20
4.470583007630774
 30
0.0
 10
11.50017368318342
 20
3.983435828081201
 30
0.0
 10
11.50017368318342
 20
3.51780612982897
 30
0.0
 10
11.50017368318342
 20
3.108911072118097
 30
0.0
 10
11.50017368318342
 20
2.812800393111242
 30
0.0
 10
11.50017368318342
 20
2.693202284523468
 30
0.0
 10
11.50017368318342
 20
2.651311044560461
 30
0.0
  0
SPLINE
  5
B7
330
1F
100
AcDbEntity
  8
0
  6
Continuous
 62
     1
370
    25
100
AcDbSpline
210
0.0
220
0.0
230
1.0
 70
     8
 71
     3
 72
    26
 73
    22
 74
     0
 42
0.000000001
 43
0.00000001
 40
0.0
 40
0.0
 40
0.0
 40
0.0
 40
0.0549394258755911
 40
0.1099054920150541
 40
0.1649295047654874
 40
0.2199206525895896
 40
0.2748676006553759
 40
0.3298085454791624
 40
0.3816500461749017
 40
0.4335407052472451
 40
0.4853544252827992
 40
0.5371482454550249
 40
0.588991638421217
 40
0.6468846345982696
 40
0.7047403428260068
 40
0.76256766393673
 40
0.820386038380514
 40
0.8782149640883424
 40
0.9360738712075505
 40
0.9939671817483174
 40
1.0
 40
1.0
 40
1.0
 40
1.0
 10
11.50017368318288
 20
4.975413773183737
 30
0.0
 10
12.01407780138373
 20
4.989588289672756
 30
0.0
 10
13.04213523116697
 20
5.017944195909002
 30
0.0
 10
14.58497491373346
 20
4.859347061173039
 30
0.0
 10
16.12884951843256
 20
4.558433025541394
 30
0.0
 10
17.67220268630112
 20
4.110045329618518
 30
0.0
 10
19.21449365812045
 20
3.532300272081506
 30
0.0
 10
20.72731694781325
 20
2.85562506615906
 30
0.0
 10
22.21165020811678
 20
2.107976779400609
 30
0.0
 10
23.66731383814018
 20
1.316609247973239
 30
0.0
 10
25.12175208934411
 20
0.4871807680002849
 30
0.0
 10
26.57569326610146
 20
-0.3558567333245272
 30
0.0
 10
28.08683428201277
 20
-1.220751449828978
 30
0.0
 10
29.65516015513582
 20
-2.079630756181128
 30
0.0
 10
31.27907055212141
 20
-2.896736414180993
 30
0.0
 10
32.9021630380167
 20
-3.612521623015537
 30
0.0
 10
34.52494103482199
 20
-4.200394911346326
 30
0.0
 10
36.14808840717589
 20
-4.645935544001063
 30
0.0
 10
37.77206097770312
 20
-4.910672256991642
 30
0.0
 10
38.91175305348586
 20
-5.022760641477157
 30
0.0
 10
39.50984084404267
 20
-4.994478394046313
 30
0.0
 10
39.56628341310071
 20
-4.991809349921128
 30
0.0
  0
SPLINE
  5
B8
330
1F
100
AcDbEntity
  8
0
  6
Continuous
 62
     1
370
    25
100
AcDbSpline
210
0.0
220
0.0
230
1.0
 70
     8
 71
     3
 72
    24
 73
    20
 74
     0
 42
0.000000001
 43
0.00000001
 40
0.0
 40
0.0
 40
0.0
 40
0.0
 40
0.0620820526639814
 40
0.1241086668173842
 40
0.186114669514406
 40
0.2481350693540974
 40
0.3102047480904034
 40
0.3722974242618524
 40
0.4307806805420795
 40
0.4892355992675837
 40
0.5477286835179069
 40
0.6062936294423223
 40
0.6647890206383645
 40
0.7300466509940208
 40
0.7953049457344826
 40
0.8605806105100003
 40
0.9258902569310624
 40
0.9912213012223906
 40
0.9999999999999999
 40
0.9999999999999999
 40
0.9999999999999999
 40
0.9999999999999999
 10
41.50017368318341
 20
-4.875828491775104
 30
0.0
 10
40.97708772978446
 20
-4.793567098756049
 30
0.0
 10
39.93138293231873
 20
-4.629117771131624
 30
0.0
 10
38.36363546237603
 20
-4.188238870566829
 30
0.0
 10
36.79647646730933
 20
-3.621938349412633
 30
0.0
 10
35.22890161543528
 20
-2.934078844384868
 30
0.0
 10
33.66030253101867
 20
-2.151177842787559
 30
0.0
 10
32.12124466902554
 20
-1.314316765112209
 30
0.0
 10
30.61325918159064
 20
-0.4536438751093358
 30
0.0
 10
29.13569819850901
 20
0.4031771351496367
 30
0.0
 10
27.65730718508253
 20
1.248378288445064
 30
0.0
 10
26.17787872268164
 20
2.056400072028213
 30
0.0
 10
24.6422253627869
 20
2.834534011333929
 30
0.0
 10
23.04995791769579
 20
3.548585458495981
 30
0.0
 10
21.40066024760817
 20
4.15858383294395
 30
0.0
 10
19.75081007963851
 20
4.622866413677478
 30
0.0
 10
18.10018896523452
 20
4.902176127871895
 30
0.0
 10
16.92536068518528
 20
5.021520030872253
 30
0.0
 10
16.30100730534944
 20
4.992854225968553
 30
0.0
 10
16.2270492800563
 20
4.989458606768616
 30
0.0
  0
LINE
  5
B9
330
1F
100
AcDbEntity
  8
0
  6
Continuous
 62
     1
370
    25
100
AcDbLine
 10
41.50017368318341
 20
-5.000000000000004
 30
0.0
 11
41.50017368318342
 21
-4.875828491776307
 31
0.0
  0
SPLINE
  5
BA
330
1F
100
AcDbEntity
  8
0
  6
Continuous
 62
     1
370
    25
100
AcDbSpline
210
0.0
220
0.0
230
1.0
 70
     8
 71
     3
 72
    17
 73
    13
 74
     0
 42
0.000000001
 43
0.00000001
 40
0.0
 40
0.0
 40
0.0
 40
0.0
 40
0.1066144215814325
 40
0.2132805407603232
 40
0.3200591100479061
 40
0.4267739022745665
 40
0.5334029212775033
 40
0.640020290501374
 40
0.7406229364610447
 40
0.8413209782462819
 40
0.9418697135767535
 40
1.0
 40
1.0
 40
1.0
 40
1.0
 10
11.50017368318288
 20
0.4952350811618446
 30
0.0
 10
12.01407780123839
 20
0.1983139899400442
 30
0.0
 10
13.04213523073088
 20
-0.3956721702771369
 30
0.0
 10
14.58497491547957
 20
-1.278548092776728
 30
0.0
 10
16.12884951187871
 20
-2.119196668309738
 30
0.0
 10
17.6722027107434
 20
-2.893497739391226
 30
0.0
 10
19.21449356698263
 20
-3.576249953094551
 30
0.0
 10
20.72731727980404
 20
-4.134470221209974
 30
0.0
 10
22.21164904619015
 20
-4.560964761007163
 30
0.0
 10
23.66731818478437
 20
-4.843939588273511
 30
0.0
 10
24.91747220258845
 20
-4.990876527584772
 30
0.0
 10
25.6822960352311
 20
-4.984979484642224
 30
0.0
 10
25.96248069961507
 20
-4.982819168858124
 30
0.0
  0
SPLINE
  5
BB
330
1F
100
AcDbEntity
  8
0
  6
Continuous
 62
     1
370
    25
100
AcDbSpline
210
0.0
220
0.0
230
1.0
 70
     8
 71
     3
 72
    22
 73
    18
 74
     0
 42
0.000000001
 43
0.00000001
 40
0.0
 40
0.0
 40
0.0
 40
0.0
 40
0.0441303163842718
 40
0.1118201585272678
 40
0.1755752199887227
 40
0.2392993894879661
 40
0.303065164833657
 40
0.3669092796176738
 40
0.4306775698620802
 40
0.5018176618948903
 40
0.5729584782015663
 40
0.6441182303152237
 40
0.7153150272522725
 40
0.7865351509091506
 40
0.8577128791233822
 40
0.928861772894824
 40
1.0
 40
1.0
 40
1.0
 40
1.0
 10
34.68361868644605
 20
-4.219581262482714
 30
0.0
 10
34.34257317521074
 20
-4.324781878604897
 30
0.0
 10
33.47841070695938
 20
-4.591345786044756
 30
0.0
 10
32.12123806961139
 20
-4.847679105135192
 30
0.0
 10
30.61326090366521
 20
-5.004677791829355
 30
0.0
 10
29.13569773800601
 20
-5.007922651128045
 30
0.0
 10
27.65730730438899
 20
-4.86683703774699
 30
0.0
 10
26.17787870677591
 20
-4.584222688142858
 30
0.0
 10
24.64222530576538
 20
-4.151976689998779
 30
0.0
 10
23.04995819742167
 20
-3.565569656177223
 30
0.0
 10
21.40065919764435
 20
-2.829123398659989
 30
0.0
 10
19.7508140017566
 20
-1.990164407836132
 30
0.0
 10
18.10017431688617
 20
-1.079268818188489
 30
0.0
 10
16.44920034902174
 20
-0.1290775290178425
 30
0.0
 10
14.79891222070881
 20
0.8243022477743062
 30
0.0
 10
13.14936694596171
 20
1.754418497285813
 30
0.0
 10
12.0498772960732
 20
2.315349452072742
 30
0.0
 10
11.50017368318344
 20
2.595793904150436
 30
0.0
  0
SPLINE
  5
BC
330
1F
100
AcDbEntity
  8
0
  6
Continuous
 62
     4
370
    25
100
AcDbSpline
210
0.0
220
0.0
230
1.0
 70
    24
 71
     3
 72
    13
 73
     9
 74
     0
 42
0.000000001
 43
0.00000001
 40
0.0
 40
0.0
 40
0.0
 40
0.0
 40
0.1665867598906111
 40
0.3370174816510692
 40
0.5228261137057549
 40
0.7140232086775986
 40
0.899831840732285
 40
1.0
 40
1.0
 40
1.0
 40
1.0
 10
11.50017368318342
 20
4.975413773192224
 30
0.0
 10
11.50017368318342
 20
4.80842129260761
 30
0.0
 10
11.50017368318342
 20
4.470583007630776
 30
0.0
 10
11.50017368318342
 20
3.983435828081203
 30
0.0
 10
11.50017368318342
 20
3.517806129828973
 30
0.0
 10
11.50017368318342
 20
3.108911072118097
 30
0.0
 10
11.50017368318342
 20
2.812800393111243
 30
0.0
 10
11.50017368318342
 20
2.69320228452347
 30
0.0
 10
11.50017368318342
 20
2.651311044560462
 30
0.0
  0
SPLINE
  5
BD
330
1F
100
AcDbEntity
  8
0
  6
Continuous
 62
     1
370
    25
100
AcDbSpline
210
0.0
220
0.0
230
1.0
 70
     8
 71
     3
 72
    20
 73
    16
 74
     0
 42
0.000000001
 43
0.00000001
 40
0.0
 40
0.0
 40
0.0
 40
0.0
 40
0.0561125554171074
 40
0.1291962710296224
 40
0.2021716243514141
 40
0.2751189503561856
 40
0.3481360955546447
 40
0.4296736081667204
 40
0.5111586037760782
 40
0.59260361847126
 40
0.6740360325235911
 40
0.7554833071615178
 40
0.8369728081458067
 40
0.918510763513259
 40
1.0
 40
1.0
 40
1.0
 40
1.0
 10
21.09313180106856
 20
4.21958903568257
 30
0.0
 10
21.46582761418209
 20
4.33182537303473
 30
0.0
 10
22.3239405431816
 20
4.590243763573774
 30
0.0
 10
23.66731881365546
 20
4.845549183710739
 30
0.0
 10
25.12175075828251
 20
5.00054990899266
 30
0.0
 10
26.57569362055981
 20
5.010773080592666
 30
0.0
 10
28.08683417929373
 20
4.875972571634464
 30
0.0
 10
29.65516016378278
 20
4.579273168434733
 30
0.0
 10
31.27907062412788
 20
4.111360690214458
 30
0.0
 10
32.90216274152404
 20
3.499392682830786
 30
0.0
 10
34.52494214874411
 20
2.764885168778753
 30
0.0
 10
36.14808424617343
 20
1.933290054795721
 30
0.0
 10
37.77207652009466
 20
1.034357700843825
 30
0.0
 10
39.39669359978095
 20
0.0974985329527561
 30
0.0
 10
40.47962691073583
 20
-0.5246083328329635
 30
0.0
 10
41.02093175486699
 20
-0.8355688108333322
 30
0.0
  0
SPLINE
  5
BE
330
1F
100
AcDbEntity
  8
0
  6
Continuous
 62
     1
370
    25
100
AcDbSpline
210
0.0
220
0.0
230
1.0
 70
     8
 71
     3
 72
     8
 73
     4
 74
     0
 42
0.000000001
 43
0.00000001
 40
0.0
 40
0.0
 40
0.0
 40
0.0
 40
1.0
 40
1.0
 40
1.0
 40
1.0
 10
41.50017368318342
 20
-3.778128546404882
 30
0.0
 10
40.68486938973049
 20
-3.319047671130685
 30
0.0
 10
39.91636040267858
 20
-2.75542190577147
 30
0.0
 10
39.17698166510078
 20
-2.126716563770104
 30
0.0
  0
LINE
  5
BF
330
1F
100
AcDbEntity
  8
0
  6
Continuous
 62
     1
370
    25
100
AcDbLine
 10
41.50017368318342
 20
-4.875828491776307
 30
0.0
 11
41.50017368318342
 21
-3.778128546404882
 31
0.0
  0
SPLINE
  5
C0
330
1F
100
AcDbEntity
  8
0
  6
Continuous
 62
     1
370
    25
100
AcDbSpline
210
0.0
220
0.0
230
1.0
 70
    24
 71
     3
 72
    16
 73
    12
 74
     0
 42
0.000000001
 43
0.00000001
 40
0.0
 40
0.0
 40
0.0
 40
0.0
 40
0.1217080422590615
 40
0.2772300612116739
 40
0.377320980866126
 40
0.4801350326873501
 40
0.5803120307641052
 40
0.6837157570056509
 40
0.7794060721067589
 40
0.8774216907347507
 40
0.9999999999999999
 40
0.9999999999999999
 40
0.9999999999999999
 40
0.9999999999999999
 10
41.01588967122935
 20
-0.8390993158047015
 30
0.0
 10
41.01294835712971
 20
-0.8411588461095063
 30
0.0
 10
41.0062485477108
 20
-0.8458501031691918
 30
0.0
 10
40.90840918089972
 20
-0.9143579653439685
 30
0.0
 10
40.75637097323532
 20
-1.020816264446481
 30
0.0
 10
40.58131693904084
 20
-1.143390418783477
 30
0.0
 10
40.36159981361315
 20
-1.297238006281717
 30
0.0
 10
40.11111752795637
 20
-1.472627590886568
 30
0.0
 10
39.836677572844
 20
-1.664792516242234
 30
0.0
 10
39.52667600464152
 20
-1.881857951154297
 30
0.0
 10
39.30188961585952
 20
-2.039255075066793
 30
0.0
 10
39.17698166510182
 20
-2.126716563769891
 30
0.0
  0
SPLINE
  5
C1
330
1F
100
AcDbEntity
  8
0
  6
Continuous
 62
     1
370
    25
100
AcDbSpline
210
0.0
220
0.0
230
1.0
 70
     8
 71
     3
 72
    13
 73
     9
 74
     0
 42
0.000000001
 43
0.00000001
 40
0.0
 40
0.0
 40
0.0
 40
0.0
 40
0.1399063295798695
 40
0.3119744702266436
 40
0.4840989867987557
 40
0.6561210422307336
 40
0.828073410694043
 40
1.0
 40
1.0
 40
1.0
 40
1.0
 10
21.0931318010685
 20
-4.219589035682567
 30
0.0
 10
20.64578647123534
 20
-4.35219887048731
 30
0.0
 10
19.64825960663847
 20
-4.647903025433601
 30
0.0
 10
18.10017197803549
 20
-4.910248970444159
 30
0.0
 10
16.44920097517972
 20
-5.029940152651963
 30
0.0
 10
14.79891205385001
 20
-4.960096843430063
 30
0.0
 10
13.14936698766207
 20
-4.723042062210119
 30
0.0
 10
12.04987730997263
 20
-4.423265899109229
 30
0.0
 10
11.50017368318344
 20
-4.273389054037064
 30
0.0
  0
SPLINE
  5
C2
330
1F
100
AcDbEntity
  8
0
  6
Continuous
 62
     4
370
    25
100
AcDbSpline
210
0.0
220
0.0
230
1.0
 70
    24
 71
     3
 72
    24
 73
    20
 74
     0
 42
0.000000001
 43
0.00000001
 40
0.0
 40
0.0
 40
0.0
 40
0.0
 40
0.0625
 40
0.0625
 40
0.125
 40
0.125
 40
0.25
 40
0.25
 40
0.375
 40
0.375
 40
0.5
 40
0.5
 40
0.625
 40
0.625
 40
0.75
 40
0.75
 40
0.875
 40
0.875
 40
1.0
 40
1.0
 40
1.0
 40
1.0
 10
11.50017368318342
 20
0.4952350811636585
 30
0.0
 10
11.50017368318342
 20
0.4741103036311341
 30
0.0
 10
11.50017368318342
 20
0.4505115505135232
 30
0.0
 10
11.50017368318342
 20
0.3996254591934834
 30
0.0
 10
11.50017368318342
 20
0.3713045055736697
 30
0.0
 10
11.50017368318342
 20
0.2730770816334005
 30
0.0
 10
11.50017368318342
 20
0.1911254243394678
 30
0.0
 10
11.50017368318342
 20
-0.0158618081868746
 30
0.0
 10
11.50017368318342
 20
-0.140993052401678
 30
0.0
 10
11.50017368318342
 20
-0.4439379034317896
 30
0.0
 10
11.50017368318342
 20
-0.6219179390292313
 30
0.0
 10
11.50017368318342
 20
-1.035616887547748
 30
0.0
 10
11.50017368318342
 20
-1.271529745748752
 30
0.0
 10
11.50017368318342
 20
-1.795945202427635
 30
0.0
 10
11.50017368318342
 20
-2.084529915761153
 30
0.0
 10
11.50017368318342
 20
-2.69416298191902
 30
0.0
 10
11.50017368318342
 20
-3.015016585870574
 30
0.0
 10
11.50017368318342
 20
-3.655221665981263
 30
0.0
 10
11.50017368318342
 20
-3.97412634938944
 30
0.0
 10
11.50017368318342
 20
-4.273389054037366
 30
0.0
  0
SPLINE
  5
C3
330
1F
100
AcDbEntity
  8
0
  6
Continuous
 62
     1
370
    25
100
AcDbSpline
210
0.0
220
0.0
230
1.0
 70
     8
 71
     3
 72
    15
 73
    11
 74
     0
 42
0.000000001
 43
0.00000001
 40
0.0
 40
0.0
 40
0.0
 40
0.0
 40
0.1344528249340627
 40
0.268785585146719
 40
0.40307370655609
 40
0.5373930082570241
 40
0.6718190346324038
 40
0.8062948671915117
 40
0.9329536788899425
 40
1.0
 40
1.0
 40
1.0
 40
1.0
 10
41.50017368318341
 20
1.107382733648245
 30
0.0
 10
40.97708773010699
 20
1.398188855526044
 30
0.0
 10
39.93138293328603
 20
1.979541412986292
 30
0.0
 10
38.36363545851135
 20
2.777542138845447
 30
0.0
 10
36.79647648179838
 20
3.487318307138303
 30
0.0
 10
35.22890156130995
 20
4.081907979176034
 30
0.0
 10
33.66030273323109
 20
4.545255475547131
 30
0.0
 10
32.12124393261519
 20
4.846133362306114
 30
0.0
 10
30.84487020059802
 20
4.993840547134277
 30
0.0
 10
30.0915398445429
 20
4.984949347249951
 30
0.0
 10
29.83079286163274
 20
4.981871874630329
 30
0.0
  0
LINE
  5
C4
330
1F
100
AcDbEntity
  8
0
  6
Continuous
 62
     1
370
    25
100
AcDbLine
 10
41.50017368318342
 20
-0.5000000000000147
 30
0.0
 11
41.50017368318342
 21
1.107382733648341
 31
0.0
  0
LINE
  5
C5
330
1F
100
AcDbEntity
  8
0
  6
Continuous
 62
     1
370
    25
100
AcDbLine
 10
41.50017368318342
 20
-0.5000000000000149
 30
0.0
 11
41.02093175486699
 21
-0.8355688108333446
 31
0.0
  0
LINE
  5
C6
330
1F
100
AcDbEntity
  8
0
  6
Continuous
 62
     1
370
    25
100
AcDbLine
 10
11.50017368318288
 20
-4.975413773183735
 30
0.0
 11
12.35902955646617
 21
-4.980443806935599
 31
0.0
  0
SPLINE
  5
C7
330
1F
100
AcDbEntity
  8
0
  6
Continuous
 62
     1
370
    25
100
AcDbSpline
210
0.0
220
0.0
230
1.0
 70
     8
 71
     3
 72
    11
 73
     7
 74
     0
 42
0.000000001
 43
0.00000001
 40
0.0
 40
0.0
 40
0.0
 40
0.0
 40
0.2310712589377435
 40
0.4873303252380999
 40
0.7437417654619415
 40
0.9999999999999999
 40
0.9999999999999999
 40
0.9999999999999999
 40
0.9999999999999999
 10
34.68361868644605
 20
4.219581262482719
 30
0.0
 10
35.17168069063365
 20
4.361423190061022
 30
0.0
 10
36.20100565441543
 20
4.660568453807375
 30
0.0
 10
37.77207773259749
 20
4.917603528433649
 30
0.0
 10
39.39669329679153
 20
5.036741798010967
 30
0.0
 10
40.47962680975949
 20
4.965365555940235
 30
0.0
 10
41.02093175486699
 20
4.929688099906773
 30
0.0
  0
SPLINE
  5
C8
330
1F
100
AcDbEntity
  8
0
  6
Continuous
 62
     1
370
    25
100
AcDbSpline
210
0.0
220
0.0
230
1.0
 70
     8
 71
     3
 72
    18
 73
    14
 74
     0
 42
0.000000001
 43
0.00000001
 40
0.0
 40
0.0
 40
0.0
 40
0.0
 40
0.2499999999999995
 40
0.2499999999999995
 40
0.3749999999999992
 40
0.3749999999999992
 40
0.499999999999999
 40
0.499999999999999
 40
0.6249999999999988
 40
0.6249999999999988
 40
0.7499999999999984
 40
0.7499999999999984
 40
1.0
 40
1.0
 40
1.0
 40
1.0
 10
41.02093175486699
 20
4.929688099906781
 30
0.0
 10
41.02716715754721
 20
4.606851837981965
 30
0.0
 10
40.99986849193706
 20
4.290337705371874
 30
0.0
 10
40.89022975817046
 20
3.828516671281828
 30
0.0
 10
40.84143111604724
 20
3.676235446349225
 30
0.0
 10
40.72092415008471
 20
3.391480187959267
 30
0.0
 10
40.6487344927698
 20
3.256893544584273
 30
0.0
 10
40.47879736354743
 20
3.007383037770185
 30
0.0
 10
40.38399845982086
 20
2.896667102584324
 30
0.0
 10
40.17550470391692
 20
2.702221710530233
 30
0.0
 10
40.06043282043288
 20
2.617982717210623
 30
0.0
 10
39.70217247266458
 20
2.415034884755328
 30
0.0
 10
39.43961150325441
 20
2.341734955811789
 30
0.0
 10
39.17698166510078
 20
2.323192018082641
 30
0.0
  0
SPLINE
  5
C9
330
1F
100
AcDbEntity
  8
0
  6
Continuous
 62
     1
370
    25
100
AcDbSpline
210
0.0
220
0.0
230
1.0
 70
     8
 71
     3
 72
     9
 73
     5
 74
     0
 42
0.000000001
 43
0.00000001
 40
0.0
 40
0.0
 40
0.0
 40
0.0
 40
0.6622114251725137
 40
1.0
 40
1.0
 40
1.0
 40
1.0
 10
41.50017368318342
 20
1.193141214989699
 30
0.0
 10
41.10130073831392
 20
1.403861939390499
 30
0.0
 10
40.49896600093667
 20
1.722069563709128
 30
0.0
 10
39.93478201387673
 20
1.976371350856626
 30
0.0
 10
39.74420710894726
 20
2.062271589113261
 30
0.0
  0
LINE
  5
CA
330
1F
100
AcDbEntity
  8
0
  6
Continuous
 62
     1
370
    25
100
AcDbLine
 10
41.50017368318342
 20
1.111420185180794
 30
0.0
 11
41.50017368318342
 21
1.193141214989699
 31
0.0
  0
ELLIPSE
  5
CB
330
1F
100
AcDbEntity
  8
0
  6
Continuous
 62
     1
370
    25
100
AcDbEllipse
 10
42.21424768655448
 20
0.0000000000000009
 30
0.0
 11
7.14074003371055
 21
0.0
 31
0.0
210
0.0
220
0.0
230
1.0
 40
0.7002075382097124
 41
1.670963747956457
 42
1.738697861005221
  0
LINE
  5
CC
330
1F
100
AcDbEntity
  8
0
  6
Continuous
 62
     1
370
    25
100
AcDbLine
 10
41.50017368318342
 20
4.974937185533106
 30
0.0
 11
41.50017368318341
 21
5.000000000000006
 31
0.0
  0
LINE
  5
CD
330
1F
100
AcDbEntity
  8
0
  6
Continuous
 62
     1
370
    25
100
AcDbLine
 10
41.50017368318342
 20
1.193141214989699
 30
0.0
 11
41.50017368318342
 21
4.974937185533106
 31
0.0
  0
LINE
  5
CE
330
1F
100
AcDbEntity
  8
0
  6
Continuous
 62
     1
370
    25
100
AcDbLine
 10
41.50017368318342
 20
-0.4999999999999972
 30
0.0
 11
41.50017368318342
 21
-3.778128546404882
 31
0.0
  0
LINE
  5
CF
330
1F
100
AcDbEntity
  8
중심선
100
AcDbLine
 10
-41.49982631681657
 20
-0.0000000000000043
 30
0.0
 11
44.50017368318343
 21
0.0000000000000086
 31
0.0
  0
CIRCLE
  5
D0
330
1F
100
AcDbEntity
  8
해칭선
100
AcDbCircle
 10
0.0003539104936629
 20
-0.0000000000000043
 30
0.0
 40
3.0
  0
INSERT
  5
D1
330
1F
100
AcDbEntity
  8
0
  6
Continuous
 62
     7
100
AcDbBlockReference
 66
     1
  2
블럭10
 10
-12.44009924894178
 20
-52.04717430164393
 30
0.0
  0
ATTRIB
  5
D2
330
D1
100
AcDbEntity
  8
FORMAT
 62
     2
100
AcDbText
 10
-28.55936028837733
 20
-49.97180738881174
 30
0.0
 40
4.233333333333333
  1
SEME7210030E [ 4 FLUTE ]
 41
0.75
  7
SLDTEXTSTYLE0
 11
-28.55936028837733
 21
-52.08847405547841
 31
0.0
100
AcDbAttribute
  2
AUTOATTR0
 70
     0
 74
     1
  0
SEQEND
  5
D3
330
D1
100
AcDbEntity
  8
0
  6
Continuous
 62
     7
  0
HATCH
  5
D4
330
1F
100
AcDbEntity
  8
중심선
100
AcDbHatch
 10
0.0
 20
0.0
 30
0.0
210
0.0
220
0.0
230
1.0
  2
SOLID
 70
     1
 71
     0
 91
        1
 92
        0
 93
        4
 72
     1
 10
-6.725189944560922
 20
-35.8
 11
-10.17146518839821
 21
-35.8
 72
     1
 10
-10.17146518839821
 20
-35.8
 11
-12.29969504760223
 21
-38.33632558057262
 72
     1
 10
-12.29969504760223
 20
-38.33632558057262
 11
-8.853386718651796
 21
-38.33628615127013
 72
     1
 10
-8.853386718651796
 20
-38.33628615127013
 11
-6.725189944560922
 21
-35.8
 97
        0
 75
     0
 76
     1
 98
        1
 10
0.0
 20
0.0
  0
HATCH
  5
D5
330
1F
100
AcDbEntity
  8
중심선
100
AcDbHatch
 10
0.0
 20
0.0
 30
0.0
210
0.0
220
0.0
230
1.0
  2
SOLID
 70
     1
 71
     0
 91
        1
 92
        0
 93
        4
 72
     1
 10
-1.712425953524915
 20
-35.79999999999997
 11
-5.158701197362225
 21
-35.8
 72
     1
 10
-5.158701197362225
 20
-35.8
 11
-9.689839205719641
 21
-41.20000000000002
 72
     1
 10
-9.689839205719641
 20
-41.20000000000002
 11
-6.243563961882359
 21
-41.20000000000002
 72
     1
 10
-6.243563961882359
 20
-41.20000000000002
 11
-1.712425953524916
 21
-35.79999999999997
 97
        0
 75
     0
 76
     1
 98
        1
 10
0.0
 20
0.0
  0
HATCH
  5
D6
330
1F
100
AcDbEntity
  8
중심선
100
AcDbHatch
 10
0.0
 20
0.0
 30
0.0
210
0.0
220
0.0
230
1.0
  2
SOLID
 70
     1
 71
     0
 91
        1
 92
        0
 93
        4
 72
     1
 10
3.300338037510953
 20
-35.79999999999997
 11
-0.1459372063261632
 21
-35.8
 72
     1
 10
-0.1459372063261632
 20
-35.8
 11
-7.19437410821544
 21
-44.20000000000002
 72
     1
 10
-7.19437410821544
 20
-44.20000000000002
 11
-3.748098864378158
 21
-44.20000000000002
 72
     1
 10
-3.748098864378158
 20
-44.20000000000002
 11
3.300338037510952
 21
-35.79999999999997
 97
        0
 75
     0
 76
     1
 98
        1
 10
0.0
 20
0.0
  0
HATCH
  5
D7
330
1F
100
AcDbEntity
  8
중심선
100
AcDbHatch
 10
0.0
 20
0.0
 30
0.0
210
0.0
220
0.0
230
1.0
  2
SOLID
 70
     1
 71
     0
 91
        1
 92
        0
 93
        6
 72
     3
 10
8.100228468523124
 20
-40.00000000005127
 11
3.960054785062284
 21
1.540850780301639E-10
 40
0.3939339440162633
 50
17.09539180608434
 51
320.0019657685079
 73
     0
 72
     1
 10
9.783228124223719
 20
-38.5878940046383
 11
12.08852999792476
 21
-36.65356729459038
 72
     3
 10
8.100228468470277
 20
-40.00000000000015
 11
6.600054785286829
 21
-1.249000902703301E-13
 40
0.6363583540795982
 50
39.99873849337408
 51
368.4976242363725
 73
     1
 72
     1
 10
14.52556096037089
 20
-39.03999999993002
 11
6.7802957753062
 21
-39.03999999993002
 72
     1
 10
6.7802957753062
 20
-39.03999999993002
 11
6.780270730860266
 21
-40.95999999992991
 72
     1
 10
6.780270730860266
 20
-40.95999999992991
 11
11.2216505003323
 21
-40.95999999992988
 97
        0
 75
     0
 76
     1
 98
        1
 10
0.0
 20
0.0
  0
DIMENSION
  5
D8
330
1F
100
AcDbEntity
  8
치수문자_일반주서
100
AcDbDimension
  2
_D
 10
55.81988457551378
 20
5.000000000000053
 30
0.0
 11
55.81988457551374
 21
15.32275000000006
 31
0.0
 70
   160
  1
%%c<>
 71
     2
 42
10.00000000000001
  3
SLDDIMSTYLE0
100
AcDbAlignedDimension
 13
41.50017368318345
 23
-5.000000000000004
 33
0.0
 14
41.50017368318345
 24
5.000000000000004
 34
0.0
 50
90.0000000000002
100
AcDbRotatedDimension
  0
DIMENSION
  5
E6
330
1F
100
AcDbEntity
  8
치수문자_일반주서
100
AcDbDimension
  2
_D_1
 10
41.50017368318341
 20
22.38913260158164
 30
0.0
 11
1.500173683183422
 21
22.38913260158164
 31
0.0
 70
   160
  1
<>
 71
     2
 42
80.0
  3
SLDDIMSTYLE1
100
AcDbAlignedDimension
 13
-38.49982631681659
 23
4.499999999999995
 33
0.0
 14
41.50017368318341
 24
5.000000000000006
 34
0.0
 50
-0.0000000000000076
100
AcDbRotatedDimension
  0
DIMENSION
  5
F1
330
1F
100
AcDbEntity
  8
치수문자_일반주서
100
AcDbDimension
  2
_D_2
 10
-51.37249051184192
 20
-5.00000000000005
 30
0.0
 11
-51.372490511842
 21
15.32274999999996
 31
0.0
 70
   160
  1
%%c<>
 71
     2
 42
10.00000000000001
  3
SLDDIMSTYLE2
100
AcDbAlignedDimension
 13
-37.99982631681657
 23
5.000000000000005
 33
0.0
 14
-37.99982631681657
 24
-5.000000000000004
 34
0.0
 50
90.0000000000002
100
AcDbRotatedDimension
  0
DIMENSION
  5
FF
330
1F
100
AcDbEntity
  8
치수문자_일반주서
100
AcDbDimension
  2
_D_3
 10
41.50017368318341
 20
15.82133207577987
 30
0.0
 11
26.50017368318342
 21
15.82133207577987
 31
0.0
 70
   160
  1
<>
 71
     2
 42
29.99999999999999
  3
SLDDIMSTYLE1
100
AcDbAlignedDimension
 13
11.50017368318342
 23
4.975413773192224
 33
0.0
 14
41.50017368318341
 24
5.000000000000006
 34
0.0
100
AcDbRotatedDimension
  0
INSERT
  5
10F
330
1F
100
AcDbEntity
  8
해칭선
100
AcDbBlockReference
  2
SW_DOWELSYMBOL_0
 10
0.0003539104936629
 20
-0.0000000000000043
 30
0.0
  0
ENDSEC
  0
SECTION
  2
OBJECTS
  0
DICTIONARY
  5
C
330
0
100
AcDbDictionary
281
     1
  3
ACAD_GROUP
350
D
  3
ACAD_IMAGE_VARS
350
133
  3
ACAD_LAYOUT
350
1A
  3
ACAD_MLINESTYLE
350
17
  3
ACAD_PLOTSETTINGS
350
19
  3
ACAD_PLOTSTYLENAME
350
E
  3
ACAD_SCALELIST
350
47
  3
APPDATA
350
131
  3
DWGPROPS
350
142
  0
DICTIONARY
  5
D
102
{ACAD_REACTORS
330
C
102
}
330
C
100
AcDbDictionary
281
     1
  0
RASTERVARIABLES
  5
133
102
{ACAD_REACTORS
330
C
102
}
330
C
100
AcDbRasterVariables
 90
        0
 70
     1
 71
     1
 72
     1
  0
DICTIONARY
  5
1A
102
{ACAD_REACTORS
330
C
102
}
330
C
100
AcDbDictionary
281
     1
  3
Layout1
350
1E
  3
Layout2
350
26
  3
Model
350
22
  0
DICTIONARY
  5
17
102
{ACAD_REACTORS
330
C
102
}
330
C
100
AcDbDictionary
281
     1
  3
Standard
350
18
  0
DICTIONARY
  5
19
102
{ACAD_REACTORS
330
C
102
}
330
C
100
AcDbDictionary
281
     1
  0
ACDBDICTIONARYWDFLT
  5
E
102
{ACAD_REACTORS
330
C
102
}
330
C
100
AcDbDictionary
281
     1
  3
Normal
350
F
100
AcDbDictionaryWithDefault
340
F
  0
DICTIONARY
  5
47
102
{ACAD_REACTORS
330
C
102
}
330
C
100
AcDbDictionary
281
     1
  3
A0
350
48
  3
A1
350
49
  3
A2
350
4A
  3
A3
350
4B
  3
A4
350
4C
  3
A5
350
4D
  3
A6
350
4E
  3
A7
350
4F
  3
A8
350
50
  3
A9
350
51
  3
B0
350
52
  3
B1
350
53
  3
B2
350
54
  3
B3
350
55
  3
B4
350
56
  3
B5
350
57
  3
B6
350
58
  3
B7
350
59
  3
B8
350
5A
  3
B9
350
5B
  3
C0
350
5C
  3
C1
350
5D
  3
C2
350
5E
  3
C3
350
5F
  3
C4
350
60
  3
C5
350
61
  3
C6
350
62
  3
C7
350
63
  3
C8
350
64
  3
C9
350
65
  3
D0
350
66
  3
D1
350
67
  3
D2
350
68
  0
DICTIONARY
  5
131
102
{ACAD_REACTORS
330
C
102
}
330
C
100
AcDbDictionary
281
     1
  0
XRECORD
  5
142
102
{ACAD_REACTORS
330
C
102
}
330
C
100
AcDbXrecord
280
     1
  1
DWGPROPS COOKIE
  2

  3

  4

  6

  7

  8
12014102
  9

300
=
301
=
302
=
303
=
304
=
305
=
306
=
307
=
308
=
309
=
 40
0.0
 41
2458260.202780764
 42
2458268.20604794
  1

 90
        0
  0
LAYOUT
  5
1E
102
{ACAD_REACTORS
330
1A
102
}
330
1A
100
AcDbPlotSettings
  1

  2
none_device
  4

  6

 40
0.0
 41
0.0
 42
0.0
 43
0.0
 44
0.0
 45
0.0
 46
0.0
 47
0.0
 48
0.0
 49
0.0
140
0.0
141
0.0
142
1.0
143
1.0
 70
   688
 72
     1
 73
     0
 74
     5
  7

 75
    16
147
1.0
148
0.0
149
0.0
100
AcDbLayout
  1
Layout1
 70
     1
 71
     1
 10
0.0
 20
0.0
 11
420.0
 21
297.0
 12
0.0
 22
0.0
 32
0.0
 14
1.000000000000000E+20
 24
1.000000000000000E+20
 34
1.000000000000000E+20
 15
-1.000000000000000E+20
 25
-1.000000000000000E+20
 35
-1.000000000000000E+20
146
0.0
 13
0.0
 23
0.0
 33
0.0
 16
1.0
 26
0.0
 36
0.0
 17
0.0
 27
1.0
 37
0.0
 76
     0
330
1B
  0
LAYOUT
  5
26
102
{ACAD_REACTORS
330
1A
102
}
330
1A
100
AcDbPlotSettings
  1

  2
none_device
  4

  6

 40
0.0
 41
0.0
 42
0.0
 43
0.0
 44
0.0
 45
0.0
 46
0.0
 47
0.0
 48
0.0
 49
0.0
140
0.0
141
0.0
142
1.0
143
1.0
 70
   688
 72
     1
 73
     0
 74
     5
  7

 75
    16
147
1.0
148
0.0
149
0.0
100
AcDbLayout
  1
Layout2
 70
     1
 71
     2
 10
0.0
 20
0.0
 11
0.0
 21
0.0
 12
0.0
 22
0.0
 32
0.0
 14
0.0
 24
0.0
 34
0.0
 15
0.0
 25
0.0
 35
0.0
146
0.0
 13
0.0
 23
0.0
 33
0.0
 16
1.0
 26
0.0
 36
0.0
 17
0.0
 27
1.0
 37
0.0
 76
     0
330
23
  0
LAYOUT
  5
22
102
{ACAD_REACTORS
330
1A
102
}
330
1A
100
AcDbPlotSettings
  1

  2
none_device
  4
ANSI_A_(11.00_x_8.50_Inches)
  6

 40
6.35
 41
19.05
 42
6.35000508
 43
19.05000254
 44
279.4
 45
215.9
 46
131.2460501477456
 47
117.5748629577821
 48
0.0
 49
0.0
140
0.0
141
0.0
142
0.0948088374384318
143
1.0
 70
  1696
 72
     0
 73
     0
 74
     0
  7

 75
     0
147
0.0235690232323232
148
0.0
149
0.0
100
AcDbLayout
  1
Model
 70
     1
 71
     0
 10
0.0
 20
0.0
 11
420.0
 21
297.0
 12
0.0
 22
0.0
 32
0.0
 14
-55.747490511842
 24
-49.97180738881174
 34
0.0
 15
56.37021790884715
 25
26.76413260158164
 35
0.0
146
0.0
 13
0.0
 23
0.0
 33
0.0
 16
1.0
 26
0.0
 36
0.0
 17
0.0
 27
1.0
 37
0.0
 76
     0
330
1F
331
29
  0
MLINESTYLE
  5
18
102
{ACAD_REACTORS
330
17
102
}
330
17
100
AcDbMlineStyle
  2
Standard
 70
     0
  3

 62
   256
 51
90.0
 52
90.0
 71
     2
 49
0.5
 62
   256
  6
BYLAYER
 49
-0.5
 62
   256
  6
BYLAYER
  0
ACDBPLACEHOLDER
  5
F
102
{ACAD_REACTORS
330
E
102
}
330
E
  0
SCALE
  5
48
102
{ACAD_REACTORS
330
47
102
}
330
47
100
AcDbScale
 70
     0
300
1:1
140
1.0
141
1.0
290
     1
  0
SCALE
  5
49
102
{ACAD_REACTORS
330
47
102
}
330
47
100
AcDbScale
 70
     0
300
1:2
140
1.0
141
2.0
290
     0
  0
SCALE
  5
4A
102
{ACAD_REACTORS
330
47
102
}
330
47
100
AcDbScale
 70
     0
300
1:4
140
1.0
141
4.0
290
     0
  0
SCALE
  5
4B
102
{ACAD_REACTORS
330
47
102
}
330
47
100
AcDbScale
 70
     0
300
1:5
140
1.0
141
5.0
290
     0
  0
SCALE
  5
4C
102
{ACAD_REACTORS
330
47
102
}
330
47
100
AcDbScale
 70
     0
300
1:8
140
1.0
141
8.0
290
     0
  0
SCALE
  5
4D
102
{ACAD_REACTORS
330
47
102
}
330
47
100
AcDbScale
 70
     0
300
1:10
140
1.0
141
10.0
290
     0
  0
SCALE
  5
4E
102
{ACAD_REACTORS
330
47
102
}
330
47
100
AcDbScale
 70
     0
300
1:16
140
1.0
141
16.0
290
     0
  0
SCALE
  5
4F
102
{ACAD_REACTORS
330
47
102
}
330
47
100
AcDbScale
 70
     0
300
1:20
140
1.0
141
20.0
290
     0
  0
SCALE
  5
50
102
{ACAD_REACTORS
330
47
102
}
330
47
100
AcDbScale
 70
     0
300
1:30
140
1.0
141
30.0
290
     0
  0
SCALE
  5
51
102
{ACAD_REACTORS
330
47
102
}
330
47
100
AcDbScale
 70
     0
300
1:40
140
1.0
141
40.0
290
     0
  0
SCALE
  5
52
102
{ACAD_REACTORS
330
47
102
}
330
47
100
AcDbScale
 70
     0
300
1:50
140
1.0
141
50.0
290
     0
  0
SCALE
  5
53
102
{ACAD_REACTORS
330
47
102
}
330
47
100
AcDbScale
 70
     0
300
1:100
140
1.0
141
100.0
290
     0
  0
SCALE
  5
54
102
{ACAD_REACTORS
330
47
102
}
330
47
100
AcDbScale
 70
     0
300
2:1
140
2.0
141
1.0
290
     0
  0
SCALE
  5
55
102
{ACAD_REACTORS
330
47
102
}
330
47
100
AcDbScale
 70
     0
300
4:1
140
4.0
141
1.0
290
     0
  0
SCALE
  5
56
102
{ACAD_REACTORS
330
47
102
}
330
47
100
AcDbScale
 70
     0
300
8:1
140
8.0
141
1.0
290
     0
  0
SCALE
  5
57
102
{ACAD_REACTORS
330
47
102
}
330
47
100
AcDbScale
 70
     0
300
10:1
140
10.0
141
1.0
290
     0
  0
SCALE
  5
58
102
{ACAD_REACTORS
330
47
102
}
330
47
100
AcDbScale
 70
     0
300
100:1
140
100.0
141
1.0
290
     0
  0
SCALE
  5
59
102
{ACAD_REACTORS
330
47
102
}
330
47
100
AcDbScale
 70
     0
300
1/128" = 1'-0"
140
0.0078125
141
12.0
290
     0
  0
SCALE
  5
5A
102
{ACAD_REACTORS
330
47
102
}
330
47
100
AcDbScale
 70
     0
300
1/64" = 1'-0"
140
0.015625
141
12.0
290
     0
  0
SCALE
  5
5B
102
{ACAD_REACTORS
330
47
102
}
330
47
100
AcDbScale
 70
     0
300
1/32" = 1'-0"
140
0.03125
141
12.0
290
     0
  0
SCALE
  5
5C
102
{ACAD_REACTORS
330
47
102
}
330
47
100
AcDbScale
 70
     0
300
1/16" = 1'-0"
140
0.0625
141
12.0
290
     0
  0
SCALE
  5
5D
102
{ACAD_REACTORS
330
47
102
}
330
47
100
AcDbScale
 70
     0
300
3/32" = 1'-0"
140
0.09375
141
12.0
290
     0
  0
SCALE
  5
5E
102
{ACAD_REACTORS
330
47
102
}
330
47
100
AcDbScale
 70
     0
300
1/8" = 1'-0"
140
0.125
141
12.0
290
     0
  0
SCALE
  5
5F
102
{ACAD_REACTORS
330
47
102
}
330
47
100
AcDbScale
 70
     0
300
3/16" = 1'-0"
140
0.1875
141
12.0
290
     0
  0
SCALE
  5
60
102
{ACAD_REACTORS
330
47
102
}
330
47
100
AcDbScale
 70
     0
300
1/4" = 1'-0"
140
0.25
141
12.0
290
     0
  0
SCALE
  5
61
102
{ACAD_REACTORS
330
47
102
}
330
47
100
AcDbScale
 70
     0
300
3/8" = 1'-0"
140
0.375
141
12.0
290
     0
  0
SCALE
  5
62
102
{ACAD_REACTORS
330
47
102
}
330
47
100
AcDbScale
 70
     0
300
1/2" = 1'-0"
140
0.5
141
12.0
290
     0
  0
SCALE
  5
63
102
{ACAD_REACTORS
330
47
102
}
330
47
100
AcDbScale
 70
     0
300
3/4" = 1'-0"
140
0.75
141
12.0
290
     0
  0
SCALE
  5
64
102
{ACAD_REACTORS
330
47
102
}
330
47
100
AcDbScale
 70
     0
300
1" = 1'-0"
140
1.0
141
12.0
290
     0
  0
SCALE
  5
65
102
{ACAD_REACTORS
330
47
102
}
330
47
100
AcDbScale
 70
     0
300
1-1/2" = 1'-0"
140
1.5
141
12.0
290
     0
  0
SCALE
  5
66
102
{ACAD_REACTORS
330
47
102
}
330
47
100
AcDbScale
 70
     0
300
3" = 1'-0"
140
3.0
141
12.0
290
     0
  0
SCALE
  5
67
102
{ACAD_REACTORS
330
47
102
}
330
47
100
AcDbScale
 70
     0
300
6" = 1'-0"
140
6.0
141
12.0
290
     0
  0
SCALE
  5
68
102
{ACAD_REACTORS
330
47
102
}
330
47
100
AcDbScale
 70
     0
300
1'-0" = 1'-0"
140
12.0
141
12.0
290
     0
  0
ENDSEC
  0
EOF
