  0
SECTION
  2
HEADER
  9
$ACADVER
  1
AC1015
  9
$ACADMAINTVER
 70
     6
  9
$DWGCODEPAGE
  3
ANSI_949
  9
$INSBASE
 10
0.0
 20
0.0
 30
0.0
  9
$EXTMIN
 10
-53.55827021982113
 20
-49.97180738881173
 30
0.0
  9
$EXTMAX
 10
63.39230885511542
 20
25.76413260158164
 30
0.0
  9
$LIMMIN
 10
0.0
 20
0.0
  9
$LIMMAX
 10
420.0
 20
297.0
  9
$ORTHOMODE
 70
     0
  9
$REGENMODE
 70
     1
  9
$FILLMODE
 70
     1
  9
$QTEXTMODE
 70
     0
  9
$MIRRTEXT
 70
     1
  9
$LTSCALE
 40
1.0
  9
$ATTMODE
 70
     1
  9
$TEXTSIZE
 40
3.5
  9
$TRACEWID
 40
1.0
  9
$TEXTSTYLE
  7
Standard
  9
$CLAYER
  8
0
  9
$CELTYPE
  6
ByLayer
  9
$CECOLOR
 62
   256
  9
$CELTSCALE
 40
1.0
  9
$DISPSILH
 70
     0
  9
$DIMSCALE
 40
1.0
  9
$DIMASZ
 40
3.302
  9
$DIMEXO
 40
1.0
  9
$DIMDLI
 40
3.75
  9
$DIMRND
 40
0.0
  9
$DIMDLE
 40
0.0
  9
$DIMEXE
 40
1.0
  9
$DIMTP
 40
0.0
  9
$DIMTM
 40
0.0
  9
$DIMTXT
 40
3.5
  9
$DIMCEN
 40
2.5
  9
$DIMTSZ
 40
0.0
  9
$DIMTOL
 70
     0
  9
$DIMLIM
 70
     0
  9
$DIMTIH
 70
     1
  9
$DIMTOH
 70
     1
  9
$DIMSE1
 70
     0
  9
$DIMSE2
 70
     0
  9
$DIMTAD
 70
     1
  9
$DIMZIN
 70
     0
  9
$DIMBLK
  1

  9
$DIMASO
 70
     1
  9
$DIMSHO
 70
     1
  9
$DIMPOST
  1

  9
$DIMAPOST
  1

  9
$DIMALT
 70
     0
  9
$DIMALTD
 70
     3
  9
$DIMALTF
 40
0.0393700787401575
  9
$DIMLFAC
 40
1.0
  9
$DIMTOFL
 70
     1
  9
$DIMTVP
 40
0.0
  9
$DIMTIX
 70
     0
  9
$DIMSOXD
 70
     0
  9
$DIMSAH
 70
     0
  9
$DIMBLK1
  1

  9
$DIMBLK2
  1

  9
$DIMSTYLE
  2
ISO-25
  9
$DIMCLRD
 70
     0
  9
$DIMCLRE
 70
     0
  9
$DIMCLRT
 70
     0
  9
$DIMTFAC
 40
1.0
  9
$DIMGAP
 40
1.524
  9
$DIMJUST
 70
     0
  9
$DIMSD1
 70
     0
  9
$DIMSD2
 70
     0
  9
$DIMTOLJ
 70
     0
  9
$DIMTZIN
 70
     0
  9
$DIMALTZ
 70
     0
  9
$DIMALTTZ
 70
     0
  9
$DIMUPT
 70
     0
  9
$DIMDEC
 70
     2
  9
$DIMTDEC
 70
     2
  9
$DIMALTU
 70
     2
  9
$DIMALTTD
 70
     3
  9
$DIMTXSTY
  7
Standard
  9
$DIMAUNIT
 70
     0
  9
$DIMADEC
 70
     2
  9
$DIMALTRND
 40
0.0
  9
$DIMAZIN
 70
     0
  9
$DIMDSEP
 70
    44
  9
$DIMATFIT
 70
     3
  9
$DIMFRAC
 70
     0
  9
$DIMLDRBLK
  1

  9
$DIMLUNIT
 70
     2
  9
$DIMLWD
 70
    -2
  9
$DIMLWE
 70
    -2
  9
$DIMTMOVE
 70
     0
  9
$LUNITS
 70
     2
  9
$LUPREC
 70
     2
  9
$SKETCHINC
 40
1.0
  9
$FILLETRAD
 40
10.0
  9
$AUNITS
 70
     0
  9
$AUPREC
 70
     2
  9
$MENU
  1
.
  9
$ELEVATION
 40
0.0
  9
$PELEVATION
 40
0.0
  9
$THICKNESS
 40
0.0
  9
$LIMCHECK
 70
     0
  9
$CHAMFERA
 40
0.0
  9
$CHAMFERB
 40
0.0
  9
$CHAMFERC
 40
0.0
  9
$CHAMFERD
 40
0.0
  9
$SKPOLY
 70
     0
  9
$TDCREATE
 40
2458260.57683537
  9
$TDUCREATE
 40
2458260.20183537
  9
$TDUPDATE
 40
2458268.57737632
  9
$TDUUPDATE
 40
2458268.20237632
  9
$TDINDWG
 40
0.0005893634
  9
$TDUSRTIMER
 40
2458268.201786979
  9
$USRTIMER
 70
     1
  9
$ANGBASE
 50
0.0
  9
$ANGDIR
 70
     0
  9
$PDMODE
 70
     0
  9
$PDSIZE
 40
-1.0
  9
$PLINEWID
 40
0.0
  9
$SPLFRAME
 70
     0
  9
$SPLINETYPE
 70
     6
  9
$SPLINESEGS
 70
     8
  9
$HANDSEED
  5
14A
  9
$SURFTAB1
 70
     6
  9
$SURFTAB2
 70
     6
  9
$SURFTYPE
 70
     6
  9
$SURFU
 70
     6
  9
$SURFV
 70
     6
  9
$UCSBASE
  2

  9
$UCSNAME
  2

  9
$UCSORG
 10
0.0
 20
0.0
 30
0.0
  9
$UCSXDIR
 10
1.0
 20
0.0
 30
0.0
  9
$UCSYDIR
 10
0.0
 20
1.0
 30
0.0
  9
$UCSORTHOREF
  2

  9
$UCSORTHOVIEW
 70
     0
  9
$UCSORGTOP
 10
0.0
 20
0.0
 30
0.0
  9
$UCSORGBOTTOM
 10
0.0
 20
0.0
 30
0.0
  9
$UCSORGLEFT
 10
0.0
 20
0.0
 30
0.0
  9
$UCSORGRIGHT
 10
0.0
 20
0.0
 30
0.0
  9
$UCSORGFRONT
 10
0.0
 20
0.0
 30
0.0
  9
$UCSORGBACK
 10
0.0
 20
0.0
 30
0.0
  9
$PUCSBASE
  2

  9
$PUCSNAME
  2

  9
$PUCSORG
 10
0.0
 20
0.0
 30
0.0
  9
$PUCSXDIR
 10
1.0
 20
0.0
 30
0.0
  9
$PUCSYDIR
 10
0.0
 20
1.0
 30
0.0
  9
$PUCSORTHOREF
  2

  9
$PUCSORTHOVIEW
 70
     0
  9
$PUCSORGTOP
 10
0.0
 20
0.0
 30
0.0
  9
$PUCSORGBOTTOM
 10
0.0
 20
0.0
 30
0.0
  9
$PUCSORGLEFT
 10
0.0
 20
0.0
 30
0.0
  9
$PUCSORGRIGHT
 10
0.0
 20
0.0
 30
0.0
  9
$PUCSORGFRONT
 10
0.0
 20
0.0
 30
0.0
  9
$PUCSORGBACK
 10
0.0
 20
0.0
 30
0.0
  9
$USERI1
 70
     0
  9
$USERI2
 70
     0
  9
$USERI3
 70
     0
  9
$USERI4
 70
     0
  9
$USERI5
 70
     0
  9
$USERR1
 40
0.0
  9
$USERR2
 40
0.0
  9
$USERR3
 40
0.0
  9
$USERR4
 40
0.0
  9
$USERR5
 40
0.0
  9
$WORLDVIEW
 70
     1
  9
$SHADEDGE
 70
     3
  9
$SHADEDIF
 70
    70
  9
$TILEMODE
 70
     1
  9
$MAXACTVP
 70
    64
  9
$PINSBASE
 10
0.0
 20
0.0
 30
0.0
  9
$PLIMCHECK
 70
     0
  9
$PEXTMIN
 10
1.000000000000000E+20
 20
1.000000000000000E+20
 30
1.000000000000000E+20
  9
$PEXTMAX
 10
-1.000000000000000E+20
 20
-1.000000000000000E+20
 30
-1.000000000000000E+20
  9
$PLIMMIN
 10
0.0
 20
0.0
  9
$PLIMMAX
 10
0.0
 20
0.0
  9
$UNITMODE
 70
     0
  9
$VISRETAIN
 70
     1
  9
$PLINEGEN
 70
     0
  9
$PSLTSCALE
 70
     1
  9
$TREEDEPTH
 70
  3020
  9
$CMLSTYLE
  2
Standard
  9
$CMLJUST
 70
     0
  9
$CMLSCALE
 40
20.0
  9
$PROXYGRAPHICS
 70
     1
  9
$MEASUREMENT
 70
     1
  9
$CELWEIGHT
370
    -1
  9
$ENDCAPS
280
     0
  9
$JOINSTYLE
280
     0
  9
$LWDISPLAY
290
     1
  9
$INSUNITS
 70
     4
  9
$HYPERLINKBASE
  1

  9
$STYLESHEET
  1

  9
$XEDIT
290
     1
  9
$CEPSNTYPE
380
     0
  9
$PSTYLEMODE
290
     1
  9
$FINGERPRINTGUID
  2
{F7F6D30A-128B-420C-95E7-5FD374C912FC}
  9
$VERSIONGUID
  2
{FAEB1C32-E019-11D5-929B-00C0DF256EC4}
  9
$EXTNAMES
290
     1
  9
$PSVPSCALE
 40
0.0
  9
$OLESTARTUP
290
     0
  0
ENDSEC
  0
SECTION
  2
CLASSES
  0
CLASS
  1
ACDBDICTIONARYWDFLT
  2
AcDbDictionaryWithDefault
  3
ObjectDBX Classes
 90
        0
280
     0
281
     0
  0
CLASS
  1
VISUALSTYLE
  2
AcDbVisualStyle
  3
ObjectDBX Classes
 90
     4095
280
     0
281
     0
  0
CLASS
  1
MATERIAL
  2
AcDbMaterial
  3
ObjectDBX Classes
 90
     1153
280
     0
281
     0
  0
CLASS
  1
SCALE
  2
AcDbScale
  3
ObjectDBX Classes
 90
     1153
280
     0
281
     0
  0
CLASS
  1
TABLESTYLE
  2
AcDbTableStyle
  3
ObjectDBX Classes
 90
     4095
280
     0
281
     0
  0
CLASS
  1
MLEADERSTYLE
  2
AcDbMLeaderStyle
  3
ACDB_MLEADERSTYLE_CLASS
 90
     4095
280
     0
281
     0
  0
CLASS
  1
SUN
  2
AcDbSun
  3
SCENEOE
 90
     1153
280
     0
281
     0
  0
CLASS
  1
ACDBPLACEHOLDER
  2
AcDbPlaceHolder
  3
ObjectDBX Classes
 90
        0
280
     0
281
     0
  0
CLASS
  1
LAYOUT
  2
AcDbLayout
  3
ObjectDBX Classes
 90
        0
280
     0
281
     0
  0
CLASS
  1
RASTERVARIABLES
  2
AcDbRasterVariables
  3
ISM
 90
        0
280
     0
281
     0
  0
ENDSEC
  0
SECTION
  2
TABLES
  0
TABLE
  2
VPORT
  5
8
330
0
100
AcDbSymbolTable
 70
     1
  0
VPORT
  5
29
330
8
100
AcDbSymbolTableRecord
100
AcDbViewportTableRecord
  2
*Active
 70
     0
 10
0.0
 20
0.0
 11
1.0
 21
1.0
 12
4.917019317647146
 22
-12.10383739361504
 13
0.0
 23
0.0
 14
10.0
 24
10.0
 15
10.0
 25
10.0
 16
0.0
 26
0.0
 36
1.0
 17
0.0
 27
0.0
 37
0.0
 40
77.25065879020124
 41
1.739018087855297
 42
50.0
 43
0.0
 44
0.0
 50
0.0
 51
0.0
 71
    16
 72
  2000
 73
     1
 74
     3
 75
     0
 76
     0
 77
     0
 78
     0
281
     0
 65
     1
110
0.0
120
0.0
130
0.0
111
1.0
121
0.0
131
0.0
112
0.0
122
1.0
132
0.0
 79
     0
146
0.0
  0
ENDTAB
  0
TABLE
  2
LTYPE
  5
5
330
0
100
AcDbSymbolTable
 70
     6
  0
LTYPE
  5
14
330
5
100
AcDbSymbolTableRecord
100
AcDbLinetypeTableRecord
  2
ByBlock
 70
     0
  3

 72
    65
 73
     0
 40
0.0
  0
LTYPE
  5
15
330
5
100
AcDbSymbolTableRecord
100
AcDbLinetypeTableRecord
  2
ByLayer
 70
     0
  3

 72
    65
 73
     0
 40
0.0
  0
LTYPE
  5
16
330
5
100
AcDbSymbolTableRecord
100
AcDbLinetypeTableRecord
  2
Continuous
 70
     0
  3
Solid line
 72
    65
 73
     0
 40
0.0
  0
LTYPE
  5
6E
330
5
100
AcDbSymbolTableRecord
100
AcDbLinetypeTableRecord
  2
HIDDEN
 70
     0
  3
Hidden __ __ __ __ __ __ __ __ __ __ __ __ __ __
 72
    65
 73
     2
 40
1.905
 49
1.27
 74
     0
 49
-0.635
 74
     0
  0
LTYPE
  5
6F
330
5
100
AcDbSymbolTableRecord
100
AcDbLinetypeTableRecord
  2
PHANTOM
 70
     0
  3
Phantom ______  __  __  ______  __  __  ______
 72
    65
 73
     6
 40
12.7
 49
6.35
 74
     0
 49
-1.27
 74
     0
 49
1.27
 74
     0
 49
-1.27
 74
     0
 49
1.27
 74
     0
 49
-1.27
 74
     0
  0
LTYPE
  5
70
330
5
100
AcDbSymbolTableRecord
100
AcDbLinetypeTableRecord
  2
CENTER
 70
     0
  3
Center ____ _ ____ _ ____ _ ____ _ ____ _ ____
 72
    65
 73
     4
 40
10.16
 49
6.35
 74
     0
 49
-1.27
 74
     0
 49
1.27
 74
     0
 49
-1.27
 74
     0
  0
LTYPE
  5
71
330
5
100
AcDbSymbolTableRecord
100
AcDbLinetypeTableRecord
  2
CENTERX2
 70
     0
  3
Center (2x) ________  __  ________  __  _____
 72
    65
 73
     4
 40
20.32
 49
12.7
 74
     0
 49
-2.54
 74
     0
 49
2.54
 74
     0
 49
-2.54
 74
     0
  0
LTYPE
  5
72
330
5
100
AcDbSymbolTableRecord
100
AcDbLinetypeTableRecord
  2
DOT2
 70
     0
  3
Dot (.5x) ........................................
 72
    65
 73
     2
 40
0.635
 49
0.0
 74
     0
 49
-0.635
 74
     0
  0
ENDTAB
  0
TABLE
  2
LAYER
  5
2
330
0
100
AcDbSymbolTable
 70
    17
  0
LAYER
  5
10
330
2
100
AcDbSymbolTableRecord
100
AcDbLayerTableRecord
  2
0
 70
     0
 62
     7
  6
Continuous
370
    -3
390
F
  0
LAYER
  5
73
330
2
100
AcDbSymbolTableRecord
100
AcDbLayerTableRecord
  2
FORMAT
 70
     0
 62
     2
  6
Continuous
370
    -3
390
F
  0
LAYER
  5
74
330
2
100
AcDbSymbolTableRecord
100
AcDbLayerTableRecord
  2
외형선
 70
     0
 62
   100
  6
Continuous
370
    35
390
F
  0
LAYER
  5
75
330
2
100
AcDbSymbolTableRecord
100
AcDbLayerTableRecord
  2
숨은선
 70
     0
 62
     2
  6
HIDDEN
370
    25
390
F
  0
LAYER
  5
76
330
2
100
AcDbSymbolTableRecord
100
AcDbLayerTableRecord
  2
중심선
 70
     0
 62
     1
  6
CENTERX2
370
    -3
390
F
  0
LAYER
  5
77
330
2
100
AcDbSymbolTableRecord
100
AcDbLayerTableRecord
  2
파단선
 70
     0
 62
     4
  6
Continuous
370
    -3
390
F
  0
LAYER
  5
78
330
2
100
AcDbSymbolTableRecord
100
AcDbLayerTableRecord
  2
해칭선
 70
     0
 62
   100
  6
Continuous
370
    -3
390
F
  0
LAYER
  5
79
330
2
100
AcDbSymbolTableRecord
100
AcDbLayerTableRecord
  2
가는실선
 70
     0
 62
     4
  6
Continuous
370
    -3
390
F
  0
LAYER
  5
7A
330
2
100
AcDbSymbolTableRecord
100
AcDbLayerTableRecord
  2
치수_보조선
 70
     0
 62
     4
  6
Continuous
370
    -3
390
F
  0
LAYER
  5
7B
330
2
100
AcDbSymbolTableRecord
100
AcDbLayerTableRecord
  2
치수문자_일반주서
 70
     0
 62
     7
  6
Continuous
370
    25
390
F
  0
LAYER
  5
7C
330
2
100
AcDbSymbolTableRecord
100
AcDbLayerTableRecord
  2
개별주서
 70
     0
 62
   100
  6
Continuous
370
    35
390
F
  0
LAYER
  5
7D
330
2
100
AcDbSymbolTableRecord
100
AcDbLayerTableRecord
  2
중간선
 70
     0
 62
     2
  6
Continuous
370
    25
390
F
  0
LAYER
  5
7E
330
2
100
AcDbSymbolTableRecord
100
AcDbLayerTableRecord
  2
윤곽선
 70
     0
 62
     3
  6
Continuous
370
    50
390
F
  0
LAYER
  5
7F
330
2
100
AcDbSymbolTableRecord
100
AcDbLayerTableRecord
  2
중심마크
 70
     0
 62
   100
  6
Continuous
370
    35
390
F
  0
LAYER
  5
80
330
2
100
AcDbSymbolTableRecord
100
AcDbLayerTableRecord
  2
가상선
 70
     0
 62
     4
  6
PHANTOM
370
    -3
390
F
  0
LAYER
  5
81
330
2
100
AcDbSymbolTableRecord
100
AcDbLayerTableRecord
  2
특수지정선
 70
     0
 62
     5
  6
CENTERX2
370
    70
390
F
  0
LAYER
  5
13A
330
2
100
AcDbSymbolTableRecord
100
AcDbLayerTableRecord
  2
Defpoints
 70
     0
 62
     7
  6
Continuous
290
     0
370
    -3
390
F
  0
ENDTAB
  0
TABLE
  2
STYLE
  5
3
330
0
100
AcDbSymbolTable
 70
     2
  0
STYLE
  5
11
330
3
100
AcDbSymbolTableRecord
100
AcDbTextStyleTableRecord
  2
Standard
 70
     0
 40
0.0
 41
1.0
 50
0.0
 71
     0
 42
3.5
  3
txt
  4

  0
STYLE
  5
97
330
3
100
AcDbSymbolTableRecord
100
AcDbTextStyleTableRecord
  2
SLDTEXTSTYLE0
 70
     0
 40
0.0
 41
0.75
 50
0.0
 71
     0
 42
3.5
  3
TXT
  4

  0
ENDTAB
  0
TABLE
  2
VIEW
  5
6
330
0
100
AcDbSymbolTable
 70
     0
  0
ENDTAB
  0
TABLE
  2
UCS
  5
7
330
0
100
AcDbSymbolTable
 70
     0
  0
ENDTAB
  0
TABLE
  2
APPID
  5
9
330
0
100
AcDbSymbolTable
 70
     1
  0
APPID
  5
12
330
9
100
AcDbSymbolTableRecord
100
AcDbRegAppTableRecord
  2
ACAD
 70
     0
  0
ENDTAB
  0
TABLE
  2
DIMSTYLE
  5
A
330
0
100
AcDbSymbolTable
 70
     4
100
AcDbDimStyleTable
  0
DIMSTYLE
105
27
330
A
100
AcDbSymbolTableRecord
100
AcDbDimStyleTableRecord
  2
ISO-25
 70
     0
 41
2.5
 42
0.625
 43
3.75
 44
1.25
 73
     0
 74
     0
 77
     1
 78
     8
140
2.5
141
2.5
143
0.03937007874016
147
0.625
171
     3
172
     1
178
     0
271
     2
272
     2
274
     3
278
    44
283
     0
284
     8
340
11
  0
DIMSTYLE
105
DF
102
{ACAD_REACTORS
330
DE
102
}
330
A
100
AcDbSymbolTableRecord
100
AcDbDimStyleTableRecord
  2
SLDDIMSTYLE0
 70
     0
 41
3.302
 44
0.0
 45
0.000000001
 73
     0
 74
     0
 77
     1
 78
    12
 79
     3
140
3.5
147
0.875
172
     1
173
     1
178
     0
271
     1
272
     1
276
     2
284
    12
289
     0
340
97
  0
DIMSTYLE
105
ED
102
{ACAD_REACTORS
330
EC
330
105
102
}
330
A
100
AcDbSymbolTableRecord
100
AcDbDimStyleTableRecord
  2
SLDDIMSTYLE1
 70
     0
 41
3.302
 44
0.0
 45
0.000000001
 73
     0
 74
     0
 77
     1
 78
    12
 79
     3
140
3.5
147
0.875
173
     1
178
     0
271
     2
272
     2
276
     2
284
    12
340
97
  0
DIMSTYLE
105
F8
102
{ACAD_REACTORS
330
F7
102
}
330
A
100
AcDbSymbolTableRecord
100
AcDbDimStyleTableRecord
  2
SLDDIMSTYLE2
 70
     0
 41
3.302
 44
0.0
 45
0.000000001
 73
     0
 74
     0
 77
     1
 78
    12
 79
     3
140
3.5
147
0.875
172
     1
173
     1
178
     0
271
     2
272
     2
276
     2
284
    12
289
     0
340
97
  0
ENDTAB
  0
TABLE
  2
BLOCK_RECORD
  5
1
330
0
100
AcDbSymbolTable
 70
     7
  0
BLOCK_RECORD
  5
1F
330
1
100
AcDbSymbolTableRecord
100
AcDbBlockTableRecord
  2
*Model_Space
340
22
  0
BLOCK_RECORD
  5
1B
330
1
100
AcDbSymbolTableRecord
100
AcDbBlockTableRecord
  2
*Paper_Space
340
1E
  0
BLOCK_RECORD
  5
23
330
1
100
AcDbSymbolTableRecord
100
AcDbBlockTableRecord
  2
*Paper_Space0
340
26
  0
BLOCK_RECORD
  5
82
330
1
100
AcDbSymbolTableRecord
100
AcDbBlockTableRecord
  2
블럭10
340
0
102
{BLKREFS
331
D7
102
}
  0
BLOCK_RECORD
  5
E0
330
1
100
AcDbSymbolTableRecord
100
AcDbBlockTableRecord
  2
_D
340
0
  0
BLOCK_RECORD
  5
EE
330
1
100
AcDbSymbolTableRecord
100
AcDbBlockTableRecord
  2
_D_1
340
0
  0
BLOCK_RECORD
  5
F9
330
1
100
AcDbSymbolTableRecord
100
AcDbBlockTableRecord
  2
_D_2
340
0
  0
BLOCK_RECORD
  5
106
330
1
100
AcDbSymbolTableRecord
100
AcDbBlockTableRecord
  2
_D_3
340
0
  0
BLOCK_RECORD
  5
10F
330
1
100
AcDbSymbolTableRecord
100
AcDbBlockTableRecord
  2
SW_DOWELSYMBOL_0
340
0
102
{BLKREFS
331
115
102
}
  0
ENDTAB
  0
ENDSEC
  0
SECTION
  2
BLOCKS
  0
BLOCK
  5
20
330
1F
100
AcDbEntity
  8
0
100
AcDbBlockBegin
  2
*Model_Space
 70
     0
 10
0.0
 20
0.0
 30
0.0
  3
*Model_Space
  1

  0
ENDBLK
  5
21
330
1F
100
AcDbEntity
  8
0
100
AcDbBlockEnd
  0
BLOCK
  5
1C
330
1B
100
AcDbEntity
 67
     1
  8
0
100
AcDbBlockBegin
  2
*Paper_Space
 70
     0
 10
0.0
 20
0.0
 30
0.0
  3
*Paper_Space
  1

  0
ENDBLK
  5
1D
330
1B
100
AcDbEntity
 67
     1
  8
0
100
AcDbBlockEnd
  0
BLOCK
  5
24
330
23
100
AcDbEntity
  8
0
100
AcDbBlockBegin
  2
*Paper_Space0
 70
     0
 10
0.0
 20
0.0
 30
0.0
  3
*Paper_Space0
  1

  0
ENDBLK
  5
25
330
23
100
AcDbEntity
  8
0
100
AcDbBlockEnd
  0
BLOCK
  5
83
330
82
100
AcDbEntity
  8
0
100
AcDbBlockBegin
  2
블럭10
 70
     2
 10
0.0
 20
0.0
 30
0.0
  3
블럭10
  1

  0
ELLIPSE
  5
85
330
82
100
AcDbEntity
  8
중심선
100
AcDbEllipse
 10
20.54032771741204
 20
12.0471743016438
 30
0.0
 11
6.600054785286829
 21
-1.261213355974178E-13
 31
0.0
210
0.0
220
0.0
230
1.0
 40
0.636358354079598
 41
0.9219305317359503
 42
6.513795318482858
  0
ELLIPSE
  5
86
330
82
100
AcDbEntity
  8
중심선
100
AcDbEllipse
 10
20.54032771746488
 20
12.04717430159265
 30
0.0
 11
3.960054785062283
 21
1.540847449632565E-10
 31
0.0
210
0.0
220
0.0
230
1.0
 40
0.3939339440162632
 41
1.131841032648279
 42
5.62031148352944
  0
LINE
  5
87
330
82
100
AcDbEntity
  8
중심선
100
AcDbLine
 10
2.268634060543552
 20
16.24717430164393
 30
0.0
 11
5.714909304380834
 21
16.24717430164393
 31
0.0
  0
LINE
  5
88
330
82
100
AcDbEntity
  8
중심선
100
AcDbLine
 10
5.245725140726316
 20
7.84717430164391
 30
0.0
 11
8.692000384563599
 21
7.84717430164391
 31
0.0
  0
LINE
  5
89
330
82
100
AcDbEntity
  8
중심선
100
AcDbLine
 10
15.74043728645272
 20
16.24717430164393
 30
0.0
 11
8.692000384563599
 21
7.84717430164391
 31
0.0
  0
LINE
  5
8A
330
82
100
AcDbEntity
  8
중심선
100
AcDbLine
 10
0.1404042013395286
 20
13.71084872107135
 30
0.0
 11
3.58671253028996
 21
13.71088815037384
 31
0.0
  0
LINE
  5
8B
330
82
100
AcDbEntity
  8
중심선
100
AcDbLine
 10
2.750260043222114
 20
10.84717430164391
 30
0.0
 11
6.196535287059397
 21
10.84717430164391
 31
0.0
  0
LINE
  5
8C
330
82
100
AcDbEntity
  8
중심선
100
AcDbLine
 10
12.29416204261559
 20
16.24717430164393
 30
0.0
 11
5.245725140726316
 21
7.84717430164391
 31
0.0
  0
LINE
  5
8D
330
82
100
AcDbEntity
  8
중심선
100
AcDbLine
 10
10.72767329541681
 20
16.24717430164393
 30
0.0
 11
6.196535287059397
 21
10.84717430164391
 31
0.0
  0
LINE
  5
8E
330
82
100
AcDbEntity
  8
중심선
100
AcDbLine
 10
7.28139805157953
 20
16.24717430164393
 30
0.0
 11
2.750260043222114
 21
10.84717430164391
 31
0.0
  0
LINE
  5
8F
330
82
100
AcDbEntity
  8
중심선
100
AcDbLine
 10
5.714909304380834
 20
16.24717430164393
 30
0.0
 11
3.58671253028996
 21
13.71088815037384
 31
0.0
  0
LINE
  5
90
330
82
100
AcDbEntity
  8
중심선
100
AcDbLine
 10
2.268634060543552
 20
16.24717430164393
 30
0.0
 11
0.1404042013395286
 21
13.71084872107135
 31
0.0
  0
LINE
  5
91
330
82
100
AcDbEntity
  8
중심선
100
AcDbLine
 10
7.28139805157953
 20
16.24717430164393
 30
0.0
 11
10.72767329541681
 21
16.24717430164393
 31
0.0
  0
LINE
  5
92
330
82
100
AcDbEntity
  8
중심선
100
AcDbLine
 10
12.29416204261559
 20
16.24717430164393
 30
0.0
 11
15.74043728645272
 21
16.24717430164393
 31
0.0
  0
LINE
  5
93
330
82
100
AcDbEntity
  8
중심선
100
AcDbLine
 10
19.22036997980202
 20
11.08717430171403
 30
0.0
 11
23.66174974927406
 21
11.08717430171406
 31
0.0
  0
LINE
  5
94
330
82
100
AcDbEntity
  8
중심선
100
AcDbLine
 10
19.22039502424796
 20
13.00717430171391
 30
0.0
 11
19.22036997980202
 21
11.08717430171403
 31
0.0
  0
LINE
  5
95
330
82
100
AcDbEntity
  8
중심선
100
AcDbLine
 10
19.22039502424796
 20
13.00717430171391
 30
0.0
 11
26.96566020931264
 21
13.00717430171391
 31
0.0
  0
LINE
  5
96
330
82
100
AcDbEntity
  8
중심선
100
AcDbLine
 10
22.22332737316547
 20
13.45928029700563
 30
0.0
 11
24.52862924686651
 21
15.39360700705356
 31
0.0
  0
ATTDEF
  5
98
330
82
100
AcDbEntity
  8
FORMAT
 62
     2
100
AcDbText
 10
-16.11926103943555
 20
2.075366912832191
 30
0.0
 40
4.233333333333333
  1
SEME7208040E [ 4 FLUTE ]
 41
0.75
  7
SLDTEXTSTYLE0
 11
-16.11926103943555
 21
-0.0412997538344756
 31
0.0
100
AcDbAttributeDefinition
  3

  2
AUTOATTR0
 70
     0
 74
     1
  0
ENDBLK
  5
84
330
82
100
AcDbEntity
  8
0
100
AcDbBlockEnd
  0
BLOCK
  5
E1
330
E0
100
AcDbEntity
  8
0
100
AcDbBlockBegin
  2
_D
 70
     0
 10
0.0
 20
0.0
 30
0.0
  3
_D
  1

  0
LINE
  5
E3
330
E0
100
AcDbEntity
  8
치수문자_일반주서
 62
     0
370
    -2
100
AcDbLine
 10
50.06250000000004
 20
-4.000000000000011
 30
0.0
 11
62.84197552178208
 21
-3.999999999999964
 31
0.0
  0
LINE
  5
E4
330
E0
100
AcDbEntity
  8
치수문자_일반주서
 62
     0
370
    -2
100
AcDbLine
 10
50.06250000000004
 20
4.000000000000002
 30
0.0
 11
62.84197552178205
 21
4.00000000000005
 31
0.0
  0
LINE
  5
E5
330
E0
100
AcDbEntity
  8
치수문자_일반주서
 62
     0
370
    -2
100
AcDbLine
 10
62.84197552178208
 20
-3.999999999999964
 30
0.0
 11
62.841975521782
 21
16.72900000000006
 31
0.0
  0
LINE
  5
E6
330
E0
100
AcDbEntity
  8
치수문자_일반주서
 62
     0
370
    -2
100
AcDbLine
 10
62.84197552178208
 20
-3.999999999999964
 30
0.0
 11
62.84197552178205
 21
4.00000000000005
 31
0.0
  0
LINE
  5
E7
330
E0
100
AcDbEntity
  8
치수문자_일반주서
 62
     0
370
    -2
100
AcDbLine
 10
62.84197552178209
 20
-7.301999999999964
 30
0.0
 11
62.8419755217821
 21
-10.60399999999996
 31
0.0
  0
LINE
  5
E8
330
E0
100
AcDbEntity
  8
치수문자_일반주서
 62
     0
370
    -2
100
AcDbLine
 10
62.84197552178203
 20
7.302000000000049
 30
0.0
 11
62.84197552178202
 21
10.60400000000005
 31
0.0
  0
SOLID
  5
E9
330
E0
100
AcDbEntity
  8
치수문자_일반주서
 62
     0
100
AcDbTrace
 10
63.39230885511542
 20
-7.301999999999962
 30
0.0
 11
62.29164218844875
 21
-7.301999999999966
 31
0.0
 12
62.84197552178208
 22
-3.999999999999964
 32
0.0
 13
62.84197552178208
 23
-3.999999999999964
 33
0.0
  0
SOLID
  5
EA
330
E0
100
AcDbEntity
  8
치수문자_일반주서
 62
     0
100
AcDbTrace
 10
62.2916421884487
 20
7.302000000000048
 30
0.0
 11
63.39230885511537
 21
7.302000000000051
 31
0.0
 12
62.84197552178205
 22
4.00000000000005
 32
0.0
 13
62.84197552178205
 23
4.00000000000005
 33
0.0
  0
MTEXT
  5
EB
330
E0
100
AcDbEntity
  8
치수문자_일반주서
 62
     0
100
AcDbMText
 10
58.46697552178201
 20
13.66650000000004
 30
0.0
 40
3.5
 41
0.0
 71
     2
 72
     1
  1
\A1;%%c8
  7
SLDTEXTSTYLE0
 11
-3.552713678800495E-15
 21
1.0
 31
0.0
 73
     1
 44
1.0
  0
POINT
  5
144
330
E0
100
AcDbEntity
  8
Defpoints
 62
     0
100
AcDbPoint
 10
50.00000000000004
 20
-4.000000000000011
 30
0.0
  0
POINT
  5
145
330
E0
100
AcDbEntity
  8
Defpoints
 62
     0
100
AcDbPoint
 10
50.00000000000004
 20
4.000000000000002
 30
0.0
  0
POINT
  5
146
330
E0
100
AcDbEntity
  8
Defpoints
 62
     0
100
AcDbPoint
 10
62.84197552178204
 20
4.00000000000005
 30
0.0
  0
ENDBLK
  5
E2
330
E0
100
AcDbEntity
  8
0
100
AcDbBlockEnd
  0
BLOCK
  5
EF
330
EE
100
AcDbEntity
  8
0
100
AcDbBlockBegin
  2
_D_1
 70
     0
 10
0.0
 20
0.0
 30
0.0
  3
_D_1
  1

  0
LINE
  5
F1
330
EE
100
AcDbEntity
  8
치수문자_일반주서
 62
     0
370
    -2
100
AcDbLine
 10
-40.0
 20
3.562499999999991
 30
0.0
 11
-40.0
 21
21.38913260158164
 31
0.0
  0
LINE
  5
F2
330
EE
100
AcDbEntity
  8
치수문자_일반주서
 62
     0
370
    -2
100
AcDbLine
 10
50.0
 20
4.0625
 30
0.0
 11
50.0
 21
21.38913260158164
 31
0.0
  0
LINE
  5
F3
330
EE
100
AcDbEntity
  8
치수문자_일반주서
 62
     0
370
    -2
100
AcDbLine
 10
-36.698
 20
21.38913260158164
 30
0.0
 11
46.698
 21
21.38913260158164
 31
0.0
  0
SOLID
  5
F4
330
EE
100
AcDbEntity
  8
치수문자_일반주서
 62
     0
100
AcDbTrace
 10
-36.698
 20
21.93946593491498
 30
0.0
 11
-36.698
 21
20.83879926824831
 31
0.0
 12
-40.0
 22
21.38913260158164
 32
0.0
 13
-40.0
 23
21.38913260158164
 33
0.0
  0
SOLID
  5
F5
330
EE
100
AcDbEntity
  8
치수문자_일반주서
 62
     0
100
AcDbTrace
 10
46.698
 20
20.83879926824831
 30
0.0
 11
46.698
 21
21.93946593491498
 31
0.0
 12
50.0
 22
21.38913260158164
 32
0.0
 13
50.0
 23
21.38913260158164
 33
0.0
  0
MTEXT
  5
F6
330
EE
100
AcDbEntity
  8
치수문자_일반주서
 62
     0
100
AcDbMText
 10
5.000000000000003
 20
25.76413260158164
 30
0.0
 40
3.5
 41
0.0
 71
     2
 72
     1
  1
\A1;90
  7
SLDTEXTSTYLE0
 73
     1
 44
1.0
  0
POINT
  5
13B
330
EE
100
AcDbEntity
  8
Defpoints
 62
     0
100
AcDbPoint
 10
-40.0
 20
3.499999999999991
 30
0.0
  0
POINT
  5
13C
330
EE
100
AcDbEntity
  8
Defpoints
 62
     0
100
AcDbPoint
 10
50.0
 20
4.0
 30
0.0
  0
POINT
  5
13D
330
EE
100
AcDbEntity
  8
Defpoints
 62
     0
100
AcDbPoint
 10
50.0
 20
21.38913260158164
 30
0.0
  0
ENDBLK
  5
F0
330
EE
100
AcDbEntity
  8
0
100
AcDbBlockEnd
  0
BLOCK
  5
FA
330
F9
100
AcDbEntity
  8
0
100
AcDbBlockBegin
  2
_D_2
 70
     0
 10
0.0
 20
0.0
 30
0.0
  3
_D_2
  1

  0
LINE
  5
FC
330
F9
100
AcDbEntity
  8
치수문자_일반주서
 62
     0
370
    -2
100
AcDbLine
 10
-39.56249999999999
 20
4.0
 30
0.0
 11
-49.18327021982108
 21
3.999999999999963
 31
0.0
  0
LINE
  5
FD
330
F9
100
AcDbEntity
  8
치수문자_일반주서
 62
     0
370
    -2
100
AcDbLine
 10
-39.56249999999999
 20
-4.000000000000007
 30
0.0
 11
-49.18327021982105
 21
-4.000000000000043
 31
0.0
  0
LINE
  5
FE
330
F9
100
AcDbEntity
  8
치수문자_일반주서
 62
     0
370
    -2
100
AcDbLine
 10
-49.18327021982108
 20
3.999999999999963
 30
0.0
 11
-49.18327021982113
 21
16.72899999999996
 31
0.0
  0
LINE
  5
FF
330
F9
100
AcDbEntity
  8
치수문자_일반주서
 62
     0
370
    -2
100
AcDbLine
 10
-49.18327021982108
 20
3.999999999999963
 30
0.0
 11
-49.18327021982105
 21
-4.000000000000043
 31
0.0
  0
LINE
  5
100
330
F9
100
AcDbEntity
  8
치수문자_일반주서
 62
     0
370
    -2
100
AcDbLine
 10
-49.1832702198211
 20
7.301999999999962
 30
0.0
 11
-49.18327021982111
 21
10.60399999999996
 31
0.0
  0
LINE
  5
101
330
F9
100
AcDbEntity
  8
치수문자_일반주서
 62
     0
370
    -2
100
AcDbLine
 10
-49.18327021982104
 20
-7.302000000000042
 30
0.0
 11
-49.18327021982103
 21
-10.60400000000004
 31
0.0
  0
SOLID
  5
102
330
F9
100
AcDbEntity
  8
치수문자_일반주서
 62
     0
100
AcDbTrace
 10
-49.73360355315443
 20
7.301999999999961
 30
0.0
 11
-48.63293688648776
 21
7.301999999999964
 31
0.0
 12
-49.18327021982108
 22
3.999999999999963
 32
0.0
 13
-49.18327021982108
 23
3.999999999999963
 33
0.0
  0
SOLID
  5
103
330
F9
100
AcDbEntity
  8
치수문자_일반주서
 62
     0
100
AcDbTrace
 10
-48.63293688648771
 20
-7.30200000000004
 30
0.0
 11
-49.73360355315437
 21
-7.302000000000044
 31
0.0
 12
-49.18327021982105
 22
-4.000000000000043
 32
0.0
 13
-49.18327021982105
 23
-4.000000000000043
 33
0.0
  0
MTEXT
  5
104
330
F9
100
AcDbEntity
  8
치수문자_일반주서
 62
     0
100
AcDbMText
 10
-53.55827021982112
 20
13.66649999999995
 30
0.0
 40
3.5
 41
0.0
 71
     2
 72
     1
  1
\A1;%%c8
  7
SLDTEXTSTYLE0
 11
-3.552713678800498E-15
 21
1.0
 31
0.0
 73
     1
 44
1.0
  0
POINT
  5
141
330
F9
100
AcDbEntity
  8
Defpoints
 62
     0
100
AcDbPoint
 10
-39.49999999999999
 20
4.0
 30
0.0
  0
POINT
  5
142
330
F9
100
AcDbEntity
  8
Defpoints
 62
     0
100
AcDbPoint
 10
-39.49999999999999
 20
-4.000000000000007
 30
0.0
  0
POINT
  5
143
330
F9
100
AcDbEntity
  8
Defpoints
 62
     0
100
AcDbPoint
 10
-49.18327021982105
 20
-4.000000000000044
 30
0.0
  0
ENDBLK
  5
FB
330
F9
100
AcDbEntity
  8
0
100
AcDbBlockEnd
  0
BLOCK
  5
107
330
106
100
AcDbEntity
  8
0
100
AcDbBlockBegin
  2
_D_3
 70
     0
 10
0.0
 20
0.0
 30
0.0
  3
_D_3
  1

  0
LINE
  5
109
330
106
100
AcDbEntity
  8
치수문자_일반주서
 62
     0
370
    -2
100
AcDbLine
 10
9.999999999999998
 20
3.899518746371091
 30
0.0
 11
9.999999999999996
 21
14.68293704895874
 31
0.0
  0
LINE
  5
10A
330
106
100
AcDbEntity
  8
치수문자_일반주서
 62
     0
370
    -2
100
AcDbLine
 10
50.0
 20
4.0625
 30
0.0
 11
50.0
 21
14.68293704895874
 31
0.0
  0
LINE
  5
10B
330
106
100
AcDbEntity
  8
치수문자_일반주서
 62
     0
370
    -2
100
AcDbLine
 10
13.302
 20
14.68293704895874
 30
0.0
 11
46.698
 21
14.68293704895874
 31
0.0
  0
SOLID
  5
10C
330
106
100
AcDbEntity
  8
치수문자_일반주서
 62
     0
100
AcDbTrace
 10
13.302
 20
15.23327038229207
 30
0.0
 11
13.302
 21
14.13260371562541
 31
0.0
 12
9.999999999999996
 22
14.68293704895874
 32
0.0
 13
9.999999999999996
 23
14.68293704895874
 33
0.0
  0
SOLID
  5
10D
330
106
100
AcDbEntity
  8
치수문자_일반주서
 62
     0
100
AcDbTrace
 10
46.698
 20
14.13260371562541
 30
0.0
 11
46.698
 21
15.23327038229207
 31
0.0
 12
50.0
 22
14.68293704895874
 32
0.0
 13
50.0
 23
14.68293704895874
 33
0.0
  0
MTEXT
  5
10E
330
106
100
AcDbEntity
  8
치수문자_일반주서
 62
     0
100
AcDbMText
 10
30.0
 20
19.05793704895874
 30
0.0
 40
3.5
 41
0.0
 71
     2
 72
     1
  1
\A1;40
  7
SLDTEXTSTYLE0
 73
     1
 44
1.0
  0
POINT
  5
13E
330
106
100
AcDbEntity
  8
Defpoints
 62
     0
100
AcDbPoint
 10
9.999999999999998
 20
3.837018746371091
 30
0.0
  0
POINT
  5
13F
330
106
100
AcDbEntity
  8
Defpoints
 62
     0
100
AcDbPoint
 10
50.0
 20
4.0
 30
0.0
  0
POINT
  5
140
330
106
100
AcDbEntity
  8
Defpoints
 62
     0
100
AcDbPoint
 10
50.0
 20
14.68293704895874
 30
0.0
  0
ENDBLK
  5
108
330
106
100
AcDbEntity
  8
0
100
AcDbBlockEnd
  0
BLOCK
  5
110
330
10F
100
AcDbEntity
  8
0
100
AcDbBlockBegin
  2
SW_DOWELSYMBOL_0
 70
     0
 10
0.0
 20
0.0
 30
0.0
  3
SW_DOWELSYMBOL_0
  1

  0
CIRCLE
  5
112
330
10F
100
AcDbEntity
  8
해칭선
 62
     0
100
AcDbCircle
 10
0.0
 20
0.0
 30
0.0
 40
3.0
  0
HATCH
  5
113
330
10F
100
AcDbEntity
  8
0
  6
Continuous
 62
     0
370
    18
100
AcDbHatch
 10
0.0
 20
0.0
 30
0.0
210
0.0
220
0.0
230
1.0
  2
SOLID
 70
     1
 71
     0
 91
        1
 92
        0
 93
        3
 72
     2
 10
-0.0000064213705585
 20
-0.0000000000000043
 40
3.0
 50
0.0
 51
90.0
 73
     1
 72
     1
 10
-0.0000064213705585
 20
2.999999999999995
 11
-0.0000064213705585
 21
-0.0000000000000044
 72
     1
 10
-0.0000064213705585
 20
-0.0000000000000043
 11
2.999993578629441
 21
-0.0000000000000043
 97
        0
 75
     0
 76
     1
 98
        1
 10
0.0
 20
0.0
  0
HATCH
  5
114
330
10F
100
AcDbEntity
  8
0
  6
Continuous
 62
     0
370
    18
100
AcDbHatch
 10
0.0
 20
0.0
 30
0.0
210
0.0
220
0.0
230
1.0
  2
SOLID
 70
     1
 71
     0
 91
        1
 92
        0
 93
        3
 72
     2
 10
-0.0000064213705585
 20
-0.0000000000000043
 40
3.0
 50
180.0
 51
270.0000000000008
 73
     1
 72
     1
 10
-0.0000064213705585
 20
-3.000000000000004
 11
-0.0000064213705585
 21
-0.0000000000000044
 72
     1
 10
-0.0000064213705585
 20
-0.0000000000000043
 11
-3.000006421370558
 21
-0.0000000000000043
 97
        0
 75
     0
 76
     1
 98
        1
 10
0.0
 20
0.0
  0
ENDBLK
  5
111
330
10F
100
AcDbEntity
  8
0
100
AcDbBlockEnd
  0
ENDSEC
  0
SECTION
  2
ENTITIES
  0
LINE
  5
99
330
1F
100
AcDbEntity
  8
0
  6
Continuous
 62
     4
370
    25
100
AcDbLine
 10
8.534926781510462
 20
3.999999999999996
 30
0.0
 11
-39.5
 21
3.999999999999994
 31
0.0
  0
LINE
  5
9A
330
1F
100
AcDbEntity
  8
0
  6
Continuous
 62
     4
370
    25
100
AcDbLine
 10
-39.5
 20
-4.000000000000006
 30
0.0
 11
8.53492678151047
 21
-4.000000000000004
 31
0.0
  0
LINE
  5
9B
330
1F
100
AcDbEntity
  8
0
  6
Continuous
 62
     4
370
    25
100
AcDbLine
 10
-39.5
 20
3.99999999999999
 30
0.0
 11
-40.0
 21
3.499999999999991
 31
0.0
  0
LINE
  5
9C
330
1F
100
AcDbEntity
  8
0
  6
Continuous
 62
     4
370
    25
100
AcDbLine
 10
-40.0
 20
-3.500000000000005
 30
0.0
 11
-39.5
 21
-4.000000000000002
 31
0.0
  0
LINE
  5
9D
330
1F
100
AcDbEntity
  8
0
  6
Continuous
 62
     1
370
    25
100
AcDbLine
 10
48.45275101010898
 20
-4.000000000000007
 30
0.0
 11
50.0
 21
-4.000000000000007
 31
0.0
  0
LINE
  5
9E
330
1F
100
AcDbEntity
  8
0
  6
Continuous
 62
     1
370
    25
100
AcDbLine
 10
29.78155924780885
 20
4.0
 30
0.0
 11
26.68737489988266
 21
4.0
 31
0.0
  0
LINE
  5
9F
330
1F
100
AcDbEntity
  8
0
  6
Continuous
 62
     1
370
    25
100
AcDbLine
 10
17.8088085440094
 20
0.6244488022948463
 30
0.0
 11
17.90703262938801
 21
0.5711201195844162
 31
0.0
  0
LINE
  5
A0
330
1F
100
AcDbEntity
  8
0
  6
Continuous
 62
     1
370
    25
100
AcDbLine
 10
49.55440413754098
 20
-0.6321042182172782
 30
0.0
 11
49.41165294198306
 21
-0.5515496172531339
 31
0.0
  0
LINE
  5
A1
330
1F
100
AcDbEntity
  8
0
  6
Continuous
 62
     1
370
    25
100
AcDbLine
 10
39.64615181399215
 20
0.5854250402758882
 30
0.0
 11
39.67217517444034
 21
0.5713773628183468
 31
0.0
  0
LINE
  5
A2
330
1F
100
AcDbEntity
  8
0
  6
Continuous
 62
     1
370
    25
100
AcDbLine
 10
37.57046371530342
 20
-4.000000000000007
 30
0.0
 11
40.66564170763735
 21
-4.000000000000007
 31
0.0
  0
LINE
  5
A3
330
1F
100
AcDbEntity
  8
0
  6
Continuous
 62
     1
370
    25
100
AcDbLine
 10
18.89843102635426
 20
4.0
 30
0.0
 11
15.80523986083341
 21
4.0
 31
0.0
  0
LINE
  5
A4
330
1F
100
AcDbEntity
  8
0
  6
Continuous
 62
     1
370
    25
100
AcDbLine
 10
15.80523986083344
 20
-4.000000000000007
 30
0.0
 11
18.89843102635424
 21
-4.000000000000007
 31
0.0
  0
LINE
  5
A5
330
1F
100
AcDbEntity
  8
0
  6
Continuous
 62
     1
370
    25
100
AcDbLine
 10
40.66564170763733
 20
4.0
 30
0.0
 11
37.57046371530348
 21
4.0
 31
0.0
  0
LINE
  5
A6
330
1F
100
AcDbEntity
  8
0
  6
Continuous
 62
     1
370
    25
100
AcDbLine
 10
26.68737489988267
 20
-4.000000000000007
 30
0.0
 11
29.78155924780879
 21
-4.000000000000007
 31
0.0
  0
LINE
  5
A7
330
1F
100
AcDbEntity
  8
0
  6
Continuous
 62
     1
370
    25
100
AcDbLine
 10
50.0
 20
4.0
 30
0.0
 11
48.45275101010895
 21
4.0
 31
0.0
  0
SPLINE
  5
A8
330
1F
100
AcDbEntity
  8
0
  6
Continuous
 62
     4
370
    25
100
AcDbSpline
210
0.0
220
0.0
230
1.0
 70
     8
 71
     3
 72
    10
 73
     6
 74
     0
 42
0.000000001
 43
0.00000001
 40
0.0
 40
0.0
 40
0.0
 40
0.0
 40
0.5
 40
0.5
 40
1.0
 40
1.0
 40
1.0
 40
1.0
 10
8.903618750774168
 20
-0.5111263888675462
 30
0.0
 10
8.777190380770357
 20
-0.4389029501944955
 30
0.0
 10
8.67357863352833
 20
-0.3325612987942549
 30
0.0
 10
8.534620968513059
 20
-0.0806968453855774
 30
0.0
 10
8.499819895446011
 20
0.0645242935539472
 30
0.0
 10
8.499819895446011
 20
0.2100687650012529
 30
0.0
  0
SPLINE
  5
A9
330
1F
100
AcDbEntity
  8
0
  6
Continuous
 62
     4
370
    25
100
AcDbSpline
210
0.0
220
0.0
230
1.0
 70
     8
 71
     3
 72
    16
 73
    12
 74
     0
 42
0.000000001
 43
0.00000001
 40
0.0
 40
0.0
 40
0.0
 40
0.0
 40
0.1249999999999999
 40
0.1249999999999999
 40
0.2499999999999997
 40
0.2499999999999997
 40
0.4999999999999999
 40
0.4999999999999999
 40
0.7499999999999999
 40
0.7499999999999999
 40
1.0
 40
1.0
 40
1.0
 40
1.0
 10
8.499819895446011
 20
2.580147700476484
 30
0.0
 10
8.499819895446011
 20
2.634690198527066
 30
0.0
 10
8.507776068568914
 20
2.686978362020984
 30
0.0
 10
8.540803329218823
 20
2.787185101044169
 30
0.0
 10
8.566230424164972
 20
2.835072338395908
 30
0.0
 10
8.665813921096115
 20
2.964248675941832
 30
0.0
 10
8.765532784293464
 20
3.034016089174296
 30
0.0
 10
9.00962496597969
 20
3.12860774759418
 30
0.0
 10
9.150007776856796
 20
3.152586091160541
 30
0.0
 10
9.432064715181196
 20
3.154503283243492
 30
0.0
 10
9.573888897920504
 20
3.132334523486265
 30
0.0
 10
9.697607720350913
 20
3.086772728078663
 30
0.0
  0
SPLINE
  5
AA
330
1F
100
AcDbEntity
  8
0
  6
Continuous
 62
     4
370
    25
100
AcDbSpline
210
0.0
220
0.0
230
1.0
 70
     8
 71
     3
 72
    10
 73
     6
 74
     0
 42
0.000000001
 43
0.00000001
 40
0.0
 40
0.0
 40
0.0
 40
0.0
 40
0.4087508773911868
 40
0.81742671935767
 40
1.0
 40
1.0
 40
1.0
 40
1.0
 10
8.903618750774172
 20
3.967209323265305
 30
0.0
 10
8.831736577614702
 20
3.97325750533086
 30
0.0
 10
8.687985426886751
 20
3.985352759182005
 30
0.0
 10
8.565250540097155
 20
3.999858021494751
 30
0.0
 10
8.542081275956887
 20
3.998357691269872
 30
0.0
 10
8.534926781510462
 20
3.997894400584561
 30
0.0
  0
SPLINE
  5
AB
330
1F
100
AcDbEntity
  8
0
  6
Continuous
 62
     4
370
    25
100
AcDbSpline
210
0.0
220
0.0
230
1.0
 70
     8
 71
     3
 72
     8
 73
     4
 74
     0
 42
0.000000001
 43
0.00000001
 40
0.0
 40
0.0
 40
0.0
 40
0.0
 40
1.0
 40
1.0
 40
1.0
 40
1.0
 10
9.999999999999998
 20
3.837018746371091
 30
0.0
 10
9.635429843390762
 20
3.896610286525605
 30
0.0
 10
9.270601890510443
 20
3.940199426580111
 30
0.0
 10
8.903618750774172
 20
3.967209323265305
 30
0.0
  0
LINE
  5
AC
330
1F
100
AcDbEntity
  8
0
  6
Continuous
 62
     4
370
    25
100
AcDbLine
 10
9.999999999999998
 20
3.837018746371091
 30
0.0
 11
9.999999999999998
 21
2.972412430736026
 31
0.0
  0
SPLINE
  5
AD
330
1F
100
AcDbEntity
  8
0
  6
Continuous
 62
     4
370
    25
100
AcDbSpline
210
0.0
220
0.0
230
1.0
 70
     8
 71
     3
 72
     8
 73
     4
 74
     0
 42
0.000000001
 43
0.00000001
 40
0.0
 40
0.0
 40
0.0
 40
0.0
 40
1.0
 40
1.0
 40
1.0
 40
1.0
 10
9.999999999999998
 20
2.972412430736015
 30
0.0
 10
9.898966385079776
 20
3.011525876060528
 30
0.0
 10
9.79850470028907
 20
3.049615507642226
 30
0.0
 10
9.697607720344639
 20
3.086772728080962
 30
0.0
  0
SPLINE
  5
AE
330
1F
100
AcDbEntity
  8
0
  6
Continuous
 62
     4
370
    25
100
AcDbSpline
210
0.0
220
0.0
230
1.0
 70
     8
 71
     3
 72
     8
 73
     4
 74
     0
 42
0.000000001
 43
0.00000001
 40
0.0
 40
0.0
 40
0.0
 40
0.0
 40
1.0
 40
1.0
 40
1.0
 40
1.0
 10
9.999999999999998
 20
-1.13017128790141
 30
0.0
 10
9.635429843390762
 20
-0.9278534099427762
 30
0.0
 10
9.270601890510443
 20
-0.7207690844586336
 30
0.0
 10
8.903618750774172
 20
-0.511126388867546
 30
0.0
  0
LINE
  5
AF
330
1F
100
AcDbEntity
  8
0
  6
Continuous
 62
     4
370
    25
100
AcDbLine
 10
9.999999999999998
 20
-1.13017128790141
 30
0.0
 11
9.999999999999998
 21
-2.676707743031729
 31
0.0
  0
SPLINE
  5
B0
330
1F
100
AcDbEntity
  8
0
  6
Continuous
 62
     4
370
    25
100
AcDbSpline
210
0.0
220
0.0
230
1.0
 70
     8
 71
     3
 72
     8
 73
     4
 74
     0
 42
0.000000001
 43
0.00000001
 40
0.0
 40
0.0
 40
0.0
 40
0.0
 40
1.0
 40
1.0
 40
1.0
 40
1.0
 10
9.999999999999998
 20
-2.676707743031721
 30
0.0
 10
9.898966385079776
 20
-2.633273307055601
 30
0.0
 10
9.79850470028907
 20
-2.589065196467894
 30
0.0
 10
9.697607720344642
 20
-2.543979977353512
 30
0.0
  0
SPLINE
  5
B1
330
1F
100
AcDbEntity
  8
0
  6
Continuous
 62
     4
370
    25
100
AcDbSpline
210
0.0
220
0.0
230
1.0
 70
     8
 71
     3
 72
    16
 73
    12
 74
     0
 42
0.000000001
 43
0.00000001
 40
0.0
 40
0.0
 40
0.0
 40
0.0
 40
0.1249999999999998
 40
0.1249999999999998
 40
0.2499999999999996
 40
0.2499999999999996
 40
0.4999999999999998
 40
0.4999999999999998
 40
0.7499999999999999
 40
0.7499999999999999
 40
1.0
 40
1.0
 40
1.0
 40
1.0
 10
8.499819895446011
 20
-3.056605608142139
 30
0.0
 10
8.499819895446011
 20
-3.010565091646133
 30
0.0
 10
8.507776068568914
 20
-2.96392779706801
 30
0.0
 10
8.540803329218827
 20
-2.869898938415568
 30
0.0
 10
8.566230424164976
 20
-2.822447387694046
 30
0.0
 10
8.665813921096115
 20
-2.688606975392881
 30
0.0
 10
8.765532784293464
 20
-2.607728495343424
 30
0.0
 10
9.00962496597969
 20
-2.493454450453875
 30
0.0
 10
9.150007776856796
 20
-2.46195112988002
 30
0.0
 10
9.432064715181196
 20
-2.45949414801142
 30
0.0
 10
9.573888897920504
 20
-2.488696952820633
 30
0.0
 10
9.697607720350913
 20
-2.543979977356319
 30
0.0
  0
LINE
  5
B2
330
1F
100
AcDbEntity
  8
0
  6
Continuous
 62
     4
370
    25
100
AcDbLine
 10
8.499819895446011
 20
-3.056605608142139
 30
0.0
 11
8.499819895446011
 21
-3.994480080557528
 31
0.0
  0
SPLINE
  5
B3
330
1F
100
AcDbEntity
  8
0
  6
Continuous
 62
     4
370
    25
100
AcDbSpline
210
0.0
220
0.0
230
1.0
 70
     8
 71
     3
 72
     8
 73
     4
 74
     0
 42
0.000000001
 43
0.00000001
 40
0.0
 40
0.0
 40
0.0
 40
0.0
 40
1.0
 40
1.0
 40
1.0
 40
1.0
 10
8.903618750774172
 20
-3.967209323265318
 30
0.0
 10
8.747889577222011
 20
-3.978670963959594
 30
0.0
 10
8.627823485997382
 20
-3.993494024985404
 30
0.0
 10
8.561100466855377
 20
-3.998323445084171
 30
0.0
  0
SPLINE
  5
B4
330
1F
100
AcDbEntity
  8
0
  6
Continuous
 62
     4
370
    25
100
AcDbSpline
210
0.0
220
0.0
230
1.0
 70
     8
 71
     3
 72
     9
 73
     5
 74
     0
 42
0.000000001
 43
0.00000001
 40
0.0
 40
0.0
 40
0.0
 40
0.0
 40
0.6972403956311575
 40
1.0
 40
1.0
 40
1.0
 40
1.0
 10
8.53492678151047
 20
-3.997894400584568
 30
0.0
 10
8.520746186826567
 20
-3.99842167519538
 30
0.0
 10
8.500408015411434
 20
-3.999177905921705
 30
0.0
 10
8.499956573746026
 20
-3.995571848942027
 30
0.0
 10
8.499819895446011
 20
-3.994480080557528
 30
0.0
  0
SPLINE
  5
B5
330
1F
100
AcDbEntity
  8
0
  6
Continuous
 62
     4
370
    25
100
AcDbSpline
210
0.0
220
0.0
230
1.0
 70
     8
 71
     3
 72
     8
 73
     4
 74
     0
 42
0.000000001
 43
0.00000001
 40
0.0
 40
0.0
 40
0.0
 40
0.0
 40
1.0
 40
1.0
 40
1.0
 40
1.0
 10
9.999999999999998
 20
-3.837018746371106
 30
0.0
 10
9.635429843390762
 20
-3.896610286525618
 30
0.0
 10
9.270601890510443
 20
-3.940199426580123
 30
0.0
 10
8.903618750774172
 20
-3.967209323265317
 30
0.0
  0
LINE
  5
B6
330
1F
100
AcDbEntity
  8
0
  6
Continuous
 62
     4
370
    25
100
AcDbLine
 10
-39.5
 20
3.99999999999999
 30
0.0
 11
-39.5
 21
-3.999999999999999
 31
0.0
  0
LINE
  5
B7
330
1F
100
AcDbEntity
  8
0
  6
Continuous
 62
     4
370
    25
100
AcDbLine
 10
8.499819895446011
 20
2.580147700476484
 30
0.0
 11
8.499819895446011
 21
0.2100687650012527
 31
0.0
  0
LINE
  5
B8
330
1F
100
AcDbEntity
  8
0
  6
Continuous
 62
     4
370
    25
100
AcDbLine
 10
-40.0
 20
3.499999999999991
 30
0.0
 11
-40.0
 21
-3.500000000000005
 31
0.0
  0
SPLINE
  5
B9
330
1F
100
AcDbEntity
  8
0
  6
Continuous
 62
     4
370
    25
100
AcDbSpline
210
0.0
220
0.0
230
1.0
 70
    24
 71
     3
 72
    20
 73
    16
 74
     0
 42
0.000000001
 43
0.00000001
 40
0.0
 40
0.0
 40
0.0
 40
0.0
 40
0.125
 40
0.125
 40
0.2500000000000001
 40
0.2500000000000001
 40
0.4999999999999999
 40
0.4999999999999999
 40
0.6249999999999999
 40
0.6249999999999999
 40
0.75
 40
0.75
 40
0.875
 40
0.875
 40
1.0
 40
1.0
 40
1.0
 40
1.0
 10
9.999999999999998
 20
2.972412430736036
 30
0.0
 10
9.999999999999998
 20
2.85546071353744
 30
0.0
 10
9.999999999999998
 20
2.745909285556759
 30
0.0
 10
9.999999999999998
 20
2.495474300899668
 30
0.0
 10
9.999999999999998
 20
2.356999759863749
 30
0.0
 10
9.999999999999998
 20
1.898544723276441
 30
0.0
 10
9.999999999999998
 20
1.53196275430205
 30
0.0
 10
9.999999999999998
 20
0.9190940885239465
 30
0.0
 10
9.999999999999998
 20
0.7051184531776482
 30
0.0
 10
9.999999999999998
 20
0.2748956913187414
 30
0.0
 10
9.999999999999998
 20
0.0587681167563625
 30
0.0
 10
9.999999999999998
 20
-0.3505277023356679
 30
0.0
 10
9.999999999999998
 20
-0.5433891501556628
 30
0.0
 10
9.999999999999998
 20
-0.8791642305206344
 30
0.0
 10
9.999999999999998
 20
-1.021748072956304
 30
0.0
 10
9.999999999999998
 20
-1.13017128790141
 30
0.0
  0
SPLINE
  5
BA
330
1F
100
AcDbEntity
  8
0
  6
Continuous
 62
     4
370
    25
100
AcDbSpline
210
0.0
220
0.0
230
1.0
 70
    24
 71
     3
 72
    11
 73
     7
 74
     0
 42
0.000000001
 43
0.00000001
 40
0.0
 40
0.0
 40
0.0
 40
0.0
 40
0.3175549270658123
 40
0.6413836561355912
 40
0.9746034402861057
 40
1.0
 40
1.0
 40
1.0
 40
1.0
 10
10.0
 20
-2.738647605558991
 30
0.0
 10
10.0
 20
-2.83322448630941
 30
0.0
 10
10.0
 20
-3.024246764320015
 30
0.0
 10
9.999999999999998
 20
-3.387637591263331
 30
0.0
 10
10.0
 20
-3.670242805589044
 30
0.0
 10
9.999999999999998
 20
-3.82598907757757
 30
0.0
 10
9.999999999999998
 20
-3.837018746371106
 30
0.0
  0
SPLINE
  5
BB
330
1F
100
AcDbEntity
  8
0
  6
Continuous
 62
     1
370
    25
100
AcDbSpline
210
0.0
220
0.0
230
1.0
 70
     8
 71
     3
 72
    25
 73
    21
 74
     0
 42
0.000000001
 43
0.00000001
 40
0.0
 40
0.0
 40
0.0
 40
0.0
 40
0.0206424847767497
 40
0.0784408467466471
 40
0.1362213136954847
 40
0.193980659572928
 40
0.2517260486635047
 40
0.3094646961259369
 40
0.3672038417408934
 40
0.4249507234686087
 40
0.4827125510205766
 40
0.5404964796493185
 40
0.5982937467234656
 40
0.6560674119521773
 40
0.7214604101020775
 40
0.7868534003228244
 40
0.852246382554496
 40
0.9176393567371829
 40
0.9830323228109872
 40
1.0
 40
1.0
 40
1.0
 40
1.0
 10
22.79170968627644
 20
3.366848556525039
 30
0.0
 10
22.96827622503319
 20
3.425840072723821
 30
0.0
 10
23.63922397948204
 20
3.650006132747417
 30
0.0
 10
24.80456741175441
 20
3.876286548897464
 30
0.0
 10
26.28724545663189
 20
4.02560269715418
 30
0.0
 10
27.76937480229789
 20
3.981160425232463
 30
0.0
 10
29.251071364032
 20
3.757967999976961
 30
0.0
 10
30.73256142672026
 20
3.362764402403477
 30
0.0
 10
32.21406654961184
 20
2.814480862674315
 30
0.0
 10
33.69580983433237
 20
2.137822765693051
 30
0.0
 10
35.17801258355863
 20
1.363635220688841
 30
0.0
 10
36.66076079608858
 20
0.5272339898435311
 30
0.0
 10
38.14375532280052
 20
-0.3330861989670865
 30
0.0
 10
39.69154526216916
 20
-1.21554862755554
 30
0.0
 10
41.30461555010757
 20
-2.073315510137898
 30
0.0
 10
42.98277379529216
 20
-2.843268336802516
 30
0.0
 10
44.66095670142278
 20
-3.452155570150128
 30
0.0
 10
46.33913266564775
 20
-3.841136402612201
 30
0.0
 10
47.60306477592292
 20
-4.016742683060975
 30
0.0
 10
48.30760407046441
 20
-3.984202817011557
 30
0.0
 10
48.45275101010898
 20
-3.9774990575334
 30
0.0
  0
SPLINE
  5
BC
330
1F
100
AcDbEntity
  8
0
  6
Continuous
 62
     1
370
    25
100
AcDbSpline
210
0.0
220
0.0
230
1.0
 70
     8
 71
     3
 72
    21
 73
    17
 74
     0
 42
0.000000001
 43
0.00000001
 40
0.0
 40
0.0
 40
0.0
 40
0.0
 40
0.0733439455543115
 40
0.1466572492304518
 40
0.2199489658810536
 40
0.2932282289486071
 40
0.3665042173288331
 40
0.4397861218833714
 40
0.513083111860005
 40
0.586404301479856
 40
0.6597554444595584
 40
0.7330896594724973
 40
0.8063958257674861
 40
0.8796830241536588
 40
0.952960404554625
 40
0.9999999999999999
 40
0.9999999999999999
 40
0.9999999999999999
 40
0.9999999999999999
 10
50.0
 20
-3.900662793421046
 30
0.0
 10
49.50563599651922
 20
-3.820236545220794
 30
0.0
 10
48.51711452659968
 20
-3.659417649566477
 30
0.0
 10
47.03474756789086
 20
-3.203631580012253
 30
0.0
 10
45.55289239819147
 20
-2.614611951532209
 30
0.0
 10
44.07134227286474
 20
-1.90303386139613
 30
0.0
 10
42.58987042655539
 20
-1.105644684044691
 30
0.0
 10
41.10825645463204
 20
-0.2575885850843319
 30
0.0
 10
39.62627269181725
 20
0.6022198246627042
 30
0.0
 10
38.14373952771528
 20
1.434670040065654
 30
0.0
 10
36.6607650365806
 20
2.201678282546122
 30
0.0
 10
35.17801141615431
 20
2.867900968387674
 30
0.0
 10
33.69581026543536
 20
3.405306898657154
 30
0.0
 10
32.21406599226046
 20
3.780009031843108
 30
0.0
 10
30.90937445021006
 20
3.98258182764087
 30
0.0
 10
30.09855887590007
 20
3.980002176298477
 30
0.0
 10
29.78155924780885
 20
3.978993625720449
 30
0.0
  0
SPLINE
  5
BD
330
1F
100
AcDbEntity
  8
0
  6
Continuous
 62
     1
370
    25
100
AcDbSpline
210
0.0
220
0.0
230
1.0
 70
     8
 71
     3
 72
     9
 73
     5
 74
     0
 42
0.000000001
 43
0.00000001
 40
0.0
 40
0.0
 40
0.0
 40
0.0
 40
0.2256289683117522
 40
1.0
 40
1.0
 40
1.0
 40
1.0
 10
11.9114178676646
 20
-3.368704892389108
 30
0.0
 10
11.76766222775004
 20
-3.417668708615979
 30
0.0
 10
11.13052932327326
 20
-3.634679035761637
 30
0.0
 10
10.49338562385342
 20
-3.74871364689759
 30
0.0
 10
10.00000000000001
 20
-3.837018746371105
 30
0.0
  0
LINE
  5
BE
330
1F
100
AcDbEntity
  8
0
  6
Continuous
 62
     1
370
    25
100
AcDbLine
 10
50.0
 20
-4.000000000000011
 30
0.0
 11
50.0
 21
-3.900662793421052
 31
0.0
  0
SPLINE
  5
BF
330
1F
100
AcDbEntity
  8
0
  6
Continuous
 62
     1
370
    25
100
AcDbSpline
210
0.0
220
0.0
230
1.0
 70
     8
 71
     3
 72
    23
 73
    19
 74
     0
 42
0.000000001
 43
0.00000001
 40
0.0
 40
0.0
 40
0.0
 40
0.0
 40
0.0617094789696634
 40
0.124288648352887
 40
0.1868672778256072
 40
0.249453214048108
 40
0.312054276994776
 40
0.374678231501239
 40
0.4373215810912644
 40
0.4999416114508176
 40
0.5625399098571426
 40
0.6251242512121333
 40
0.6875767015672967
 40
0.7500310474958053
 40
0.8124954996877766
 40
0.8749782308001754
 40
0.9374873448671011
 40
1.0
 40
1.0
 40
1.0
 40
1.0
 10
33.67490733550655
 20
-3.383548211518153
 30
0.0
 10
33.18793728556903
 20
-3.519319740677501
 30
0.0
 10
32.20713416900372
 20
-3.792776268358051
 30
0.0
 10
30.73256233091696
 20
-3.990784014459853
 30
0.0
 10
29.25107122757217
 20
-4.019301485091389
 30
0.0
 10
27.76937444375359
 20
-3.861533134154242
 30
0.0
 10
26.28724702797692
 20
-3.528527439587609
 30
0.0
 10
24.80456148192422
 20
-3.034362347937769
 30
0.0
 10
23.32156982019672
 20
-2.402033876994873
 30
0.0
 10
21.83896189028565
 20
-1.660022455678994
 30
0.0
 10
20.35691178228736
 20
-0.8424126638475924
 30
0.0
 10
18.87625103586424
 20
0.0129368746542138
 30
0.0
 10
17.39676279296118
 20
0.867132692992339
 30
0.0
 10
15.9182107203021
 20
1.681160601899317
 30
0.0
 10
14.43936878761489
 20
2.419807113052136
 30
0.0
 10
12.96002087027802
 20
3.045310519844972
 30
0.0
 10
11.48011941314094
 20
3.544979355278986
 30
0.0
 10
10.49338245369303
 20
3.739670444556527
 30
0.0
 10
10.00000000000001
 20
3.83701874637109
 30
0.0
  0
SPLINE
  5
C0
330
1F
100
AcDbEntity
  8
0
  6
Continuous
 62
     1
370
    25
100
AcDbSpline
210
0.0
220
0.0
230
1.0
 70
     8
 71
     3
 72
    25
 73
    21
 74
     0
 42
0.000000001
 43
0.00000001
 40
0.0
 40
0.0
 40
0.0
 40
0.0
 40
0.0408696364850623
 40
0.0985208425969226
 40
0.1561551832198662
 40
0.2137801990539035
 40
0.2714034658912553
 40
0.3291484251559376
 40
0.3869062622322791
 40
0.4446841508219342
 40
0.5024835554647192
 40
0.5602650647636214
 40
0.6180254526101083
 40
0.6757718834179507
 40
0.7335115724760306
 40
0.7912517596956214
 40
0.8489996831675293
 40
0.90676255273331
 40
0.9645475237745644
 40
0.9999999999999999
 40
0.9999999999999999
 40
0.9999999999999999
 40
0.9999999999999999
 10
11.91141786766455
 20
3.368704892389101
 30
0.0
 10
12.26101755445965
 20
3.4751679231081
 30
0.0
 10
13.10376680982094
 20
3.731808999318589
 30
0.0
 10
14.43936761580534
 20
3.948949318657444
 30
0.0
 10
15.91821103418929
 20
4.030892384910757
 30
0.0
 10
17.39676270887574
 20
3.92426423342448
 30
0.0
 10
18.87625105842558
 20
3.640785847424084
 30
0.0
 10
20.35691177631669
 20
3.191017246491685
 30
0.0
 10
21.83896189158216
 20
2.595543753388583
 30
0.0
 10
23.32156982098449
 20
1.881603249837297
 30
0.0
 10
24.80456147747459
 20
1.082052687732327
 30
0.0
 10
26.2872470449785
 20
0.2329979366830747
 30
0.0
 10
27.76937438022635
 20
-0.6266140463601942
 30
0.0
 10
29.25107146461561
 20
-1.457537836019011
 30
0.0
 10
30.73256144635485
 20
-2.222136819685106
 30
0.0
 10
32.21406637048133
 20
-2.88489442504342
 30
0.0
 10
33.69581053140067
 20
-3.418272839949391
 30
0.0
 10
35.17800997329955
 20
-3.788064034721011
 30
0.0
 10
36.46962975052276
 20
-3.985099049031245
 30
0.0
 10
37.26719762495622
 20
-3.980178686321749
 30
0.0
 10
37.57046371530343
 20
-3.978307774503667
 30
0.0
  0
SPLINE
  5
C1
330
1F
100
AcDbEntity
  8
0
  6
Continuous
 62
     4
370
    25
100
AcDbSpline
210
0.0
220
0.0
230
1.0
 70
    24
 71
     3
 72
    11
 73
     7
 74
     0
 42
0.000000001
 43
0.00000001
 40
0.0
 40
0.0
 40
0.0
 40
0.0
 40
0.3175549270657547
 40
0.6413836561354721
 40
0.9746034402859246
 40
1.0
 40
1.0
 40
1.0
 40
1.0
 10
9.999999999999998
 20
-2.738647605558991
 30
0.0
 10
9.999999999999998
 20
-2.833224486309409
 30
0.0
 10
9.999999999999998
 20
-3.024246764320014
 30
0.0
 10
9.999999999999998
 20
-3.387637591263329
 30
0.0
 10
9.999999999999998
 20
-3.670242805589125
 30
0.0
 10
9.999999999999998
 20
-3.825989077577732
 30
0.0
 10
9.999999999999998
 20
-3.837018746371348
 30
0.0
  0
SPLINE
  5
C2
330
1F
100
AcDbEntity
  8
0
  6
Continuous
 62
     1
370
    25
100
AcDbSpline
210
0.0
220
0.0
230
1.0
 70
     8
 71
     3
 72
    11
 73
     7
 74
     0
 42
0.000000001
 43
0.00000001
 40
0.0
 40
0.0
 40
0.0
 40
0.0
 40
0.2549518171628105
 40
0.5098891924305712
 40
0.7647189673702954
 40
1.0
 40
1.0
 40
1.0
 40
1.0
 10
9.999999999999998
 20
-2.676707743031723
 30
0.0
 10
10.49338251810056
 20
-2.876713150805832
 30
0.0
 10
11.48011960635988
 20
-3.276712636930555
 30
0.0
 10
12.96002009758919
 20
-3.691332126414521
 30
0.0
 10
14.40168909899136
 20
-3.955706415693083
 30
0.0
 10
15.34999780503122
 20
-3.98129866804525
 30
0.0
 10
15.80523986083345
 20
-3.993584403164211
 30
0.0
  0
SPLINE
  5
C3
330
1F
100
AcDbEntity
  8
0
  6
Continuous
 62
     1
370
    25
100
AcDbSpline
210
0.0
220
0.0
230
1.0
 70
     8
 71
     3
 72
    18
 73
    14
 74
     0
 42
0.000000001
 43
0.00000001
 40
0.0
 40
0.0
 40
0.0
 40
0.0
 40
0.0012977453206238
 40
0.0938225592685002
 40
0.1863827754552466
 40
0.2789643576068831
 40
0.3715081335385595
 40
0.4762568100216533
 40
0.5810054738035655
 40
0.6857541247883122
 40
0.7905027628799279
 40
0.8952513879824654
 40
0.9999999999999999
 40
0.9999999999999999
 40
0.9999999999999999
 40
0.9999999999999999
 10
33.67490733550659
 20
3.383548211518152
 30
0.0
 10
33.68183646910467
 20
3.386020245775715
 30
0.0
 10
34.18278918868148
 20
3.564739888958448
 30
0.0
 10
35.17801742256988
 20
3.781812683553945
 30
0.0
 10
36.66075949930696
 20
3.998986960995476
 30
0.0
 10
38.1437556686996
 20
4.016042022984249
 30
0.0
 10
39.69154515586499
 20
3.847658652629635
 30
0.0
 10
41.30461557980294
 20
3.466672158366668
 30
0.0
 10
42.98277378831034
 20
2.868345236893912
 30
0.0
 10
44.66095669965469
 20
2.102223626291012
 30
0.0
 10
46.33913267970186
 20
1.214191066276541
 30
0.0
 10
48.01731019515066
 20
0.2522689500638622
 30
0.0
 10
49.13609480345214
 20
-0.3913918615149605
 30
0.0
 10
49.69548707266374
 20
-0.7132222472031435
 30
0.0
  0
SPLINE
  5
C4
330
1F
100
AcDbEntity
  8
0
  6
Continuous
 62
     1
370
    25
100
AcDbSpline
210
0.0
220
0.0
230
1.0
 70
     8
 71
     3
 72
     8
 73
     4
 74
     0
 42
0.000000001
 43
0.00000001
 40
0.0
 40
0.0
 40
0.0
 40
0.0
 40
1.0
 40
1.0
 40
1.0
 40
1.0
 10
50.0
 20
-3.083933400934673
 30
0.0
 10
49.35788832274969
 20
-2.721896529077727
 30
0.0
 10
48.7532988967926
 20
-2.276337367750765
 30
0.0
 10
48.17131541104538
 20
-1.780458734193957
 30
0.0
  0
LINE
  5
C5
330
1F
100
AcDbEntity
  8
0
  6
Continuous
 62
     1
370
    25
100
AcDbLine
 10
50.0
 20
-3.900662793421052
 30
0.0
 11
50.0
 21
-3.083933400934671
 31
0.0
  0
SPLINE
  5
C6
330
1F
100
AcDbEntity
  8
0
  6
Continuous
 62
     1
370
    25
100
AcDbSpline
210
0.0
220
0.0
230
1.0
 70
    24
 71
     3
 72
    16
 73
    12
 74
     0
 42
0.000000001
 43
0.00000001
 40
0.0
 40
0.0
 40
0.0
 40
0.0
 40
0.100595359856594
 40
0.2547425743865727
 40
0.3536912371616273
 40
0.4553165690461124
 40
0.5543554218059901
 40
0.6566131227067256
 40
0.7507930376532836
 40
0.8472662744199561
 40
1.0
 40
1.0
 40
1.0
 40
1.0
 10
49.69000522457031
 20
-0.7170606785615129
 30
0.0
 10
49.68873068988746
 20
-0.7179531173541467
 30
0.0
 10
49.68550312306216
 20
-0.720213083975292
 30
0.0
 10
49.6139520602289
 20
-0.7703136775380911
 30
0.0
 10
49.49668814002186
 20
-0.8524227584270452
 30
0.0
 10
49.36008181253762
 20
-0.9480755386986525
 30
0.0
 10
49.18749564560959
 20
-1.068921673772398
 30
0.0
 10
48.98995655500023
 20
-1.207240034108146
 30
0.0
 10
48.773134110103
 20
-1.359060744478258
 30
0.0
 10
48.50275592908454
 20
-1.548381584994811
 30
0.0
 10
48.29725972733101
 20
-1.692271574536109
 30
0.0
 10
48.17131541104541
 20
-1.780458734193952
 30
0.0
  0
SPLINE
  5
C7
330
1F
100
AcDbEntity
  8
0
  6
Continuous
 62
     1
370
    25
100
AcDbSpline
210
0.0
220
0.0
230
1.0
 70
     8
 71
     3
 72
    25
 73
    21
 74
     0
 42
0.000000001
 43
0.00000001
 40
0.0
 40
0.0
 40
0.0
 40
0.0
 40
0.018359912313118
 40
0.07613368661104
 40
0.1339121254617982
 40
0.1917024582738741
 40
0.2495118710704886
 40
0.3073449003162261
 40
0.365164582863369
 40
0.4229621506586539
 40
0.4807447633819285
 40
0.538519635205709
 40
0.5962940085687327
 40
0.6540751277312961
 40
0.7118702123165151
 40
0.7696864310418329
 40
0.8275205558607898
 40
0.8853331517018959
 40
0.9431256839847187
 40
1.0
 40
1.0
 40
1.0
 40
1.0
 10
44.54210514594548
 20
-3.373076958478956
 30
0.0
 10
44.38517727310395
 20
-3.425818151290838
 30
0.0
 10
43.73443900770832
 20
-3.64452188889874
 30
0.0
 10
42.58987174964297
 20
-3.869215389939246
 30
0.0
 10
41.10825610018902
 20
-4.024204715758923
 30
0.0
 10
39.62627278621089
 20
-3.984899473820033
 30
0.0
 10
38.14373950472621
 20
-3.766780035346801
 30
0.0
 10
36.66076503408254
 20
-3.376203577414016
 30
0.0
 10
35.17801144911873
 20
-2.831834132214064
 30
0.0
 10
33.69581013614366
 20
-2.158304848696876
 30
0.0
 10
32.21406647631987
 20
-1.386473660145765
 30
0.0
 10
30.73256141815751
 20
-0.5514835917486604
 30
0.0
 10
29.25107147157478
 20
0.3086437291850049
 30
0.0
 10
27.76937438059028
 20
1.154724125039191
 30
0.0
 10
26.28724703655797
 20
1.948313486661789
 30
0.0
 10
24.80456151081048
 20
2.652865883418612
 30
0.0
 10
23.32156969604415
 20
3.237313729322226
 30
0.0
 10
21.8389623577349
 20
3.670630177374632
 30
0.0
 10
20.36464859168735
 20
3.948675520581983
 30
0.0
 10
19.38455411810129
 20
3.982043449785681
 30
0.0
 10
18.89843102635424
 20
3.998593814415683
 30
0.0
  0
SPLINE
  5
C8
330
1F
100
AcDbEntity
  8
0
  6
Continuous
 62
     1
370
    25
100
AcDbSpline
210
0.0
220
0.0
230
1.0
 70
     8
 71
     3
 72
    14
 73
    10
 74
     0
 42
0.000000001
 43
0.00000001
 40
0.0
 40
0.0
 40
0.0
 40
0.0
 40
0.158862260039474
 40
0.3176581500741531
 40
0.4764072828252056
 40
0.6351294412386532
 40
0.7938445067117658
 40
0.9525723865598745
 40
1.0
 40
1.0
 40
1.0
 40
1.0
 10
50.0
 20
0.8859061869186691
 30
0.0
 10
49.50563599118914
 20
1.160165830123428
 30
0.0
 10
48.51711451061169
 20
1.708570535424568
 30
0.0
 10
47.03474763180381
 20
2.442822465419242
 30
0.0
 10
45.55289215861052
 20
3.067539536919031
 30
0.0
 10
44.07134316712386
 20
3.555211492836831
 30
0.0
 10
42.58986708908326
 20
3.867618885762825
 30
0.0
 10
41.45465587265905
 20
4.010249497240893
 30
0.0
 10
40.81321091798509
 20
3.986352197846589
 30
0.0
 10
40.66564170763733
 20
3.980854445349877
 30
0.0
  0
SPLINE
  5
C9
330
1F
100
AcDbEntity
  8
0
  6
Continuous
 62
     1
370
    25
100
AcDbSpline
210
0.0
220
0.0
230
1.0
 70
     8
 71
     3
 72
    16
 73
    12
 74
     0
 42
0.000000001
 43
0.00000001
 40
0.0
 40
0.0
 40
0.0
 40
0.0
 40
0.0744896550188517
 40
0.1903468710558798
 40
0.3061782553186767
 40
0.4217655351177845
 40
0.5373563232526805
 40
0.6529658161060612
 40
0.7686091396686914
 40
0.8843012929238232
 40
1.0
 40
1.0
 40
1.0
 40
1.0
 10
22.79170968627643
 20
-3.366848556525043
 30
0.0
 10
22.4740710439456
 20
-3.465458717113064
 30
0.0
 10
21.66239428589363
 20
-3.717441835003696
 30
0.0
 10
20.35691543625216
 20
-3.937656678420055
 30
0.0
 10
18.87625005917766
 20
-4.031588822668958
 30
0.0
 10
17.39676305443694
 20
-3.935849136726646
 30
0.0
 10
15.91821065022884
 20
-3.663102947979331
 30
0.0
 10
14.43936880639164
 20
-3.223842249863117
 30
0.0
 10
12.96002086526791
 20
-2.637241042507648
 30
0.0
 10
11.48011941439377
 20
-1.934585287330767
 30
0.0
 10
10.49338245411065
 20
-1.398314350751497
 30
0.0
 10
10.00000000000001
 20
-1.130171287901419
 30
0.0
  0
SPLINE
  5
CA
330
1F
100
AcDbEntity
  8
0
  6
Continuous
 62
     4
370
    25
100
AcDbSpline
210
0.0
220
0.0
230
1.0
 70
    24
 71
     3
 72
    20
 73
    16
 74
     0
 42
0.000000001
 43
0.00000001
 40
0.0
 40
0.0
 40
0.0
 40
0.0
 40
0.1249999999999998
 40
0.1249999999999998
 40
0.2499999999999997
 40
0.2499999999999997
 40
0.4999999999999998
 40
0.4999999999999998
 40
0.6249999999999998
 40
0.6249999999999998
 40
0.7499999999999998
 40
0.7499999999999998
 40
0.8749999999999999
 40
0.8749999999999999
 40
1.0
 40
1.0
 40
1.0
 40
1.0
 10
9.999999999999998
 20
2.972412430736034
 30
0.0
 10
9.999999999999998
 20
2.855460713537433
 30
0.0
 10
9.999999999999998
 20
2.745909285556745
 30
0.0
 10
9.999999999999998
 20
2.495474300899642
 30
0.0
 10
9.999999999999998
 20
2.356999759863714
 30
0.0
 10
9.999999999999998
 20
1.898544723276381
 30
0.0
 10
9.999999999999998
 20
1.531962754301966
 30
0.0
 10
9.999999999999998
 20
0.9190940885238273
 30
0.0
 10
9.999999999999998
 20
0.7051184531775201
 30
0.0
 10
9.999999999999998
 20
0.2748956913185945
 30
0.0
 10
9.999999999999998
 20
0.0587681167562086
 30
0.0
 10
9.999999999999998
 20
-0.3505277023358272
 30
0.0
 10
9.999999999999998
 20
-0.543389150155821
 30
0.0
 10
9.999999999999998
 20
-0.8791642305207772
 30
0.0
 10
9.999999999999998
 20
-1.021748072956433
 30
0.0
 10
9.999999999999998
 20
-1.13017128790152
 30
0.0
  0
SPLINE
  5
CB
330
1F
100
AcDbEntity
  8
0
  6
Continuous
 62
     1
370
    25
100
AcDbSpline
210
0.0
220
0.0
230
1.0
 70
     8
 71
     3
 72
    19
 73
    15
 74
     0
 42
0.000000001
 43
0.00000001
 40
0.0
 40
0.0
 40
0.0
 40
0.0
 40
0.0886905874397594
 40
0.1773761509492327
 40
0.2660242833220761
 40
0.3546464822549301
 40
0.4432543428039572
 40
0.5318595139853171
 40
0.6206518071218677
 40
0.7094639019942299
 40
0.798306829338736
 40
0.8871828411242214
 40
0.9760313358997363
 40
0.9999999999999999
 40
0.9999999999999999
 40
0.9999999999999999
 40
0.9999999999999999
 10
9.999999999999998
 20
2.972412430736017
 30
0.0
 10
10.4933824537028
 20
2.76878903526183
 30
0.0
 10
11.48011941317026
 20
2.361553778679991
 30
0.0
 10
12.96002087016071
 20
1.607393505828807
 30
0.0
 10
14.43936878805448
 20
0.7898581479035622
 30
0.0
 10
15.91821071866154
 20
-0.0660186135374065
 30
0.0
 10
17.39676279908282
 20
-0.9181709801266519
 30
0.0
 10
18.87625101299815
 20
-1.729286479436695
 30
0.0
 10
20.35691186783356
 20
-2.462525695756274
 30
0.0
 10
21.83896157091914
 20
-3.08306058236231
 30
0.0
 10
23.32157101272217
 20
-3.566852829027315
 30
0.0
 10
24.80455703015168
 20
-3.873831410980497
 30
0.0
 10
25.92653200013504
 20
-4.012338803906502
 30
0.0
 10
26.55405415435252
 20
-3.987311204544862
 30
0.0
 10
26.68737489988267
 20
-3.981993944933711
 30
0.0
  0
SPLINE
  5
CC
330
1F
100
AcDbEntity
  8
0
  6
Continuous
 62
     1
370
    25
100
AcDbSpline
210
0.0
220
0.0
230
1.0
 70
     8
 71
     3
 72
    11
 73
     7
 74
     0
 42
0.000000001
 43
0.00000001
 40
0.0
 40
0.0
 40
0.0
 40
0.0
 40
0.0230626213475413
 40
0.3487084547119491
 40
0.6743542476955081
 40
1.0
 40
1.0
 40
1.0
 40
1.0
 10
44.54210514594548
 20
3.373076958478954
 30
0.0
 10
44.5817219798994
 20
3.387358190409607
 30
0.0
 10
45.1807312920008
 20
3.603291420326337
 30
0.0
 10
46.33913297388965
 20
3.836904475644667
 30
0.0
 10
48.01731012160373
 20
4.044910715015408
 30
0.0
 10
49.13609477893651
 20
3.972237345245697
 30
0.0
 10
49.69548707266377
 20
3.935900662630398
 30
0.0
  0
SPLINE
  5
CD
330
1F
100
AcDbEntity
  8
0
  6
Continuous
 62
     1
370
    25
100
AcDbSpline
210
0.0
220
0.0
230
1.0
 70
     8
 71
     3
 72
    18
 73
    14
 74
     0
 42
0.000000001
 43
0.00000001
 40
0.0
 40
0.0
 40
0.0
 40
0.0
 40
0.2499999999999974
 40
0.2499999999999974
 40
0.3749999999999971
 40
0.3749999999999971
 40
0.4999999999999967
 40
0.4999999999999967
 40
0.6249999999999962
 40
0.6249999999999962
 40
0.7499999999999959
 40
0.7499999999999959
 40
1.0
 40
1.0
 40
1.0
 40
1.0
 10
49.69548707266377
 20
3.935900662630403
 30
0.0
 10
49.70297875298807
 20
3.670631489969649
 30
0.0
 10
49.68247227355729
 20
3.410206251279687
 30
0.0
 10
49.59321355482393
 20
3.02968924739505
 30
0.0
 10
49.55315639020181
 20
2.90466176489082
 30
0.0
 10
49.45343788869685
 20
2.671161901843163
 30
0.0
 10
49.3928357189409
 20
2.560198376270175
 30
0.0
 10
49.25167981840417
 20
2.35808136892966
 30
0.0
 10
49.17269004411776
 20
2.268708753570051
 30
0.0
 10
48.99834265079014
 20
2.112702087671114
 30
0.0
 10
48.90245269895235
 20
2.046221189136297
 30
0.0
 10
48.6050480671385
 20
1.888787309562159
 30
0.0
 10
48.38787379522094
 20
1.835995677645666
 30
0.0
 10
48.1713154110455
 20
1.828684588954511
 30
0.0
  0
LINE
  5
CE
330
1F
100
AcDbEntity
  8
0
  6
Continuous
 62
     1
370
    25
100
AcDbLine
 10
50.0
 20
0.889346315875395
 30
0.0
 11
50.0
 21
0.9404748452664421
 31
0.0
  0
LINE
  5
CF
330
1F
100
AcDbEntity
  8
0
  6
Continuous
 62
     1
370
    25
100
AcDbLine
 10
50.0
 20
-0.5000000000000152
 30
0.0
 11
50.0
 21
0.885906186918669
 31
0.0
  0
LINE
  5
D0
330
1F
100
AcDbEntity
  8
0
  6
Continuous
 62
     1
370
    25
100
AcDbLine
 10
50.0
 20
-0.5000000000000152
 30
0.0
 11
49.69548707266377
 21
-0.7132222472031551
 31
0.0
  0
LINE
  5
D1
330
1F
100
AcDbEntity
  8
0
  6
Continuous
 62
     1
370
    25
100
AcDbLine
 10
50.0
 20
3.96862696659689
 30
0.0
 11
50.0
 21
4.000000000000004
 31
0.0
  0
ELLIPSE
  5
D2
330
1F
100
AcDbEntity
  8
0
  6
Continuous
 62
     1
370
    25
100
AcDbEllipse
 10
50.71407400337105
 20
-0.0000000000000037
 30
0.0
 11
5.712592026968444
 21
0.0
 31
0.0
210
0.0
220
0.0
230
1.0
 40
0.7002075382097123
 41
1.696124157962961
 42
1.750060474925947
  0
LINE
  5
D3
330
1F
100
AcDbEntity
  8
0
  6
Continuous
 62
     1
370
    25
100
AcDbLine
 10
50.0
 20
0.9404748452664421
 30
0.0
 11
50.0
 21
3.96862696659689
 31
0.0
  0
LINE
  5
D4
330
1F
100
AcDbEntity
  8
0
  6
Continuous
 62
     1
370
    25
100
AcDbLine
 10
50.0
 20
-0.5000000000000013
 30
0.0
 11
50.0
 21
-3.083933400934673
 31
0.0
  0
LINE
  5
D5
330
1F
100
AcDbEntity
  8
중심선
100
AcDbLine
 10
-42.99999999999999
 20
-0.0000000000000085
 30
0.0
 11
53.00000000000001
 21
0.0000000000000069
 31
0.0
  0
CIRCLE
  5
D6
330
1F
100
AcDbEntity
  8
해칭선
100
AcDbCircle
 10
-0.0000064213705585
 20
-0.0000000000000043
 30
0.0
 40
2.999999999999999
  0
INSERT
  5
D7
330
1F
100
AcDbEntity
  8
0
  6
Continuous
 62
     7
100
AcDbBlockReference
 66
     1
  2
블럭10
 10
-7.440099248941772
 20
-52.04717430164393
 30
0.0
  0
ATTRIB
  5
D8
330
D7
100
AcDbEntity
  8
FORMAT
 62
     2
100
AcDbText
 10
-23.55936028837733
 20
-49.97180738881173
 30
0.0
 40
4.233333333333333
  1
SEME7208040E [ 4 FLUTE ]
 41
0.75
  7
SLDTEXTSTYLE0
 11
-23.55936028837733
 21
-52.0884740554784
 31
0.0
100
AcDbAttribute
  2
AUTOATTR0
 70
     0
 74
     1
  0
SEQEND
  5
D9
330
D7
100
AcDbEntity
  8
0
  6
Continuous
 62
     7
  0
HATCH
  5
DA
330
1F
100
AcDbEntity
  8
중심선
100
AcDbHatch
 10
0.0
 20
0.0
 30
0.0
210
0.0
220
0.0
230
1.0
  2
SOLID
 70
     1
 71
     0
 91
        1
 92
        0
 93
        4
 72
     1
 10
-1.725189944560918
 20
-35.8
 11
-5.1714651883982
 21
-35.8
 72
     1
 10
-5.1714651883982
 20
-35.8
 11
-7.299695047602222
 21
-38.33632558057259
 72
     1
 10
-7.299695047602222
 20
-38.33632558057259
 11
-3.853386718651791
 21
-38.3362861512701
 72
     1
 10
-3.853386718651791
 20
-38.3362861512701
 11
-1.725189944560918
 21
-35.8
 97
        0
 75
     0
 76
     1
 98
        1
 10
0.0
 20
0.0
  0
HATCH
  5
DB
330
1F
100
AcDbEntity
  8
중심선
100
AcDbHatch
 10
0.0
 20
0.0
 30
0.0
210
0.0
220
0.0
230
1.0
  2
SOLID
 70
     1
 71
     0
 91
        1
 92
        0
 93
        4
 72
     1
 10
3.287574046475034
 20
-35.80000000000003
 11
-0.158701197362221
 21
-35.79999999999997
 72
     1
 10
-0.158701197362221
 20
-35.79999999999997
 11
-4.689839205719638
 21
-41.20000000000002
 72
     1
 10
-4.689839205719637
 20
-41.20000000000002
 11
-1.243563961882355
 21
-41.20000000000002
 72
     1
 10
-1.243563961882355
 20
-41.20000000000002
 11
3.287574046475033
 21
-35.80000000000003
 97
        0
 75
     0
 76
     1
 98
        1
 10
0.0
 20
0.0
  0
HATCH
  5
DC
330
1F
100
AcDbEntity
  8
중심선
100
AcDbHatch
 10
0.0
 20
0.0
 30
0.0
210
0.0
220
0.0
230
1.0
  2
SOLID
 70
     1
 71
     0
 91
        1
 92
        0
 93
        4
 72
     1
 10
8.30033803751093
 20
-35.79999999999997
 11
4.854062793673869
 21
-35.79999999999997
 72
     1
 10
4.854062793673869
 20
-35.79999999999997
 11
-2.194374108215436
 21
-44.20000000000002
 72
     1
 10
-2.194374108215436
 20
-44.20000000000002
 11
1.251901135621847
 21
-44.20000000000002
 72
     1
 10
1.251901135621847
 20
-44.20000000000002
 11
8.30033803751093
 21
-35.79999999999997
 97
        0
 75
     0
 76
     1
 98
        1
 10
0.0
 20
0.0
  0
HATCH
  5
DD
330
1F
100
AcDbEntity
  8
중심선
100
AcDbHatch
 10
0.0
 20
0.0
 30
0.0
210
0.0
220
0.0
230
1.0
  2
SOLID
 70
     1
 71
     0
 91
        1
 92
        0
 93
        6
 72
     3
 10
13.10022846852313
 20
-40.00000000005127
 11
3.960054785062284
 21
1.540850780301639E-10
 40
0.3939339440162633
 50
17.09539180608433
 51
320.0019657685087
 73
     0
 72
     1
 10
14.7832281242237
 20
-38.58789400463836
 11
17.08852999792476
 21
-36.6535672945904
 72
     3
 10
13.10022846847028
 20
-40.00000000000015
 11
6.600054785286829
 21
-1.249000902703301E-13
 40
0.6363583540795982
 50
39.9987384933739
 51
368.4976242363725
 73
     1
 72
     1
 10
19.52556096037089
 20
-39.03999999993002
 11
11.7802957753062
 21
-39.03999999993002
 72
     1
 10
11.7802957753062
 20
-39.03999999993002
 11
11.78027073086027
 21
-40.95999999992991
 72
     1
 10
11.78027073086027
 20
-40.95999999992991
 11
16.22165050033231
 21
-40.95999999992988
 97
        0
 75
     0
 76
     1
 98
        1
 10
0.0
 20
0.0
  0
DIMENSION
  5
DE
330
1F
100
AcDbEntity
  8
치수문자_일반주서
100
AcDbDimension
  2
_D
 10
62.84197552178205
 20
4.00000000000005
 30
0.0
 11
62.84197552178201
 21
13.66650000000005
 31
0.0
 70
   160
  1
%%c<>
 71
     2
 42
8.000000000000012
 52
-270.0
  3
SLDDIMSTYLE0
100
AcDbAlignedDimension
 13
50.00000000000004
 23
-4.000000000000011
 33
0.0
 14
50.00000000000004
 24
4.000000000000002
 34
0.0
 50
90.0000000000002
100
AcDbRotatedDimension
  0
DIMENSION
  5
EC
330
1F
100
AcDbEntity
  8
치수문자_일반주서
100
AcDbDimension
  2
_D_1
 10
50.0
 20
21.38913260158164
 30
0.0
 11
5.000000000000003
 21
21.38913260158164
 31
0.0
 70
   160
  1
<>
 71
     2
 42
90.0
  3
SLDDIMSTYLE1
100
AcDbAlignedDimension
 13
-40.0
 23
3.499999999999991
 33
0.0
 14
50.0
 24
4.0
 34
0.0
 50
-0.0000000000000045
100
AcDbRotatedDimension
  0
DIMENSION
  5
F7
330
1F
100
AcDbEntity
  8
치수문자_일반주서
100
AcDbDimension
  2
_D_2
 10
-49.18327021982105
 20
-4.000000000000043
 30
0.0
 11
-49.18327021982112
 21
13.66649999999996
 31
0.0
 70
   160
  1
%%c<>
 71
     2
 42
8.000000000000007
 52
-270.0
  3
SLDDIMSTYLE2
100
AcDbAlignedDimension
 13
-39.49999999999999
 23
4.0
 33
0.0
 14
-39.49999999999999
 24
-4.000000000000007
 34
0.0
 50
90.0000000000002
100
AcDbRotatedDimension
  0
DIMENSION
  5
105
330
1F
100
AcDbEntity
  8
치수문자_일반주서
100
AcDbDimension
  2
_D_3
 10
50.0
 20
14.68293704895874
 30
0.0
 11
30.0
 21
14.68293704895874
 31
0.0
 70
   160
  1
<>
 71
     2
 42
40.0
  3
SLDDIMSTYLE1
100
AcDbAlignedDimension
 13
9.999999999999998
 23
3.837018746371091
 33
0.0
 14
50.0
 24
4.0
 34
0.0
 50
-0.0000000000000051
100
AcDbRotatedDimension
  0
INSERT
  5
115
330
1F
100
AcDbEntity
  8
해칭선
100
AcDbBlockReference
  2
SW_DOWELSYMBOL_0
 10
-0.0000064213705585
 20
-0.0000000000000043
 30
0.0
  0
ENDSEC
  0
SECTION
  2
OBJECTS
  0
DICTIONARY
  5
C
330
0
100
AcDbDictionary
281
     1
  3
ACAD_GROUP
350
D
  3
ACAD_IMAGE_VARS
350
139
  3
ACAD_LAYOUT
350
1A
  3
ACAD_MLINESTYLE
350
17
  3
ACAD_PLOTSETTINGS
350
19
  3
ACAD_PLOTSTYLENAME
350
E
  3
ACAD_SCALELIST
350
47
  3
APPDATA
350
137
  3
DWGPROPS
350
149
  0
DICTIONARY
  5
D
102
{ACAD_REACTORS
330
C
102
}
330
C
100
AcDbDictionary
281
     1
  0
RASTERVARIABLES
  5
139
102
{ACAD_REACTORS
330
C
102
}
330
C
100
AcDbRasterVariables
 90
        0
 70
     1
 71
     1
 72
     1
  0
DICTIONARY
  5
1A
102
{ACAD_REACTORS
330
C
102
}
330
C
100
AcDbDictionary
281
     1
  3
Layout1
350
1E
  3
Layout2
350
26
  3
Model
350
22
  0
DICTIONARY
  5
17
102
{ACAD_REACTORS
330
C
102
}
330
C
100
AcDbDictionary
281
     1
  3
Standard
350
18
  0
DICTIONARY
  5
19
102
{ACAD_REACTORS
330
C
102
}
330
C
100
AcDbDictionary
281
     1
  0
ACDBDICTIONARYWDFLT
  5
E
102
{ACAD_REACTORS
330
C
102
}
330
C
100
AcDbDictionary
281
     1
  3
Normal
350
F
100
AcDbDictionaryWithDefault
340
F
  0
DICTIONARY
  5
47
102
{ACAD_REACTORS
330
C
102
}
330
C
100
AcDbDictionary
281
     1
  3
A0
350
48
  3
A1
350
49
  3
A2
350
4A
  3
A3
350
4B
  3
A4
350
4C
  3
A5
350
4D
  3
A6
350
4E
  3
A7
350
4F
  3
A8
350
50
  3
A9
350
51
  3
B0
350
52
  3
B1
350
53
  3
B2
350
54
  3
B3
350
55
  3
B4
350
56
  3
B5
350
57
  3
B6
350
58
  3
B7
350
59
  3
B8
350
5A
  3
B9
350
5B
  3
C0
350
5C
  3
C1
350
5D
  3
C2
350
5E
  3
C3
350
5F
  3
C4
350
60
  3
C5
350
61
  3
C6
350
62
  3
C7
350
63
  3
C8
350
64
  3
C9
350
65
  3
D0
350
66
  3
D1
350
67
  3
D2
350
68
  0
DICTIONARY
  5
137
102
{ACAD_REACTORS
330
C
102
}
330
C
100
AcDbDictionary
281
     1
  0
XRECORD
  5
149
102
{ACAD_REACTORS
330
C
102
}
330
C
100
AcDbXrecord
280
     1
  1
DWGPROPS COOKIE
  2

  3

  4

  6

  7

  8
12014102
  9

300
=
301
=
302
=
303
=
304
=
305
=
306
=
307
=
308
=
309
=
 40
0.0
 41
2458260.20183537
 42
2458268.20237632
  1

 90
        0
  0
LAYOUT
  5
1E
102
{ACAD_REACTORS
330
1A
102
}
330
1A
100
AcDbPlotSettings
  1

  2
none_device
  4

  6

 40
0.0
 41
0.0
 42
0.0
 43
0.0
 44
0.0
 45
0.0
 46
0.0
 47
0.0
 48
0.0
 49
0.0
140
0.0
141
0.0
142
1.0
143
1.0
 70
   688
 72
     1
 73
     0
 74
     5
  7

 75
    16
147
1.0
148
0.0
149
0.0
100
AcDbLayout
  1
Layout1
 70
     1
 71
     1
 10
0.0
 20
0.0
 11
420.0
 21
297.0
 12
0.0
 22
0.0
 32
0.0
 14
1.000000000000000E+20
 24
1.000000000000000E+20
 34
1.000000000000000E+20
 15
-1.000000000000000E+20
 25
-1.000000000000000E+20
 35
-1.000000000000000E+20
146
0.0
 13
0.0
 23
0.0
 33
0.0
 16
1.0
 26
0.0
 36
0.0
 17
0.0
 27
1.0
 37
0.0
 76
     0
330
1B
  0
LAYOUT
  5
26
102
{ACAD_REACTORS
330
1A
102
}
330
1A
100
AcDbPlotSettings
  1

  2
none_device
  4

  6

 40
0.0
 41
0.0
 42
0.0
 43
0.0
 44
0.0
 45
0.0
 46
0.0
 47
0.0
 48
0.0
 49
0.0
140
0.0
141
0.0
142
1.0
143
1.0
 70
   688
 72
     1
 73
     0
 74
     5
  7

 75
    16
147
1.0
148
0.0
149
0.0
100
AcDbLayout
  1
Layout2
 70
     1
 71
     2
 10
0.0
 20
0.0
 11
0.0
 21
0.0
 12
0.0
 22
0.0
 32
0.0
 14
0.0
 24
0.0
 34
0.0
 15
0.0
 25
0.0
 35
0.0
146
0.0
 13
0.0
 23
0.0
 33
0.0
 16
1.0
 26
0.0
 36
0.0
 17
0.0
 27
1.0
 37
0.0
 76
     0
330
23
  0
LAYOUT
  5
22
102
{ACAD_REACTORS
330
1A
102
}
330
1A
100
AcDbPlotSettings
  1

  2
none_device
  4
ANSI_A_(11.00_x_8.50_Inches)
  6

 40
6.35
 41
19.05
 42
6.35000508
 43
19.05000254
 44
279.4
 45
215.9
 46
120.3381455628447
 47
116.385992058861
 48
0.0
 49
0.0
140
0.0
141
0.0
142
0.0872157908483446
143
1.0
 70
  1696
 72
     0
 73
     0
 74
     0
  7

 75
     0
147
0.0235690232323232
148
0.0
149
0.0
100
AcDbLayout
  1
Model
 70
     1
 71
     0
 10
0.0
 20
0.0
 11
420.0
 21
297.0
 12
0.0
 22
0.0
 32
0.0
 14
-53.55827021982113
 24
-49.97180738881173
 34
0.0
 15
63.39230885511542
 25
25.76413260158164
 35
0.0
146
0.0
 13
0.0
 23
0.0
 33
0.0
 16
1.0
 26
0.0
 36
0.0
 17
0.0
 27
1.0
 37
0.0
 76
     0
330
1F
331
29
  0
MLINESTYLE
  5
18
102
{ACAD_REACTORS
330
17
102
}
330
17
100
AcDbMlineStyle
  2
Standard
 70
     0
  3

 62
   256
 51
90.0
 52
90.0
 71
     2
 49
0.5
 62
   256
  6
BYLAYER
 49
-0.5
 62
   256
  6
BYLAYER
  0
ACDBPLACEHOLDER
  5
F
102
{ACAD_REACTORS
330
E
102
}
330
E
  0
SCALE
  5
48
102
{ACAD_REACTORS
330
47
102
}
330
47
100
AcDbScale
 70
     0
300
1:1
140
1.0
141
1.0
290
     1
  0
SCALE
  5
49
102
{ACAD_REACTORS
330
47
102
}
330
47
100
AcDbScale
 70
     0
300
1:2
140
1.0
141
2.0
290
     0
  0
SCALE
  5
4A
102
{ACAD_REACTORS
330
47
102
}
330
47
100
AcDbScale
 70
     0
300
1:4
140
1.0
141
4.0
290
     0
  0
SCALE
  5
4B
102
{ACAD_REACTORS
330
47
102
}
330
47
100
AcDbScale
 70
     0
300
1:5
140
1.0
141
5.0
290
     0
  0
SCALE
  5
4C
102
{ACAD_REACTORS
330
47
102
}
330
47
100
AcDbScale
 70
     0
300
1:8
140
1.0
141
8.0
290
     0
  0
SCALE
  5
4D
102
{ACAD_REACTORS
330
47
102
}
330
47
100
AcDbScale
 70
     0
300
1:10
140
1.0
141
10.0
290
     0
  0
SCALE
  5
4E
102
{ACAD_REACTORS
330
47
102
}
330
47
100
AcDbScale
 70
     0
300
1:16
140
1.0
141
16.0
290
     0
  0
SCALE
  5
4F
102
{ACAD_REACTORS
330
47
102
}
330
47
100
AcDbScale
 70
     0
300
1:20
140
1.0
141
20.0
290
     0
  0
SCALE
  5
50
102
{ACAD_REACTORS
330
47
102
}
330
47
100
AcDbScale
 70
     0
300
1:30
140
1.0
141
30.0
290
     0
  0
SCALE
  5
51
102
{ACAD_REACTORS
330
47
102
}
330
47
100
AcDbScale
 70
     0
300
1:40
140
1.0
141
40.0
290
     0
  0
SCALE
  5
52
102
{ACAD_REACTORS
330
47
102
}
330
47
100
AcDbScale
 70
     0
300
1:50
140
1.0
141
50.0
290
     0
  0
SCALE
  5
53
102
{ACAD_REACTORS
330
47
102
}
330
47
100
AcDbScale
 70
     0
300
1:100
140
1.0
141
100.0
290
     0
  0
SCALE
  5
54
102
{ACAD_REACTORS
330
47
102
}
330
47
100
AcDbScale
 70
     0
300
2:1
140
2.0
141
1.0
290
     0
  0
SCALE
  5
55
102
{ACAD_REACTORS
330
47
102
}
330
47
100
AcDbScale
 70
     0
300
4:1
140
4.0
141
1.0
290
     0
  0
SCALE
  5
56
102
{ACAD_REACTORS
330
47
102
}
330
47
100
AcDbScale
 70
     0
300
8:1
140
8.0
141
1.0
290
     0
  0
SCALE
  5
57
102
{ACAD_REACTORS
330
47
102
}
330
47
100
AcDbScale
 70
     0
300
10:1
140
10.0
141
1.0
290
     0
  0
SCALE
  5
58
102
{ACAD_REACTORS
330
47
102
}
330
47
100
AcDbScale
 70
     0
300
100:1
140
100.0
141
1.0
290
     0
  0
SCALE
  5
59
102
{ACAD_REACTORS
330
47
102
}
330
47
100
AcDbScale
 70
     0
300
1/128" = 1'-0"
140
0.0078125
141
12.0
290
     0
  0
SCALE
  5
5A
102
{ACAD_REACTORS
330
47
102
}
330
47
100
AcDbScale
 70
     0
300
1/64" = 1'-0"
140
0.015625
141
12.0
290
     0
  0
SCALE
  5
5B
102
{ACAD_REACTORS
330
47
102
}
330
47
100
AcDbScale
 70
     0
300
1/32" = 1'-0"
140
0.03125
141
12.0
290
     0
  0
SCALE
  5
5C
102
{ACAD_REACTORS
330
47
102
}
330
47
100
AcDbScale
 70
     0
300
1/16" = 1'-0"
140
0.0625
141
12.0
290
     0
  0
SCALE
  5
5D
102
{ACAD_REACTORS
330
47
102
}
330
47
100
AcDbScale
 70
     0
300
3/32" = 1'-0"
140
0.09375
141
12.0
290
     0
  0
SCALE
  5
5E
102
{ACAD_REACTORS
330
47
102
}
330
47
100
AcDbScale
 70
     0
300
1/8" = 1'-0"
140
0.125
141
12.0
290
     0
  0
SCALE
  5
5F
102
{ACAD_REACTORS
330
47
102
}
330
47
100
AcDbScale
 70
     0
300
3/16" = 1'-0"
140
0.1875
141
12.0
290
     0
  0
SCALE
  5
60
102
{ACAD_REACTORS
330
47
102
}
330
47
100
AcDbScale
 70
     0
300
1/4" = 1'-0"
140
0.25
141
12.0
290
     0
  0
SCALE
  5
61
102
{ACAD_REACTORS
330
47
102
}
330
47
100
AcDbScale
 70
     0
300
3/8" = 1'-0"
140
0.375
141
12.0
290
     0
  0
SCALE
  5
62
102
{ACAD_REACTORS
330
47
102
}
330
47
100
AcDbScale
 70
     0
300
1/2" = 1'-0"
140
0.5
141
12.0
290
     0
  0
SCALE
  5
63
102
{ACAD_REACTORS
330
47
102
}
330
47
100
AcDbScale
 70
     0
300
3/4" = 1'-0"
140
0.75
141
12.0
290
     0
  0
SCALE
  5
64
102
{ACAD_REACTORS
330
47
102
}
330
47
100
AcDbScale
 70
     0
300
1" = 1'-0"
140
1.0
141
12.0
290
     0
  0
SCALE
  5
65
102
{ACAD_REACTORS
330
47
102
}
330
47
100
AcDbScale
 70
     0
300
1-1/2" = 1'-0"
140
1.5
141
12.0
290
     0
  0
SCALE
  5
66
102
{ACAD_REACTORS
330
47
102
}
330
47
100
AcDbScale
 70
     0
300
3" = 1'-0"
140
3.0
141
12.0
290
     0
  0
SCALE
  5
67
102
{ACAD_REACTORS
330
47
102
}
330
47
100
AcDbScale
 70
     0
300
6" = 1'-0"
140
6.0
141
12.0
290
     0
  0
SCALE
  5
68
102
{ACAD_REACTORS
330
47
102
}
330
47
100
AcDbScale
 70
     0
300
1'-0" = 1'-0"
140
12.0
141
12.0
290
     0
  0
ENDSEC
  0
EOF
