  0
SECTION
  2
HEADER
  9
$ACADVER
  1
AC1015
  9
$ACADMAINTVER
 70
     6
  9
$DWGCODEPAGE
  3
ANSI_949
  9
$INSBASE
 10
0.0
 20
0.0
 30
0.0
  9
$EXTMIN
 10
-117.1370020792682
 20
-49.97180738881174
 30
0.0
  9
$EXTMAX
 10
63.4334756653147
 20
25.76413260158163
 30
0.0
  9
$LIMMIN
 10
0.0
 20
0.0
  9
$LIMMAX
 10
420.0
 20
297.0
  9
$ORTHOMODE
 70
     0
  9
$REGENMODE
 70
     1
  9
$FILLMODE
 70
     1
  9
$QTEXTMODE
 70
     0
  9
$MIRRTEXT
 70
     1
  9
$LTSCALE
 40
1.0
  9
$ATTMODE
 70
     1
  9
$TEXTSIZE
 40
3.5
  9
$TRACEWID
 40
1.0
  9
$TEXTSTYLE
  7
Standard
  9
$CLAYER
  8
0
  9
$CELTYPE
  6
ByLayer
  9
$CECOLOR
 62
   256
  9
$CELTSCALE
 40
1.0
  9
$DISPSILH
 70
     0
  9
$DIMSCALE
 40
1.0
  9
$DIMASZ
 40
3.302
  9
$DIMEXO
 40
1.0
  9
$DIMDLI
 40
3.75
  9
$DIMRND
 40
0.0
  9
$DIMDLE
 40
0.0
  9
$DIMEXE
 40
1.0
  9
$DIMTP
 40
0.0
  9
$DIMTM
 40
0.0
  9
$DIMTXT
 40
3.5
  9
$DIMCEN
 40
2.5
  9
$DIMTSZ
 40
0.0
  9
$DIMTOL
 70
     0
  9
$DIMLIM
 70
     0
  9
$DIMTIH
 70
     1
  9
$DIMTOH
 70
     1
  9
$DIMSE1
 70
     0
  9
$DIMSE2
 70
     0
  9
$DIMTAD
 70
     1
  9
$DIMZIN
 70
     0
  9
$DIMBLK
  1

  9
$DIMASO
 70
     1
  9
$DIMSHO
 70
     1
  9
$DIMPOST
  1

  9
$DIMAPOST
  1

  9
$DIMALT
 70
     0
  9
$DIMALTD
 70
     3
  9
$DIMALTF
 40
0.0393700787401575
  9
$DIMLFAC
 40
1.0
  9
$DIMTOFL
 70
     1
  9
$DIMTVP
 40
0.0
  9
$DIMTIX
 70
     0
  9
$DIMSOXD
 70
     0
  9
$DIMSAH
 70
     0
  9
$DIMBLK1
  1

  9
$DIMBLK2
  1

  9
$DIMSTYLE
  2
ISO-25
  9
$DIMCLRD
 70
     0
  9
$DIMCLRE
 70
     0
  9
$DIMCLRT
 70
     0
  9
$DIMTFAC
 40
1.0
  9
$DIMGAP
 40
1.524
  9
$DIMJUST
 70
     0
  9
$DIMSD1
 70
     0
  9
$DIMSD2
 70
     0
  9
$DIMTOLJ
 70
     0
  9
$DIMTZIN
 70
     0
  9
$DIMALTZ
 70
     0
  9
$DIMALTTZ
 70
     0
  9
$DIMUPT
 70
     0
  9
$DIMDEC
 70
     2
  9
$DIMTDEC
 70
     2
  9
$DIMALTU
 70
     2
  9
$DIMALTTD
 70
     3
  9
$DIMTXSTY
  7
Standard
  9
$DIMAUNIT
 70
     0
  9
$DIMADEC
 70
     2
  9
$DIMALTRND
 40
0.0
  9
$DIMAZIN
 70
     0
  9
$DIMDSEP
 70
    44
  9
$DIMATFIT
 70
     3
  9
$DIMFRAC
 70
     0
  9
$DIMLDRBLK
  1

  9
$DIMLUNIT
 70
     2
  9
$DIMLWD
 70
    -2
  9
$DIMLWE
 70
    -2
  9
$DIMTMOVE
 70
     0
  9
$LUNITS
 70
     2
  9
$LUPREC
 70
     2
  9
$SKETCHINC
 40
1.0
  9
$FILLETRAD
 40
10.0
  9
$AUNITS
 70
     0
  9
$AUPREC
 70
     2
  9
$MENU
  1
.
  9
$ELEVATION
 40
0.0
  9
$PELEVATION
 40
0.0
  9
$THICKNESS
 40
0.0
  9
$LIMCHECK
 70
     0
  9
$CHAMFERA
 40
0.0
  9
$CHAMFERB
 40
0.0
  9
$CHAMFERC
 40
0.0
  9
$CHAMFERD
 40
0.0
  9
$SKPOLY
 70
     0
  9
$TDCREATE
 40
2458260.576646504
  9
$TDUCREATE
 40
2458260.201646504
  9
$TDUPDATE
 40
2458268.625684641
  9
$TDUUPDATE
 40
2458268.250684641
  9
$TDINDWG
 40
0.0004262269
  9
$TDUSRTIMER
 40
2458268.250258461
  9
$USRTIMER
 70
     1
  9
$ANGBASE
 50
0.0
  9
$ANGDIR
 70
     0
  9
$PDMODE
 70
     0
  9
$PDSIZE
 40
-1.0
  9
$PLINEWID
 40
0.0
  9
$SPLFRAME
 70
     0
  9
$SPLINETYPE
 70
     6
  9
$SPLINESEGS
 70
     8
  9
$HANDSEED
  5
14C
  9
$SURFTAB1
 70
     6
  9
$SURFTAB2
 70
     6
  9
$SURFTYPE
 70
     6
  9
$SURFU
 70
     6
  9
$SURFV
 70
     6
  9
$UCSBASE
  2

  9
$UCSNAME
  2

  9
$UCSORG
 10
0.0
 20
0.0
 30
0.0
  9
$UCSXDIR
 10
1.0
 20
0.0
 30
0.0
  9
$UCSYDIR
 10
0.0
 20
1.0
 30
0.0
  9
$UCSORTHOREF
  2

  9
$UCSORTHOVIEW
 70
     0
  9
$UCSORGTOP
 10
0.0
 20
0.0
 30
0.0
  9
$UCSORGBOTTOM
 10
0.0
 20
0.0
 30
0.0
  9
$UCSORGLEFT
 10
0.0
 20
0.0
 30
0.0
  9
$UCSORGRIGHT
 10
0.0
 20
0.0
 30
0.0
  9
$UCSORGFRONT
 10
0.0
 20
0.0
 30
0.0
  9
$UCSORGBACK
 10
0.0
 20
0.0
 30
0.0
  9
$PUCSBASE
  2

  9
$PUCSNAME
  2

  9
$PUCSORG
 10
0.0
 20
0.0
 30
0.0
  9
$PUCSXDIR
 10
1.0
 20
0.0
 30
0.0
  9
$PUCSYDIR
 10
0.0
 20
1.0
 30
0.0
  9
$PUCSORTHOREF
  2

  9
$PUCSORTHOVIEW
 70
     0
  9
$PUCSORGTOP
 10
0.0
 20
0.0
 30
0.0
  9
$PUCSORGBOTTOM
 10
0.0
 20
0.0
 30
0.0
  9
$PUCSORGLEFT
 10
0.0
 20
0.0
 30
0.0
  9
$PUCSORGRIGHT
 10
0.0
 20
0.0
 30
0.0
  9
$PUCSORGFRONT
 10
0.0
 20
0.0
 30
0.0
  9
$PUCSORGBACK
 10
0.0
 20
0.0
 30
0.0
  9
$USERI1
 70
     0
  9
$USERI2
 70
     0
  9
$USERI3
 70
     0
  9
$USERI4
 70
     0
  9
$USERI5
 70
     0
  9
$USERR1
 40
0.0
  9
$USERR2
 40
0.0
  9
$USERR3
 40
0.0
  9
$USERR4
 40
0.0
  9
$USERR5
 40
0.0
  9
$WORLDVIEW
 70
     1
  9
$SHADEDGE
 70
     3
  9
$SHADEDIF
 70
    70
  9
$TILEMODE
 70
     1
  9
$MAXACTVP
 70
    64
  9
$PINSBASE
 10
0.0
 20
0.0
 30
0.0
  9
$PLIMCHECK
 70
     0
  9
$PEXTMIN
 10
1.000000000000000E+20
 20
1.000000000000000E+20
 30
1.000000000000000E+20
  9
$PEXTMAX
 10
-1.000000000000000E+20
 20
-1.000000000000000E+20
 30
-1.000000000000000E+20
  9
$PLIMMIN
 10
0.0
 20
0.0
  9
$PLIMMAX
 10
0.0
 20
0.0
  9
$UNITMODE
 70
     0
  9
$VISRETAIN
 70
     1
  9
$PLINEGEN
 70
     0
  9
$PSLTSCALE
 70
     1
  9
$TREEDEPTH
 70
  3020
  9
$CMLSTYLE
  2
Standard
  9
$CMLJUST
 70
     0
  9
$CMLSCALE
 40
20.0
  9
$PROXYGRAPHICS
 70
     1
  9
$MEASUREMENT
 70
     1
  9
$CELWEIGHT
370
    -1
  9
$ENDCAPS
280
     0
  9
$JOINSTYLE
280
     0
  9
$LWDISPLAY
290
     1
  9
$INSUNITS
 70
     4
  9
$HYPERLINKBASE
  1

  9
$STYLESHEET
  1

  9
$XEDIT
290
     1
  9
$CEPSNTYPE
380
     0
  9
$PSTYLEMODE
290
     1
  9
$FINGERPRINTGUID
  2
{035AE04B-D7DF-4B37-90F8-BB3A5DC78503}
  9
$VERSIONGUID
  2
{FAEB1C32-E019-11D5-929B-00C0DF256EC4}
  9
$EXTNAMES
290
     1
  9
$PSVPSCALE
 40
0.0
  9
$OLESTARTUP
290
     0
  0
ENDSEC
  0
SECTION
  2
CLASSES
  0
CLASS
  1
ACDBDICTIONARYWDFLT
  2
AcDbDictionaryWithDefault
  3
ObjectDBX Classes
 90
        0
280
     0
281
     0
  0
CLASS
  1
VISUALSTYLE
  2
AcDbVisualStyle
  3
ObjectDBX Classes
 90
     4095
280
     0
281
     0
  0
CLASS
  1
MATERIAL
  2
AcDbMaterial
  3
ObjectDBX Classes
 90
     1153
280
     0
281
     0
  0
CLASS
  1
SCALE
  2
AcDbScale
  3
ObjectDBX Classes
 90
     1153
280
     0
281
     0
  0
CLASS
  1
TABLESTYLE
  2
AcDbTableStyle
  3
ObjectDBX Classes
 90
     4095
280
     0
281
     0
  0
CLASS
  1
MLEADERSTYLE
  2
AcDbMLeaderStyle
  3
ACDB_MLEADERSTYLE_CLASS
 90
     4095
280
     0
281
     0
  0
CLASS
  1
SUN
  2
AcDbSun
  3
SCENEOE
 90
     1153
280
     0
281
     0
  0
CLASS
  1
ACDBPLACEHOLDER
  2
AcDbPlaceHolder
  3
ObjectDBX Classes
 90
        0
280
     0
281
     0
  0
CLASS
  1
LAYOUT
  2
AcDbLayout
  3
ObjectDBX Classes
 90
        0
280
     0
281
     0
  0
CLASS
  1
RASTERVARIABLES
  2
AcDbRasterVariables
  3
ISM
 90
        0
280
     0
281
     0
  0
ENDSEC
  0
SECTION
  2
TABLES
  0
TABLE
  2
VPORT
  5
8
330
0
100
AcDbSymbolTable
 70
     1
  0
VPORT
  5
29
330
8
100
AcDbSymbolTableRecord
100
AcDbViewportTableRecord
  2
*Active
 70
     0
 10
0.0
 20
0.0
 11
1.0
 21
1.0
 12
-26.85176320697673
 22
-12.10383739361505
 13
0.0
 23
0.0
 14
10.0
 24
10.0
 15
10.0
 25
10.0
 16
0.0
 26
0.0
 36
1.0
 17
0.0
 27
0.0
 37
0.0
 40
106.0690333108581
 41
1.736434108527132
 42
50.0
 43
0.0
 44
0.0
 50
0.0
 51
0.0
 71
    16
 72
  2000
 73
     1
 74
     3
 75
     0
 76
     0
 77
     0
 78
     0
281
     0
 65
     1
110
0.0
120
0.0
130
0.0
111
1.0
121
0.0
131
0.0
112
0.0
122
1.0
132
0.0
 79
     0
146
0.0
  0
ENDTAB
  0
TABLE
  2
LTYPE
  5
5
330
0
100
AcDbSymbolTable
 70
     6
  0
LTYPE
  5
14
330
5
100
AcDbSymbolTableRecord
100
AcDbLinetypeTableRecord
  2
ByBlock
 70
     0
  3

 72
    65
 73
     0
 40
0.0
  0
LTYPE
  5
15
330
5
100
AcDbSymbolTableRecord
100
AcDbLinetypeTableRecord
  2
ByLayer
 70
     0
  3

 72
    65
 73
     0
 40
0.0
  0
LTYPE
  5
16
330
5
100
AcDbSymbolTableRecord
100
AcDbLinetypeTableRecord
  2
Continuous
 70
     0
  3
Solid line
 72
    65
 73
     0
 40
0.0
  0
LTYPE
  5
6E
330
5
100
AcDbSymbolTableRecord
100
AcDbLinetypeTableRecord
  2
HIDDEN
 70
     0
  3
Hidden __ __ __ __ __ __ __ __ __ __ __ __ __ __
 72
    65
 73
     2
 40
1.905
 49
1.27
 74
     0
 49
-0.635
 74
     0
  0
LTYPE
  5
6F
330
5
100
AcDbSymbolTableRecord
100
AcDbLinetypeTableRecord
  2
PHANTOM
 70
     0
  3
Phantom ______  __  __  ______  __  __  ______
 72
    65
 73
     6
 40
12.7
 49
6.35
 74
     0
 49
-1.27
 74
     0
 49
1.27
 74
     0
 49
-1.27
 74
     0
 49
1.27
 74
     0
 49
-1.27
 74
     0
  0
LTYPE
  5
70
330
5
100
AcDbSymbolTableRecord
100
AcDbLinetypeTableRecord
  2
CENTER
 70
     0
  3
Center ____ _ ____ _ ____ _ ____ _ ____ _ ____
 72
    65
 73
     4
 40
10.16
 49
6.35
 74
     0
 49
-1.27
 74
     0
 49
1.27
 74
     0
 49
-1.27
 74
     0
  0
LTYPE
  5
71
330
5
100
AcDbSymbolTableRecord
100
AcDbLinetypeTableRecord
  2
CENTERX2
 70
     0
  3
Center (2x) ________  __  ________  __  _____
 72
    65
 73
     4
 40
20.32
 49
12.7
 74
     0
 49
-2.54
 74
     0
 49
2.54
 74
     0
 49
-2.54
 74
     0
  0
LTYPE
  5
72
330
5
100
AcDbSymbolTableRecord
100
AcDbLinetypeTableRecord
  2
DOT2
 70
     0
  3
Dot (.5x) ........................................
 72
    65
 73
     2
 40
0.635
 49
0.0
 74
     0
 49
-0.635
 74
     0
  0
ENDTAB
  0
TABLE
  2
LAYER
  5
2
330
0
100
AcDbSymbolTable
 70
    17
  0
LAYER
  5
10
330
2
100
AcDbSymbolTableRecord
100
AcDbLayerTableRecord
  2
0
 70
     0
 62
     7
  6
Continuous
370
    -3
390
F
  0
LAYER
  5
73
330
2
100
AcDbSymbolTableRecord
100
AcDbLayerTableRecord
  2
FORMAT
 70
     0
 62
     2
  6
Continuous
370
    -3
390
F
  0
LAYER
  5
74
330
2
100
AcDbSymbolTableRecord
100
AcDbLayerTableRecord
  2
외형선
 70
     0
 62
   100
  6
Continuous
370
    35
390
F
  0
LAYER
  5
75
330
2
100
AcDbSymbolTableRecord
100
AcDbLayerTableRecord
  2
숨은선
 70
     0
 62
     2
  6
HIDDEN
370
    25
390
F
  0
LAYER
  5
76
330
2
100
AcDbSymbolTableRecord
100
AcDbLayerTableRecord
  2
중심선
 70
     0
 62
     1
  6
CENTERX2
370
    -3
390
F
  0
LAYER
  5
77
330
2
100
AcDbSymbolTableRecord
100
AcDbLayerTableRecord
  2
파단선
 70
     0
 62
     4
  6
Continuous
370
    -3
390
F
  0
LAYER
  5
78
330
2
100
AcDbSymbolTableRecord
100
AcDbLayerTableRecord
  2
해칭선
 70
     0
 62
   100
  6
Continuous
370
    -3
390
F
  0
LAYER
  5
79
330
2
100
AcDbSymbolTableRecord
100
AcDbLayerTableRecord
  2
가는실선
 70
     0
 62
     4
  6
Continuous
370
    -3
390
F
  0
LAYER
  5
7A
330
2
100
AcDbSymbolTableRecord
100
AcDbLayerTableRecord
  2
치수_보조선
 70
     0
 62
     4
  6
Continuous
370
    -3
390
F
  0
LAYER
  5
7B
330
2
100
AcDbSymbolTableRecord
100
AcDbLayerTableRecord
  2
치수문자_일반주서
 70
     0
 62
     7
  6
Continuous
370
    25
390
F
  0
LAYER
  5
7C
330
2
100
AcDbSymbolTableRecord
100
AcDbLayerTableRecord
  2
개별주서
 70
     0
 62
   100
  6
Continuous
370
    35
390
F
  0
LAYER
  5
7D
330
2
100
AcDbSymbolTableRecord
100
AcDbLayerTableRecord
  2
중간선
 70
     0
 62
     2
  6
Continuous
370
    25
390
F
  0
LAYER
  5
7E
330
2
100
AcDbSymbolTableRecord
100
AcDbLayerTableRecord
  2
윤곽선
 70
     0
 62
     3
  6
Continuous
370
    50
390
F
  0
LAYER
  5
7F
330
2
100
AcDbSymbolTableRecord
100
AcDbLayerTableRecord
  2
중심마크
 70
     0
 62
   100
  6
Continuous
370
    35
390
F
  0
LAYER
  5
80
330
2
100
AcDbSymbolTableRecord
100
AcDbLayerTableRecord
  2
가상선
 70
     0
 62
     4
  6
PHANTOM
370
    -3
390
F
  0
LAYER
  5
81
330
2
100
AcDbSymbolTableRecord
100
AcDbLayerTableRecord
  2
특수지정선
 70
     0
 62
     5
  6
CENTERX2
370
    70
390
F
  0
LAYER
  5
13C
330
2
100
AcDbSymbolTableRecord
100
AcDbLayerTableRecord
  2
Defpoints
 70
     0
 62
     7
  6
Continuous
290
     0
370
    -3
390
F
  0
ENDTAB
  0
TABLE
  2
STYLE
  5
3
330
0
100
AcDbSymbolTable
 70
     2
  0
STYLE
  5
11
330
3
100
AcDbSymbolTableRecord
100
AcDbTextStyleTableRecord
  2
Standard
 70
     0
 40
0.0
 41
1.0
 50
0.0
 71
     0
 42
3.5
  3
txt
  4

  0
STYLE
  5
97
330
3
100
AcDbSymbolTableRecord
100
AcDbTextStyleTableRecord
  2
SLDTEXTSTYLE0
 70
     0
 40
0.0
 41
0.75
 50
0.0
 71
     0
 42
3.5
  3
TXT
  4

  0
ENDTAB
  0
TABLE
  2
VIEW
  5
6
330
0
100
AcDbSymbolTable
 70
     0
  0
ENDTAB
  0
TABLE
  2
UCS
  5
7
330
0
100
AcDbSymbolTable
 70
     0
  0
ENDTAB
  0
TABLE
  2
APPID
  5
9
330
0
100
AcDbSymbolTable
 70
     1
  0
APPID
  5
12
330
9
100
AcDbSymbolTableRecord
100
AcDbRegAppTableRecord
  2
ACAD
 70
     0
  0
ENDTAB
  0
TABLE
  2
DIMSTYLE
  5
A
330
0
100
AcDbSymbolTable
 70
     4
100
AcDbDimStyleTable
  0
DIMSTYLE
105
27
330
A
100
AcDbSymbolTableRecord
100
AcDbDimStyleTableRecord
  2
ISO-25
 70
     0
 41
2.5
 42
0.625
 43
3.75
 44
1.25
 73
     0
 74
     0
 77
     1
 78
     8
140
2.5
141
2.5
143
0.03937007874016
147
0.625
171
     3
172
     1
178
     0
271
     2
272
     2
274
     3
278
    44
283
     0
284
     8
340
11
  0
DIMSTYLE
105
E1
102
{ACAD_REACTORS
330
E0
102
}
330
A
100
AcDbSymbolTableRecord
100
AcDbDimStyleTableRecord
  2
SLDDIMSTYLE0
 70
     0
 41
3.302
 44
0.0
 45
0.000000001
 73
     0
 74
     0
 77
     1
 78
    12
 79
     3
140
3.5
147
0.875
172
     1
173
     1
178
     0
271
     1
272
     1
276
     2
284
    12
289
     0
340
97
  0
DIMSTYLE
105
EF
102
{ACAD_REACTORS
330
EE
330
107
102
}
330
A
100
AcDbSymbolTableRecord
100
AcDbDimStyleTableRecord
  2
SLDDIMSTYLE1
 70
     0
 41
3.302
 44
0.0
 45
0.000000001
 73
     0
 74
     0
 77
     1
 78
    12
 79
     3
140
3.5
147
0.875
173
     1
178
     0
271
     2
272
     2
276
     2
284
    12
340
97
  0
DIMSTYLE
105
FA
102
{ACAD_REACTORS
330
F9
102
}
330
A
100
AcDbSymbolTableRecord
100
AcDbDimStyleTableRecord
  2
SLDDIMSTYLE2
 70
     0
 41
3.302
 44
0.0
 45
0.000000001
 73
     0
 74
     0
 77
     1
 78
    12
 79
     3
140
3.5
147
0.875
172
     1
173
     1
178
     0
271
     2
272
     2
276
     2
284
    12
289
     0
340
97
  0
ENDTAB
  0
TABLE
  2
BLOCK_RECORD
  5
1
330
0
100
AcDbSymbolTable
 70
     7
  0
BLOCK_RECORD
  5
1F
330
1
100
AcDbSymbolTableRecord
100
AcDbBlockTableRecord
  2
*Model_Space
340
22
  0
BLOCK_RECORD
  5
1B
330
1
100
AcDbSymbolTableRecord
100
AcDbBlockTableRecord
  2
*Paper_Space
340
1E
  0
BLOCK_RECORD
  5
23
330
1
100
AcDbSymbolTableRecord
100
AcDbBlockTableRecord
  2
*Paper_Space0
340
26
  0
BLOCK_RECORD
  5
82
330
1
100
AcDbSymbolTableRecord
100
AcDbBlockTableRecord
  2
블럭10
340
0
102
{BLKREFS
331
D9
102
}
  0
BLOCK_RECORD
  5
E2
330
1
100
AcDbSymbolTableRecord
100
AcDbBlockTableRecord
  2
_D
340
0
  0
BLOCK_RECORD
  5
F0
330
1
100
AcDbSymbolTableRecord
100
AcDbBlockTableRecord
  2
_D_1
340
0
  0
BLOCK_RECORD
  5
FB
330
1
100
AcDbSymbolTableRecord
100
AcDbBlockTableRecord
  2
_D_2
340
0
  0
BLOCK_RECORD
  5
108
330
1
100
AcDbSymbolTableRecord
100
AcDbBlockTableRecord
  2
_D_3
340
0
  0
BLOCK_RECORD
  5
111
330
1
100
AcDbSymbolTableRecord
100
AcDbBlockTableRecord
  2
SW_DOWELSYMBOL_0
340
0
102
{BLKREFS
331
117
102
}
  0
ENDTAB
  0
ENDSEC
  0
SECTION
  2
BLOCKS
  0
BLOCK
  5
20
330
1F
100
AcDbEntity
  8
0
100
AcDbBlockBegin
  2
*Model_Space
 70
     0
 10
0.0
 20
0.0
 30
0.0
  3
*Model_Space
  1

  0
ENDBLK
  5
21
330
1F
100
AcDbEntity
  8
0
100
AcDbBlockEnd
  0
BLOCK
  5
1C
330
1B
100
AcDbEntity
 67
     1
  8
0
100
AcDbBlockBegin
  2
*Paper_Space
 70
     0
 10
0.0
 20
0.0
 30
0.0
  3
*Paper_Space
  1

  0
ENDBLK
  5
1D
330
1B
100
AcDbEntity
 67
     1
  8
0
100
AcDbBlockEnd
  0
BLOCK
  5
24
330
23
100
AcDbEntity
  8
0
100
AcDbBlockBegin
  2
*Paper_Space0
 70
     0
 10
0.0
 20
0.0
 30
0.0
  3
*Paper_Space0
  1

  0
ENDBLK
  5
25
330
23
100
AcDbEntity
  8
0
100
AcDbBlockEnd
  0
BLOCK
  5
83
330
82
100
AcDbEntity
  8
0
100
AcDbBlockBegin
  2
블럭10
 70
     2
 10
0.0
 20
0.0
 30
0.0
  3
블럭10
  1

  0
ELLIPSE
  5
85
330
82
100
AcDbEntity
  8
중심선
100
AcDbEllipse
 10
20.54032771741204
 20
12.0471743016438
 30
0.0
 11
6.600054785286829
 21
-1.261213355974178E-13
 31
0.0
210
0.0
220
0.0
230
1.0
 40
0.636358354079598
 41
0.9219305317359503
 42
6.513795318482858
  0
ELLIPSE
  5
86
330
82
100
AcDbEntity
  8
중심선
100
AcDbEllipse
 10
20.54032771746488
 20
12.04717430159265
 30
0.0
 11
3.960054785062283
 21
1.540847449632565E-10
 31
0.0
210
0.0
220
0.0
230
1.0
 40
0.3939339440162632
 41
1.131841032648279
 42
5.62031148352944
  0
LINE
  5
87
330
82
100
AcDbEntity
  8
중심선
100
AcDbLine
 10
2.268634060543552
 20
16.24717430164393
 30
0.0
 11
5.714909304380834
 21
16.24717430164393
 31
0.0
  0
LINE
  5
88
330
82
100
AcDbEntity
  8
중심선
100
AcDbLine
 10
5.245725140726316
 20
7.84717430164391
 30
0.0
 11
8.692000384563599
 21
7.84717430164391
 31
0.0
  0
LINE
  5
89
330
82
100
AcDbEntity
  8
중심선
100
AcDbLine
 10
15.74043728645272
 20
16.24717430164393
 30
0.0
 11
8.692000384563599
 21
7.84717430164391
 31
0.0
  0
LINE
  5
8A
330
82
100
AcDbEntity
  8
중심선
100
AcDbLine
 10
0.1404042013395286
 20
13.71084872107135
 30
0.0
 11
3.58671253028996
 21
13.71088815037384
 31
0.0
  0
LINE
  5
8B
330
82
100
AcDbEntity
  8
중심선
100
AcDbLine
 10
2.750260043222114
 20
10.84717430164391
 30
0.0
 11
6.196535287059397
 21
10.84717430164391
 31
0.0
  0
LINE
  5
8C
330
82
100
AcDbEntity
  8
중심선
100
AcDbLine
 10
12.29416204261559
 20
16.24717430164393
 30
0.0
 11
5.245725140726316
 21
7.84717430164391
 31
0.0
  0
LINE
  5
8D
330
82
100
AcDbEntity
  8
중심선
100
AcDbLine
 10
10.72767329541681
 20
16.24717430164393
 30
0.0
 11
6.196535287059397
 21
10.84717430164391
 31
0.0
  0
LINE
  5
8E
330
82
100
AcDbEntity
  8
중심선
100
AcDbLine
 10
7.28139805157953
 20
16.24717430164393
 30
0.0
 11
2.750260043222114
 21
10.84717430164391
 31
0.0
  0
LINE
  5
8F
330
82
100
AcDbEntity
  8
중심선
100
AcDbLine
 10
5.714909304380834
 20
16.24717430164393
 30
0.0
 11
3.58671253028996
 21
13.71088815037384
 31
0.0
  0
LINE
  5
90
330
82
100
AcDbEntity
  8
중심선
100
AcDbLine
 10
2.268634060543552
 20
16.24717430164393
 30
0.0
 11
0.1404042013395286
 21
13.71084872107135
 31
0.0
  0
LINE
  5
91
330
82
100
AcDbEntity
  8
중심선
100
AcDbLine
 10
7.28139805157953
 20
16.24717430164393
 30
0.0
 11
10.72767329541681
 21
16.24717430164393
 31
0.0
  0
LINE
  5
92
330
82
100
AcDbEntity
  8
중심선
100
AcDbLine
 10
12.29416204261559
 20
16.24717430164393
 30
0.0
 11
15.74043728645272
 21
16.24717430164393
 31
0.0
  0
LINE
  5
93
330
82
100
AcDbEntity
  8
중심선
100
AcDbLine
 10
19.22036997980202
 20
11.08717430171403
 30
0.0
 11
23.66174974927406
 21
11.08717430171406
 31
0.0
  0
LINE
  5
94
330
82
100
AcDbEntity
  8
중심선
100
AcDbLine
 10
19.22039502424796
 20
13.00717430171391
 30
0.0
 11
19.22036997980202
 21
11.08717430171403
 31
0.0
  0
LINE
  5
95
330
82
100
AcDbEntity
  8
중심선
100
AcDbLine
 10
19.22039502424796
 20
13.00717430171391
 30
0.0
 11
26.96566020931264
 21
13.00717430171391
 31
0.0
  0
LINE
  5
96
330
82
100
AcDbEntity
  8
중심선
100
AcDbLine
 10
22.22332737316547
 20
13.45928029700563
 30
0.0
 11
24.52862924686651
 21
15.39360700705356
 31
0.0
  0
ATTDEF
  5
98
330
82
100
AcDbEntity
  8
FORMAT
 62
     2
100
AcDbText
 10
-20.85824753159254
 20
2.075366912832191
 30
0.0
 40
4.233333333333333
  1
SEME7208040150E [ 4 FLUTE ]
 41
0.75
  7
SLDTEXTSTYLE0
 11
-20.85824753159254
 21
-0.0412997538344756
 31
0.0
100
AcDbAttributeDefinition
  3

  2
AUTOATTR0
 70
     0
 74
     1
  0
ENDBLK
  5
84
330
82
100
AcDbEntity
  8
0
100
AcDbBlockEnd
  0
BLOCK
  5
E3
330
E2
100
AcDbEntity
  8
0
100
AcDbBlockBegin
  2
_D
 70
     0
 10
0.0
 20
0.0
 30
0.0
  3
_D
  1

  0
LINE
  5
E5
330
E2
100
AcDbEntity
  8
치수문자_일반주서
 62
     0
370
    -2
100
AcDbLine
 10
50.06250000000004
 20
-4.000000000000013
 30
0.0
 11
62.88314233198137
 21
-3.999999999999966
 31
0.0
  0
LINE
  5
E6
330
E2
100
AcDbEntity
  8
치수문자_일반주서
 62
     0
370
    -2
100
AcDbLine
 10
50.06250000000004
 20
4.0
 30
0.0
 11
62.88314233198134
 21
4.000000000000046
 31
0.0
  0
LINE
  5
E7
330
E2
100
AcDbEntity
  8
치수문자_일반주서
 62
     0
370
    -2
100
AcDbLine
 10
62.88314233198137
 20
-3.999999999999966
 30
0.0
 11
62.88314233198129
 21
16.72900000000005
 31
0.0
  0
LINE
  5
E8
330
E2
100
AcDbEntity
  8
치수문자_일반주서
 62
     0
370
    -2
100
AcDbLine
 10
62.88314233198137
 20
-3.999999999999966
 30
0.0
 11
62.88314233198134
 21
4.000000000000046
 31
0.0
  0
LINE
  5
E9
330
E2
100
AcDbEntity
  8
치수문자_일반주서
 62
     0
370
    -2
100
AcDbLine
 10
62.88314233198138
 20
-7.301999999999966
 30
0.0
 11
62.8831423319814
 21
-10.60399999999997
 31
0.0
  0
LINE
  5
EA
330
E2
100
AcDbEntity
  8
치수문자_일반주서
 62
     0
370
    -2
100
AcDbLine
 10
62.88314233198133
 20
7.302000000000046
 30
0.0
 11
62.88314233198131
 21
10.60400000000005
 31
0.0
  0
SOLID
  5
EB
330
E2
100
AcDbEntity
  8
치수문자_일반주서
 62
     0
100
AcDbTrace
 10
63.43347566531472
 20
-7.301999999999964
 30
0.0
 11
62.33280899864805
 21
-7.301999999999968
 31
0.0
 12
62.88314233198137
 22
-3.999999999999966
 32
0.0
 13
62.88314233198137
 23
-3.999999999999966
 33
0.0
  0
SOLID
  5
EC
330
E2
100
AcDbEntity
  8
치수문자_일반주서
 62
     0
100
AcDbTrace
 10
62.33280899864799
 20
7.302000000000044
 30
0.0
 11
63.43347566531466
 21
7.302000000000048
 31
0.0
 12
62.88314233198134
 22
4.000000000000046
 32
0.0
 13
62.88314233198134
 23
4.000000000000046
 33
0.0
  0
MTEXT
  5
ED
330
E2
100
AcDbEntity
  8
치수문자_일반주서
 62
     0
100
AcDbMText
 10
58.5081423319813
 20
13.66650000000003
 30
0.0
 40
3.5
 41
0.0
 71
     2
 72
     1
  1
\A1;%%c8
  7
SLDTEXTSTYLE0
 11
-3.552713678800495E-15
 21
1.0
 31
0.0
 73
     1
 44
1.0
  0
POINT
  5
146
330
E2
100
AcDbEntity
  8
Defpoints
 62
     0
100
AcDbPoint
 10
50.00000000000004
 20
-4.000000000000013
 30
0.0
  0
POINT
  5
147
330
E2
100
AcDbEntity
  8
Defpoints
 62
     0
100
AcDbPoint
 10
50.00000000000004
 20
3.999999999999999
 30
0.0
  0
POINT
  5
148
330
E2
100
AcDbEntity
  8
Defpoints
 62
     0
100
AcDbPoint
 10
62.88314233198134
 20
4.000000000000047
 30
0.0
  0
ENDBLK
  5
E4
330
E2
100
AcDbEntity
  8
0
100
AcDbBlockEnd
  0
BLOCK
  5
F1
330
F0
100
AcDbEntity
  8
0
100
AcDbBlockBegin
  2
_D_1
 70
     0
 10
0.0
 20
0.0
 30
0.0
  3
_D_1
  1

  0
LINE
  5
F3
330
F0
100
AcDbEntity
  8
치수문자_일반주서
 62
     0
370
    -2
100
AcDbLine
 10
-99.99999999999997
 20
3.562499999999982
 30
0.0
 11
-99.99999999999997
 21
21.38913260158163
 31
0.0
  0
LINE
  5
F4
330
F0
100
AcDbEntity
  8
치수문자_일반주서
 62
     0
370
    -2
100
AcDbLine
 10
49.99999999999999
 20
4.062500000000002
 30
0.0
 11
49.99999999999999
 21
21.38913260158163
 31
0.0
  0
LINE
  5
F5
330
F0
100
AcDbEntity
  8
치수문자_일반주서
 62
     0
370
    -2
100
AcDbLine
 10
-96.69799999999998
 20
21.38913260158163
 30
0.0
 11
46.69799999999999
 21
21.38913260158163
 31
0.0
  0
SOLID
  5
F6
330
F0
100
AcDbEntity
  8
치수문자_일반주서
 62
     0
100
AcDbTrace
 10
-96.69799999999998
 20
21.93946593491497
 30
0.0
 11
-96.69799999999998
 21
20.8387992682483
 31
0.0
 12
-99.99999999999997
 22
21.38913260158163
 32
0.0
 13
-99.99999999999997
 23
21.38913260158163
 33
0.0
  0
SOLID
  5
F7
330
F0
100
AcDbEntity
  8
치수문자_일반주서
 62
     0
100
AcDbTrace
 10
46.69799999999999
 20
20.8387992682483
 30
0.0
 11
46.69799999999999
 21
21.93946593491497
 31
0.0
 12
49.99999999999999
 22
21.38913260158163
 32
0.0
 13
49.99999999999999
 23
21.38913260158163
 33
0.0
  0
MTEXT
  5
F8
330
F0
100
AcDbEntity
  8
치수문자_일반주서
 62
     0
100
AcDbMText
 10
-24.99999999999999
 20
25.76413260158163
 30
0.0
 40
3.5
 41
0.0
 71
     2
 72
     1
  1
\A1;150
  7
SLDTEXTSTYLE0
 73
     1
 44
1.0
  0
POINT
  5
13D
330
F0
100
AcDbEntity
  8
Defpoints
 62
     0
100
AcDbPoint
 10
-99.99999999999997
 20
3.499999999999982
 30
0.0
  0
POINT
  5
13E
330
F0
100
AcDbEntity
  8
Defpoints
 62
     0
100
AcDbPoint
 10
49.99999999999999
 20
4.000000000000002
 30
0.0
  0
POINT
  5
13F
330
F0
100
AcDbEntity
  8
Defpoints
 62
     0
100
AcDbPoint
 10
49.99999999999999
 20
21.38913260158163
 30
0.0
  0
ENDBLK
  5
F2
330
F0
100
AcDbEntity
  8
0
100
AcDbBlockEnd
  0
BLOCK
  5
FC
330
FB
100
AcDbEntity
  8
0
100
AcDbBlockBegin
  2
_D_2
 70
     0
 10
0.0
 20
0.0
 30
0.0
  3
_D_2
  1

  0
LINE
  5
FE
330
FB
100
AcDbEntity
  8
치수문자_일반주서
 62
     0
370
    -2
100
AcDbLine
 10
-99.56249999999997
 20
3.999999999999997
 30
0.0
 11
-112.7620020792681
 21
3.999999999999947
 31
0.0
  0
LINE
  5
FF
330
FB
100
AcDbEntity
  8
치수문자_일반주서
 62
     0
370
    -2
100
AcDbLine
 10
-99.56249999999997
 20
-4.00000000000001
 30
0.0
 11
-112.7620020792681
 21
-4.00000000000006
 31
0.0
  0
LINE
  5
100
330
FB
100
AcDbEntity
  8
치수문자_일반주서
 62
     0
370
    -2
100
AcDbLine
 10
-112.7620020792681
 20
3.999999999999947
 30
0.0
 11
-112.7620020792682
 21
18.6783275815031
 31
0.0
  0
LINE
  5
101
330
FB
100
AcDbEntity
  8
치수문자_일반주서
 62
     0
370
    -2
100
AcDbLine
 10
-112.7620020792681
 20
3.999999999999947
 30
0.0
 11
-112.7620020792681
 21
-4.00000000000006
 31
0.0
  0
LINE
  5
102
330
FB
100
AcDbEntity
  8
치수문자_일반주서
 62
     0
370
    -2
100
AcDbLine
 10
-112.7620020792682
 20
7.301999999999946
 30
0.0
 11
-112.7620020792682
 21
10.60399999999995
 31
0.0
  0
LINE
  5
103
330
FB
100
AcDbEntity
  8
치수문자_일반주서
 62
     0
370
    -2
100
AcDbLine
 10
-112.7620020792681
 20
-7.30200000000006
 30
0.0
 11
-112.7620020792681
 21
-10.60400000000006
 31
0.0
  0
SOLID
  5
104
330
FB
100
AcDbEntity
  8
치수문자_일반주서
 62
     0
100
AcDbTrace
 10
-113.3123354126015
 20
7.301999999999945
 30
0.0
 11
-112.2116687459348
 21
7.301999999999948
 31
0.0
 12
-112.7620020792681
 22
3.999999999999947
 32
0.0
 13
-112.7620020792681
 23
3.999999999999947
 33
0.0
  0
SOLID
  5
105
330
FB
100
AcDbEntity
  8
치수문자_일반주서
 62
     0
100
AcDbTrace
 10
-112.2116687459348
 20
-7.302000000000058
 30
0.0
 11
-113.3123354126014
 21
-7.302000000000062
 31
0.0
 12
-112.7620020792681
 22
-4.00000000000006
 32
0.0
 13
-112.7620020792681
 23
-4.00000000000006
 33
0.0
  0
MTEXT
  5
106
330
FB
100
AcDbEntity
  8
치수문자_일반주서
 62
     0
100
AcDbMText
 10
-117.1370020792682
 20
15.61582758150309
 30
0.0
 40
3.5
 41
0.0
 71
     2
 72
     1
  1
\A1;%%c8
  7
SLDTEXTSTYLE0
 11
-3.552713678800498E-15
 21
1.0
 31
0.0
 73
     1
 44
1.0
  0
POINT
  5
143
330
FB
100
AcDbEntity
  8
Defpoints
 62
     0
100
AcDbPoint
 10
-99.49999999999997
 20
3.999999999999997
 30
0.0
  0
POINT
  5
144
330
FB
100
AcDbEntity
  8
Defpoints
 62
     0
100
AcDbPoint
 10
-99.49999999999997
 20
-4.00000000000001
 30
0.0
  0
POINT
  5
145
330
FB
100
AcDbEntity
  8
Defpoints
 62
     0
100
AcDbPoint
 10
-112.7620020792681
 20
-4.00000000000006
 30
0.0
  0
ENDBLK
  5
FD
330
FB
100
AcDbEntity
  8
0
100
AcDbBlockEnd
  0
BLOCK
  5
109
330
108
100
AcDbEntity
  8
0
100
AcDbBlockBegin
  2
_D_3
 70
     0
 10
0.0
 20
0.0
 30
0.0
  3
_D_3
  1

  0
LINE
  5
10B
330
108
100
AcDbEntity
  8
치수문자_일반주서
 62
     0
370
    -2
100
AcDbLine
 10
9.999999999999995
 20
3.899518746371088
 30
0.0
 11
9.999999999999993
 21
14.68293704895874
 31
0.0
  0
LINE
  5
10C
330
108
100
AcDbEntity
  8
치수문자_일반주서
 62
     0
370
    -2
100
AcDbLine
 10
49.99999999999999
 20
4.062500000000002
 30
0.0
 11
49.99999999999999
 21
14.68293704895874
 31
0.0
  0
LINE
  5
10D
330
108
100
AcDbEntity
  8
치수문자_일반주서
 62
     0
370
    -2
100
AcDbLine
 10
13.30199999999999
 20
14.68293704895874
 30
0.0
 11
46.69799999999999
 21
14.68293704895874
 31
0.0
  0
SOLID
  5
10E
330
108
100
AcDbEntity
  8
치수문자_일반주서
 62
     0
100
AcDbTrace
 10
13.30199999999999
 20
15.23327038229207
 30
0.0
 11
13.30199999999999
 21
14.13260371562541
 31
0.0
 12
9.999999999999993
 22
14.68293704895874
 32
0.0
 13
9.999999999999993
 23
14.68293704895874
 33
0.0
  0
SOLID
  5
10F
330
108
100
AcDbEntity
  8
치수문자_일반주서
 62
     0
100
AcDbTrace
 10
46.69799999999999
 20
14.13260371562541
 30
0.0
 11
46.69799999999999
 21
15.23327038229207
 31
0.0
 12
49.99999999999999
 22
14.68293704895874
 32
0.0
 13
49.99999999999999
 23
14.68293704895874
 33
0.0
  0
MTEXT
  5
110
330
108
100
AcDbEntity
  8
치수문자_일반주서
 62
     0
100
AcDbMText
 10
29.99999999999999
 20
19.05793704895874
 30
0.0
 40
3.5
 41
0.0
 71
     2
 72
     1
  1
\A1;40
  7
SLDTEXTSTYLE0
 73
     1
 44
1.0
  0
POINT
  5
140
330
108
100
AcDbEntity
  8
Defpoints
 62
     0
100
AcDbPoint
 10
9.999999999999995
 20
3.837018746371088
 30
0.0
  0
POINT
  5
141
330
108
100
AcDbEntity
  8
Defpoints
 62
     0
100
AcDbPoint
 10
49.99999999999999
 20
4.000000000000002
 30
0.0
  0
POINT
  5
142
330
108
100
AcDbEntity
  8
Defpoints
 62
     0
100
AcDbPoint
 10
49.99999999999999
 20
14.68293704895874
 30
0.0
  0
ENDBLK
  5
10A
330
108
100
AcDbEntity
  8
0
100
AcDbBlockEnd
  0
BLOCK
  5
112
330
111
100
AcDbEntity
  8
0
100
AcDbBlockBegin
  2
SW_DOWELSYMBOL_0
 70
     0
 10
0.0
 20
0.0
 30
0.0
  3
SW_DOWELSYMBOL_0
  1

  0
CIRCLE
  5
114
330
111
100
AcDbEntity
  8
해칭선
 62
     0
100
AcDbCircle
 10
0.0
 20
0.0
 30
0.0
 40
3.0
  0
HATCH
  5
115
330
111
100
AcDbEntity
  8
0
  6
Continuous
 62
     0
370
    18
100
AcDbHatch
 10
0.0
 20
0.0
 30
0.0
210
0.0
220
0.0
230
1.0
  2
SOLID
 70
     1
 71
     0
 91
        1
 92
        0
 93
        3
 72
     2
 10
-0.0000064213705585
 20
-0.0000000000000043
 40
3.0
 50
0.0
 51
90.0
 73
     1
 72
     1
 10
-0.0000064213705585
 20
2.999999999999995
 11
-0.0000064213705585
 21
-0.0000000000000044
 72
     1
 10
-0.0000064213705585
 20
-0.0000000000000043
 11
2.999993578629441
 21
-0.0000000000000043
 97
        0
 75
     0
 76
     1
 98
        1
 10
0.0
 20
0.0
  0
HATCH
  5
116
330
111
100
AcDbEntity
  8
0
  6
Continuous
 62
     0
370
    18
100
AcDbHatch
 10
0.0
 20
0.0
 30
0.0
210
0.0
220
0.0
230
1.0
  2
SOLID
 70
     1
 71
     0
 91
        1
 92
        0
 93
        3
 72
     2
 10
-0.0000064213705585
 20
-0.0000000000000043
 40
3.0
 50
180.0
 51
270.0000000000008
 73
     1
 72
     1
 10
-0.0000064213705585
 20
-3.000000000000004
 11
-0.0000064213705585
 21
-0.0000000000000044
 72
     1
 10
-0.0000064213705585
 20
-0.0000000000000043
 11
-3.000006421370558
 21
-0.0000000000000043
 97
        0
 75
     0
 76
     1
 98
        1
 10
0.0
 20
0.0
  0
ENDBLK
  5
113
330
111
100
AcDbEntity
  8
0
100
AcDbBlockEnd
  0
ENDSEC
  0
SECTION
  2
ENTITIES
  0
LINE
  5
99
330
1F
100
AcDbEntity
  8
0
  6
Continuous
 62
     4
370
    25
100
AcDbLine
 10
8.534926781510459
 20
3.999999999999994
 30
0.0
 11
-99.49999999999997
 21
3.999999999999987
 31
0.0
  0
LINE
  5
9A
330
1F
100
AcDbEntity
  8
0
  6
Continuous
 62
     4
370
    25
100
AcDbLine
 10
-99.49999999999997
 20
-4.000000000000013
 30
0.0
 11
8.534926781510451
 21
-4.000000000000006
 31
0.0
  0
LINE
  5
9B
330
1F
100
AcDbEntity
  8
0
  6
Continuous
 62
     4
370
    25
100
AcDbLine
 10
-99.49999999999997
 20
3.999999999999982
 30
0.0
 11
-99.99999999999997
 21
3.499999999999981
 31
0.0
  0
LINE
  5
9C
330
1F
100
AcDbEntity
  8
0
  6
Continuous
 62
     4
370
    25
100
AcDbLine
 10
-99.99999999999997
 20
-3.500000000000007
 30
0.0
 11
-99.49999999999997
 21
-4.000000000000008
 31
0.0
  0
LINE
  5
9D
330
1F
100
AcDbEntity
  8
0
  6
Continuous
 62
     1
370
    25
100
AcDbLine
 10
48.45252125871104
 20
-4.00000000000001
 30
0.0
 11
49.99999999999999
 21
-4.00000000000001
 31
0.0
  0
LINE
  5
9E
330
1F
100
AcDbEntity
  8
0
  6
Continuous
 62
     1
370
    25
100
AcDbLine
 10
29.78072420486302
 20
3.999999999999997
 30
0.0
 11
26.68808045730036
 21
3.999999999999997
 31
0.0
  0
LINE
  5
9F
330
1F
100
AcDbEntity
  8
0
  6
Continuous
 62
     1
370
    25
100
AcDbLine
 10
17.78027843771563
 20
0.6383785032955932
 30
0.0
 11
17.90703262938801
 21
0.5711201195844136
 31
0.0
  0
LINE
  5
A0
330
1F
100
AcDbEntity
  8
0
  6
Continuous
 62
     1
370
    25
100
AcDbLine
 10
27.88992784038444
 20
-0.6828295801888948
 30
0.0
 11
27.68106756209565
 21
-0.5715267924454269
 31
0.0
  0
LINE
  5
A1
330
1F
100
AcDbEntity
  8
0
  6
Continuous
 62
     1
370
    25
100
AcDbLine
 10
49.69062410286231
 20
-0.7120319571987854
 30
0.0
 11
49.41165294198306
 21
-0.5515496172531366
 31
0.0
  0
LINE
  5
A2
330
1F
100
AcDbEntity
  8
0
  6
Continuous
 62
     1
370
    25
100
AcDbLine
 10
38.76359745054514
 20
-0.6787016250222871
 30
0.0
 11
38.56193708114694
 21
-0.5712084470349978
 31
0.0
  0
LINE
  5
A3
330
1F
100
AcDbEntity
  8
0
  6
Continuous
 62
     1
370
    25
100
AcDbLine
 10
28.59098044343581
 20
0.6761078199177554
 30
0.0
 11
28.78795749404515
 21
0.5714070997843803
 31
0.0
  0
LINE
  5
A4
330
1F
100
AcDbEntity
  8
0
  6
Continuous
 62
     1
370
    25
100
AcDbLine
 10
37.5700601365798
 20
-4.00000000000001
 30
0.0
 11
40.66471192216784
 21
-4.00000000000001
 31
0.0
  0
LINE
  5
A5
330
1F
100
AcDbEntity
  8
0
  6
Continuous
 62
     1
370
    25
100
AcDbLine
 10
18.8983625875774
 20
3.999999999999997
 30
0.0
 11
15.80279902668456
 21
3.999999999999997
 31
0.0
  0
LINE
  5
A6
330
1F
100
AcDbEntity
  8
0
  6
Continuous
 62
     1
370
    25
100
AcDbLine
 10
15.80279902668462
 20
-4.00000000000001
 30
0.0
 11
18.89836258757743
 21
-4.00000000000001
 31
0.0
  0
LINE
  5
A7
330
1F
100
AcDbEntity
  8
0
  6
Continuous
 62
     1
370
    25
100
AcDbLine
 10
40.66471192216782
 20
3.999999999999997
 30
0.0
 11
37.57006013657984
 21
3.999999999999997
 31
0.0
  0
LINE
  5
A8
330
1F
100
AcDbEntity
  8
0
  6
Continuous
 62
     1
370
    25
100
AcDbLine
 10
26.68808045730038
 20
-4.00000000000001
 30
0.0
 11
29.78072420486297
 21
-4.00000000000001
 31
0.0
  0
LINE
  5
A9
330
1F
100
AcDbEntity
  8
0
  6
Continuous
 62
     1
370
    25
100
AcDbLine
 10
49.99999999999999
 20
3.999999999999997
 30
0.0
 11
48.45252125871107
 21
3.999999999999997
 31
0.0
  0
SPLINE
  5
AA
330
1F
100
AcDbEntity
  8
0
  6
Continuous
 62
     4
370
    25
100
AcDbSpline
210
0.0
220
0.0
230
1.0
 70
     8
 71
     3
 72
    10
 73
     6
 74
     0
 42
0.000000001
 43
0.00000001
 40
0.0
 40
0.0
 40
0.0
 40
0.0
 40
0.5
 40
0.5
 40
1.0
 40
1.0
 40
1.0
 40
1.0
 10
8.903618750774164
 20
-0.5111263888675489
 30
0.0
 10
8.777190380770353
 20
-0.4389029501944982
 30
0.0
 10
8.673578633528326
 20
-0.3325612987942576
 30
0.0
 10
8.534620968513055
 20
-0.08069684538558
 30
0.0
 10
8.499819895446008
 20
0.0645242935539446
 30
0.0
 10
8.499819895446008
 20
0.2100687650012503
 30
0.0
  0
SPLINE
  5
AB
330
1F
100
AcDbEntity
  8
0
  6
Continuous
 62
     4
370
    25
100
AcDbSpline
210
0.0
220
0.0
230
1.0
 70
     8
 71
     3
 72
    16
 73
    12
 74
     0
 42
0.000000001
 43
0.00000001
 40
0.0
 40
0.0
 40
0.0
 40
0.0
 40
0.1249999999999999
 40
0.1249999999999999
 40
0.2499999999999997
 40
0.2499999999999997
 40
0.4999999999999999
 40
0.4999999999999999
 40
0.7499999999999999
 40
0.7499999999999999
 40
1.0
 40
1.0
 40
1.0
 40
1.0
 10
8.499819895446008
 20
2.580147700476481
 30
0.0
 10
8.499819895446008
 20
2.634690198527063
 30
0.0
 10
8.50777606856891
 20
2.686978362020982
 30
0.0
 10
8.54080332921882
 20
2.787185101044166
 30
0.0
 10
8.566230424164969
 20
2.835072338395905
 30
0.0
 10
8.665813921096111
 20
2.96424867594183
 30
0.0
 10
8.76553278429346
 20
3.034016089174293
 30
0.0
 10
9.009624965979686
 20
3.128607747594177
 30
0.0
 10
9.150007776856793
 20
3.152586091160539
 30
0.0
 10
9.432064715181193
 20
3.15450328324349
 30
0.0
 10
9.5738888979205
 20
3.132334523486263
 30
0.0
 10
9.69760772035091
 20
3.08677272807866
 30
0.0
  0
SPLINE
  5
AC
330
1F
100
AcDbEntity
  8
0
  6
Continuous
 62
     4
370
    25
100
AcDbSpline
210
0.0
220
0.0
230
1.0
 70
     8
 71
     3
 72
    10
 73
     6
 74
     0
 42
0.000000001
 43
0.00000001
 40
0.0
 40
0.0
 40
0.0
 40
0.0
 40
0.4087508773911868
 40
0.81742671935767
 40
1.0
 40
1.0
 40
1.0
 40
1.0
 10
8.903618750774168
 20
3.967209323265303
 30
0.0
 10
8.831736577614699
 20
3.973257505330857
 30
0.0
 10
8.687985426886748
 20
3.985352759182002
 30
0.0
 10
8.565250540097152
 20
3.999858021494748
 30
0.0
 10
8.542081275956884
 20
3.998357691269869
 30
0.0
 10
8.534926781510459
 20
3.997894400584558
 30
0.0
  0
SPLINE
  5
AD
330
1F
100
AcDbEntity
  8
0
  6
Continuous
 62
     4
370
    25
100
AcDbSpline
210
0.0
220
0.0
230
1.0
 70
     8
 71
     3
 72
     8
 73
     4
 74
     0
 42
0.000000001
 43
0.00000001
 40
0.0
 40
0.0
 40
0.0
 40
0.0
 40
1.0
 40
1.0
 40
1.0
 40
1.0
 10
9.999999999999995
 20
3.837018746371088
 30
0.0
 10
9.635429843390758
 20
3.896610286525602
 30
0.0
 10
9.27060189051044
 20
3.940199426580108
 30
0.0
 10
8.903618750774168
 20
3.967209323265303
 30
0.0
  0
LINE
  5
AE
330
1F
100
AcDbEntity
  8
0
  6
Continuous
 62
     4
370
    25
100
AcDbLine
 10
9.999999999999995
 20
3.837018746371088
 30
0.0
 11
9.999999999999995
 21
2.972412430736024
 31
0.0
  0
SPLINE
  5
AF
330
1F
100
AcDbEntity
  8
0
  6
Continuous
 62
     4
370
    25
100
AcDbSpline
210
0.0
220
0.0
230
1.0
 70
     8
 71
     3
 72
     8
 73
     4
 74
     0
 42
0.000000001
 43
0.00000001
 40
0.0
 40
0.0
 40
0.0
 40
0.0
 40
1.0
 40
1.0
 40
1.0
 40
1.0
 10
9.999999999999995
 20
2.972412430736012
 30
0.0
 10
9.898966385079772
 20
3.011525876060525
 30
0.0
 10
9.798504700289067
 20
3.049615507642223
 30
0.0
 10
9.697607720344635
 20
3.086772728080959
 30
0.0
  0
SPLINE
  5
B0
330
1F
100
AcDbEntity
  8
0
  6
Continuous
 62
     4
370
    25
100
AcDbSpline
210
0.0
220
0.0
230
1.0
 70
     8
 71
     3
 72
     8
 73
     4
 74
     0
 42
0.000000001
 43
0.00000001
 40
0.0
 40
0.0
 40
0.0
 40
0.0
 40
1.0
 40
1.0
 40
1.0
 40
1.0
 10
9.999999999999995
 20
-1.130171287901413
 30
0.0
 10
9.635429843390758
 20
-0.9278534099427789
 30
0.0
 10
9.27060189051044
 20
-0.7207690844586363
 30
0.0
 10
8.903618750774168
 20
-0.5111263888675487
 30
0.0
  0
LINE
  5
B1
330
1F
100
AcDbEntity
  8
0
  6
Continuous
 62
     4
370
    25
100
AcDbLine
 10
9.999999999999995
 20
-1.130171287901413
 30
0.0
 11
9.999999999999995
 21
-2.676707743031731
 31
0.0
  0
SPLINE
  5
B2
330
1F
100
AcDbEntity
  8
0
  6
Continuous
 62
     4
370
    25
100
AcDbSpline
210
0.0
220
0.0
230
1.0
 70
     8
 71
     3
 72
     8
 73
     4
 74
     0
 42
0.000000001
 43
0.00000001
 40
0.0
 40
0.0
 40
0.0
 40
0.0
 40
1.0
 40
1.0
 40
1.0
 40
1.0
 10
9.999999999999995
 20
-2.676707743031724
 30
0.0
 10
9.898966385079772
 20
-2.633273307055604
 30
0.0
 10
9.798504700289067
 20
-2.589065196467897
 30
0.0
 10
9.697607720344639
 20
-2.543979977353514
 30
0.0
  0
SPLINE
  5
B3
330
1F
100
AcDbEntity
  8
0
  6
Continuous
 62
     4
370
    25
100
AcDbSpline
210
0.0
220
0.0
230
1.0
 70
     8
 71
     3
 72
    16
 73
    12
 74
     0
 42
0.000000001
 43
0.00000001
 40
0.0
 40
0.0
 40
0.0
 40
0.0
 40
0.1249999999999998
 40
0.1249999999999998
 40
0.2499999999999996
 40
0.2499999999999996
 40
0.4999999999999998
 40
0.4999999999999998
 40
0.7499999999999999
 40
0.7499999999999999
 40
1.0
 40
1.0
 40
1.0
 40
1.0
 10
8.499819895446008
 20
-3.056605608142141
 30
0.0
 10
8.499819895446008
 20
-3.010565091646135
 30
0.0
 10
8.50777606856891
 20
-2.963927797068012
 30
0.0
 10
8.540803329218823
 20
-2.86989893841557
 30
0.0
 10
8.566230424164972
 20
-2.822447387694048
 30
0.0
 10
8.665813921096111
 20
-2.688606975392883
 30
0.0
 10
8.76553278429346
 20
-2.607728495343427
 30
0.0
 10
9.009624965979686
 20
-2.493454450453878
 30
0.0
 10
9.150007776856793
 20
-2.461951129880023
 30
0.0
 10
9.432064715181193
 20
-2.459494148011423
 30
0.0
 10
9.5738888979205
 20
-2.488696952820635
 30
0.0
 10
9.69760772035091
 20
-2.543979977356322
 30
0.0
  0
LINE
  5
B4
330
1F
100
AcDbEntity
  8
0
  6
Continuous
 62
     4
370
    25
100
AcDbLine
 10
8.499819895446008
 20
-3.056605608142141
 30
0.0
 11
8.499819895446008
 21
-3.994480080557531
 31
0.0
  0
SPLINE
  5
B5
330
1F
100
AcDbEntity
  8
0
  6
Continuous
 62
     4
370
    25
100
AcDbSpline
210
0.0
220
0.0
230
1.0
 70
     8
 71
     3
 72
     8
 73
     4
 74
     0
 42
0.000000001
 43
0.00000001
 40
0.0
 40
0.0
 40
0.0
 40
0.0
 40
1.0
 40
1.0
 40
1.0
 40
1.0
 10
8.903618750774168
 20
-3.96720932326532
 30
0.0
 10
8.747889577222008
 20
-3.978670963959596
 30
0.0
 10
8.627823485997379
 20
-3.993494024985406
 30
0.0
 10
8.561100466855374
 20
-3.998323445084174
 30
0.0
  0
SPLINE
  5
B6
330
1F
100
AcDbEntity
  8
0
  6
Continuous
 62
     4
370
    25
100
AcDbSpline
210
0.0
220
0.0
230
1.0
 70
     8
 71
     3
 72
     9
 73
     5
 74
     0
 42
0.000000001
 43
0.00000001
 40
0.0
 40
0.0
 40
0.0
 40
0.0
 40
0.6972403956311531
 40
1.0
 40
1.0
 40
1.0
 40
1.0
 10
8.534926781510466
 20
-3.997894400584571
 30
0.0
 10
8.520746186826564
 20
-3.998421675195384
 30
0.0
 10
8.50040801541143
 20
-3.999177905921707
 30
0.0
 10
8.499956573746022
 20
-3.99557184894203
 30
0.0
 10
8.499819895446008
 20
-3.994480080557531
 30
0.0
  0
SPLINE
  5
B7
330
1F
100
AcDbEntity
  8
0
  6
Continuous
 62
     4
370
    25
100
AcDbSpline
210
0.0
220
0.0
230
1.0
 70
     8
 71
     3
 72
     8
 73
     4
 74
     0
 42
0.000000001
 43
0.00000001
 40
0.0
 40
0.0
 40
0.0
 40
0.0
 40
1.0
 40
1.0
 40
1.0
 40
1.0
 10
9.999999999999995
 20
-3.837018746371109
 30
0.0
 10
9.635429843390758
 20
-3.896610286525621
 30
0.0
 10
9.27060189051044
 20
-3.940199426580126
 30
0.0
 10
8.903618750774168
 20
-3.967209323265319
 30
0.0
  0
LINE
  5
B8
330
1F
100
AcDbEntity
  8
0
  6
Continuous
 62
     4
370
    25
100
AcDbLine
 10
-99.49999999999997
 20
3.999999999999982
 30
0.0
 11
-99.49999999999997
 21
-4.000000000000008
 31
0.0
  0
LINE
  5
B9
330
1F
100
AcDbEntity
  8
0
  6
Continuous
 62
     4
370
    25
100
AcDbLine
 10
8.499819895446008
 20
2.580147700476481
 30
0.0
 11
8.499819895446008
 21
0.21006876500125
 31
0.0
  0
LINE
  5
BA
330
1F
100
AcDbEntity
  8
0
  6
Continuous
 62
     4
370
    25
100
AcDbLine
 10
-99.99999999999997
 20
3.499999999999982
 30
0.0
 11
-99.99999999999997
 21
-3.500000000000009
 31
0.0
  0
SPLINE
  5
BB
330
1F
100
AcDbEntity
  8
0
  6
Continuous
 62
     4
370
    25
100
AcDbSpline
210
0.0
220
0.0
230
1.0
 70
    24
 71
     3
 72
    20
 73
    16
 74
     0
 42
0.000000001
 43
0.00000001
 40
0.0
 40
0.0
 40
0.0
 40
0.0
 40
0.125
 40
0.125
 40
0.2500000000000001
 40
0.2500000000000001
 40
0.4999999999999999
 40
0.4999999999999999
 40
0.6249999999999999
 40
0.6249999999999999
 40
0.75
 40
0.75
 40
0.875
 40
0.875
 40
1.0
 40
1.0
 40
1.0
 40
1.0
 10
9.999999999999995
 20
2.972412430736034
 30
0.0
 10
9.999999999999995
 20
2.855460713537437
 30
0.0
 10
9.999999999999995
 20
2.745909285556756
 30
0.0
 10
9.999999999999995
 20
2.495474300899665
 30
0.0
 10
9.999999999999995
 20
2.356999759863747
 30
0.0
 10
9.999999999999995
 20
1.898544723276438
 30
0.0
 10
9.999999999999995
 20
1.531962754302047
 30
0.0
 10
9.999999999999995
 20
0.9190940885239438
 30
0.0
 10
9.999999999999995
 20
0.7051184531776455
 30
0.0
 10
9.999999999999995
 20
0.2748956913187388
 30
0.0
 10
9.999999999999995
 20
0.0587681167563598
 30
0.0
 10
9.999999999999995
 20
-0.3505277023356705
 30
0.0
 10
9.999999999999995
 20
-0.5433891501556655
 30
0.0
 10
9.999999999999995
 20
-0.8791642305206371
 30
0.0
 10
9.999999999999995
 20
-1.021748072956307
 30
0.0
 10
9.999999999999995
 20
-1.130171287901413
 30
0.0
  0
SPLINE
  5
BC
330
1F
100
AcDbEntity
  8
0
  6
Continuous
 62
     4
370
    25
100
AcDbSpline
210
0.0
220
0.0
230
1.0
 70
    24
 71
     3
 72
    11
 73
     7
 74
     0
 42
0.000000001
 43
0.00000001
 40
0.0
 40
0.0
 40
0.0
 40
0.0
 40
0.2863081714456679
 40
0.624963877163575
 40
0.973440621289464
 40
1.0
 40
1.0
 40
1.0
 40
1.0
 10
9.999999999999998
 20
-2.779392500248827
 30
0.0
 10
9.999999999999998
 20
-2.861165642689496
 30
0.0
 10
9.999999999999998
 20
-3.039663028529105
 30
0.0
 10
9.999999999999995
 20
-3.387921225180515
 30
0.0
 10
9.999999999999998
 20
-3.670238893726419
 30
0.0
 10
9.999999999999995
 20
-3.8259888188679
 30
0.0
 10
9.999999999999995
 20
-3.837018746371109
 30
0.0
  0
SPLINE
  5
BD
330
1F
100
AcDbEntity
  8
0
  6
Continuous
 62
     1
370
    25
100
AcDbSpline
210
0.0
220
0.0
230
1.0
 70
     8
 71
     3
 72
    21
 73
    17
 74
     0
 42
0.000000001
 43
0.00000001
 40
0.0
 40
0.0
 40
0.0
 40
0.0
 40
0.0091720619324259
 40
0.0899661022552059
 40
0.1708321780360116
 40
0.2517345241255234
 40
0.3326075876158702
 40
0.4134036049658643
 40
0.4942563278291123
 40
0.5751570005906959
 40
0.6560400976728096
 40
0.734479057397145
 40
0.8129227211585911
 40
0.891423453861716
 40
0.9699415424039819
 40
1.0
 40
1.0
 40
1.0
 40
1.0
 10
22.79121348606214
 20
3.369429648703206
 30
0.0
 10
22.86967227626304
 20
3.398255891739632
 30
0.0
 10
23.63925185324772
 20
3.681004170998419
 30
0.0
 10
25.10005452028621
 20
3.936167837714682
 30
0.0
 10
27.1750913762587
 20
4.055018175677545
 30
0.0
 10
29.25088390196048
 20
3.78419903231895
 30
0.0
 10
31.32601104596568
 20
3.184399297473051
 30
0.0
 10
33.39999898219236
 20
2.298373153496379
 30
0.0
 10
35.47477950524893
 20
1.208785877054065
 30
0.0
 10
37.5505373364058
 20
0.0116142875503881
 30
0.0
 10
39.605632764998
 20
-1.175206550598891
 30
0.0
 10
41.6390121955167
 20
-2.247043855043188
 30
0.0
 10
43.652127602014
 20
-3.125200557196216
 30
0.0
 10
45.66630338373763
 20
-3.719662804601365
 30
0.0
 10
47.26667343219719
 20
-4.007300077916454
 30
0.0
 10
48.19540901686403
 20
-3.970370314151357
 30
0.0
 10
48.45252125871106
 20
-3.960146635303161
 30
0.0
  0
SPLINE
  5
BE
330
1F
100
AcDbEntity
  8
0
  6
Continuous
 62
     1
370
    25
100
AcDbSpline
210
0.0
220
0.0
230
1.0
 70
     8
 71
     3
 72
    17
 73
    13
 74
     0
 42
0.000000001
 43
0.00000001
 40
0.0
 40
0.0
 40
0.0
 40
0.0
 40
0.102573851350664
 40
0.2052381029437366
 40
0.307909791323004
 40
0.4105058316575074
 40
0.5130603833712243
 40
0.6157145467858155
 40
0.7183910166740394
 40
0.8210066301302398
 40
0.9235502748162757
 40
0.9999999999999999
 40
0.9999999999999999
 40
0.9999999999999999
 40
0.9999999999999999
 10
49.99999999999999
 20
-3.900662793421049
 30
0.0
 10
49.30876753759141
 20
-3.778300432197639
 30
0.0
 10
47.92569341675263
 20
-3.53346786952672
 30
0.0
 10
45.85018073332965
 20
-2.758872434771444
 30
0.0
 10
43.77451597848646
 20
-1.763665312410279
 30
0.0
 10
41.69996742954138
 20
-0.6046295282906385
 30
0.0
 10
39.62586390644812
 20
0.6071648515223363
 30
0.0
 10
37.55053879035373
 20
1.763709502387511
 30
0.0
 10
35.47478060245957
 20
2.766502954188936
 30
0.0
 10
33.39999314604158
 20
3.511258101818381
 30
0.0
 10
31.50251288775358
 20
3.947327044733845
 30
0.0
 10
30.29602594595674
 20
3.960417201289344
 30
0.0
 10
29.78072420486302
 20
3.966008128327636
 30
0.0
  0
SPLINE
  5
BF
330
1F
100
AcDbEntity
  8
0
  6
Continuous
 62
     1
370
    25
100
AcDbSpline
210
0.0
220
0.0
230
1.0
 70
     8
 71
     3
 72
     9
 73
     5
 74
     0
 42
0.000000001
 43
0.00000001
 40
0.0
 40
0.0
 40
0.0
 40
0.0
 40
0.0711058798791743
 40
1.0
 40
1.0
 40
1.0
 40
1.0
 10
11.91061417263686
 20
-3.376798076922626
 30
0.0
 10
11.86532815396225
 20
-3.393207728851746
 30
0.0
 10
11.22844666467386
 20
-3.623985436082224
 30
0.0
 10
10.59158088139442
 20
-3.734428672995373
 30
0.0
 10
10.00000000000001
 20
-3.837018746371108
 30
0.0
  0
LINE
  5
C0
330
1F
100
AcDbEntity
  8
0
  6
Continuous
 62
     1
370
    25
100
AcDbLine
 10
49.99999999999999
 20
-4.000000000000013
 30
0.0
 11
49.99999999999999
 21
-3.900662793421055
 31
0.0
  0
SPLINE
  5
C1
330
1F
100
AcDbEntity
  8
0
  6
Continuous
 62
     1
370
    25
100
AcDbSpline
210
0.0
220
0.0
230
1.0
 70
     8
 71
     3
 72
    20
 73
    16
 74
     0
 42
0.000000001
 43
0.00000001
 40
0.0
 40
0.0
 40
0.0
 40
0.0
 40
0.011752544605627
 40
0.0993100646503207
 40
0.1869510785255216
 40
0.2746238255460861
 40
0.362257266937664
 40
0.4498126445054685
 40
0.5374405313774914
 40
0.625112821453712
 40
0.7000981241265812
 40
0.7750806156425675
 40
0.8500591715572582
 40
0.9250326714383955
 40
1.0
 40
1.0
 40
1.0
 40
1.0
 10
33.67790482833711
 20
-3.367072683431553
 30
0.0
 10
33.58513763369937
 20
-3.401000578650899
 30
0.0
 10
32.80124645046646
 20
-3.687694361210064
 30
0.0
 10
31.32603707386375
 20
-3.942362663417147
 30
0.0
 10
29.25087918246092
 20
-4.053020646935646
 30
0.0
 10
27.17508420293109
 20
-3.775114304331175
 30
0.0
 10
25.10008790081416
 20
-3.168769356562474
 30
0.0
 10
23.02610688124901
 20
-2.277618866903472
 30
0.0
 10
20.951266458802
 20
-1.184909844002882
 30
0.0
 10
18.97516442886891
 20
-0.0441093655211033
 30
0.0
 10
17.10001252706628
 20
1.037731373404056
 30
0.0
 10
15.32477911213823
 20
1.995334881979772
 30
0.0
 10
13.54972705947872
 20
2.81784871601841
 30
0.0
 10
11.77479772856969
 20
3.474382900178785
 30
0.0
 10
10.59158300979499
 20
3.716143447796709
 30
0.0
 10
10.00000000000001
 20
3.837018746371087
 30
0.0
  0
SPLINE
  5
C2
330
1F
100
AcDbEntity
  8
0
  6
Continuous
 62
     1
370
    25
100
AcDbSpline
210
0.0
220
0.0
230
1.0
 70
     8
 71
     3
 72
    21
 73
    17
 74
     0
 42
0.000000001
 43
0.00000001
 40
0.0
 40
0.0
 40
0.0
 40
0.0
 40
0.0638904272323406
 40
0.1330812096216169
 40
0.2022756238137397
 40
0.2714726321628417
 40
0.3523772891041566
 40
0.4332409704304902
 40
0.514037739618704
 40
0.5949065466979827
 40
0.6758116253110182
 40
0.756687420335852
 40
0.8374861666180552
 40
0.9183416203287738
 40
0.9992450255573634
 40
1.0
 40
1.0
 40
1.0
 40
1.0
 10
11.91061417263681
 20
3.376798076922616
 30
0.0
 10
12.45697128481948
 20
3.529874361304642
 30
0.0
 10
13.59501134065181
 20
3.848726151352318
 30
0.0
 10
15.32477965391165
 20
4.03111714428825
 30
0.0
 10
17.10001238468246
 20
3.97428354837379
 30
0.0
 10
18.97516446619032
 20
3.63482460056031
 30
0.0
 10
20.95126648463591
 20
2.990796949845537
 30
0.0
 10
23.02610674016157
 20
2.047581222174721
 30
0.0
 10
25.10008843906498
 20
0.9213102694380103
 30
0.0
 10
27.17508218849968
 20
-0.2859308498732857
 30
0.0
 10
29.25088670367914
 20
-1.468669482063987
 30
0.0
 10
31.32600902714641
 20
-2.517476463925565
 30
0.0
 10
33.40000425528589
 20
-3.354306979151661
 30
0.0
 10
35.47476041059228
 20
-3.849039370549189
 30
0.0
 10
36.86508149873332
 20
-4.058222937374539
 30
0.0
 10
37.56360194955535
 20
-3.998901273066353
 30
0.0
 10
37.5700601365798
 20
-3.998352813243521
 30
0.0
  0
SPLINE
  5
C3
330
1F
100
AcDbEntity
  8
0
  6
Continuous
 62
     4
370
    25
100
AcDbSpline
210
0.0
220
0.0
230
1.0
 70
    24
 71
     3
 72
    11
 73
     7
 74
     0
 42
0.000000001
 43
0.00000001
 40
0.0
 40
0.0
 40
0.0
 40
0.0
 40
0.2863081714456137
 40
0.6249638771634536
 40
0.9734406212892748
 40
1.0
 40
1.0
 40
1.0
 40
1.0
 10
9.999999999999995
 20
-2.779392500248826
 30
0.0
 10
9.999999999999995
 20
-2.861165642689496
 30
0.0
 10
9.999999999999995
 20
-3.039663028529104
 30
0.0
 10
9.999999999999995
 20
-3.387921225180515
 30
0.0
 10
9.999999999999995
 20
-3.67023889372649
 30
0.0
 10
9.999999999999995
 20
-3.825988818868062
 30
0.0
 10
9.999999999999995
 20
-3.837018746371351
 30
0.0
  0
SPLINE
  5
C4
330
1F
100
AcDbEntity
  8
0
  6
Continuous
 62
     1
370
    25
100
AcDbSpline
210
0.0
220
0.0
230
1.0
 70
     8
 71
     3
 72
    11
 73
     7
 74
     0
 42
0.000000001
 43
0.00000001
 40
0.0
 40
0.0
 40
0.0
 40
0.0
 40
0.3058502042457145
 40
0.6117255861171466
 40
0.9176215954929151
 40
0.9999999999999999
 40
0.9999999999999999
 40
0.9999999999999999
 40
0.9999999999999999
 10
9.999999999999995
 20
-2.676707743031725
 30
0.0
 10
10.59158319771729
 20
-2.914591227548712
 30
0.0
 10
11.77479829235208
 20
-3.390377779179832
 30
0.0
 10
13.54972480406916
 20
-3.817097309312652
 30
0.0
 10
14.89240941662573
 20
-4.017831041106901
 30
0.0
 10
15.64345345256688
 20
-3.981857474503901
 30
0.0
 10
15.80279902668462
 20
-3.974225127598656
 30
0.0
  0
SPLINE
  5
C5
330
1F
100
AcDbEntity
  8
0
  6
Continuous
 62
     1
370
    25
100
AcDbSpline
210
0.0
220
0.0
230
1.0
 70
     8
 71
     3
 72
    15
 73
    11
 74
     0
 42
0.000000001
 43
0.00000001
 40
0.0
 40
0.0
 40
0.0
 40
0.0
 40
0.1121580294165654
 40
0.2417673918300797
 40
0.3713485965962928
 40
0.4970140974038222
 40
0.6226871344558581
 40
0.7484516005268639
 40
0.8742438720433428
 40
1.0
 40
1.0
 40
1.0
 40
1.0
 10
33.67790482833716
 20
3.367072683431541
 30
0.0
 10
34.27672211817045
 20
3.536629664521649
 30
0.0
 10
35.56753023149815
 20
3.902126003018149
 30
0.0
 10
37.55054535434369
 20
4.055180619746695
 30
0.0
 10
39.60563060974594
 20
3.885973370747033
 30
0.0
 10
41.63901305027468
 20
3.376612869869227
 30
0.0
 10
43.6521263068292
 20
2.590765945965841
 30
0.0
 10
45.66630771303627
 20
1.588411051946117
 30
0.0
 10
47.68101685210335
 20
0.4485653454905081
 30
0.0
 10
49.02406132395256
 20
-0.3259968137833846
 30
0.0
 10
49.69548707266374
 20
-0.7132222472031462
 30
0.0
  0
SPLINE
  5
C6
330
1F
100
AcDbEntity
  8
0
  6
Continuous
 62
     1
370
    25
100
AcDbSpline
210
0.0
220
0.0
230
1.0
 70
     8
 71
     3
 72
     8
 73
     4
 74
     0
 42
0.000000001
 43
0.00000001
 40
0.0
 40
0.0
 40
0.0
 40
0.0
 40
1.0
 40
1.0
 40
1.0
 40
1.0
 10
49.99999999999999
 20
-3.083933400934675
 30
0.0
 10
49.35788832274969
 20
-2.72189652907773
 30
0.0
 10
48.75329889679259
 20
-2.276337367750768
 30
0.0
 10
48.17131541104538
 20
-1.78045873419396
 30
0.0
  0
LINE
  5
C7
330
1F
100
AcDbEntity
  8
0
  6
Continuous
 62
     1
370
    25
100
AcDbLine
 10
49.99999999999999
 20
-3.900662793421055
 30
0.0
 11
49.99999999999999
 21
-3.083933400934674
 31
0.0
  0
SPLINE
  5
C8
330
1F
100
AcDbEntity
  8
0
  6
Continuous
 62
     1
370
    25
100
AcDbSpline
210
0.0
220
0.0
230
1.0
 70
    24
 71
     3
 72
    15
 73
    11
 74
     0
 42
0.000000001
 43
0.00000001
 40
0.0
 40
0.0
 40
0.0
 40
0.0
 40
0.0271499827411004
 40
0.1563163687173593
 40
0.2889768461307646
 40
0.4182609650208813
 40
0.5517469292892038
 40
0.6746882496065225
 40
0.8006232444524002
 40
1.0
 40
1.0
 40
1.0
 40
1.0
 10
49.6026028582121
 20
-0.7782604743429012
 30
0.0
 10
49.59889127238668
 20
-0.7808593547165631
 30
0.0
 10
49.5775217700948
 20
-0.7958224413091246
 30
0.0
 10
49.49351891586506
 20
-0.8546418730719417
 30
0.0
 10
49.3609155399165
 20
-0.9474917565031362
 30
0.0
 10
49.18726609497525
 20
-1.069082406856974
 30
0.0
 10
48.9900133079103
 20
-1.207200295292699
 30
0.0
 10
48.77311932299146
 20
-1.359071098525213
 30
0.0
 10
48.50276228223188
 20
-1.54837713647316
 30
0.0
 10
48.29726214146792
 20
-1.69226988413923
 30
0.0
 10
48.17131541104541
 20
-1.780458734193955
 30
0.0
  0
SPLINE
  5
C9
330
1F
100
AcDbEntity
  8
0
  6
Continuous
 62
     1
370
    25
100
AcDbSpline
210
0.0
220
0.0
230
1.0
 70
     8
 71
     3
 72
    20
 73
    16
 74
     0
 42
0.000000001
 43
0.00000001
 40
0.0
 40
0.0
 40
0.0
 40
0.0
 40
0.0305812038173874
 40
0.1114224946866092
 40
0.1922310942974761
 40
0.2731181836673835
 40
0.3540228495842738
 40
0.4348795632360822
 40
0.5156795685757237
 40
0.5965566238586183
 40
0.6774629631860302
 40
0.7583330304144793
 40
0.8391310586293234
 40
0.9199960000249545
 40
1.0
 40
1.0
 40
1.0
 40
1.0
 10
44.55887502086304
 20
-3.349327685830518
 30
0.0
 10
44.29726850189289
 20
-3.438820131821402
 30
0.0
 10
43.34410618872847
 20
-3.764885503461268
 30
0.0
 10
41.6999758257634
 20
-4.00294528211926
 30
0.0
 10
39.62586154532541
 20
-4.01782463234241
 30
0.0
 10
37.55053983198429
 20
-3.656049414620956
 30
0.0
 10
35.47477879886483
 20
-2.973959800229194
 30
0.0
 10
33.39999931317227
 20
-2.025803745553385
 30
0.0
 10
31.32601042785164
 20
-0.8969359366659916
 30
0.0
 10
29.25088604600653
 20
0.3111308648932805
 30
0.0
 10
27.17508341747616
 20
1.491146007391829
 30
0.0
 10
25.10008418457093
 20
2.540232558421854
 30
0.0
 10
23.02612252037519
 20
3.356769207521893
 30
0.0
 10
20.95892247899313
 20
3.898063239919061
 30
0.0
 10
19.58276089558326
 20
3.96483076566017
 30
0.0
 10
18.89836258757741
 20
3.998035864681846
 30
0.0
  0
SPLINE
  5
CA
330
1F
100
AcDbEntity
  8
0
  6
Continuous
 62
     1
370
    25
100
AcDbSpline
210
0.0
220
0.0
230
1.0
 70
     8
 71
     3
 72
    12
 73
     8
 74
     0
 42
0.000000001
 43
0.00000001
 40
0.0
 40
0.0
 40
0.0
 40
0.0
 40
0.2221643871574132
 40
0.4445245719200554
 40
0.6669008639948989
 40
0.8891133102037314
 40
1.0
 40
1.0
 40
1.0
 40
1.0
 10
50.00000000000001
 20
0.8859061869186665
 30
0.0
 10
49.30876740981871
 20
1.267304901851809
 30
0.0
 10
47.92569303332194
 20
2.030438465497126
 30
0.0
 10
45.85018226867592
 20
2.977194006053022
 30
0.0
 10
43.77451022243257
 20
3.646288014517717
 30
0.0
 10
42.04610757068041
 20
3.989731833454922
 30
0.0
 10
41.00971931173044
 20
3.963868789406728
 30
0.0
 10
40.66471192216782
 20
3.955259138307194
 30
0.0
  0
SPLINE
  5
CB
330
1F
100
AcDbEntity
  8
0
  6
Continuous
 62
     1
370
    25
100
AcDbSpline
210
0.0
220
0.0
230
1.0
 70
     8
 71
     3
 72
    14
 73
    10
 74
     0
 42
0.000000001
 43
0.00000001
 40
0.0
 40
0.0
 40
0.0
 40
0.0
 40
0.1438011640484252
 40
0.3060828117077206
 40
0.4448808111372429
 40
0.5836736071077204
 40
0.7224591182694832
 40
0.8612352706993711
 40
0.9999999999999999
 40
0.9999999999999999
 40
0.9999999999999999
 40
0.9999999999999999
 10
22.79121348606215
 20
-3.369429648703217
 30
0.0
 10
22.17801698018215
 20
-3.541391676322722
 30
0.0
 10
20.872819543909
 20
-3.907415284469691
 30
0.0
 10
18.97515723053485
 20
-4.04760983266177
 30
0.0
 10
17.10001432701656
 20
-3.909473861659182
 30
0.0
 10
15.32477863004333
 20
-3.517895844068996
 30
0.0
 10
13.54972718802519
 20
-2.896859535492152
 30
0.0
 10
11.77479769643706
 20
-2.09161804897791
 30
0.0
 10
10.59158299908441
 20
-1.450644747788955
 30
0.0
 10
10.00000000000001
 20
-1.130171287901421
 30
0.0
  0
SPLINE
  5
CC
330
1F
100
AcDbEntity
  8
0
  6
Continuous
 62
     4
370
    25
100
AcDbSpline
210
0.0
220
0.0
230
1.0
 70
    24
 71
     3
 72
    20
 73
    16
 74
     0
 42
0.000000001
 43
0.00000001
 40
0.0
 40
0.0
 40
0.0
 40
0.0
 40
0.1249999999999998
 40
0.1249999999999998
 40
0.2499999999999997
 40
0.2499999999999997
 40
0.4999999999999998
 40
0.4999999999999998
 40
0.6249999999999998
 40
0.6249999999999998
 40
0.7499999999999998
 40
0.7499999999999998
 40
0.8749999999999999
 40
0.8749999999999999
 40
1.0
 40
1.0
 40
1.0
 40
1.0
 10
9.999999999999995
 20
2.972412430736032
 30
0.0
 10
9.999999999999995
 20
2.85546071353743
 30
0.0
 10
9.999999999999995
 20
2.745909285556742
 30
0.0
 10
9.999999999999995
 20
2.495474300899639
 30
0.0
 10
9.999999999999995
 20
2.356999759863712
 30
0.0
 10
9.999999999999995
 20
1.898544723276378
 30
0.0
 10
9.999999999999995
 20
1.531962754301964
 30
0.0
 10
9.999999999999995
 20
0.9190940885238247
 30
0.0
 10
9.999999999999995
 20
0.7051184531775174
 30
0.0
 10
9.999999999999995
 20
0.2748956913185919
 30
0.0
 10
9.999999999999995
 20
0.058768116756206
 30
0.0
 10
9.999999999999995
 20
-0.3505277023358299
 30
0.0
 10
9.999999999999995
 20
-0.5433891501558237
 30
0.0
 10
9.999999999999995
 20
-0.8791642305207799
 30
0.0
 10
9.999999999999995
 20
-1.021748072956436
 30
0.0
 10
9.999999999999995
 20
-1.130171287901523
 30
0.0
  0
SPLINE
  5
CD
330
1F
100
AcDbEntity
  8
0
  6
Continuous
 62
     1
370
    25
100
AcDbSpline
210
0.0
220
0.0
230
1.0
 70
     8
 71
     3
 72
    16
 73
    12
 74
     0
 42
0.000000001
 43
0.00000001
 40
0.0
 40
0.0
 40
0.0
 40
0.0
 40
0.1063633556680217
 40
0.2127354671803158
 40
0.3191147521734506
 40
0.4254996209824742
 40
0.5318884782500045
 40
0.6562775841515712
 40
0.7806036909588463
 40
0.9048269218458795
 40
1.0
 40
1.0
 40
1.0
 40
1.0
 10
9.999999999999995
 20
2.972412430736015
 30
0.0
 10
10.59158301033028
 20
2.72496410604104
 30
0.0
 10
11.77479773017564
 20
2.230047086675147
 30
0.0
 10
13.5497270530541
 20
1.290124825077752
 30
0.0
 10
15.32477913623282
 20
0.2799315766332697
 30
0.0
 10
17.10001243710667
 20
-0.7524491005881905
 30
0.0
 10
18.97516478863404
 20
-1.789487566677893
 30
0.0
 10
20.95126486124595
 20
-2.748075452429324
 30
0.0
 10
23.02611280718255
 20
-3.498943829892472
 30
0.0
 10
24.93787470822092
 20
-3.943460369244529
 30
0.0
 10
26.15855509557302
 20
-3.960506846648912
 30
0.0
 10
26.68808045730038
 20
-3.967901527686848
 30
0.0
  0
SPLINE
  5
CE
330
1F
100
AcDbEntity
  8
0
  6
Continuous
 62
     1
370
    25
100
AcDbSpline
210
0.0
220
0.0
230
1.0
 70
     8
 71
     3
 72
    10
 73
     6
 74
     0
 42
0.000000001
 43
0.00000001
 40
0.0
 40
0.0
 40
0.0
 40
0.0
 40
0.2155723754540342
 40
0.6078425427005194
 40
0.9999999999999999
 40
0.9999999999999999
 40
0.9999999999999999
 40
0.9999999999999999
 10
44.55887502086303
 20
3.349327685830509
 30
0.0
 10
44.92797026991815
 20
3.467815177699267
 30
0.0
 10
45.96869635651352
 20
3.801910574588696
 30
0.0
 10
47.68102368575671
 20
4.038785616029146
 30
0.0
 10
49.02406360161881
 20
3.970192361838366
 30
0.0
 10
49.69548707266377
 20
3.935900662630396
 30
0.0
  0
SPLINE
  5
CF
330
1F
100
AcDbEntity
  8
0
  6
Continuous
 62
     1
370
    25
100
AcDbSpline
210
0.0
220
0.0
230
1.0
 70
     8
 71
     3
 72
    18
 73
    14
 74
     0
 42
0.000000001
 43
0.00000001
 40
0.0
 40
0.0
 40
0.0
 40
0.0
 40
0.2499999999999974
 40
0.2499999999999974
 40
0.3749999999999971
 40
0.3749999999999971
 40
0.4999999999999967
 40
0.4999999999999967
 40
0.6249999999999962
 40
0.6249999999999962
 40
0.7499999999999959
 40
0.7499999999999959
 40
1.0
 40
1.0
 40
1.0
 40
1.0
 10
49.69548707266377
 20
3.9359006626304
 30
0.0
 10
49.70297875298807
 20
3.670631489969647
 30
0.0
 10
49.68247227355729
 20
3.410206251279684
 30
0.0
 10
49.59321355482393
 20
3.029689247395047
 30
0.0
 10
49.5531563902018
 20
2.904661764890817
 30
0.0
 10
49.45343788869685
 20
2.671161901843161
 30
0.0
 10
49.39283571894089
 20
2.560198376270173
 30
0.0
 10
49.25167981840416
 20
2.358081368929657
 30
0.0
 10
49.17269004411775
 20
2.268708753570049
 30
0.0
 10
48.99834265079014
 20
2.112702087671111
 30
0.0
 10
48.90245269895235
 20
2.046221189136294
 30
0.0
 10
48.6050480671385
 20
1.888787309562156
 30
0.0
 10
48.38787379522093
 20
1.835995677645663
 30
0.0
 10
48.17131541104549
 20
1.828684588954508
 30
0.0
  0
LINE
  5
D0
330
1F
100
AcDbEntity
  8
0
  6
Continuous
 62
     1
370
    25
100
AcDbLine
 10
49.99999999999999
 20
0.889359305234181
 30
0.0
 11
49.99999999999999
 21
0.9404748452664394
 31
0.0
  0
LINE
  5
D1
330
1F
100
AcDbEntity
  8
0
  6
Continuous
 62
     1
370
    25
100
AcDbLine
 10
49.99999999999999
 20
-0.5000000000000179
 30
0.0
 11
49.99999999999999
 21
0.8859061869186663
 31
0.0
  0
LINE
  5
D2
330
1F
100
AcDbEntity
  8
0
  6
Continuous
 62
     1
370
    25
100
AcDbLine
 10
49.99999999999999
 20
-0.5000000000000179
 30
0.0
 11
49.69548707266377
 21
-0.7132222472031577
 31
0.0
  0
LINE
  5
D3
330
1F
100
AcDbEntity
  8
0
  6
Continuous
 62
     1
370
    25
100
AcDbLine
 10
49.99999999999999
 20
3.968626966596887
 30
0.0
 11
49.99999999999999
 21
4.000000000000001
 31
0.0
  0
ELLIPSE
  5
D4
330
1F
100
AcDbEntity
  8
0
  6
Continuous
 62
     1
370
    25
100
AcDbEllipse
 10
50.71407400337105
 20
-0.0000000000000064
 30
0.0
 11
5.712592026968444
 21
0.0
 31
0.0
210
0.0
220
0.0
230
1.0
 40
0.7002075382097123
 41
1.696124157962961
 42
1.750060474925947
  0
LINE
  5
D5
330
1F
100
AcDbEntity
  8
0
  6
Continuous
 62
     1
370
    25
100
AcDbLine
 10
49.99999999999999
 20
0.9404748452664394
 30
0.0
 11
49.99999999999999
 21
3.968626966596887
 31
0.0
  0
LINE
  5
D6
330
1F
100
AcDbEntity
  8
0
  6
Continuous
 62
     1
370
    25
100
AcDbLine
 10
49.99999999999999
 20
-0.500000000000004
 30
0.0
 11
49.99999999999999
 21
-3.083933400934676
 31
0.0
  0
LINE
  5
D7
330
1F
100
AcDbEntity
  8
중심선
100
AcDbLine
 10
-103.0
 20
-0.0000000000000112
 30
0.0
 11
53.00000000000001
 21
0.0000000000000043
 31
0.0
  0
CIRCLE
  5
D8
330
1F
100
AcDbEntity
  8
해칭선
100
AcDbCircle
 10
-0.0000064213705585
 20
-0.0000000000000043
 30
0.0
 40
2.999999999999999
  0
INSERT
  5
D9
330
1F
100
AcDbEntity
  8
0
  6
Continuous
 62
     7
100
AcDbBlockReference
 66
     1
  2
블럭10
 10
-37.44009924894177
 20
-52.04717430164393
 30
0.0
  0
ATTRIB
  5
DA
330
D9
100
AcDbEntity
  8
FORMAT
 62
     2
100
AcDbText
 10
-58.2983467805343
 20
-49.97180738881174
 30
0.0
 40
4.233333333333333
  1
SEME7208040150E [ 4 FLUTE ]
 41
0.75
  7
SLDTEXTSTYLE0
 11
-58.2983467805343
 21
-52.08847405547841
 31
0.0
100
AcDbAttribute
  2
AUTOATTR0
 70
     0
 74
     1
  0
SEQEND
  5
DB
330
D9
100
AcDbEntity
  8
0
  6
Continuous
 62
     7
  0
HATCH
  5
DC
330
1F
100
AcDbEntity
  8
중심선
100
AcDbHatch
 10
0.0
 20
0.0
 30
0.0
210
0.0
220
0.0
230
1.0
  2
SOLID
 70
     1
 71
     0
 91
        1
 92
        0
 93
        4
 72
     1
 10
-31.72518994456092
 20
-35.8
 11
-35.1714651883982
 21
-35.8
 72
     1
 10
-35.1714651883982
 20
-35.8
 11
-37.29969504760222
 21
-38.33632558057259
 72
     1
 10
-37.29969504760222
 20
-38.33632558057259
 11
-33.85338671865179
 21
-38.3362861512701
 72
     1
 10
-33.85338671865179
 20
-38.3362861512701
 11
-31.72518994456092
 21
-35.8
 97
        0
 75
     0
 76
     1
 98
        1
 10
0.0
 20
0.0
  0
HATCH
  5
DD
330
1F
100
AcDbEntity
  8
중심선
100
AcDbHatch
 10
0.0
 20
0.0
 30
0.0
210
0.0
220
0.0
230
1.0
  2
SOLID
 70
     1
 71
     0
 91
        1
 92
        0
 93
        4
 72
     1
 10
-26.71242595352494
 20
-35.8
 11
-30.15870119736222
 21
-35.8
 72
     1
 10
-30.15870119736222
 20
-35.8
 11
-34.68983920571964
 21
-41.20000000000002
 72
     1
 10
-34.68983920571964
 20
-41.20000000000002
 11
-31.24356396188236
 21
-41.20000000000002
 72
     1
 10
-31.24356396188236
 20
-41.20000000000002
 11
-26.71242595352494
 21
-35.8
 97
        0
 75
     0
 76
     1
 98
        1
 10
0.0
 20
0.0
  0
HATCH
  5
DE
330
1F
100
AcDbEntity
  8
중심선
100
AcDbHatch
 10
0.0
 20
0.0
 30
0.0
210
0.0
220
0.0
230
1.0
  2
SOLID
 70
     1
 71
     0
 91
        1
 92
        0
 93
        4
 72
     1
 10
-21.6996619624891
 20
-35.8
 11
-25.14593720632616
 21
-35.79999999999997
 72
     1
 10
-25.14593720632616
 20
-35.79999999999997
 11
-32.19437410821543
 21
-44.20000000000002
 72
     1
 10
-32.19437410821543
 20
-44.20000000000002
 11
-28.74809886437815
 21
-44.20000000000002
 72
     1
 10
-28.74809886437815
 20
-44.20000000000002
 11
-21.6996619624891
 21
-35.8
 97
        0
 75
     0
 76
     1
 98
        1
 10
0.0
 20
0.0
  0
HATCH
  5
DF
330
1F
100
AcDbEntity
  8
중심선
100
AcDbHatch
 10
0.0
 20
0.0
 30
0.0
210
0.0
220
0.0
230
1.0
  2
SOLID
 70
     1
 71
     0
 91
        1
 92
        0
 93
        6
 72
     3
 10
-16.89977153147687
 20
-40.00000000005127
 11
3.960054785062284
 21
1.540850780301639E-10
 40
0.3939339440162633
 50
17.09539180608434
 51
320.0019657685081
 73
     0
 72
     1
 10
-15.2167718757763
 20
-38.58789400463833
 11
-12.91147000207521
 21
-36.65356729459038
 72
     3
 10
-16.89977153152972
 20
-40.00000000000015
 11
6.600054785286829
 21
-1.249000902703301E-13
 40
0.6363583540795982
 50
39.99873849337388
 51
368.4976242363725
 73
     1
 72
     1
 10
-10.47443903962911
 20
-39.03999999993002
 11
-18.2197042246938
 21
-39.03999999993002
 72
     1
 10
-18.2197042246938
 20
-39.03999999993002
 11
-18.21972926913973
 21
-40.95999999992991
 72
     1
 10
-18.21972926913973
 20
-40.95999999992991
 11
-13.77834949966769
 21
-40.95999999992988
 97
        0
 75
     0
 76
     1
 98
        1
 10
0.0
 20
0.0
  0
DIMENSION
  5
E0
330
1F
100
AcDbEntity
  8
치수문자_일반주서
100
AcDbDimension
  2
_D
 10
62.88314233198134
 20
4.000000000000046
 30
0.0
 11
62.8831423319813
 21
13.66650000000005
 31
0.0
 70
   160
  1
%%c<>
 71
     2
 42
8.000000000000012
 52
-270.0
  3
SLDDIMSTYLE0
100
AcDbAlignedDimension
 13
50.00000000000004
 23
-4.000000000000013
 33
0.0
 14
50.00000000000004
 24
3.999999999999999
 34
0.0
 50
90.0000000000002
100
AcDbRotatedDimension
  0
DIMENSION
  5
EE
330
1F
100
AcDbEntity
  8
치수문자_일반주서
100
AcDbDimension
  2
_D_1
 10
49.99999999999999
 20
21.38913260158163
 30
0.0
 11
-24.99999999999999
 21
21.38913260158163
 31
0.0
 70
   160
  1
<>
 71
     2
 42
150.0
  3
SLDDIMSTYLE1
100
AcDbAlignedDimension
 13
-99.99999999999997
 23
3.499999999999982
 33
0.0
 14
49.99999999999999
 24
4.000000000000002
 34
0.0
 50
-0.0000000000000027
100
AcDbRotatedDimension
  0
DIMENSION
  5
F9
330
1F
100
AcDbEntity
  8
치수문자_일반주서
100
AcDbDimension
  2
_D_2
 10
-112.7620020792681
 20
-4.00000000000006
 30
0.0
 11
-112.7620020792682
 21
15.6158275815031
 31
0.0
 70
   160
  1
%%c<>
 71
     2
 42
8.000000000000007
 52
-270.0
  3
SLDDIMSTYLE2
100
AcDbAlignedDimension
 13
-99.49999999999997
 23
3.999999999999997
 33
0.0
 14
-99.49999999999997
 24
-4.00000000000001
 34
0.0
 50
90.0000000000002
100
AcDbRotatedDimension
  0
DIMENSION
  5
107
330
1F
100
AcDbEntity
  8
치수문자_일반주서
100
AcDbDimension
  2
_D_3
 10
49.99999999999999
 20
14.68293704895874
 30
0.0
 11
29.99999999999999
 21
14.68293704895874
 31
0.0
 70
   160
  1
<>
 71
     2
 42
40.0
  3
SLDDIMSTYLE1
100
AcDbAlignedDimension
 13
9.999999999999995
 23
3.837018746371088
 33
0.0
 14
49.99999999999999
 24
4.000000000000002
 34
0.0
 50
-0.0000000000000051
100
AcDbRotatedDimension
  0
INSERT
  5
117
330
1F
100
AcDbEntity
  8
해칭선
100
AcDbBlockReference
  2
SW_DOWELSYMBOL_0
 10
-0.0000064213705585
 20
-0.0000000000000043
 30
0.0
  0
ENDSEC
  0
SECTION
  2
OBJECTS
  0
DICTIONARY
  5
C
330
0
100
AcDbDictionary
281
     1
  3
ACAD_GROUP
350
D
  3
ACAD_IMAGE_VARS
350
13B
  3
ACAD_LAYOUT
350
1A
  3
ACAD_MLINESTYLE
350
17
  3
ACAD_PLOTSETTINGS
350
19
  3
ACAD_PLOTSTYLENAME
350
E
  3
ACAD_SCALELIST
350
47
  3
APPDATA
350
139
  3
DWGPROPS
350
14B
  0
DICTIONARY
  5
D
102
{ACAD_REACTORS
330
C
102
}
330
C
100
AcDbDictionary
281
     1
  0
RASTERVARIABLES
  5
13B
102
{ACAD_REACTORS
330
C
102
}
330
C
100
AcDbRasterVariables
 90
        0
 70
     1
 71
     1
 72
     1
  0
DICTIONARY
  5
1A
102
{ACAD_REACTORS
330
C
102
}
330
C
100
AcDbDictionary
281
     1
  3
Layout1
350
1E
  3
Layout2
350
26
  3
Model
350
22
  0
DICTIONARY
  5
17
102
{ACAD_REACTORS
330
C
102
}
330
C
100
AcDbDictionary
281
     1
  3
Standard
350
18
  0
DICTIONARY
  5
19
102
{ACAD_REACTORS
330
C
102
}
330
C
100
AcDbDictionary
281
     1
  0
ACDBDICTIONARYWDFLT
  5
E
102
{ACAD_REACTORS
330
C
102
}
330
C
100
AcDbDictionary
281
     1
  3
Normal
350
F
100
AcDbDictionaryWithDefault
340
F
  0
DICTIONARY
  5
47
102
{ACAD_REACTORS
330
C
102
}
330
C
100
AcDbDictionary
281
     1
  3
A0
350
48
  3
A1
350
49
  3
A2
350
4A
  3
A3
350
4B
  3
A4
350
4C
  3
A5
350
4D
  3
A6
350
4E
  3
A7
350
4F
  3
A8
350
50
  3
A9
350
51
  3
B0
350
52
  3
B1
350
53
  3
B2
350
54
  3
B3
350
55
  3
B4
350
56
  3
B5
350
57
  3
B6
350
58
  3
B7
350
59
  3
B8
350
5A
  3
B9
350
5B
  3
C0
350
5C
  3
C1
350
5D
  3
C2
350
5E
  3
C3
350
5F
  3
C4
350
60
  3
C5
350
61
  3
C6
350
62
  3
C7
350
63
  3
C8
350
64
  3
C9
350
65
  3
D0
350
66
  3
D1
350
67
  3
D2
350
68
  0
DICTIONARY
  5
139
102
{ACAD_REACTORS
330
C
102
}
330
C
100
AcDbDictionary
281
     1
  0
XRECORD
  5
14B
102
{ACAD_REACTORS
330
C
102
}
330
C
100
AcDbXrecord
280
     1
  1
DWGPROPS COOKIE
  2

  3

  4

  6

  7

  8
12014102
  9

300
=
301
=
302
=
303
=
304
=
305
=
306
=
307
=
308
=
309
=
 40
0.0
 41
2458260.201646504
 42
2458268.250684641
  1

 90
        0
  0
LAYOUT
  5
1E
102
{ACAD_REACTORS
330
1A
102
}
330
1A
100
AcDbPlotSettings
  1

  2
none_device
  4

  6

 40
0.0
 41
0.0
 42
0.0
 43
0.0
 44
0.0
 45
0.0
 46
0.0
 47
0.0
 48
0.0
 49
0.0
140
0.0
141
0.0
142
1.0
143
1.0
 70
   688
 72
     1
 73
     0
 74
     5
  7

 75
    16
147
1.0
148
0.0
149
0.0
100
AcDbLayout
  1
Layout1
 70
     1
 71
     1
 10
0.0
 20
0.0
 11
420.0
 21
297.0
 12
0.0
 22
0.0
 32
0.0
 14
1.000000000000000E+20
 24
1.000000000000000E+20
 34
1.000000000000000E+20
 15
-1.000000000000000E+20
 25
-1.000000000000000E+20
 35
-1.000000000000000E+20
146
0.0
 13
0.0
 23
0.0
 33
0.0
 16
1.0
 26
0.0
 36
0.0
 17
0.0
 27
1.0
 37
0.0
 76
     0
330
1B
  0
LAYOUT
  5
26
102
{ACAD_REACTORS
330
1A
102
}
330
1A
100
AcDbPlotSettings
  1

  2
none_device
  4

  6

 40
0.0
 41
0.0
 42
0.0
 43
0.0
 44
0.0
 45
0.0
 46
0.0
 47
0.0
 48
0.0
 49
0.0
140
0.0
141
0.0
142
1.0
143
1.0
 70
   688
 72
     1
 73
     0
 74
     5
  7

 75
    16
147
1.0
148
0.0
149
0.0
100
AcDbLayout
  1
Layout2
 70
     1
 71
     2
 10
0.0
 20
0.0
 11
0.0
 21
0.0
 12
0.0
 22
0.0
 32
0.0
 14
0.0
 24
0.0
 34
0.0
 15
0.0
 25
0.0
 35
0.0
146
0.0
 13
0.0
 23
0.0
 33
0.0
 16
1.0
 26
0.0
 36
0.0
 17
0.0
 27
1.0
 37
0.0
 76
     0
330
23
  0
LAYOUT
  5
22
102
{ACAD_REACTORS
330
1A
102
}
330
1A
100
AcDbPlotSettings
  1

  2
none_device
  4
ANSI_A_(11.00_x_8.50_Inches)
  6

 40
6.35
 41
19.05
 42
6.35000508
 43
19.05000254
 44
279.4
 45
215.9
 46
169.4496787319489
 47
107.4649955001517
 48
0.0
 49
0.0
140
0.0
141
0.0
142
0.0589085814011888
143
1.0
 70
  1696
 72
     0
 73
     0
 74
     0
  7

 75
     0
147
0.0235690232323232
148
0.0
149
0.0
100
AcDbLayout
  1
Model
 70
     1
 71
     0
 10
0.0
 20
0.0
 11
420.0
 21
297.0
 12
0.0
 22
0.0
 32
0.0
 14
-117.1370020792682
 24
-49.97180738881174
 34
0.0
 15
63.4334756653147
 25
25.76413260158163
 35
0.0
146
0.0
 13
0.0
 23
0.0
 33
0.0
 16
1.0
 26
0.0
 36
0.0
 17
0.0
 27
1.0
 37
0.0
 76
     0
330
1F
331
29
  0
MLINESTYLE
  5
18
102
{ACAD_REACTORS
330
17
102
}
330
17
100
AcDbMlineStyle
  2
Standard
 70
     0
  3

 62
   256
 51
90.0
 52
90.0
 71
     2
 49
0.5
 62
   256
  6
BYLAYER
 49
-0.5
 62
   256
  6
BYLAYER
  0
ACDBPLACEHOLDER
  5
F
102
{ACAD_REACTORS
330
E
102
}
330
E
  0
SCALE
  5
48
102
{ACAD_REACTORS
330
47
102
}
330
47
100
AcDbScale
 70
     0
300
1:1
140
1.0
141
1.0
290
     1
  0
SCALE
  5
49
102
{ACAD_REACTORS
330
47
102
}
330
47
100
AcDbScale
 70
     0
300
1:2
140
1.0
141
2.0
290
     0
  0
SCALE
  5
4A
102
{ACAD_REACTORS
330
47
102
}
330
47
100
AcDbScale
 70
     0
300
1:4
140
1.0
141
4.0
290
     0
  0
SCALE
  5
4B
102
{ACAD_REACTORS
330
47
102
}
330
47
100
AcDbScale
 70
     0
300
1:5
140
1.0
141
5.0
290
     0
  0
SCALE
  5
4C
102
{ACAD_REACTORS
330
47
102
}
330
47
100
AcDbScale
 70
     0
300
1:8
140
1.0
141
8.0
290
     0
  0
SCALE
  5
4D
102
{ACAD_REACTORS
330
47
102
}
330
47
100
AcDbScale
 70
     0
300
1:10
140
1.0
141
10.0
290
     0
  0
SCALE
  5
4E
102
{ACAD_REACTORS
330
47
102
}
330
47
100
AcDbScale
 70
     0
300
1:16
140
1.0
141
16.0
290
     0
  0
SCALE
  5
4F
102
{ACAD_REACTORS
330
47
102
}
330
47
100
AcDbScale
 70
     0
300
1:20
140
1.0
141
20.0
290
     0
  0
SCALE
  5
50
102
{ACAD_REACTORS
330
47
102
}
330
47
100
AcDbScale
 70
     0
300
1:30
140
1.0
141
30.0
290
     0
  0
SCALE
  5
51
102
{ACAD_REACTORS
330
47
102
}
330
47
100
AcDbScale
 70
     0
300
1:40
140
1.0
141
40.0
290
     0
  0
SCALE
  5
52
102
{ACAD_REACTORS
330
47
102
}
330
47
100
AcDbScale
 70
     0
300
1:50
140
1.0
141
50.0
290
     0
  0
SCALE
  5
53
102
{ACAD_REACTORS
330
47
102
}
330
47
100
AcDbScale
 70
     0
300
1:100
140
1.0
141
100.0
290
     0
  0
SCALE
  5
54
102
{ACAD_REACTORS
330
47
102
}
330
47
100
AcDbScale
 70
     0
300
2:1
140
2.0
141
1.0
290
     0
  0
SCALE
  5
55
102
{ACAD_REACTORS
330
47
102
}
330
47
100
AcDbScale
 70
     0
300
4:1
140
4.0
141
1.0
290
     0
  0
SCALE
  5
56
102
{ACAD_REACTORS
330
47
102
}
330
47
100
AcDbScale
 70
     0
300
8:1
140
8.0
141
1.0
290
     0
  0
SCALE
  5
57
102
{ACAD_REACTORS
330
47
102
}
330
47
100
AcDbScale
 70
     0
300
10:1
140
10.0
141
1.0
290
     0
  0
SCALE
  5
58
102
{ACAD_REACTORS
330
47
102
}
330
47
100
AcDbScale
 70
     0
300
100:1
140
100.0
141
1.0
290
     0
  0
SCALE
  5
59
102
{ACAD_REACTORS
330
47
102
}
330
47
100
AcDbScale
 70
     0
300
1/128" = 1'-0"
140
0.0078125
141
12.0
290
     0
  0
SCALE
  5
5A
102
{ACAD_REACTORS
330
47
102
}
330
47
100
AcDbScale
 70
     0
300
1/64" = 1'-0"
140
0.015625
141
12.0
290
     0
  0
SCALE
  5
5B
102
{ACAD_REACTORS
330
47
102
}
330
47
100
AcDbScale
 70
     0
300
1/32" = 1'-0"
140
0.03125
141
12.0
290
     0
  0
SCALE
  5
5C
102
{ACAD_REACTORS
330
47
102
}
330
47
100
AcDbScale
 70
     0
300
1/16" = 1'-0"
140
0.0625
141
12.0
290
     0
  0
SCALE
  5
5D
102
{ACAD_REACTORS
330
47
102
}
330
47
100
AcDbScale
 70
     0
300
3/32" = 1'-0"
140
0.09375
141
12.0
290
     0
  0
SCALE
  5
5E
102
{ACAD_REACTORS
330
47
102
}
330
47
100
AcDbScale
 70
     0
300
1/8" = 1'-0"
140
0.125
141
12.0
290
     0
  0
SCALE
  5
5F
102
{ACAD_REACTORS
330
47
102
}
330
47
100
AcDbScale
 70
     0
300
3/16" = 1'-0"
140
0.1875
141
12.0
290
     0
  0
SCALE
  5
60
102
{ACAD_REACTORS
330
47
102
}
330
47
100
AcDbScale
 70
     0
300
1/4" = 1'-0"
140
0.25
141
12.0
290
     0
  0
SCALE
  5
61
102
{ACAD_REACTORS
330
47
102
}
330
47
100
AcDbScale
 70
     0
300
3/8" = 1'-0"
140
0.375
141
12.0
290
     0
  0
SCALE
  5
62
102
{ACAD_REACTORS
330
47
102
}
330
47
100
AcDbScale
 70
     0
300
1/2" = 1'-0"
140
0.5
141
12.0
290
     0
  0
SCALE
  5
63
102
{ACAD_REACTORS
330
47
102
}
330
47
100
AcDbScale
 70
     0
300
3/4" = 1'-0"
140
0.75
141
12.0
290
     0
  0
SCALE
  5
64
102
{ACAD_REACTORS
330
47
102
}
330
47
100
AcDbScale
 70
     0
300
1" = 1'-0"
140
1.0
141
12.0
290
     0
  0
SCALE
  5
65
102
{ACAD_REACTORS
330
47
102
}
330
47
100
AcDbScale
 70
     0
300
1-1/2" = 1'-0"
140
1.5
141
12.0
290
     0
  0
SCALE
  5
66
102
{ACAD_REACTORS
330
47
102
}
330
47
100
AcDbScale
 70
     0
300
3" = 1'-0"
140
3.0
141
12.0
290
     0
  0
SCALE
  5
67
102
{ACAD_REACTORS
330
47
102
}
330
47
100
AcDbScale
 70
     0
300
6" = 1'-0"
140
6.0
141
12.0
290
     0
  0
SCALE
  5
68
102
{ACAD_REACTORS
330
47
102
}
330
47
100
AcDbScale
 70
     0
300
1'-0" = 1'-0"
140
12.0
141
12.0
290
     0
  0
ENDSEC
  0
EOF
