  0
SECTION
  2
HEADER
  9
$ACADVER
  1
AC1015
  9
$ACADMAINTVER
 70
     6
  9
$DWGCODEPAGE
  3
ANSI_949
  9
$INSBASE
 10
0.0
 20
0.0
 30
0.0
  9
$EXTMIN
 10
-68.26942285543055
 20
-49.97180738881174
 30
0.0
  9
$EXTMAX
 10
54.527128867236
 20
24.76413260158164
 30
0.0
  9
$LIMMIN
 10
0.0
 20
0.0
  9
$LIMMAX
 10
420.0
 20
297.0
  9
$ORTHOMODE
 70
     0
  9
$REGENMODE
 70
     1
  9
$FILLMODE
 70
     1
  9
$QTEXTMODE
 70
     0
  9
$MIRRTEXT
 70
     1
  9
$LTSCALE
 40
1.0
  9
$ATTMODE
 70
     1
  9
$TEXTSIZE
 40
3.5
  9
$TRACEWID
 40
1.0
  9
$TEXTSTYLE
  7
Standard
  9
$CLAYER
  8
0
  9
$CELTYPE
  6
ByLayer
  9
$CECOLOR
 62
   256
  9
$CELTSCALE
 40
1.0
  9
$DISPSILH
 70
     0
  9
$DIMSCALE
 40
1.0
  9
$DIMASZ
 40
3.302
  9
$DIMEXO
 40
1.0
  9
$DIMDLI
 40
3.75
  9
$DIMRND
 40
0.0
  9
$DIMDLE
 40
0.0
  9
$DIMEXE
 40
1.0
  9
$DIMTP
 40
0.0
  9
$DIMTM
 40
0.0
  9
$DIMTXT
 40
3.5
  9
$DIMCEN
 40
2.5
  9
$DIMTSZ
 40
0.0
  9
$DIMTOL
 70
     0
  9
$DIMLIM
 70
     0
  9
$DIMTIH
 70
     1
  9
$DIMTOH
 70
     1
  9
$DIMSE1
 70
     0
  9
$DIMSE2
 70
     0
  9
$DIMTAD
 70
     1
  9
$DIMZIN
 70
     0
  9
$DIMBLK
  1

  9
$DIMASO
 70
     1
  9
$DIMSHO
 70
     1
  9
$DIMPOST
  1

  9
$DIMAPOST
  1

  9
$DIMALT
 70
     0
  9
$DIMALTD
 70
     3
  9
$DIMALTF
 40
0.0393700787401575
  9
$DIMLFAC
 40
1.0
  9
$DIMTOFL
 70
     1
  9
$DIMTVP
 40
0.0
  9
$DIMTIX
 70
     0
  9
$DIMSOXD
 70
     0
  9
$DIMSAH
 70
     0
  9
$DIMBLK1
  1

  9
$DIMBLK2
  1

  9
$DIMSTYLE
  2
ISO-25
  9
$DIMCLRD
 70
     0
  9
$DIMCLRE
 70
     0
  9
$DIMCLRT
 70
     0
  9
$DIMTFAC
 40
1.0
  9
$DIMGAP
 40
1.524
  9
$DIMJUST
 70
     0
  9
$DIMSD1
 70
     0
  9
$DIMSD2
 70
     0
  9
$DIMTOLJ
 70
     0
  9
$DIMTZIN
 70
     0
  9
$DIMALTZ
 70
     0
  9
$DIMALTTZ
 70
     0
  9
$DIMUPT
 70
     0
  9
$DIMDEC
 70
     2
  9
$DIMTDEC
 70
     2
  9
$DIMALTU
 70
     2
  9
$DIMALTTD
 70
     3
  9
$DIMTXSTY
  7
Standard
  9
$DIMAUNIT
 70
     0
  9
$DIMADEC
 70
     2
  9
$DIMALTRND
 40
0.0
  9
$DIMAZIN
 70
     0
  9
$DIMDSEP
 70
    44
  9
$DIMATFIT
 70
     3
  9
$DIMFRAC
 70
     0
  9
$DIMLDRBLK
  1

  9
$DIMLUNIT
 70
     2
  9
$DIMLWD
 70
    -2
  9
$DIMLWE
 70
    -2
  9
$DIMTMOVE
 70
     0
  9
$LUNITS
 70
     2
  9
$LUPREC
 70
     2
  9
$SKETCHINC
 40
1.0
  9
$FILLETRAD
 40
10.0
  9
$AUNITS
 70
     0
  9
$AUPREC
 70
     2
  9
$MENU
  1
.
  9
$ELEVATION
 40
0.0
  9
$PELEVATION
 40
0.0
  9
$THICKNESS
 40
0.0
  9
$LIMCHECK
 70
     0
  9
$CHAMFERA
 40
0.0
  9
$CHAMFERB
 40
0.0
  9
$CHAMFERC
 40
0.0
  9
$CHAMFERD
 40
0.0
  9
$SKPOLY
 70
     0
  9
$TDCREATE
 40
2458260.573243391
  9
$TDUCREATE
 40
2458260.198243391
  9
$TDUPDATE
 40
2458268.500599444
  9
$TDUUPDATE
 40
2458268.125599444
  9
$TDINDWG
 40
0.0008805093
  9
$TDUSRTIMER
 40
2458268.124718981
  9
$USRTIMER
 70
     1
  9
$ANGBASE
 50
0.0
  9
$ANGDIR
 70
     0
  9
$PDMODE
 70
     0
  9
$PDSIZE
 40
-1.0
  9
$PLINEWID
 40
0.0
  9
$SPLFRAME
 70
     0
  9
$SPLINETYPE
 70
     6
  9
$SPLINESEGS
 70
     8
  9
$HANDSEED
  5
162
  9
$SURFTAB1
 70
     6
  9
$SURFTAB2
 70
     6
  9
$SURFTYPE
 70
     6
  9
$SURFU
 70
     6
  9
$SURFV
 70
     6
  9
$UCSBASE
  2

  9
$UCSNAME
  2

  9
$UCSORG
 10
0.0
 20
0.0
 30
0.0
  9
$UCSXDIR
 10
1.0
 20
0.0
 30
0.0
  9
$UCSYDIR
 10
0.0
 20
1.0
 30
0.0
  9
$UCSORTHOREF
  2

  9
$UCSORTHOVIEW
 70
     0
  9
$UCSORGTOP
 10
0.0
 20
0.0
 30
0.0
  9
$UCSORGBOTTOM
 10
0.0
 20
0.0
 30
0.0
  9
$UCSORGLEFT
 10
0.0
 20
0.0
 30
0.0
  9
$UCSORGRIGHT
 10
0.0
 20
0.0
 30
0.0
  9
$UCSORGFRONT
 10
0.0
 20
0.0
 30
0.0
  9
$UCSORGBACK
 10
0.0
 20
0.0
 30
0.0
  9
$PUCSBASE
  2

  9
$PUCSNAME
  2

  9
$PUCSORG
 10
0.0
 20
0.0
 30
0.0
  9
$PUCSXDIR
 10
1.0
 20
0.0
 30
0.0
  9
$PUCSYDIR
 10
0.0
 20
1.0
 30
0.0
  9
$PUCSORTHOREF
  2

  9
$PUCSORTHOVIEW
 70
     0
  9
$PUCSORGTOP
 10
0.0
 20
0.0
 30
0.0
  9
$PUCSORGBOTTOM
 10
0.0
 20
0.0
 30
0.0
  9
$PUCSORGLEFT
 10
0.0
 20
0.0
 30
0.0
  9
$PUCSORGRIGHT
 10
0.0
 20
0.0
 30
0.0
  9
$PUCSORGFRONT
 10
0.0
 20
0.0
 30
0.0
  9
$PUCSORGBACK
 10
0.0
 20
0.0
 30
0.0
  9
$USERI1
 70
     0
  9
$USERI2
 70
     0
  9
$USERI3
 70
     0
  9
$USERI4
 70
     0
  9
$USERI5
 70
     0
  9
$USERR1
 40
0.0
  9
$USERR2
 40
0.0
  9
$USERR3
 40
0.0
  9
$USERR4
 40
0.0
  9
$USERR5
 40
0.0
  9
$WORLDVIEW
 70
     1
  9
$SHADEDGE
 70
     3
  9
$SHADEDIF
 70
    70
  9
$TILEMODE
 70
     1
  9
$MAXACTVP
 70
    64
  9
$PINSBASE
 10
0.0
 20
0.0
 30
0.0
  9
$PLIMCHECK
 70
     0
  9
$PEXTMIN
 10
1.000000000000000E+20
 20
1.000000000000000E+20
 30
1.000000000000000E+20
  9
$PEXTMAX
 10
-1.000000000000000E+20
 20
-1.000000000000000E+20
 30
-1.000000000000000E+20
  9
$PLIMMIN
 10
0.0
 20
0.0
  9
$PLIMMAX
 10
0.0
 20
0.0
  9
$UNITMODE
 70
     0
  9
$VISRETAIN
 70
     1
  9
$PLINEGEN
 70
     0
  9
$PSLTSCALE
 70
     1
  9
$TREEDEPTH
 70
  3020
  9
$CMLSTYLE
  2
Standard
  9
$CMLJUST
 70
     0
  9
$CMLSCALE
 40
20.0
  9
$PROXYGRAPHICS
 70
     1
  9
$MEASUREMENT
 70
     1
  9
$CELWEIGHT
370
    -1
  9
$ENDCAPS
280
     0
  9
$JOINSTYLE
280
     0
  9
$LWDISPLAY
290
     1
  9
$INSUNITS
 70
     4
  9
$HYPERLINKBASE
  1

  9
$STYLESHEET
  1

  9
$XEDIT
290
     1
  9
$CEPSNTYPE
380
     0
  9
$PSTYLEMODE
290
     1
  9
$FINGERPRINTGUID
  2
{1F65732C-DD1B-4E29-B3A6-84342DB2A509}
  9
$VERSIONGUID
  2
{FAEB1C32-E019-11D5-929B-00C0DF256EC4}
  9
$EXTNAMES
290
     1
  9
$PSVPSCALE
 40
0.0
  9
$OLESTARTUP
290
     0
  0
ENDSEC
  0
SECTION
  2
CLASSES
  0
CLASS
  1
ACDBDICTIONARYWDFLT
  2
AcDbDictionaryWithDefault
  3
ObjectDBX Classes
 90
        0
280
     0
281
     0
  0
CLASS
  1
VISUALSTYLE
  2
AcDbVisualStyle
  3
ObjectDBX Classes
 90
     4095
280
     0
281
     0
  0
CLASS
  1
MATERIAL
  2
AcDbMaterial
  3
ObjectDBX Classes
 90
     1153
280
     0
281
     0
  0
CLASS
  1
SCALE
  2
AcDbScale
  3
ObjectDBX Classes
 90
     1153
280
     0
281
     0
  0
CLASS
  1
TABLESTYLE
  2
AcDbTableStyle
  3
ObjectDBX Classes
 90
     4095
280
     0
281
     0
  0
CLASS
  1
MLEADERSTYLE
  2
AcDbMLeaderStyle
  3
ACDB_MLEADERSTYLE_CLASS
 90
     4095
280
     0
281
     0
  0
CLASS
  1
SUN
  2
AcDbSun
  3
SCENEOE
 90
     1153
280
     0
281
     0
  0
CLASS
  1
ACDBPLACEHOLDER
  2
AcDbPlaceHolder
  3
ObjectDBX Classes
 90
        0
280
     0
281
     0
  0
CLASS
  1
LAYOUT
  2
AcDbLayout
  3
ObjectDBX Classes
 90
        0
280
     0
281
     0
  0
CLASS
  1
RASTERVARIABLES
  2
AcDbRasterVariables
  3
ISM
 90
        0
280
     0
281
     0
  0
ENDSEC
  0
SECTION
  2
TABLES
  0
TABLE
  2
VPORT
  5
8
330
0
100
AcDbSymbolTable
 70
     1
  0
VPORT
  5
29
330
8
100
AcDbSymbolTableRecord
100
AcDbViewportTableRecord
  2
*Active
 70
     0
 10
0.0
 20
0.0
 11
1.0
 21
1.0
 12
-6.871146994097273
 22
-12.60383739361505
 13
0.0
 23
0.0
 14
10.0
 24
10.0
 15
10.0
 25
10.0
 16
0.0
 26
0.0
 36
1.0
 17
0.0
 27
0.0
 37
0.0
 40
76.23065879020125
 41
1.737726098191214
 42
50.0
 43
0.0
 44
0.0
 50
0.0
 51
0.0
 71
    16
 72
  2000
 73
     1
 74
     3
 75
     0
 76
     0
 77
     0
 78
     0
281
     0
 65
     1
110
0.0
120
0.0
130
0.0
111
1.0
121
0.0
131
0.0
112
0.0
122
1.0
132
0.0
 79
     0
146
0.0
  0
ENDTAB
  0
TABLE
  2
LTYPE
  5
5
330
0
100
AcDbSymbolTable
 70
     6
  0
LTYPE
  5
14
330
5
100
AcDbSymbolTableRecord
100
AcDbLinetypeTableRecord
  2
ByBlock
 70
     0
  3

 72
    65
 73
     0
 40
0.0
  0
LTYPE
  5
15
330
5
100
AcDbSymbolTableRecord
100
AcDbLinetypeTableRecord
  2
ByLayer
 70
     0
  3

 72
    65
 73
     0
 40
0.0
  0
LTYPE
  5
16
330
5
100
AcDbSymbolTableRecord
100
AcDbLinetypeTableRecord
  2
Continuous
 70
     0
  3
Solid line
 72
    65
 73
     0
 40
0.0
  0
LTYPE
  5
6E
330
5
100
AcDbSymbolTableRecord
100
AcDbLinetypeTableRecord
  2
HIDDEN
 70
     0
  3
Hidden __ __ __ __ __ __ __ __ __ __ __ __ __ __
 72
    65
 73
     2
 40
1.905
 49
1.27
 74
     0
 49
-0.635
 74
     0
  0
LTYPE
  5
6F
330
5
100
AcDbSymbolTableRecord
100
AcDbLinetypeTableRecord
  2
PHANTOM
 70
     0
  3
Phantom ______  __  __  ______  __  __  ______
 72
    65
 73
     6
 40
12.7
 49
6.35
 74
     0
 49
-1.27
 74
     0
 49
1.27
 74
     0
 49
-1.27
 74
     0
 49
1.27
 74
     0
 49
-1.27
 74
     0
  0
LTYPE
  5
70
330
5
100
AcDbSymbolTableRecord
100
AcDbLinetypeTableRecord
  2
CENTER
 70
     0
  3
Center ____ _ ____ _ ____ _ ____ _ ____ _ ____
 72
    65
 73
     4
 40
10.16
 49
6.35
 74
     0
 49
-1.27
 74
     0
 49
1.27
 74
     0
 49
-1.27
 74
     0
  0
LTYPE
  5
71
330
5
100
AcDbSymbolTableRecord
100
AcDbLinetypeTableRecord
  2
CENTERX2
 70
     0
  3
Center (2x) ________  __  ________  __  _____
 72
    65
 73
     4
 40
20.32
 49
12.7
 74
     0
 49
-2.54
 74
     0
 49
2.54
 74
     0
 49
-2.54
 74
     0
  0
LTYPE
  5
72
330
5
100
AcDbSymbolTableRecord
100
AcDbLinetypeTableRecord
  2
DOT2
 70
     0
  3
Dot (.5x) ........................................
 72
    65
 73
     2
 40
0.635
 49
0.0
 74
     0
 49
-0.635
 74
     0
  0
ENDTAB
  0
TABLE
  2
LAYER
  5
2
330
0
100
AcDbSymbolTable
 70
    17
  0
LAYER
  5
10
330
2
100
AcDbSymbolTableRecord
100
AcDbLayerTableRecord
  2
0
 70
     0
 62
     7
  6
Continuous
370
    -3
390
F
  0
LAYER
  5
73
330
2
100
AcDbSymbolTableRecord
100
AcDbLayerTableRecord
  2
FORMAT
 70
     0
 62
     2
  6
Continuous
370
    -3
390
F
  0
LAYER
  5
74
330
2
100
AcDbSymbolTableRecord
100
AcDbLayerTableRecord
  2
외형선
 70
     0
 62
   100
  6
Continuous
370
    35
390
F
  0
LAYER
  5
75
330
2
100
AcDbSymbolTableRecord
100
AcDbLayerTableRecord
  2
숨은선
 70
     0
 62
     2
  6
HIDDEN
370
    25
390
F
  0
LAYER
  5
76
330
2
100
AcDbSymbolTableRecord
100
AcDbLayerTableRecord
  2
중심선
 70
     0
 62
     1
  6
CENTERX2
370
    -3
390
F
  0
LAYER
  5
77
330
2
100
AcDbSymbolTableRecord
100
AcDbLayerTableRecord
  2
파단선
 70
     0
 62
     4
  6
Continuous
370
    -3
390
F
  0
LAYER
  5
78
330
2
100
AcDbSymbolTableRecord
100
AcDbLayerTableRecord
  2
해칭선
 70
     0
 62
   100
  6
Continuous
370
    -3
390
F
  0
LAYER
  5
79
330
2
100
AcDbSymbolTableRecord
100
AcDbLayerTableRecord
  2
가는실선
 70
     0
 62
     4
  6
Continuous
370
    -3
390
F
  0
LAYER
  5
7A
330
2
100
AcDbSymbolTableRecord
100
AcDbLayerTableRecord
  2
치수_보조선
 70
     0
 62
     4
  6
Continuous
370
    -3
390
F
  0
LAYER
  5
7B
330
2
100
AcDbSymbolTableRecord
100
AcDbLayerTableRecord
  2
치수문자_일반주서
 70
     0
 62
     7
  6
Continuous
370
    25
390
F
  0
LAYER
  5
7C
330
2
100
AcDbSymbolTableRecord
100
AcDbLayerTableRecord
  2
개별주서
 70
     0
 62
   100
  6
Continuous
370
    35
390
F
  0
LAYER
  5
7D
330
2
100
AcDbSymbolTableRecord
100
AcDbLayerTableRecord
  2
중간선
 70
     0
 62
     2
  6
Continuous
370
    25
390
F
  0
LAYER
  5
7E
330
2
100
AcDbSymbolTableRecord
100
AcDbLayerTableRecord
  2
윤곽선
 70
     0
 62
     3
  6
Continuous
370
    50
390
F
  0
LAYER
  5
7F
330
2
100
AcDbSymbolTableRecord
100
AcDbLayerTableRecord
  2
중심마크
 70
     0
 62
   100
  6
Continuous
370
    35
390
F
  0
LAYER
  5
80
330
2
100
AcDbSymbolTableRecord
100
AcDbLayerTableRecord
  2
가상선
 70
     0
 62
     4
  6
PHANTOM
370
    -3
390
F
  0
LAYER
  5
81
330
2
100
AcDbSymbolTableRecord
100
AcDbLayerTableRecord
  2
특수지정선
 70
     0
 62
     5
  6
CENTERX2
370
    70
390
F
  0
LAYER
  5
153
330
2
100
AcDbSymbolTableRecord
100
AcDbLayerTableRecord
  2
Defpoints
 70
     0
 62
     7
  6
Continuous
290
     0
370
    -3
390
F
  0
ENDTAB
  0
TABLE
  2
STYLE
  5
3
330
0
100
AcDbSymbolTable
 70
     2
  0
STYLE
  5
11
330
3
100
AcDbSymbolTableRecord
100
AcDbTextStyleTableRecord
  2
Standard
 70
     0
 40
0.0
 41
1.0
 50
0.0
 71
     0
 42
3.5
  3
txt
  4

  0
STYLE
  5
97
330
3
100
AcDbSymbolTableRecord
100
AcDbTextStyleTableRecord
  2
SLDTEXTSTYLE0
 70
     0
 40
0.0
 41
0.75
 50
0.0
 71
     0
 42
3.5
  3
TXT
  4

  0
ENDTAB
  0
TABLE
  2
VIEW
  5
6
330
0
100
AcDbSymbolTable
 70
     0
  0
ENDTAB
  0
TABLE
  2
UCS
  5
7
330
0
100
AcDbSymbolTable
 70
     0
  0
ENDTAB
  0
TABLE
  2
APPID
  5
9
330
0
100
AcDbSymbolTable
 70
     1
  0
APPID
  5
12
330
9
100
AcDbSymbolTableRecord
100
AcDbRegAppTableRecord
  2
ACAD
 70
     0
  0
ENDTAB
  0
TABLE
  2
DIMSTYLE
  5
A
330
0
100
AcDbSymbolTable
 70
     4
100
AcDbDimStyleTable
  0
DIMSTYLE
105
27
330
A
100
AcDbSymbolTableRecord
100
AcDbDimStyleTableRecord
  2
ISO-25
 70
     0
 41
2.5
 42
0.625
 43
3.75
 44
1.25
 73
     0
 74
     0
 77
     1
 78
     8
140
2.5
141
2.5
143
0.03937007874016
147
0.625
171
     3
172
     1
178
     0
271
     2
272
     2
274
     3
278
    44
283
     0
284
     8
340
11
  0
DIMSTYLE
105
F8
102
{ACAD_REACTORS
330
F7
102
}
330
A
100
AcDbSymbolTableRecord
100
AcDbDimStyleTableRecord
  2
SLDDIMSTYLE0
 70
     0
 41
3.302
 44
0.0
 45
0.000000001
 73
     0
 74
     0
 77
     1
 78
    12
 79
     3
140
3.5
147
0.875
172
     1
173
     1
178
     0
271
     1
272
     1
276
     2
284
    12
289
     0
340
97
  0
DIMSTYLE
105
106
102
{ACAD_REACTORS
330
105
330
11E
102
}
330
A
100
AcDbSymbolTableRecord
100
AcDbDimStyleTableRecord
  2
SLDDIMSTYLE1
 70
     0
 41
3.302
 44
0.0
 45
0.000000001
 73
     0
 74
     0
 77
     1
 78
    12
 79
     3
140
3.5
147
0.875
173
     1
178
     0
271
     2
272
     2
276
     2
284
    12
340
97
  0
DIMSTYLE
105
111
102
{ACAD_REACTORS
330
110
102
}
330
A
100
AcDbSymbolTableRecord
100
AcDbDimStyleTableRecord
  2
SLDDIMSTYLE2
 70
     0
 41
3.302
 44
0.0
 45
0.000000001
 73
     0
 74
     0
 77
     1
 78
    12
 79
     3
140
3.5
147
0.875
172
     1
173
     1
178
     0
271
     2
272
     2
276
     2
284
    12
289
     0
340
97
  0
ENDTAB
  0
TABLE
  2
BLOCK_RECORD
  5
1
330
0
100
AcDbSymbolTable
 70
     7
  0
BLOCK_RECORD
  5
1F
330
1
100
AcDbSymbolTableRecord
100
AcDbBlockTableRecord
  2
*Model_Space
340
22
  0
BLOCK_RECORD
  5
1B
330
1
100
AcDbSymbolTableRecord
100
AcDbBlockTableRecord
  2
*Paper_Space
340
1E
  0
BLOCK_RECORD
  5
23
330
1
100
AcDbSymbolTableRecord
100
AcDbBlockTableRecord
  2
*Paper_Space0
340
26
  0
BLOCK_RECORD
  5
82
330
1
100
AcDbSymbolTableRecord
100
AcDbBlockTableRecord
  2
블럭10
340
0
102
{BLKREFS
331
F0
102
}
  0
BLOCK_RECORD
  5
F9
330
1
100
AcDbSymbolTableRecord
100
AcDbBlockTableRecord
  2
_D
340
0
  0
BLOCK_RECORD
  5
107
330
1
100
AcDbSymbolTableRecord
100
AcDbBlockTableRecord
  2
_D_1
340
0
  0
BLOCK_RECORD
  5
112
330
1
100
AcDbSymbolTableRecord
100
AcDbBlockTableRecord
  2
_D_2
340
0
  0
BLOCK_RECORD
  5
11F
330
1
100
AcDbSymbolTableRecord
100
AcDbBlockTableRecord
  2
_D_3
340
0
  0
BLOCK_RECORD
  5
128
330
1
100
AcDbSymbolTableRecord
100
AcDbBlockTableRecord
  2
SW_DOWELSYMBOL_0
340
0
102
{BLKREFS
331
12E
102
}
  0
ENDTAB
  0
ENDSEC
  0
SECTION
  2
BLOCKS
  0
BLOCK
  5
20
330
1F
100
AcDbEntity
  8
0
100
AcDbBlockBegin
  2
*Model_Space
 70
     0
 10
0.0
 20
0.0
 30
0.0
  3
*Model_Space
  1

  0
ENDBLK
  5
21
330
1F
100
AcDbEntity
  8
0
100
AcDbBlockEnd
  0
BLOCK
  5
1C
330
1B
100
AcDbEntity
 67
     1
  8
0
100
AcDbBlockBegin
  2
*Paper_Space
 70
     0
 10
0.0
 20
0.0
 30
0.0
  3
*Paper_Space
  1

  0
ENDBLK
  5
1D
330
1B
100
AcDbEntity
 67
     1
  8
0
100
AcDbBlockEnd
  0
BLOCK
  5
24
330
23
100
AcDbEntity
  8
0
100
AcDbBlockBegin
  2
*Paper_Space0
 70
     0
 10
0.0
 20
0.0
 30
0.0
  3
*Paper_Space0
  1

  0
ENDBLK
  5
25
330
23
100
AcDbEntity
  8
0
100
AcDbBlockEnd
  0
BLOCK
  5
83
330
82
100
AcDbEntity
  8
0
100
AcDbBlockBegin
  2
블럭10
 70
     2
 10
0.0
 20
0.0
 30
0.0
  3
블럭10
  1

  0
ELLIPSE
  5
85
330
82
100
AcDbEntity
  8
중심선
100
AcDbEllipse
 10
20.54032771741204
 20
12.0471743016438
 30
0.0
 11
6.600054785286829
 21
-1.261213355974178E-13
 31
0.0
210
0.0
220
0.0
230
1.0
 40
0.636358354079598
 41
0.9219305317359503
 42
6.513795318482858
  0
ELLIPSE
  5
86
330
82
100
AcDbEntity
  8
중심선
100
AcDbEllipse
 10
20.54032771746488
 20
12.04717430159265
 30
0.0
 11
3.960054785062283
 21
1.540847449632565E-10
 31
0.0
210
0.0
220
0.0
230
1.0
 40
0.3939339440162632
 41
1.131841032648279
 42
5.62031148352944
  0
LINE
  5
87
330
82
100
AcDbEntity
  8
중심선
100
AcDbLine
 10
2.268634060543552
 20
16.24717430164393
 30
0.0
 11
5.714909304380834
 21
16.24717430164393
 31
0.0
  0
LINE
  5
88
330
82
100
AcDbEntity
  8
중심선
100
AcDbLine
 10
5.245725140726316
 20
7.84717430164391
 30
0.0
 11
8.692000384563599
 21
7.84717430164391
 31
0.0
  0
LINE
  5
89
330
82
100
AcDbEntity
  8
중심선
100
AcDbLine
 10
15.74043728645272
 20
16.24717430164393
 30
0.0
 11
8.692000384563599
 21
7.84717430164391
 31
0.0
  0
LINE
  5
8A
330
82
100
AcDbEntity
  8
중심선
100
AcDbLine
 10
0.1404042013395286
 20
13.71084872107135
 30
0.0
 11
3.58671253028996
 21
13.71088815037384
 31
0.0
  0
LINE
  5
8B
330
82
100
AcDbEntity
  8
중심선
100
AcDbLine
 10
2.750260043222114
 20
10.84717430164391
 30
0.0
 11
6.196535287059397
 21
10.84717430164391
 31
0.0
  0
LINE
  5
8C
330
82
100
AcDbEntity
  8
중심선
100
AcDbLine
 10
12.29416204261559
 20
16.24717430164393
 30
0.0
 11
5.245725140726316
 21
7.84717430164391
 31
0.0
  0
LINE
  5
8D
330
82
100
AcDbEntity
  8
중심선
100
AcDbLine
 10
10.72767329541681
 20
16.24717430164393
 30
0.0
 11
6.196535287059397
 21
10.84717430164391
 31
0.0
  0
LINE
  5
8E
330
82
100
AcDbEntity
  8
중심선
100
AcDbLine
 10
7.28139805157953
 20
16.24717430164393
 30
0.0
 11
2.750260043222114
 21
10.84717430164391
 31
0.0
  0
LINE
  5
8F
330
82
100
AcDbEntity
  8
중심선
100
AcDbLine
 10
5.714909304380834
 20
16.24717430164393
 30
0.0
 11
3.58671253028996
 21
13.71088815037384
 31
0.0
  0
LINE
  5
90
330
82
100
AcDbEntity
  8
중심선
100
AcDbLine
 10
2.268634060543552
 20
16.24717430164393
 30
0.0
 11
0.1404042013395286
 21
13.71084872107135
 31
0.0
  0
LINE
  5
91
330
82
100
AcDbEntity
  8
중심선
100
AcDbLine
 10
7.28139805157953
 20
16.24717430164393
 30
0.0
 11
10.72767329541681
 21
16.24717430164393
 31
0.0
  0
LINE
  5
92
330
82
100
AcDbEntity
  8
중심선
100
AcDbLine
 10
12.29416204261559
 20
16.24717430164393
 30
0.0
 11
15.74043728645272
 21
16.24717430164393
 31
0.0
  0
LINE
  5
93
330
82
100
AcDbEntity
  8
중심선
100
AcDbLine
 10
19.22036997980202
 20
11.08717430171403
 30
0.0
 11
23.66174974927406
 21
11.08717430171406
 31
0.0
  0
LINE
  5
94
330
82
100
AcDbEntity
  8
중심선
100
AcDbLine
 10
19.22039502424796
 20
13.00717430171391
 30
0.0
 11
19.22036997980202
 21
11.08717430171403
 31
0.0
  0
LINE
  5
95
330
82
100
AcDbEntity
  8
중심선
100
AcDbLine
 10
19.22039502424796
 20
13.00717430171391
 30
0.0
 11
26.96566020931264
 21
13.00717430171391
 31
0.0
  0
LINE
  5
96
330
82
100
AcDbEntity
  8
중심선
100
AcDbLine
 10
22.22332737316547
 20
13.45928029700563
 30
0.0
 11
24.52862924686651
 21
15.39360700705356
 31
0.0
  0
ATTDEF
  5
98
330
82
100
AcDbEntity
  8
FORMAT
 62
     2
100
AcDbText
 10
-16.11926103943555
 20
2.075366912832191
 30
0.0
 40
4.233333333333333
  1
SEME7205040E [ 4 FLUTE ]
 41
0.75
  7
SLDTEXTSTYLE0
 11
-16.11926103943555
 21
-0.0412997538344756
 31
0.0
100
AcDbAttributeDefinition
  3

  2
AUTOATTR0
 70
     0
 74
     1
  0
ENDBLK
  5
84
330
82
100
AcDbEntity
  8
0
100
AcDbBlockEnd
  0
BLOCK
  5
FA
330
F9
100
AcDbEntity
  8
0
100
AcDbBlockBegin
  2
_D
 70
     0
 10
0.0
 20
0.0
 30
0.0
  3
_D
  1

  0
LINE
  5
FC
330
F9
100
AcDbEntity
  8
치수문자_일반주서
 62
     0
370
    -2
100
AcDbLine
 10
44.92852540378448
 20
-2.50000000000001
 30
0.0
 11
53.97679553390266
 21
-2.499999999999977
 31
0.0
  0
LINE
  5
FD
330
F9
100
AcDbEntity
  8
치수문자_일반주서
 62
     0
370
    -2
100
AcDbLine
 10
44.92852540378448
 20
2.500000000000009
 30
0.0
 11
53.97679553390265
 21
2.500000000000043
 31
0.0
  0
LINE
  5
FE
330
F9
100
AcDbEntity
  8
치수문자_일반주서
 62
     0
370
    -2
100
AcDbLine
 10
53.97679553390266
 20
-2.499999999999977
 30
0.0
 11
53.97679553390261
 21
15.22900000000004
 31
0.0
  0
LINE
  5
FF
330
F9
100
AcDbEntity
  8
치수문자_일반주서
 62
     0
370
    -2
100
AcDbLine
 10
53.97679553390266
 20
-2.499999999999977
 30
0.0
 11
53.97679553390265
 21
2.500000000000043
 31
0.0
  0
LINE
  5
100
330
F9
100
AcDbEntity
  8
치수문자_일반주서
 62
     0
370
    -2
100
AcDbLine
 10
53.97679553390267
 20
-5.801999999999977
 30
0.0
 11
53.97679553390267
 21
-9.103999999999976
 31
0.0
  0
LINE
  5
101
330
F9
100
AcDbEntity
  8
치수문자_일반주서
 62
     0
370
    -2
100
AcDbLine
 10
53.97679553390264
 20
5.802000000000042
 30
0.0
 11
53.97679553390263
 21
9.104000000000042
 31
0.0
  0
SOLID
  5
102
330
F9
100
AcDbEntity
  8
치수문자_일반주서
 62
     0
100
AcDbTrace
 10
54.527128867236
 20
-5.801999999999975
 30
0.0
 11
53.42646220056933
 21
-5.801999999999978
 31
0.0
 12
53.97679553390266
 22
-2.499999999999977
 32
0.0
 13
53.97679553390266
 23
-2.499999999999977
 33
0.0
  0
SOLID
  5
103
330
F9
100
AcDbEntity
  8
치수문자_일반주서
 62
     0
100
AcDbTrace
 10
53.4264622005693
 20
5.80200000000004
 30
0.0
 11
54.52712886723597
 21
5.802000000000044
 31
0.0
 12
53.97679553390265
 22
2.500000000000043
 32
0.0
 13
53.97679553390265
 23
2.500000000000043
 33
0.0
  0
MTEXT
  5
104
330
F9
100
AcDbEntity
  8
치수문자_일반주서
 62
     0
100
AcDbMText
 10
49.60179553390262
 20
12.16650000000003
 30
0.0
 40
3.5
 41
0.0
 71
     2
 72
     1
  1
\A1;%%c5
  7
SLDTEXTSTYLE0
 11
-2.842170943040389E-15
 21
1.0
 31
0.0
 73
     1
 44
1.0
  0
POINT
  5
15D
330
F9
100
AcDbEntity
  8
Defpoints
 62
     0
100
AcDbPoint
 10
44.86602540378448
 20
-2.500000000000011
 30
0.0
  0
POINT
  5
15E
330
F9
100
AcDbEntity
  8
Defpoints
 62
     0
100
AcDbPoint
 10
44.86602540378448
 20
2.500000000000009
 30
0.0
  0
POINT
  5
15F
330
F9
100
AcDbEntity
  8
Defpoints
 62
     0
100
AcDbPoint
 10
53.97679553390265
 20
2.500000000000043
 30
0.0
  0
ENDBLK
  5
FB
330
F9
100
AcDbEntity
  8
0
100
AcDbBlockEnd
  0
BLOCK
  5
108
330
107
100
AcDbEntity
  8
0
100
AcDbBlockBegin
  2
_D_1
 70
     0
 10
0.0
 20
0.0
 30
0.0
  3
_D_1
  1

  0
LINE
  5
10A
330
107
100
AcDbEntity
  8
치수문자_일반주서
 62
     0
370
    -2
100
AcDbLine
 10
-55.13397459621557
 20
2.562499999999993
 30
0.0
 11
-55.13397459621557
 21
20.38913260158164
 31
0.0
  0
LINE
  5
10B
330
107
100
AcDbEntity
  8
치수문자_일반주서
 62
     0
370
    -2
100
AcDbLine
 10
44.86602540378443
 20
2.562500000000008
 30
0.0
 11
44.86602540378443
 21
20.38913260158164
 31
0.0
  0
LINE
  5
10C
330
107
100
AcDbEntity
  8
치수문자_일반주서
 62
     0
370
    -2
100
AcDbLine
 10
-51.83197459621557
 20
20.38913260158164
 30
0.0
 11
41.56402540378443
 21
20.38913260158164
 31
0.0
  0
SOLID
  5
10D
330
107
100
AcDbEntity
  8
치수문자_일반주서
 62
     0
100
AcDbTrace
 10
-51.83197459621557
 20
20.93946593491498
 30
0.0
 11
-51.83197459621557
 21
19.83879926824831
 31
0.0
 12
-55.13397459621557
 22
20.38913260158164
 32
0.0
 13
-55.13397459621557
 23
20.38913260158164
 33
0.0
  0
SOLID
  5
10E
330
107
100
AcDbEntity
  8
치수문자_일반주서
 62
     0
100
AcDbTrace
 10
41.56402540378443
 20
19.83879926824831
 30
0.0
 11
41.56402540378443
 21
20.93946593491498
 31
0.0
 12
44.86602540378443
 22
20.38913260158164
 32
0.0
 13
44.86602540378443
 23
20.38913260158164
 33
0.0
  0
MTEXT
  5
10F
330
107
100
AcDbEntity
  8
치수문자_일반주서
 62
     0
100
AcDbMText
 10
-5.133974596215565
 20
24.76413260158164
 30
0.0
 40
3.5
 41
0.0
 71
     2
 72
     1
  1
\A1;100
  7
SLDTEXTSTYLE0
 73
     1
 44
1.0
  0
POINT
  5
154
330
107
100
AcDbEntity
  8
Defpoints
 62
     0
100
AcDbPoint
 10
-55.13397459621557
 20
2.499999999999993
 30
0.0
  0
POINT
  5
155
330
107
100
AcDbEntity
  8
Defpoints
 62
     0
100
AcDbPoint
 10
44.86602540378443
 20
2.500000000000008
 30
0.0
  0
POINT
  5
156
330
107
100
AcDbEntity
  8
Defpoints
 62
     0
100
AcDbPoint
 10
44.86602540378443
 20
20.38913260158164
 30
0.0
  0
ENDBLK
  5
109
330
107
100
AcDbEntity
  8
0
100
AcDbBlockEnd
  0
BLOCK
  5
113
330
112
100
AcDbEntity
  8
0
100
AcDbBlockBegin
  2
_D_2
 70
     0
 10
0.0
 20
0.0
 30
0.0
  3
_D_2
  1

  0
LINE
  5
115
330
112
100
AcDbEntity
  8
치수문자_일반주서
 62
     0
370
    -2
100
AcDbLine
 10
-54.69647459621556
 20
3.000000000000002
 30
0.0
 11
-63.89442285543051
 21
2.999999999999968
 31
0.0
  0
LINE
  5
116
330
112
100
AcDbEntity
  8
치수문자_일반주서
 62
     0
370
    -2
100
AcDbLine
 10
-54.69647459621556
 20
-3.000000000000003
 30
0.0
 11
-63.89442285543048
 21
-3.000000000000039
 31
0.0
  0
LINE
  5
117
330
112
100
AcDbEntity
  8
치수문자_일반주서
 62
     0
370
    -2
100
AcDbLine
 10
-63.89442285543051
 20
2.999999999999968
 30
0.0
 11
-63.89442285543056
 21
15.72899999999997
 31
0.0
  0
LINE
  5
118
330
112
100
AcDbEntity
  8
치수문자_일반주서
 62
     0
370
    -2
100
AcDbLine
 10
-63.89442285543051
 20
2.999999999999968
 30
0.0
 11
-63.89442285543048
 21
-3.000000000000039
 31
0.0
  0
LINE
  5
119
330
112
100
AcDbEntity
  8
치수문자_일반주서
 62
     0
370
    -2
100
AcDbLine
 10
-63.89442285543052
 20
6.301999999999968
 30
0.0
 11
-63.89442285543053
 21
9.603999999999967
 31
0.0
  0
LINE
  5
11A
330
112
100
AcDbEntity
  8
치수문자_일반주서
 62
     0
370
    -2
100
AcDbLine
 10
-63.89442285543047
 20
-6.302000000000039
 30
0.0
 11
-63.89442285543046
 21
-9.604000000000038
 31
0.0
  0
SOLID
  5
11B
330
112
100
AcDbEntity
  8
치수문자_일반주서
 62
     0
100
AcDbTrace
 10
-64.44475618876385
 20
6.301999999999966
 30
0.0
 11
-63.34408952209719
 21
6.301999999999969
 31
0.0
 12
-63.89442285543051
 22
2.999999999999968
 32
0.0
 13
-63.89442285543051
 23
2.999999999999968
 33
0.0
  0
SOLID
  5
11C
330
112
100
AcDbEntity
  8
치수문자_일반주서
 62
     0
100
AcDbTrace
 10
-63.34408952209714
 20
-6.302000000000037
 30
0.0
 11
-64.4447561887638
 21
-6.30200000000004
 31
0.0
 12
-63.89442285543048
 22
-3.000000000000039
 32
0.0
 13
-63.89442285543048
 23
-3.000000000000039
 33
0.0
  0
MTEXT
  5
11D
330
112
100
AcDbEntity
  8
치수문자_일반주서
 62
     0
100
AcDbMText
 10
-68.26942285543055
 20
12.66649999999996
 30
0.0
 40
3.5
 41
0.0
 71
     2
 72
     1
  1
\A1;%%c6
  7
SLDTEXTSTYLE0
 11
-3.552713678800498E-15
 21
1.0
 31
0.0
 73
     1
 44
1.0
  0
POINT
  5
15A
330
112
100
AcDbEntity
  8
Defpoints
 62
     0
100
AcDbPoint
 10
-54.63397459621556
 20
3.000000000000003
 30
0.0
  0
POINT
  5
15B
330
112
100
AcDbEntity
  8
Defpoints
 62
     0
100
AcDbPoint
 10
-54.63397459621556
 20
-3.000000000000003
 30
0.0
  0
POINT
  5
15C
330
112
100
AcDbEntity
  8
Defpoints
 62
     0
100
AcDbPoint
 10
-63.8944228554305
 20
-3.000000000000037
 30
0.0
  0
ENDBLK
  5
114
330
112
100
AcDbEntity
  8
0
100
AcDbBlockEnd
  0
BLOCK
  5
120
330
11F
100
AcDbEntity
  8
0
100
AcDbBlockBegin
  2
_D_3
 70
     0
 10
0.0
 20
0.0
 30
0.0
  3
_D_3
  1

  0
LINE
  5
122
330
11F
100
AcDbEntity
  8
치수문자_일반주서
 62
     0
370
    -2
100
AcDbLine
 10
4.866025403784434
 20
2.5625
 30
0.0
 11
4.866025403784434
 21
13.34591830258764
 31
0.0
  0
LINE
  5
123
330
11F
100
AcDbEntity
  8
치수문자_일반주서
 62
     0
370
    -2
100
AcDbLine
 10
44.86602540378443
 20
2.562500000000008
 30
0.0
 11
44.86602540378443
 21
13.34591830258764
 31
0.0
  0
LINE
  5
124
330
11F
100
AcDbEntity
  8
치수문자_일반주서
 62
     0
370
    -2
100
AcDbLine
 10
8.168025403784434
 20
13.34591830258764
 30
0.0
 11
41.56402540378443
 21
13.34591830258764
 31
0.0
  0
SOLID
  5
125
330
11F
100
AcDbEntity
  8
치수문자_일반주서
 62
     0
100
AcDbTrace
 10
8.168025403784434
 20
13.89625163592097
 30
0.0
 11
8.168025403784434
 21
12.79558496925431
 31
0.0
 12
4.866025403784434
 22
13.34591830258764
 32
0.0
 13
4.866025403784434
 23
13.34591830258764
 33
0.0
  0
SOLID
  5
126
330
11F
100
AcDbEntity
  8
치수문자_일반주서
 62
     0
100
AcDbTrace
 10
41.56402540378443
 20
12.79558496925431
 30
0.0
 11
41.56402540378443
 21
13.89625163592097
 31
0.0
 12
44.86602540378443
 22
13.34591830258764
 32
0.0
 13
44.86602540378443
 23
13.34591830258764
 33
0.0
  0
MTEXT
  5
127
330
11F
100
AcDbEntity
  8
치수문자_일반주서
 62
     0
100
AcDbMText
 10
24.86602540378445
 20
17.72091830258764
 30
0.0
 40
3.5
 41
0.0
 71
     2
 72
     1
  1
\A1;40
  7
SLDTEXTSTYLE0
 73
     1
 44
1.0
  0
POINT
  5
157
330
11F
100
AcDbEntity
  8
Defpoints
 62
     0
100
AcDbPoint
 10
4.866025403784434
 20
2.5
 30
0.0
  0
POINT
  5
158
330
11F
100
AcDbEntity
  8
Defpoints
 62
     0
100
AcDbPoint
 10
44.86602540378443
 20
2.500000000000008
 30
0.0
  0
POINT
  5
159
330
11F
100
AcDbEntity
  8
Defpoints
 62
     0
100
AcDbPoint
 10
44.86602540378443
 20
13.34591830258764
 30
0.0
  0
ENDBLK
  5
121
330
11F
100
AcDbEntity
  8
0
100
AcDbBlockEnd
  0
BLOCK
  5
129
330
128
100
AcDbEntity
  8
0
100
AcDbBlockBegin
  2
SW_DOWELSYMBOL_0
 70
     0
 10
0.0
 20
0.0
 30
0.0
  3
SW_DOWELSYMBOL_0
  1

  0
CIRCLE
  5
12B
330
128
100
AcDbEntity
  8
해칭선
 62
     0
100
AcDbCircle
 10
0.0
 20
0.0
 30
0.0
 40
3.0
  0
HATCH
  5
12C
330
128
100
AcDbEntity
  8
0
  6
Continuous
 62
     0
370
    18
100
AcDbHatch
 10
0.0
 20
0.0
 30
0.0
210
0.0
220
0.0
230
1.0
  2
SOLID
 70
     1
 71
     0
 91
        1
 92
        0
 93
        3
 72
     2
 10
0.0
 20
0.0
 40
3.0
 50
0.0
 51
90.0
 73
     1
 72
     1
 10
0.0
 20
3.0
 11
0.0
 21
0.0
 72
     1
 10
0.0
 20
0.0
 11
3.0
 21
0.0
 97
        0
 75
     0
 76
     1
 98
        1
 10
0.0
 20
0.0
  0
HATCH
  5
12D
330
128
100
AcDbEntity
  8
0
  6
Continuous
 62
     0
370
    18
100
AcDbHatch
 10
0.0
 20
0.0
 30
0.0
210
0.0
220
0.0
230
1.0
  2
SOLID
 70
     1
 71
     0
 91
        1
 92
        0
 93
        3
 72
     2
 10
0.0
 20
0.0
 40
3.0
 50
180.0
 51
270.0000000000008
 73
     1
 72
     1
 10
0.0
 20
-3.0
 11
0.0
 21
0.0
 72
     1
 10
0.0
 20
0.0
 11
-3.0
 21
0.0
 97
        0
 75
     0
 76
     1
 98
        1
 10
0.0
 20
0.0
  0
ENDBLK
  5
12A
330
128
100
AcDbEntity
  8
0
100
AcDbBlockEnd
  0
ENDSEC
  0
SECTION
  2
ENTITIES
  0
LINE
  5
99
330
1F
100
AcDbEntity
  8
0
  6
Continuous
 62
     4
370
    25
100
AcDbLine
 10
2.0
 20
2.999999999999998
 30
0.0
 11
-54.63397459621556
 21
2.999999999999995
 31
0.0
  0
LINE
  5
9A
330
1F
100
AcDbEntity
  8
0
  6
Continuous
 62
     4
370
    25
100
AcDbLine
 10
-54.63397459621557
 20
-3.000000000000002
 30
0.0
 11
2.000000000000004
 21
-2.999999999999998
 31
0.0
  0
LINE
  5
9B
330
1F
100
AcDbEntity
  8
0
  6
Continuous
 62
     4
370
    25
100
AcDbLine
 10
2.0
 20
-3.0
 30
0.0
 11
3.866025403784434
 21
-2.5
 31
0.0
  0
LINE
  5
9C
330
1F
100
AcDbEntity
  8
0
  6
Continuous
 62
     4
370
    25
100
AcDbLine
 10
3.866025403784434
 20
2.5
 30
0.0
 11
2.0
 21
3.0
 31
0.0
  0
LINE
  5
9D
330
1F
100
AcDbEntity
  8
0
  6
Continuous
 62
     4
370
    25
100
AcDbLine
 10
-54.63397459621557
 20
2.999999999999992
 30
0.0
 11
-55.13397459621557
 21
2.499999999999993
 31
0.0
  0
LINE
  5
9E
330
1F
100
AcDbEntity
  8
0
  6
Continuous
 62
     4
370
    25
100
AcDbLine
 10
-55.13397459621557
 20
-2.500000000000001
 30
0.0
 11
-54.63397459621557
 21
-3.0
 31
0.0
  0
LINE
  5
9F
330
1F
100
AcDbEntity
  8
0
  6
Continuous
 62
     4
370
    25
100
AcDbLine
 10
4.866025403784432
 20
2.5
 30
0.0
 11
3.866025403784434
 21
2.5
 31
0.0
  0
LINE
  5
A0
330
1F
100
AcDbEntity
  8
0
  6
Continuous
 62
     4
370
    25
100
AcDbLine
 10
3.866025403784434
 20
-2.5
 30
0.0
 11
4.866025403784432
 21
-2.5
 31
0.0
  0
LINE
  5
A1
330
1F
100
AcDbEntity
  8
0
  6
Continuous
 62
     1
370
    25
100
AcDbLine
 10
43.8985658269175
 20
-2.500000000000004
 30
0.0
 11
44.86602540378443
 21
-2.500000000000004
 31
0.0
  0
LINE
  5
A2
330
1F
100
AcDbEntity
  8
0
  6
Continuous
 62
     1
370
    25
100
AcDbLine
 10
16.69151457884885
 20
-2.500000000000004
 30
0.0
 11
18.62678373449748
 21
-2.500000000000004
 31
0.0
  0
LINE
  5
A3
330
1F
100
AcDbEntity
  8
0
  6
Continuous
 62
     1
370
    25
100
AcDbLine
 10
5.022578341560754
 20
2.500000000000004
 30
0.0
 11
4.866025403784429
 21
2.500000000000004
 31
0.0
  0
LINE
  5
A4
330
1F
100
AcDbEntity
  8
0
  6
Continuous
 62
     1
370
    25
100
AcDbLine
 10
32.22877484342118
 20
2.500000000000004
 30
0.0
 11
30.2965390086799
 21
2.500000000000004
 31
0.0
  0
LINE
  5
A5
330
1F
100
AcDbEntity
  8
0
  6
Continuous
 62
     1
370
    25
100
AcDbLine
 10
17.62210923860383
 20
0.5734753105347639
 30
0.0
 11
17.65903494027116
 21
0.5555199646312639
 31
0.0
  0
LINE
  5
A6
330
1F
100
AcDbEntity
  8
0
  6
Continuous
 62
     1
370
    25
100
AcDbLine
 10
18.00800556196504
 20
0.3553205121682662
 30
0.0
 11
18.03436291115069
 21
0.3401633879843421
 31
0.0
  0
SPLINE
  5
A7
330
1F
100
AcDbEntity
  8
0
  6
Continuous
 62
     1
370
    25
100
AcDbSpline
210
0.0
220
0.0
230
1.0
 70
     8
 71
     3
 72
     9
 73
     5
 74
     0
 42
0.000000001
 43
0.00000001
 40
0.0
 40
0.0
 40
0.0
 40
0.0
 40
0.5388505330855814
 40
1.0
 40
1.0
 40
1.0
 40
1.0
 10
17.65903494027117
 20
0.5555199646312596
 30
0.0
 10
17.72119416973827
 20
0.5199778312891081
 30
0.0
 10
17.83654940398321
 20
0.4540186623547671
 30
0.0
 10
17.95389274350062
 20
0.3864703708066569
 30
0.0
 10
18.00800556196504
 20
0.3553205121682662
 30
0.0
  0
LINE
  5
A8
330
1F
100
AcDbEntity
  8
0
  6
Continuous
 62
     1
370
    25
100
AcDbLine
 10
44.80751204546318
 20
0.5839724392273777
 30
0.0
 11
44.86602540378443
 21
0.5555199646312639
 31
0.0
  0
LINE
  5
A9
330
1F
100
AcDbEntity
  8
0
  6
Continuous
 62
     1
370
    25
100
AcDbLine
 10
10.56527305592622
 20
-0.3860248131558039
 30
0.0
 11
10.51011351610626
 21
-0.3571215139004018
 31
0.0
  0
LINE
  5
AA
330
1F
100
AcDbEntity
  8
0
  6
Continuous
 62
     1
370
    25
100
AcDbLine
 10
37.77226351943949
 20
-0.3860248131558005
 30
0.0
 11
37.71710397961954
 21
-0.3571215139003985
 31
0.0
  0
LINE
  5
AB
330
1F
100
AcDbEntity
  8
0
  6
Continuous
 62
     1
370
    25
100
AcDbLine
 10
31.49482105642753
 20
0.4172347303330177
 30
0.0
 11
31.60788217551258
 21
0.3572728337550879
 31
0.0
  0
LINE
  5
AC
330
1F
100
AcDbEntity
  8
0
  6
Continuous
 62
     1
370
    25
100
AcDbLine
 10
37.09764853259477
 20
-2.500000000000004
 30
0.0
 11
39.03212224521984
 21
-2.500000000000004
 31
0.0
  0
LINE
  5
AD
330
1F
100
AcDbEntity
  8
0
  6
Continuous
 62
     1
370
    25
100
AcDbLine
 10
9.890658069081498
 20
-2.500000000000004
 30
0.0
 11
11.8251317817066
 21
-2.500000000000004
 31
0.0
  0
LINE
  5
AE
330
1F
100
AcDbEntity
  8
0
  6
Continuous
 62
     1
370
    25
100
AcDbLine
 10
25.42695007120672
 20
2.500000000000004
 30
0.0
 11
23.49304244829227
 21
2.500000000000004
 31
0.0
  0
LINE
  5
AF
330
1F
100
AcDbEntity
  8
0
  6
Continuous
 62
     1
370
    25
100
AcDbLine
 10
23.49304244829228
 20
-2.500000000000004
 30
0.0
 11
25.4269500712067
 21
-2.500000000000004
 31
0.0
  0
LINE
  5
B0
330
1F
100
AcDbEntity
  8
0
  6
Continuous
 62
     1
370
    25
100
AcDbLine
 10
11.82513178170664
 20
2.500000000000004
 30
0.0
 11
9.890658069081516
 21
2.500000000000004
 31
0.0
  0
LINE
  5
B1
330
1F
100
AcDbEntity
  8
0
  6
Continuous
 62
     1
370
    25
100
AcDbLine
 10
39.03212224521988
 20
2.500000000000004
 30
0.0
 11
37.0976485325948
 21
2.500000000000004
 31
0.0
  0
LINE
  5
B2
330
1F
100
AcDbEntity
  8
0
  6
Continuous
 62
     1
370
    25
100
AcDbLine
 10
30.29653900867992
 20
-2.500000000000004
 30
0.0
 11
32.22877484342111
 21
-2.500000000000004
 31
0.0
  0
LINE
  5
B3
330
1F
100
AcDbEntity
  8
0
  6
Continuous
 62
     1
370
    25
100
AcDbLine
 10
4.866025403784432
 20
-2.500000000000004
 30
0.0
 11
5.022578341560761
 21
-2.500000000000004
 31
0.0
  0
LINE
  5
B4
330
1F
100
AcDbEntity
  8
0
  6
Continuous
 62
     1
370
    25
100
AcDbLine
 10
18.62678373449748
 20
2.500000000000004
 30
0.0
 11
16.69151457884891
 21
2.500000000000004
 31
0.0
  0
LINE
  5
B5
330
1F
100
AcDbEntity
  8
0
  6
Continuous
 62
     1
370
    25
100
AcDbLine
 10
44.86602540378443
 20
2.500000000000004
 30
0.0
 11
43.89856582691753
 21
2.500000000000004
 31
0.0
  0
LINE
  5
B6
330
1F
100
AcDbEntity
  8
0
  6
Continuous
 62
     4
370
    25
100
AcDbLine
 10
2.0
 20
3.0
 30
0.0
 11
2.0
 21
-3.0
 31
0.0
  0
LINE
  5
B7
330
1F
100
AcDbEntity
  8
0
  6
Continuous
 62
     4
370
    25
100
AcDbLine
 10
-54.63397459621557
 20
2.999999999999992
 30
0.0
 11
-54.63397459621557
 21
-3.0
 31
0.0
  0
LINE
  5
B8
330
1F
100
AcDbEntity
  8
0
  6
Continuous
 62
     4
370
    25
100
AcDbLine
 10
3.866025403784434
 20
2.5
 30
0.0
 11
3.866025403784434
 21
2.444893906401505
 31
0.0
  0
SPLINE
  5
B9
330
1F
100
AcDbEntity
  8
0
  6
Continuous
 62
     4
370
    25
100
AcDbSpline
210
0.0
220
0.0
230
1.0
 70
     8
 71
     3
 72
    14
 73
    10
 74
     0
 42
0.000000001
 43
0.00000001
 40
0.0
 40
0.0
 40
0.0
 40
0.0
 40
0.25
 40
0.25
 40
0.5
 40
0.5
 40
0.75
 40
0.75
 40
1.0
 40
1.0
 40
1.0
 40
1.0
 10
3.365970795111838
 20
2.427168625035014
 30
0.0
 10
3.365970795111838
 20
2.453214104513069
 30
0.0
 10
3.378712688813778
 20
2.473316358061527
 30
0.0
 10
3.429366078580987
 20
2.499353677184726
 30
0.0
 10
3.46743742229728
 20
2.505249640853087
 30
0.0
 10
3.56100748557499
 20
2.504538831466812
 30
0.0
 10
3.616900221217199
 20
2.49808944592223
 30
0.0
 10
3.737526789344201
 20
2.476798642382271
 30
0.0
 10
3.801323389562599
 20
2.462255725808847
 30
0.0
 10
3.866025403784434
 20
2.444893906401505
 30
0.0
  0
LINE
  5
BA
330
1F
100
AcDbEntity
  8
0
  6
Continuous
 62
     4
370
    25
100
AcDbLine
 10
3.365970795111838
 20
2.427168625035014
 30
0.0
 11
3.365970795111838
 21
1.231533687911399
 31
0.0
  0
SPLINE
  5
BB
330
1F
100
AcDbEntity
  8
0
  6
Continuous
 62
     4
370
    25
100
AcDbSpline
210
0.0
220
0.0
230
1.0
 70
     8
 71
     3
 72
    10
 73
     6
 74
     0
 42
0.000000001
 43
0.00000001
 40
0.0
 40
0.0
 40
0.0
 40
0.0
 40
0.5
 40
0.5
 40
1.0
 40
1.0
 40
1.0
 40
1.0
 10
3.61237478576307
 20
0.813904779518287
 30
0.0
 10
3.53765508545246
 20
0.8602464623679024
 30
0.0
 10
3.474788431250994
 20
0.9245873046617192
 30
0.0
 10
3.388626099706151
 20
1.071322143273042
 30
0.0
 10
3.365970795111838
 20
1.153615975253554
 30
0.0
 10
3.365970795111838
 20
1.231533687911399
 30
0.0
  0
SPLINE
  5
BC
330
1F
100
AcDbEntity
  8
0
  6
Continuous
 62
     4
370
    25
100
AcDbSpline
210
0.0
220
0.0
230
1.0
 70
     8
 71
     3
 72
     8
 73
     4
 74
     0
 42
0.000000001
 43
0.00000001
 40
0.0
 40
0.0
 40
0.0
 40
0.0
 40
1.0
 40
1.0
 40
1.0
 40
1.0
 10
3.866025403784114
 20
0.6602486328035337
 30
0.0
 10
3.781010315486704
 20
0.7105050663553557
 30
0.0
 10
3.696475763903566
 20
0.7617447622803197
 30
0.0
 10
3.612374785764166
 20
0.8139047795193429
 30
0.0
  0
LINE
  5
BD
330
1F
100
AcDbEntity
  8
0
  6
Continuous
 62
     4
370
    25
100
AcDbLine
 10
3.866025403784434
 20
0.6602486328025718
 30
0.0
 11
3.866025403784434
 21
-0.5220093739012864
 31
0.0
  0
SPLINE
  5
BE
330
1F
100
AcDbEntity
  8
0
  6
Continuous
 62
     4
370
    25
100
AcDbSpline
210
0.0
220
0.0
230
1.0
 70
     8
 71
     3
 72
    14
 73
    10
 74
     0
 42
0.000000001
 43
0.00000001
 40
0.0
 40
0.0
 40
0.0
 40
0.0
 40
0.25
 40
0.25
 40
0.5
 40
0.5
 40
0.75
 40
0.75
 40
1.0
 40
1.0
 40
1.0
 40
1.0
 10
3.365970795111838
 20
-1.023108851414954
 30
0.0
 10
3.365970795111838
 20
-0.9613199513133663
 30
0.0
 10
3.378712688813778
 20
-0.8979636912329189
 30
0.0
 10
3.429366078580983
 20
-0.7782293136757837
 30
0.0
 10
3.46743742229728
 20
-0.7219251524361603
 30
0.0
 10
3.56100748557499
 20
-0.6282117251355986
 30
0.0
 10
3.616900221217199
 20
-0.5901733680080421
 30
0.0
 10
3.737526789344198
 20
-0.5379075792123706
 30
0.0
 10
3.801323389562599
 20
-0.5237226087973986
 30
0.0
 10
3.866025403784434
 20
-0.5220093739012855
 30
0.0
  0
LINE
  5
BF
330
1F
100
AcDbEntity
  8
0
  6
Continuous
 62
     4
370
    25
100
AcDbLine
 10
3.365970795111838
 20
-1.023108851414954
 30
0.0
 11
3.365970795111842
 21
-2.328352213849193
 31
0.0
  0
SPLINE
  5
C0
330
1F
100
AcDbEntity
  8
0
  6
Continuous
 62
     4
370
    25
100
AcDbSpline
210
0.0
220
0.0
230
1.0
 70
     8
 71
     3
 72
    10
 73
     6
 74
     0
 42
0.000000001
 43
0.00000001
 40
0.0
 40
0.0
 40
0.0
 40
0.0
 40
0.5000000000000002
 40
0.5000000000000002
 40
1.0
 40
1.0
 40
1.0
 40
1.0
 10
3.61237478576307
 20
-2.435570920208311
 30
0.0
 10
3.537654773299691
 20
-2.441194156566524
 30
0.0
 10
3.474787984817812
 20
-2.436360199298284
 30
0.0
 10
3.388626626958375
 20
-2.400790039249638
 30
0.0
 10
3.365970795111849
 20
-2.369565355233975
 30
0.0
 10
3.365970795111838
 20
-2.328352213849223
 30
0.0
  0
SPLINE
  5
C1
330
1F
100
AcDbEntity
  8
0
  6
Continuous
 62
     4
370
    25
100
AcDbSpline
210
0.0
220
0.0
230
1.0
 70
     8
 71
     3
 72
     8
 73
     4
 74
     0
 42
0.000000001
 43
0.00000001
 40
0.0
 40
0.0
 40
0.0
 40
0.0
 40
1.0
 40
1.0
 40
1.0
 40
1.0
 10
3.866025403784114
 20
-2.411238632504195
 30
0.0
 10
3.781010315486704
 20
-2.421095628311998
 30
0.0
 10
3.696475763903559
 20
-2.429241696458592
 30
0.0
 10
3.612374785764162
 20
-2.435570920215917
 30
0.0
  0
LINE
  5
C2
330
1F
100
AcDbEntity
  8
0
  6
Continuous
 62
     4
370
    25
100
AcDbLine
 10
3.866025403784434
 20
-2.411238632503925
 30
0.0
 11
3.866025403784434
 21
-2.5
 31
0.0
  0
LINE
  5
C3
330
1F
100
AcDbEntity
  8
0
  6
Continuous
 62
     4
370
    25
100
AcDbLine
 10
-55.13397459621557
 20
2.499999999999993
 30
0.0
 11
-55.13397459621557
 21
-2.500000000000001
 31
0.0
  0
SPLINE
  5
C4
330
1F
100
AcDbEntity
  8
0
  6
Continuous
 62
     4
370
    25
100
AcDbSpline
210
0.0
220
0.0
230
1.0
 70
    24
 71
     3
 72
    18
 73
    14
 74
     0
 42
0.000000001
 43
0.00000001
 40
0.0
 40
0.0
 40
0.0
 40
0.0
 40
0.1250000000000003
 40
0.1250000000000003
 40
0.2500000000000007
 40
0.2500000000000007
 40
0.5000000000000006
 40
0.5000000000000006
 40
0.7500000000000002
 40
0.7500000000000002
 40
0.8750000000000001
 40
0.8750000000000001
 40
1.0
 40
1.0
 40
1.0
 40
1.0
 10
4.866025403784432
 20
2.29243739074891
 30
0.0
 10
4.866025403784432
 20
2.207602415567668
 30
0.0
 10
4.866025403784432
 20
2.130341026363829
 30
0.0
 10
4.866025403784432
 20
1.958219748693403
 30
0.0
 10
4.866025403784432
 20
1.865293561922386
 30
0.0
 10
4.866025403784432
 20
1.566862735051936
 30
0.0
 10
4.866025403784432
 20
1.339414931286408
 30
0.0
 10
4.866025403784432
 20
0.8720317202968526
 30
0.0
 10
4.866025403784432
 20
0.6327482886512811
 30
0.0
 10
4.866025403784432
 20
0.3505748382633981
 30
0.0
 10
4.866025403784432
 20
0.2698477016132172
 30
0.0
 10
4.866025403784432
 20
0.1485216210004469
 30
0.0
 10
4.866025403784432
 20
0.108084715166083
 30
0.0
 10
4.866025403784432
 20
0.0907074265591426
 30
0.0
  0
SPLINE
  5
C5
330
1F
100
AcDbEntity
  8
0
  6
Continuous
 62
     4
370
    25
100
AcDbSpline
210
0.0
220
0.0
230
1.0
 70
     8
 71
     3
 72
    10
 73
     6
 74
     0
 42
0.000000001
 43
0.00000001
 40
0.0
 40
0.0
 40
0.0
 40
0.0
 40
0.5
 40
0.5
 40
1.0
 40
1.0
 40
1.0
 40
1.0
 10
4.866025403784432
 20
0.0907074265591426
 30
0.0
 10
4.698709449487122
 20
0.1870101918337485
 30
0.0
 10
4.530751399881563
 20
0.2832323832469352
 30
0.0
 10
4.196908303681568
 20
0.4735944074495764
 30
0.0
 10
4.032361999203204
 20
0.5674853779951955
 30
0.0
 10
3.866025403784434
 20
0.660248632802572
 30
0.0
  0
SPLINE
  5
C6
330
1F
100
AcDbEntity
  8
0
  6
Continuous
 62
     4
370
    25
100
AcDbSpline
210
0.0
220
0.0
230
1.0
 70
     8
 71
     3
 72
     8
 73
     4
 74
     0
 42
0.000000001
 43
0.00000001
 40
0.0
 40
0.0
 40
0.0
 40
0.0
 40
1.0
 40
1.0
 40
1.0
 40
1.0
 10
4.866025403784432
 20
2.29243739074889
 30
0.0
 10
4.615231898159658
 20
2.35006313107038
 30
0.0
 10
4.363005585941741
 20
2.396230565859293
 30
0.0
 10
4.114965064263533
 20
2.430038777394616
 30
0.0
  0
SPLINE
  5
C7
330
1F
100
AcDbEntity
  8
0
  6
Continuous
 62
     4
370
    25
100
AcDbSpline
210
0.0
220
0.0
230
1.0
 70
     8
 71
     3
 72
     8
 73
     4
 74
     0
 42
0.000000001
 43
0.00000001
 40
0.0
 40
0.0
 40
0.0
 40
0.0
 40
1.0
 40
1.0
 40
1.0
 40
1.0
 10
3.866025403784434
 20
2.444893906401505
 30
0.0
 10
3.953576780402992
 20
2.444891897297834
 30
0.0
 10
4.039235052988486
 20
2.440360865993037
 30
0.0
 10
4.114965064263529
 20
2.430038777394624
 30
0.0
  0
SPLINE
  5
C8
330
1F
100
AcDbEntity
  8
0
  6
Continuous
 62
     4
370
    25
100
AcDbSpline
210
0.0
220
0.0
230
1.0
 70
     8
 71
     3
 72
     8
 73
     4
 74
     0
 42
0.000000001
 43
0.00000001
 40
0.0
 40
0.0
 40
0.0
 40
0.0
 40
1.0
 40
1.0
 40
1.0
 40
1.0
 10
3.866025403784434
 20
-0.5220093739012865
 30
0.0
 10
3.953576780402992
 20
-0.5220187837808216
 30
0.0
 10
4.039235052988486
 20
-0.5445819599469006
 30
0.0
 10
4.114965064263529
 20
-0.5872916995484221
 30
0.0
  0
LINE
  5
C9
330
1F
100
AcDbEntity
  8
0
  6
Continuous
 62
     4
370
    25
100
AcDbLine
 10
4.866025403784432
 20
0.0907074265591426
 30
0.0
 11
4.866025403784432
 21
-0.9973619250284449
 31
0.0
  0
SPLINE
  5
CA
330
1F
100
AcDbEntity
  8
0
  6
Continuous
 62
     4
370
    25
100
AcDbSpline
210
0.0
220
0.0
230
1.0
 70
     8
 71
     3
 72
     8
 73
     4
 74
     0
 42
0.000000001
 43
0.00000001
 40
0.0
 40
0.0
 40
0.0
 40
0.0
 40
1.0
 40
1.0
 40
1.0
 40
1.0
 10
4.866025403784432
 20
-0.9973619250284408
 30
0.0
 10
4.615231898159658
 20
-0.8649091027705571
 30
0.0
 10
4.363005585941741
 20
-0.7271800464948702
 30
0.0
 10
4.114965064263533
 20
-0.587291699548422
 30
0.0
  0
SPLINE
  5
CB
330
1F
100
AcDbEntity
  8
0
  6
Continuous
 62
     4
370
    25
100
AcDbSpline
210
0.0
220
0.0
230
1.0
 70
     8
 71
     3
 72
    10
 73
     6
 74
     0
 42
0.000000001
 43
0.00000001
 40
0.0
 40
0.0
 40
0.0
 40
0.0
 40
0.5
 40
0.5
 40
1.0
 40
1.0
 40
1.0
 40
1.0
 10
4.866025403784432
 20
-2.498353890617591
 30
0.0
 10
4.698709449487122
 20
-2.494857437996771
 30
0.0
 10
4.530751399881563
 20
-2.485769754830401
 30
0.0
 10
4.196908303681568
 20
-2.456619668198931
 30
0.0
 10
4.032361999203204
 20
-2.436639192753444
 30
0.0
 10
3.866025403784434
 20
-2.411238632503925
 30
0.0
  0
SPLINE
  5
CC
330
1F
100
AcDbEntity
  8
0
  6
Continuous
 62
     4
370
    25
100
AcDbSpline
210
0.0
220
0.0
230
1.0
 70
    24
 71
     3
 72
    11
 73
     7
 74
     0
 42
0.000000001
 43
0.00000001
 40
0.0
 40
0.0
 40
0.0
 40
0.0
 40
0.2726994465714377
 40
0.5531840405870412
 40
0.8336686346022365
 40
0.9999999999999999
 40
0.9999999999999999
 40
0.9999999999999999
 40
0.9999999999999999
 10
4.866025403784429
 20
-0.9973619250284397
 30
0.0
 10
4.866025403784429
 20
-1.063467786660309
 30
0.0
 10
4.866025403784429
 20
-1.197566730034678
 30
0.0
 10
4.866025403784432
 20
-1.617240551445305
 30
0.0
 10
4.866025403784429
 20
-2.074558041775533
 30
0.0
 10
4.866025403784432
 20
-2.383388792776604
 30
0.0
 10
4.866025403784432
 20
-2.498353890617591
 30
0.0
  0
LINE
  5
CD
330
1F
100
AcDbEntity
  8
0
  6
Continuous
 62
     4
370
    25
100
AcDbLine
 10
4.866025403784434
 20
2.5
 30
0.0
 11
4.866025403784432
 21
2.292437390748906
 31
0.0
  0
LINE
  5
CE
330
1F
100
AcDbEntity
  8
0
  6
Continuous
 62
     4
370
    25
100
AcDbLine
 10
4.866025403784432
 20
-2.498353890617591
 30
0.0
 11
4.866025403784434
 21
-2.5
 31
0.0
  0
SPLINE
  5
CF
330
1F
100
AcDbEntity
  8
0
  6
Continuous
 62
     1
370
    25
100
AcDbSpline
210
0.0
220
0.0
230
1.0
 70
     8
 71
     3
 72
    17
 73
    13
 74
     0
 42
0.000000001
 43
0.00000001
 40
0.0
 40
0.0
 40
0.0
 40
0.0
 40
0.1039789840980006
 40
0.207957915026022
 40
0.3119367948377644
 40
0.4216148947914143
 40
0.5312882680123641
 40
0.6409556859472673
 40
0.7506159255870738
 40
0.8602677705928353
 40
0.9699100124081924
 40
1.0
 40
1.0
 40
1.0
 40
1.0
 10
4.866025403784425
 20
2.292437390748893
 30
0.0
 10
5.275865608181103
 20
2.180134302951017
 30
0.0
 10
6.095545807401381
 20
1.955528184781802
 30
0.0
 10
7.325083132729166
 20
1.412822392844878
 30
0.0
 10
8.577012859951232
 20
0.7583618764869012
 30
0.0
 10
9.851665967588515
 20
0.0229029469808015
 30
0.0
 10
11.14865324946325
 20
-0.7268717274759721
 30
0.0
 10
12.44557745242187
 20
-1.410965001572956
 30
0.0
 10
13.74239461481685
 20
-1.973898950031509
 30
0.0
 10
15.03909221142705
 20
-2.344137021370255
 30
0.0
 10
16.02212194056735
 20
-2.514640781328027
 30
0.0
 10
16.57290809416223
 20
-2.484281809008156
 30
0.0
 10
16.69151457884886
 20
-2.477744297195164
 30
0.0
  0
SPLINE
  5
D0
330
1F
100
AcDbEntity
  8
0
  6
Continuous
 62
     1
370
    25
100
AcDbSpline
210
0.0
220
0.0
230
1.0
 70
     8
 71
     3
 72
    21
 73
    17
 74
     0
 42
0.000000001
 43
0.00000001
 40
0.0
 40
0.0
 40
0.0
 40
0.0
 40
0.0091263128266657
 40
0.0899984828961286
 40
0.1763249450482866
 40
0.2626620717971865
 40
0.3393293132610549
 40
0.4159965155208892
 40
0.4926636800909525
 40
0.5735330735110643
 40
0.6543989817503929
 40
0.7352604989547705
 40
0.8161167233580284
 40
0.8969667581120904
 40
0.9778097121072472
 40
1.0
 40
1.0
 40
1.0
 40
1.0
 10
27.85961538835766
 20
2.105934790797992
 30
0.0
 10
27.90840826652844
 20
2.123862231668935
 30
0.0
 10
28.38957575387067
 20
2.300652410927377
 30
0.0
 10
29.33222062726254
 20
2.4654769323916
 30
0.0
 10
30.68803632604003
 20
2.535907587098646
 30
0.0
 10
32.02142659987491
 20
2.338510544284926
 30
0.0
 10
33.30251005833977
 20
1.947412056196079
 30
0.0
 10
34.53208060711343
 20
1.414993185165471
 30
0.0
 10
35.78400133099221
 20
0.7577448081860907
 30
0.0
 10
37.05865697277007
 20
0.0230712374155698
 30
0.0
 10
38.35564358336018
 20
-0.7269140034813764
 30
0.0
 10
39.6525678927753
 20
-1.410964175292884
 30
0.0
 10
40.94938530055071
 20
-1.973859987103678
 30
0.0
 10
42.24608180931946
 20
-2.34429368041624
 30
0.0
 10
43.22913558975213
 20
-2.514236781018943
 30
0.0
 10
43.77993916216182
 20
-2.484510169550939
 30
0.0
 10
43.8985658269175
 20
-2.478107943876349
 30
0.0
  0
SPLINE
  5
D1
330
1F
100
AcDbEntity
  8
0
  6
Continuous
 62
     1
370
    25
100
AcDbSpline
210
0.0
220
0.0
230
1.0
 70
     8
 71
     3
 72
    17
 73
    13
 74
     0
 42
0.000000001
 43
0.00000001
 40
0.0
 40
0.0
 40
0.0
 40
0.0
 40
0.1025874893851677
 40
0.2051855921398694
 40
0.3077931896996678
 40
0.4104091547322659
 40
0.5130323521568547
 40
0.6156616401788602
 40
0.7182958713380978
 40
0.8209338935682505
 40
0.9235745512655892
 40
1.0
 40
1.0
 40
1.0
 40
1.0
 10
44.86602540378443
 20
-2.437914245888154
 30
0.0
 10
44.43391433655624
 20
-2.361450978694393
 30
0.0
 10
43.56964749728775
 20
-2.208516533664791
 30
0.0
 10
42.27315023085111
 20
-1.724390562700056
 30
0.0
 10
40.97651119728795
 20
-1.10231602096303
 30
0.0
 10
39.67974478037276
 20
-0.37795002301185
 30
0.0
 10
38.38286889663861
 20
0.3791092833151184
 30
0.0
 10
37.08590064748755
 20
1.102200800352059
 30
0.0
 10
35.78885749415564
 20
1.729076818392947
 30
0.0
 10
34.4917568075237
 20
2.194607873233373
 30
0.0
 10
33.30505622702157
 20
2.467057538396442
 30
0.0
 10
32.55072398828687
 20
2.475246159526679
 30
0.0
 10
32.22877484342118
 20
2.478741064603162
 30
0.0
  0
SPLINE
  5
D2
330
1F
100
AcDbEntity
  8
0
  6
Continuous
 62
     1
370
    25
100
AcDbSpline
210
0.0
220
0.0
230
1.0
 70
     8
 71
     3
 72
    20
 73
    16
 74
     0
 42
0.000000001
 43
0.00000001
 40
0.0
 40
0.0
 40
0.0
 40
0.0
 40
0.051958465680276
 40
0.1328079372008957
 40
0.2119717604648613
 40
0.2928165373821812
 40
0.3736696782383932
 40
0.4545303015410957
 40
0.5353975188883148
 40
0.6162704357718085
 40
0.6971481523925059
 40
0.7780297644865131
 40
0.8589143641600412
 40
0.9398010407316201
 40
1.0
 40
1.0
 40
1.0
 40
1.0
 10
21.05800982200287
 20
-2.093649020093968
 30
0.0
 10
20.78028396257643
 20
-2.180233827789025
 30
0.0
 10
20.07040544682622
 20
-2.401548093950696
 30
0.0
 10
18.93740776131059
 20
-2.525559097972528
 30
0.0
 10
17.65005475170567
 20
-2.473994246533809
 30
0.0
 10
16.3626558353514
 20
-2.198332416408558
 30
0.0
 10
15.06616010134479
 20
-1.727119351095131
 30
0.0
 10
13.76952059632453
 20
-1.101586356741095
 30
0.0
 10
12.47275453263559
 20
-0.3781395648250499
 30
0.0
 10
11.17587770741367
 20
0.3791377080097937
 30
0.0
 10
9.878912871248675
 20
1.102276667645796
 30
0.0
 10
8.581857006645032
 20
1.728744900193655
 30
0.0
 10
7.284803754423637
 20
2.195859736421206
 30
0.0
 10
6.098094339118655
 20
2.462852090366718
 30
0.0
 10
5.34423705416433
 20
2.481851201734076
 30
0.0
 10
5.022578341560761
 20
2.489957815313338
 30
0.0
  0
LINE
  5
D3
330
1F
100
AcDbEntity
  8
0
  6
Continuous
 62
     1
370
    25
100
AcDbLine
 10
44.86602540378443
 20
-2.500000000000008
 30
0.0
 11
44.86602540378443
 21
-2.437914245888159
 31
0.0
  0
SPLINE
  5
D4
330
1F
100
AcDbEntity
  8
0
  6
Continuous
 62
     1
370
    25
100
AcDbSpline
210
0.0
220
0.0
230
1.0
 70
     8
 71
     3
 72
    20
 73
    16
 74
     0
 42
0.000000001
 43
0.00000001
 40
0.0
 40
0.0
 40
0.0
 40
0.0
 40
0.0686321540686348
 40
0.1494969811828221
 40
0.2303583233130175
 40
0.3112152746562028
 40
0.3920669334971273
 40
0.4729124030383555
 40
0.5537507922204953
 40
0.6345812165309951
 40
0.7154055754192313
 40
0.7962368074150304
 40
0.877075919158973
 40
0.9579220254712374
 40
1.0
 40
1.0
 40
1.0
 40
1.0
 10
7.453868085888724
 20
2.106099480569054
 30
0.0
 10
7.820765123253844
 20
2.209220563873171
 30
0.0
 10
8.619953204049825
 20
2.433842548414861
 30
0.0
 10
9.85166576649757
 20
2.534688373033602
 30
0.0
 10
11.14865327984067
 20
2.432144493366332
 30
0.0
 10
12.44557753198094
 20
2.108521268907584
 30
0.0
 10
13.7423942662421
 20
1.598406839304712
 30
0.0
 10
15.03909352601747
 20
0.9456708565056324
 30
0.0
 10
16.33565594349155
 20
0.2089213690104856
 30
0.0
 10
17.63208102878328
 20
-0.5466406862963668
 30
0.0
 10
18.92843616703061
 20
-1.25276623825072
 30
0.0
 10
20.22487258047637
 20
-1.850341413989164
 30
0.0
 10
21.52144949445182
 20
-2.272068852306614
 30
0.0
 10
22.6108544458438
 20
-2.491458976175843
 30
0.0
 10
23.26807140648668
 20
-2.477013565580049
 30
0.0
 10
23.49304244829228
 20
-2.472068776772612
 30
0.0
  0
SPLINE
  5
D5
330
1F
100
AcDbEntity
  8
0
  6
Continuous
 62
     1
370
    25
100
AcDbSpline
210
0.0
220
0.0
230
1.0
 70
     8
 71
     3
 72
    15
 73
    11
 74
     0
 42
0.000000001
 43
0.00000001
 40
0.0
 40
0.0
 40
0.0
 40
0.0
 40
0.1083176981114354
 40
0.2359414343914967
 40
0.3635596705463022
 40
0.4911709770054232
 40
0.6187739306498921
 40
0.7463671161222102
 40
0.873949127120862
 40
1.0
 40
1.0
 40
1.0
 40
1.0
 10
34.66085854940199
 20
2.106099480569056
 30
0.0
 10
35.02775558707645
 20
2.209220368656545
 30
0.0
 10
35.82694366854621
 20
2.433841927970482
 30
0.0
 10
37.05865622524752
 20
2.534691379088842
 30
0.0
 10
38.35564376111769
 20
2.432133282947195
 30
0.0
 10
39.65256792920791
 20
2.108563101115951
 30
0.0
 10
40.94938497711281
 20
1.598250736046962
 30
0.0
 10
42.24608306649107
 20
0.9462533717897295
 30
0.0
 10
43.53750562667949
 20
0.209681732515332
 30
0.0
 10
44.39667009621694
 20
-0.2842101115326817
 30
0.0
 10
44.82365901688117
 20
-0.5296652634763719
 30
0.0
  0
SPLINE
  5
D6
330
1F
100
AcDbEntity
  8
0
  6
Continuous
 62
     1
370
    25
100
AcDbSpline
210
0.0
220
0.0
230
1.0
 70
     8
 71
     3
 72
     8
 73
     4
 74
     0
 42
0.000000001
 43
0.00000001
 40
0.0
 40
0.0
 40
0.0
 40
0.0
 40
1.0
 40
1.0
 40
1.0
 40
1.0
 10
44.86602540378443
 20
-2.053197595406607
 30
0.0
 10
44.48157408017018
 20
-1.83536499372722
 30
0.0
 10
44.12130465450345
 20
-1.564241810314306
 30
0.0
 10
43.77393564529771
 20
-1.264689481294027
 30
0.0
  0
LINE
  5
D7
330
1F
100
AcDbEntity
  8
0
  6
Continuous
 62
     1
370
    25
100
AcDbLine
 10
44.86602540378443
 20
-2.437914245888159
 30
0.0
 11
44.86602540378443
 21
-2.053197595406607
 31
0.0
  0
LINE
  5
D8
330
1F
100
AcDbEntity
  8
0
  6
Continuous
 62
     1
370
    25
100
AcDbLine
 10
44.82365901688117
 20
-0.5296652634763765
 30
0.0
 11
44.82129623944916
 21
-0.5313196980453899
 31
0.0
  0
SPLINE
  5
D9
330
1F
100
AcDbEntity
  8
0
  6
Continuous
 62
     1
370
    25
100
AcDbSpline
210
0.0
220
0.0
230
1.0
 70
    24
 71
     3
 72
    12
 73
     8
 74
     0
 42
0.000000001
 43
0.00000001
 40
0.0
 40
0.0
 40
0.0
 40
0.0
 40
0.2305848488149901
 40
0.4715561285785392
 40
0.6965332464641647
 40
0.9422361676798926
 40
1.0
 40
1.0
 40
1.0
 40
1.0
 10
44.77046192630554
 20
-0.5669142673082644
 30
0.0
 10
44.73323645447385
 20
-0.5929798232982167
 30
0.0
 10
44.65710873198178
 20
-0.646285028453873
 30
0.0
 10
44.43277920628974
 20
-0.8033622533864848
 30
0.0
 10
44.15357867956919
 20
-0.998860566868339
 30
0.0
 10
43.927159596942
 20
-1.157400915318406
 30
0.0
 10
43.79843745382878
 20
-1.247533130260802
 30
0.0
 10
43.77393564529771
 20
-1.264689481294023
 30
0.0
  0
SPLINE
  5
DA
330
1F
100
AcDbEntity
  8
0
  6
Continuous
 62
     1
370
    25
100
AcDbSpline
210
0.0
220
0.0
230
1.0
 70
     8
 71
     3
 72
    12
 73
     8
 74
     0
 42
0.000000001
 43
0.00000001
 40
0.0
 40
0.0
 40
0.0
 40
0.0
 40
0.2222152296128856
 40
0.4444534488940251
 40
0.6667122349158785
 40
0.8889891457588055
 40
1.0
 40
1.0
 40
1.0
 40
1.0
 10
44.86602540378445
 20
0.5536913668241711
 30
0.0
 10
44.43391432437818
 20
0.7920579764610117
 30
0.0
 10
43.56964746075234
 20
1.268815856372436
 30
0.0
 10
42.27315037701601
 20
1.860661489292918
 30
0.0
 10
40.97651064909591
 20
2.278927018520739
 30
0.0
 10
39.89615353597758
 20
2.493561022143225
 30
0.0
 10
39.24800599436091
 20
2.477403037570066
 30
0.0
 10
39.03212224521988
 20
2.472021166831937
 30
0.0
  0
SPLINE
  5
DB
330
1F
100
AcDbEntity
  8
0
  6
Continuous
 62
     1
370
    25
100
AcDbSpline
210
0.0
220
0.0
230
1.0
 70
     8
 71
     3
 72
    20
 73
    16
 74
     0
 42
0.000000001
 43
0.00000001
 40
0.0
 40
0.0
 40
0.0
 40
0.0
 40
0.0717605633257186
 40
0.1526462283982936
 40
0.2335275887319931
 40
0.3144037419132226
 40
0.3952737903678701
 40
0.4761368421827916
 40
0.5569920119160243
 40
0.636161414589326
 40
0.7170118893883866
 40
0.7978707287158238
 40
0.8787370510171088
 40
0.9596099678276541
 40
1.0
 40
1.0
 40
1.0
 40
1.0
 10
27.85961538835766
 20
-2.10593479079799
 30
0.0
 10
27.47604715136087
 20
-2.213437620491967
 30
0.0
 10
26.66013598793837
 20
-2.442113382420507
 30
0.0
 10
25.41191750403654
 20
-2.534638118198087
 30
0.0
 10
24.11498863068324
 20
-2.422860971153315
 30
0.0
 10
22.81816021762793
 20
-2.090624012392785
 30
0.0
 10
21.52144877581893
 20
-1.573555161619611
 30
0.0
 10
20.22487328291407
 20
-0.9160869619032822
 30
0.0
 10
18.93740720784734
 20
-0.1823051568241953
 30
0.0
 10
17.65005491083576
 20
0.5670192536238429
 30
0.0
 10
16.36265575905902
 20
1.266552321022912
 30
0.0
 10
15.06616024574607
 20
1.861268868241701
 30
0.0
 10
13.76952009495598
 20
2.278761342573797
 30
0.0
 10
12.68916308252081
 20
2.493579406593014
 30
0.0
 10
12.04101553336033
 20
2.477407631042535
 30
0.0
 10
11.82513178170663
 20
2.472021166831937
 30
0.0
  0
SPLINE
  5
DC
330
1F
100
AcDbEntity
  8
0
  6
Continuous
 62
     1
370
    25
100
AcDbSpline
210
0.0
220
0.0
230
1.0
 70
     8
 71
     3
 72
    20
 73
    16
 74
     0
 42
0.000000001
 43
0.00000001
 40
0.0
 40
0.0
 40
0.0
 40
0.0
 40
0.0485481481536517
 40
0.1294049368948567
 40
0.2102537589515439
 40
0.2910965142054218
 40
0.3719461441312448
 40
0.4528036555987142
 40
0.5336681632265333
 40
0.6145387751626684
 40
0.6954145938945038
 40
0.7762947170702752
 40
0.8571782383301705
 40
0.9380642481454612
 40
1.0
 40
1.0
 40
1.0
 40
1.0
 10
14.26062731451783
 20
2.092910819659921
 30
0.0
 10
14.52012809329584
 20
2.175121927478457
 30
0.0
 10
15.21182660660789
 20
2.394255377958248
 30
0.0
 10
16.3356553791253
 20
2.523813939582015
 30
0.0
 10
17.63208119061591
 20
2.479500207078338
 30
0.0
 10
18.92843608399345
 20
2.206196672764961
 30
0.0
 10
20.2248727508076
 20
1.738743662076742
 30
0.0
 10
21.52144889609049
 20
1.115896166769168
 30
0.0
 10
22.8181602687265
 20
0.3938881830261182
 30
0.0
 10
24.1149883059681
 20
-0.3634073713616164
 30
0.0
 10
25.41191875190685
 20
-1.087775210785454
 30
0.0
 10
26.70892368226929
 20
-1.717481072478733
 30
0.0
 10
28.00602496408032
 20
-2.18617426816745
 30
0.0
 10
29.20175848438117
 20
-2.466679933856868
 30
0.0
 10
29.9653860574595
 20
-2.471910975594719
 30
0.0
 10
30.29653900867992
 20
-2.474179456946778
 30
0.0
  0
SPLINE
  5
DD
330
1F
100
AcDbEntity
  8
0
  6
Continuous
 62
     1
370
    25
100
AcDbSpline
210
0.0
220
0.0
230
1.0
 70
     8
 71
     3
 72
    10
 73
     6
 74
     0
 42
0.000000001
 43
0.00000001
 40
0.0
 40
0.0
 40
0.0
 40
0.0
 40
0.2319644311486318
 40
0.6183004649247784
 40
1.0
 40
1.0
 40
1.0
 40
1.0
 10
41.46761777803109
 20
2.09291081965992
 30
0.0
 10
41.72711842440163
 20
2.174736552772686
 30
0.0
 10
42.41881658478202
 20
2.392842788180894
 30
0.0
 10
43.53750515415819
 20
2.533431948115533
 30
0.0
 10
44.39666993934499
 20
2.473187257480101
 30
0.0
 10
44.82365901688117
 20
2.443246755582924
 30
0.0
  0
SPLINE
  5
DE
330
1F
100
AcDbEntity
  8
0
  6
Continuous
 62
     1
370
    25
100
AcDbSpline
210
0.0
220
0.0
230
1.0
 70
     8
 71
     3
 72
    12
 73
     8
 74
     0
 42
0.000000001
 43
0.00000001
 40
0.0
 40
0.0
 40
0.0
 40
0.0
 40
0.2799761489611826
 40
0.463857782447549
 40
0.6484374036647652
 40
0.8207657875394614
 40
1.0
 40
1.0
 40
1.0
 40
1.0
 10
44.82365901688117
 20
2.443246755582924
 30
0.0
 10
44.82136942093781
 20
2.251258039379452
 30
0.0
 10
44.81757607317967
 20
1.93317572957012
 30
0.0
 10
44.65496828538864
 20
1.528762537492907
 30
0.0
 10
44.43408845722738
 20
1.271707927162784
 30
0.0
 10
44.15774692663425
 20
1.116808502661237
 30
0.0
 10
43.9620495496103
 20
1.100029875685604
 30
0.0
 10
43.86227879578974
 20
1.091475768896384
 30
0.0
  0
LINE
  5
DF
330
1F
100
AcDbEntity
  8
0
  6
Continuous
 62
     1
370
    25
100
AcDbLine
 10
44.86602540378443
 20
0.5556562237075229
 30
0.0
 11
44.86602540378443
 21
0.5653176926618392
 31
0.0
  0
SPLINE
  5
E0
330
1F
100
AcDbEntity
  8
0
  6
Continuous
 62
     1
370
    25
100
AcDbSpline
210
0.0
220
0.0
230
1.0
 70
     8
 71
     3
 72
    20
 73
    16
 74
     0
 42
0.000000001
 43
0.00000001
 40
0.0
 40
0.0
 40
0.0
 40
0.0
 40
0.0306159328735635
 40
0.1114614245938892
 40
0.1923126143192634
 40
0.2731686024923534
 40
0.3540284850922029
 40
0.4348913544689362
 40
0.5157563001857449
 40
0.5966224098664704
 40
0.6774887700470922
 40
0.7583544670293992
 40
0.8392185877351447
 40
0.9200802205589389
 40
1.0
 40
1.0
 40
1.0
 40
1.0
 10
41.46761777803109
 20
-2.092910819659915
 30
0.0
 10
41.30392645785932
 20
-2.14894820994388
 30
0.0
 10
40.70798617358484
 20
-2.352959872020915
 30
0.0
 10
39.67974390584662
 20
-2.501818535327262
 30
0.0
 10
38.38286913032272
 20
-2.511195661599624
 30
0.0
 10
37.085900587355
 20
-2.285100083896555
 30
0.0
 10
35.78885750098397
 20
-1.858728677533656
 30
0.0
 10
34.49175684034833
 20
-1.265989227957729
 30
0.0
 10
33.19461625587881
 20
-0.5607685453386476
 30
0.0
 10
31.89745326119357
 20
0.194535118258225
 30
0.0
 10
30.60028546775488
 20
0.932184861799341
 30
0.0
 10
29.30313036256593
 20
1.588011985929355
 30
0.0
 10
28.00600586061845
 20
2.098027213812997
 30
0.0
 10
26.71394606743531
 20
2.436353380088742
 30
0.0
 10
25.85427008333938
 20
2.478014426658395
 30
0.0
 10
25.42695007120672
 20
2.498722925272934
 30
0.0
  0
SPLINE
  5
E1
330
1F
100
AcDbEntity
  8
0
  6
Continuous
 62
     1
370
    25
100
AcDbSpline
210
0.0
220
0.0
230
1.0
 70
     8
 71
     3
 72
    15
 73
    11
 74
     0
 42
0.000000001
 43
0.00000001
 40
0.0
 40
0.0
 40
0.0
 40
0.0
 40
0.0522721955608774
 40
0.190303963884659
 40
0.3283454607127272
 40
0.4663951501834442
 40
0.604451488814192
 40
0.7425129269265075
 40
0.8805779100836505
 40
1.0
 40
1.0
 40
1.0
 40
1.0
 10
14.26062731451783
 20
-2.092910819659919
 30
0.0
 10
14.09693599115179
 20
-2.148948201676545
 30
0.0
 10
13.50099569524817
 20
-2.352959833655216
 30
0.0
 10
12.47275362658917
 20
-2.501819012215209
 30
0.0
 10
11.17587799654
 20
-2.511193926818961
 30
0.0
 10
9.878912620854615
 20
-2.285106546625365
 30
0.0
 10
8.581857719119903
 20
-1.858704559927099
 30
0.0
 10
7.284801154804104
 20
-1.266079239741314
 30
0.0
 10
6.045894077158458
 20
-0.5921972294445476
 30
0.0
 10
5.239861852024227
 20
-0.1256680539055995
 30
0.0
 10
4.866025403784432
 20
0.090707426559436
 30
0.0
  0
SPLINE
  5
E2
330
1F
100
AcDbEntity
  8
0
  6
Continuous
 62
     4
370
    25
100
AcDbSpline
210
0.0
220
0.0
230
1.0
 70
    24
 71
     3
 72
    18
 73
    14
 74
     0
 42
0.000000001
 43
0.00000001
 40
0.0
 40
0.0
 40
0.0
 40
0.0
 40
0.125
 40
0.125
 40
0.25
 40
0.25
 40
0.4999999999999999
 40
0.4999999999999999
 40
0.75
 40
0.75
 40
0.875
 40
0.875
 40
1.0
 40
1.0
 40
1.0
 40
1.0
 10
4.866025403784432
 20
2.292437390748908
 30
0.0
 10
4.866025403784432
 20
2.207602415567726
 30
0.0
 10
4.866025403784432
 20
2.130341026363939
 30
0.0
 10
4.866025403784432
 20
1.958219748693655
 30
0.0
 10
4.866025403784432
 20
1.865293561922718
 30
0.0
 10
4.866025403784432
 20
1.566862735052531
 30
0.0
 10
4.866025403784432
 20
1.339414931287219
 30
0.0
 10
4.866025403784432
 20
0.8720317202980113
 30
0.0
 10
4.866025403784432
 20
0.6327482886525609
 30
0.0
 10
4.866025403784432
 20
0.3505748382645437
 30
0.0
 10
4.866025403784432
 20
0.269847701614266
 30
0.0
 10
4.866025403784432
 20
0.1485216210011906
 30
0.0
 10
4.866025403784432
 20
0.1080847151666188
 30
0.0
 10
4.866025403784432
 20
0.0907074265594359
 30
0.0
  0
SPLINE
  5
E3
330
1F
100
AcDbEntity
  8
0
  6
Continuous
 62
     1
370
    25
100
AcDbSpline
210
0.0
220
0.0
230
1.0
 70
     8
 71
     3
 72
    21
 73
    17
 74
     0
 42
0.000000001
 43
0.00000001
 40
0.0
 40
0.0
 40
0.0
 40
0.0
 40
0.0105455432994972
 40
0.0914426390390701
 40
0.1723408992053248
 40
0.2532394099710688
 40
0.3341372572748256
 40
0.4150335276753301
 40
0.4959273092047593
 40
0.5768176922190096
 40
0.6577037702432953
 40
0.7385846408113853
 40
0.8194594062968138
 40
0.9003271747344126
 40
0.9811870606305723
 40
0.9999999999999999
 40
0.9999999999999999
 40
0.9999999999999999
 40
0.9999999999999999
 10
34.66085854940196
 20
-2.106099480569054
 30
0.0
 10
34.60449466183105
 20
-2.126701641348196
 30
0.0
 10
34.11575145727443
 20
-2.305347340109085
 30
0.0
 10
33.19461577969198
 20
-2.463850117272847
 30
0.0
 10
31.89745339179724
 20
-2.533166742374327
 30
0.0
 10
30.60028542153204
 20
-2.359369652342638
 30
0.0
 10
29.30313041685351
 20
-1.980187826706861
 30
0.0
 10
28.00600568969581
 20
-1.423435071349112
 30
0.0
 10
26.70892884469916
 20
-0.7402593427252642
 30
0.0
 10
25.41191737556004
 20
0.0088143238937039
 30
0.0
 10
24.11498864927934
 20
0.75740447635144
 30
0.0
 10
22.81816027170283
 20
1.437274141784211
 30
0.0
 10
21.5214485409531
 20
1.993929002687295
 30
0.0
 10
20.22487416818942
 20
2.355303212267154
 30
0.0
 10
19.25999652198749
 20
2.517549809713249
 30
0.0
 10
18.72732402991349
 20
2.486464626801062
 30
0.0
 10
18.62678373449748
 20
2.480597394083857
 30
0.0
  0
SPLINE
  5
E4
330
1F
100
AcDbEntity
  8
0
  6
Continuous
 62
     1
370
    25
100
AcDbSpline
210
0.0
220
0.0
230
1.0
 70
     8
 71
     3
 72
    10
 73
     6
 74
     0
 42
0.000000001
 43
0.00000001
 40
0.0
 40
0.0
 40
0.0
 40
0.0
 40
0.065331376174321
 40
0.5665021971621772
 40
1.0
 40
1.0
 40
1.0
 40
1.0
 10
7.453868085888701
 20
-2.106099480569055
 30
0.0
 10
7.397504540779899
 20
-2.126676987993503
 30
0.0
 10
6.908764305784894
 20
-2.305108912295332
 30
0.0
 10
6.045888283747198
 20
-2.463003310715598
 30
0.0
 10
5.239860016406132
 20
-2.487153207410886
 30
0.0
 10
4.866025403784432
 20
-2.498353890614862
 30
0.0
  0
SPLINE
  5
E5
330
1F
100
AcDbEntity
  8
0
  6
Continuous
 62
     4
370
    25
100
AcDbSpline
210
0.0
220
0.0
230
1.0
 70
    24
 71
     3
 72
    12
 73
     8
 74
     0
 42
0.000000001
 43
0.00000001
 40
0.0
 40
0.0
 40
0.0
 40
0.0
 40
0.1613515917606226
 40
0.3947624124139312
 40
0.6281732330672405
 40
0.8615840537202095
 40
1.0
 40
1.0
 40
1.0
 40
1.0
 10
4.866025403784429
 20
-0.9568206179453584
 30
0.0
 10
4.866025403784429
 20
-0.9602115127707722
 30
0.0
 10
4.866025403784432
 20
-0.9685076678127881
 30
0.0
 10
4.866025403784421
 20
-1.207504240553786
 30
0.0
 10
4.866025403784452
 20
-1.613481432215286
 30
0.0
 10
4.866025403784425
 20
-2.075067884411711
 30
0.0
 10
4.866025403784429
 20
-2.383527100190525
 30
0.0
 10
4.866025403784432
 20
-2.498353890614861
 30
0.0
  0
SPLINE
  5
E6
330
1F
100
AcDbEntity
  8
0
  6
Continuous
 62
     1
370
    25
100
AcDbSpline
210
0.0
220
0.0
230
1.0
 70
     8
 71
     3
 72
    12
 73
     8
 74
     0
 42
0.000000001
 43
0.00000001
 40
0.0
 40
0.0
 40
0.0
 40
0.0
 40
0.2447072568476611
 40
0.4894143885635002
 40
0.7341213999807565
 40
0.9922411268538848
 40
1.0
 40
1.0
 40
1.0
 40
1.0
 10
4.866025403784425
 20
-0.9973619250284378
 30
0.0
 10
5.275865521068674
 20
-1.206208843691711
 30
0.0
 10
6.095545546064141
 20
-1.623902574223732
 30
0.0
 10
7.325084178077283
 20
-2.104927687650255
 30
0.0
 10
8.577008849177828
 20
-2.404722480066795
 30
0.0
 10
9.432311083427289
 20
-2.534766755746013
 30
0.0
 10
9.877661836959271
 20
-2.497830660883693
 30
0.0
 10
9.890658069081494
 20
-2.496752791229916
 30
0.0
  0
SPLINE
  5
E7
330
1F
100
AcDbEntity
  8
0
  6
Continuous
 62
     1
370
    25
100
AcDbSpline
210
0.0
220
0.0
230
1.0
 70
     8
 71
     3
 72
    21
 73
    17
 74
     0
 42
0.000000001
 43
0.00000001
 40
0.0
 40
0.0
 40
0.0
 40
0.0
 40
0.0288929296220107
 40
0.1097406079613817
 40
0.1905943893386575
 40
0.2714533764280102
 40
0.3523166670654705
 40
0.4331833550798552
 40
0.5140525311317242
 40
0.6003757973396375
 40
0.6867097277494723
 40
0.7633741308689558
 40
0.8400384947858566
 40
0.9167028210143816
 40
0.9975692205196958
 40
1.0
 40
1.0
 40
1.0
 40
1.0
 10
21.05800982200284
 20
2.09364902009397
 30
0.0
 10
21.21247801333432
 20
2.146869021620633
 30
0.0
 10
21.79917633189108
 20
2.349008278513167
 30
0.0
 10
22.81816121371117
 20
2.499138400933436
 30
0.0
 10
24.11498812021871
 20
2.513594221493695
 30
0.0
 10
25.41191854980484
 20
2.291962808599004
 30
0.0
 10
26.70892467651641
 20
1.869552136896988
 30
0.0
 10
28.00602118899105
 20
1.279799036893782
 30
0.0
 10
29.33222344203006
 20
0.5604669863454099
 30
0.0
 10
30.68803552471022
 20
-0.2300410873949718
 30
0.0
 10
32.02142687068091
 20
-0.9855257586203408
 30
0.0
 10
33.30250972250166
 20
-1.62021189886989
 30
0.0
 10
34.53208170413509
 20
-2.105919260821516
 30
0.0
 10
35.78399718466619
 20
-2.404423707802237
 30
0.0
 10
36.63930155820248
 20
-2.534768336916947
 30
0.0
 10
37.08465230079187
 20
-2.497830705717116
 30
0.0
 10
37.09764853259477
 20
-2.496752791229914
 30
0.0
  0
LINE
  5
E8
330
1F
100
AcDbEntity
  8
0
  6
Continuous
 62
     1
370
    25
100
AcDbLine
 10
44.86602540378443
 20
-0.5000000000000061
 30
0.0
 11
44.86602540378443
 21
0.5536913668241712
 31
0.0
  0
LINE
  5
E9
330
1F
100
AcDbEntity
  8
0
  6
Continuous
 62
     1
370
    25
100
AcDbLine
 10
44.86602540378443
 20
-0.5000000000000057
 30
0.0
 11
44.82365901688117
 21
-0.5296652634763803
 31
0.0
  0
LINE
  5
EA
330
1F
100
AcDbEntity
  8
0
  6
Continuous
 62
     1
370
    25
100
AcDbLine
 10
44.86602540378443
 20
2.449489742783185
 30
0.0
 11
44.86602540378443
 21
2.500000000000008
 31
0.0
  0
ELLIPSE
  5
EB
330
1F
100
AcDbEntity
  8
0
  6
Continuous
 62
     1
370
    25
100
AcDbEllipse
 10
45.58009940715549
 20
0.0
 30
0.0
 11
3.570370016855286
 21
0.0
 31
0.0
210
0.0
220
0.0
230
1.0
 40
0.700207538209711
 41
1.772154247585226
 42
1.784280345110195
  0
LINE
  5
EC
330
1F
100
AcDbEntity
  8
0
  6
Continuous
 62
     1
370
    25
100
AcDbLine
 10
44.86602540378443
 20
0.5653176926618392
 30
0.0
 11
44.86602540378443
 21
2.449489742783185
 31
0.0
  0
LINE
  5
ED
330
1F
100
AcDbEntity
  8
0
  6
Continuous
 62
     1
370
    25
100
AcDbLine
 10
44.86602540378443
 20
-0.4999999999999976
 30
0.0
 11
44.86602540378443
 21
-2.053197595406609
 31
0.0
  0
LINE
  5
EE
330
1F
100
AcDbEntity
  8
중심선
100
AcDbLine
 10
-58.13397459621557
 20
-0.0000000000000048
 30
0.0
 11
47.86602540378446
 21
0.0000000000000082
 31
0.0
  0
CIRCLE
  5
EF
330
1F
100
AcDbEntity
  8
해칭선
100
AcDbCircle
 10
0.0001190745108366
 20
-0.0000000000000043
 30
0.0
 40
3.0
  0
INSERT
  5
F0
330
1F
100
AcDbEntity
  8
0
  6
Continuous
 62
     7
100
AcDbBlockReference
 66
     1
  2
블럭10
 10
-12.44009924894178
 20
-52.04717430164393
 30
0.0
  0
ATTRIB
  5
F1
330
F0
100
AcDbEntity
  8
FORMAT
 62
     2
100
AcDbText
 10
-28.55936028837733
 20
-49.97180738881174
 30
0.0
 40
4.233333333333333
  1
SEME7205040E [ 4 FLUTE ]
 41
0.75
  7
SLDTEXTSTYLE0
 11
-28.55936028837733
 21
-52.08847405547841
 31
0.0
100
AcDbAttribute
  2
AUTOATTR0
 70
     0
 74
     1
  0
SEQEND
  5
F2
330
F0
100
AcDbEntity
  8
0
  6
Continuous
 62
     7
  0
HATCH
  5
F3
330
1F
100
AcDbEntity
  8
중심선
100
AcDbHatch
 10
0.0
 20
0.0
 30
0.0
210
0.0
220
0.0
230
1.0
  2
SOLID
 70
     1
 71
     0
 91
        1
 92
        0
 93
        4
 72
     1
 10
-6.725189944560922
 20
-35.8
 11
-10.17146518839821
 21
-35.8
 72
     1
 10
-10.17146518839821
 20
-35.8
 11
-12.29969504760223
 21
-38.33632558057262
 72
     1
 10
-12.29969504760223
 20
-38.33632558057262
 11
-8.853386718651796
 21
-38.33628615127013
 72
     1
 10
-8.853386718651796
 20
-38.33628615127013
 11
-6.725189944560922
 21
-35.8
 97
        0
 75
     0
 76
     1
 98
        1
 10
0.0
 20
0.0
  0
HATCH
  5
F4
330
1F
100
AcDbEntity
  8
중심선
100
AcDbHatch
 10
0.0
 20
0.0
 30
0.0
210
0.0
220
0.0
230
1.0
  2
SOLID
 70
     1
 71
     0
 91
        1
 92
        0
 93
        4
 72
     1
 10
-1.712425953524915
 20
-35.79999999999997
 11
-5.158701197362225
 21
-35.8
 72
     1
 10
-5.158701197362225
 20
-35.8
 11
-9.689839205719641
 21
-41.20000000000002
 72
     1
 10
-9.689839205719641
 20
-41.20000000000002
 11
-6.243563961882359
 21
-41.20000000000002
 72
     1
 10
-6.243563961882359
 20
-41.20000000000002
 11
-1.712425953524916
 21
-35.79999999999997
 97
        0
 75
     0
 76
     1
 98
        1
 10
0.0
 20
0.0
  0
HATCH
  5
F5
330
1F
100
AcDbEntity
  8
중심선
100
AcDbHatch
 10
0.0
 20
0.0
 30
0.0
210
0.0
220
0.0
230
1.0
  2
SOLID
 70
     1
 71
     0
 91
        1
 92
        0
 93
        4
 72
     1
 10
3.300338037510953
 20
-35.79999999999997
 11
-0.1459372063261632
 21
-35.8
 72
     1
 10
-0.1459372063261632
 20
-35.8
 11
-7.19437410821544
 21
-44.20000000000002
 72
     1
 10
-7.19437410821544
 20
-44.20000000000002
 11
-3.748098864378158
 21
-44.20000000000002
 72
     1
 10
-3.748098864378158
 20
-44.20000000000002
 11
3.300338037510952
 21
-35.79999999999997
 97
        0
 75
     0
 76
     1
 98
        1
 10
0.0
 20
0.0
  0
HATCH
  5
F6
330
1F
100
AcDbEntity
  8
중심선
100
AcDbHatch
 10
0.0
 20
0.0
 30
0.0
210
0.0
220
0.0
230
1.0
  2
SOLID
 70
     1
 71
     0
 91
        1
 92
        0
 93
        6
 72
     3
 10
8.100228468523124
 20
-40.00000000005127
 11
3.960054785062284
 21
1.540850780301639E-10
 40
0.3939339440162633
 50
17.09539180608434
 51
320.0019657685079
 73
     0
 72
     1
 10
9.783228124223719
 20
-38.5878940046383
 11
12.08852999792476
 21
-36.65356729459038
 72
     3
 10
8.100228468470277
 20
-40.00000000000015
 11
6.600054785286829
 21
-1.249000902703301E-13
 40
0.6363583540795982
 50
39.99873849337408
 51
368.4976242363725
 73
     1
 72
     1
 10
14.52556096037089
 20
-39.03999999993002
 11
6.7802957753062
 21
-39.03999999993002
 72
     1
 10
6.7802957753062
 20
-39.03999999993002
 11
6.780270730860266
 21
-40.95999999992991
 72
     1
 10
6.780270730860266
 20
-40.95999999992991
 11
11.2216505003323
 21
-40.95999999992988
 97
        0
 75
     0
 76
     1
 98
        1
 10
0.0
 20
0.0
  0
DIMENSION
  5
F7
330
1F
100
AcDbEntity
  8
치수문자_일반주서
100
AcDbDimension
  2
_D
 10
53.97679553390265
 20
2.500000000000043
 30
0.0
 11
53.97679553390262
 21
12.16650000000004
 31
0.0
 70
   160
  1
%%c<>
 71
     2
 42
5.00000000000002
 52
-270.0
  3
SLDDIMSTYLE0
100
AcDbAlignedDimension
 13
44.86602540378448
 23
-2.500000000000011
 33
0.0
 14
44.86602540378448
 24
2.500000000000009
 34
0.0
 50
90.0000000000002
100
AcDbRotatedDimension
  0
DIMENSION
  5
105
330
1F
100
AcDbEntity
  8
치수문자_일반주서
100
AcDbDimension
  2
_D_1
 10
44.86602540378443
 20
20.38913260158164
 30
0.0
 11
-5.133974596215565
 21
20.38913260158164
 31
0.0
 70
   160
  1
<>
 71
     2
 42
100.0
  3
SLDDIMSTYLE1
100
AcDbAlignedDimension
 13
-55.13397459621557
 23
2.499999999999993
 33
0.0
 14
44.86602540378443
 24
2.500000000000008
 34
0.0
 50
-0.0000000000000041
100
AcDbRotatedDimension
  0
DIMENSION
  5
110
330
1F
100
AcDbEntity
  8
치수문자_일반주서
100
AcDbDimension
  2
_D_2
 10
-63.89442285543048
 20
-3.000000000000039
 30
0.0
 11
-63.89442285543054
 21
12.66649999999997
 31
0.0
 70
   160
  1
%%c<>
 71
     2
 42
6.000000000000005
 52
-270.0
  3
SLDDIMSTYLE2
100
AcDbAlignedDimension
 13
-54.63397459621556
 23
3.000000000000003
 33
0.0
 14
-54.63397459621556
 24
-3.000000000000003
 34
0.0
 50
90.0000000000002
100
AcDbRotatedDimension
  0
DIMENSION
  5
11E
330
1F
100
AcDbEntity
  8
치수문자_일반주서
100
AcDbDimension
  2
_D_3
 10
44.86602540378443
 20
13.34591830258764
 30
0.0
 11
24.86602540378445
 21
13.34591830258764
 31
0.0
 70
   160
  1
<>
 71
     2
 42
40.0
  3
SLDDIMSTYLE1
100
AcDbAlignedDimension
 13
4.866025403784434
 23
2.5
 33
0.0
 14
44.86602540378443
 24
2.500000000000008
 34
0.0
 50
-0.0000000000000483
100
AcDbRotatedDimension
  0
INSERT
  5
12E
330
1F
100
AcDbEntity
  8
해칭선
100
AcDbBlockReference
  2
SW_DOWELSYMBOL_0
 10
0.0001190745108366
 20
-0.0000000000000043
 30
0.0
  0
ENDSEC
  0
SECTION
  2
OBJECTS
  0
DICTIONARY
  5
C
330
0
100
AcDbDictionary
281
     1
  3
ACAD_GROUP
350
D
  3
ACAD_IMAGE_VARS
350
152
  3
ACAD_LAYOUT
350
1A
  3
ACAD_MLINESTYLE
350
17
  3
ACAD_PLOTSETTINGS
350
19
  3
ACAD_PLOTSTYLENAME
350
E
  3
ACAD_SCALELIST
350
47
  3
APPDATA
350
150
  3
DWGPROPS
350
161
  0
DICTIONARY
  5
D
102
{ACAD_REACTORS
330
C
102
}
330
C
100
AcDbDictionary
281
     1
  0
RASTERVARIABLES
  5
152
102
{ACAD_REACTORS
330
C
102
}
330
C
100
AcDbRasterVariables
 90
        0
 70
     1
 71
     1
 72
     1
  0
DICTIONARY
  5
1A
102
{ACAD_REACTORS
330
C
102
}
330
C
100
AcDbDictionary
281
     1
  3
Layout1
350
1E
  3
Layout2
350
26
  3
Model
350
22
  0
DICTIONARY
  5
17
102
{ACAD_REACTORS
330
C
102
}
330
C
100
AcDbDictionary
281
     1
  3
Standard
350
18
  0
DICTIONARY
  5
19
102
{ACAD_REACTORS
330
C
102
}
330
C
100
AcDbDictionary
281
     1
  0
ACDBDICTIONARYWDFLT
  5
E
102
{ACAD_REACTORS
330
C
102
}
330
C
100
AcDbDictionary
281
     1
  3
Normal
350
F
100
AcDbDictionaryWithDefault
340
F
  0
DICTIONARY
  5
47
102
{ACAD_REACTORS
330
C
102
}
330
C
100
AcDbDictionary
281
     1
  3
A0
350
48
  3
A1
350
49
  3
A2
350
4A
  3
A3
350
4B
  3
A4
350
4C
  3
A5
350
4D
  3
A6
350
4E
  3
A7
350
4F
  3
A8
350
50
  3
A9
350
51
  3
B0
350
52
  3
B1
350
53
  3
B2
350
54
  3
B3
350
55
  3
B4
350
56
  3
B5
350
57
  3
B6
350
58
  3
B7
350
59
  3
B8
350
5A
  3
B9
350
5B
  3
C0
350
5C
  3
C1
350
5D
  3
C2
350
5E
  3
C3
350
5F
  3
C4
350
60
  3
C5
350
61
  3
C6
350
62
  3
C7
350
63
  3
C8
350
64
  3
C9
350
65
  3
D0
350
66
  3
D1
350
67
  3
D2
350
68
  0
DICTIONARY
  5
150
102
{ACAD_REACTORS
330
C
102
}
330
C
100
AcDbDictionary
281
     1
  0
XRECORD
  5
161
102
{ACAD_REACTORS
330
C
102
}
330
C
100
AcDbXrecord
280
     1
  1
DWGPROPS COOKIE
  2

  3

  4

  6

  7

  8
12014102
  9

300
=
301
=
302
=
303
=
304
=
305
=
306
=
307
=
308
=
309
=
 40
0.0
 41
2458260.198243391
 42
2458268.125599444
  1

 90
        0
  0
LAYOUT
  5
1E
102
{ACAD_REACTORS
330
1A
102
}
330
1A
100
AcDbPlotSettings
  1

  2
none_device
  4

  6

 40
0.0
 41
0.0
 42
0.0
 43
0.0
 44
0.0
 45
0.0
 46
0.0
 47
0.0
 48
0.0
 49
0.0
140
0.0
141
0.0
142
1.0
143
1.0
 70
   688
 72
     1
 73
     0
 74
     5
  7

 75
    16
147
1.0
148
0.0
149
0.0
100
AcDbLayout
  1
Layout1
 70
     1
 71
     1
 10
0.0
 20
0.0
 11
420.0
 21
297.0
 12
0.0
 22
0.0
 32
0.0
 14
1.000000000000000E+20
 24
1.000000000000000E+20
 34
1.000000000000000E+20
 15
-1.000000000000000E+20
 25
-1.000000000000000E+20
 35
-1.000000000000000E+20
146
0.0
 13
0.0
 23
0.0
 33
0.0
 16
1.0
 26
0.0
 36
0.0
 17
0.0
 27
1.0
 37
0.0
 76
     0
330
1B
  0
LAYOUT
  5
26
102
{ACAD_REACTORS
330
1A
102
}
330
1A
100
AcDbPlotSettings
  1

  2
none_device
  4

  6

 40
0.0
 41
0.0
 42
0.0
 43
0.0
 44
0.0
 45
0.0
 46
0.0
 47
0.0
 48
0.0
 49
0.0
140
0.0
141
0.0
142
1.0
143
1.0
 70
   688
 72
     1
 73
     0
 74
     5
  7

 75
    16
147
1.0
148
0.0
149
0.0
100
AcDbLayout
  1
Layout2
 70
     1
 71
     2
 10
0.0
 20
0.0
 11
0.0
 21
0.0
 12
0.0
 22
0.0
 32
0.0
 14
0.0
 24
0.0
 34
0.0
 15
0.0
 25
0.0
 35
0.0
146
0.0
 13
0.0
 23
0.0
 33
0.0
 16
1.0
 26
0.0
 36
0.0
 17
0.0
 27
1.0
 37
0.0
 76
     0
330
23
  0
LAYOUT
  5
22
102
{ACAD_REACTORS
330
1A
102
}
330
1A
100
AcDbPlotSettings
  1

  2
none_device
  4
ANSI_A_(11.00_x_8.50_Inches)
  6

 40
6.35
 41
19.05
 42
6.35000508
 43
19.05000254
 44
279.4
 45
215.9
 46
131.558063351733
 47
115.3734294810367
 48
0.0
 49
0.0
140
0.0
141
0.0
142
0.0807487851913163
143
1.0
 70
  1696
 72
     0
 73
     0
 74
     0
  7

 75
     0
147
0.0235690232323232
148
0.0
149
0.0
100
AcDbLayout
  1
Model
 70
     1
 71
     0
 10
0.0
 20
0.0
 11
420.0
 21
297.0
 12
0.0
 22
0.0
 32
0.0
 14
-68.26942285543055
 24
-49.97180738881174
 34
0.0
 15
54.527128867236
 25
24.76413260158164
 35
0.0
146
0.0
 13
0.0
 23
0.0
 33
0.0
 16
1.0
 26
0.0
 36
0.0
 17
0.0
 27
1.0
 37
0.0
 76
     0
330
1F
331
29
  0
MLINESTYLE
  5
18
102
{ACAD_REACTORS
330
17
102
}
330
17
100
AcDbMlineStyle
  2
Standard
 70
     0
  3

 62
   256
 51
90.0
 52
90.0
 71
     2
 49
0.5
 62
   256
  6
BYLAYER
 49
-0.5
 62
   256
  6
BYLAYER
  0
ACDBPLACEHOLDER
  5
F
102
{ACAD_REACTORS
330
E
102
}
330
E
  0
SCALE
  5
48
102
{ACAD_REACTORS
330
47
102
}
330
47
100
AcDbScale
 70
     0
300
1:1
140
1.0
141
1.0
290
     1
  0
SCALE
  5
49
102
{ACAD_REACTORS
330
47
102
}
330
47
100
AcDbScale
 70
     0
300
1:2
140
1.0
141
2.0
290
     0
  0
SCALE
  5
4A
102
{ACAD_REACTORS
330
47
102
}
330
47
100
AcDbScale
 70
     0
300
1:4
140
1.0
141
4.0
290
     0
  0
SCALE
  5
4B
102
{ACAD_REACTORS
330
47
102
}
330
47
100
AcDbScale
 70
     0
300
1:5
140
1.0
141
5.0
290
     0
  0
SCALE
  5
4C
102
{ACAD_REACTORS
330
47
102
}
330
47
100
AcDbScale
 70
     0
300
1:8
140
1.0
141
8.0
290
     0
  0
SCALE
  5
4D
102
{ACAD_REACTORS
330
47
102
}
330
47
100
AcDbScale
 70
     0
300
1:10
140
1.0
141
10.0
290
     0
  0
SCALE
  5
4E
102
{ACAD_REACTORS
330
47
102
}
330
47
100
AcDbScale
 70
     0
300
1:16
140
1.0
141
16.0
290
     0
  0
SCALE
  5
4F
102
{ACAD_REACTORS
330
47
102
}
330
47
100
AcDbScale
 70
     0
300
1:20
140
1.0
141
20.0
290
     0
  0
SCALE
  5
50
102
{ACAD_REACTORS
330
47
102
}
330
47
100
AcDbScale
 70
     0
300
1:30
140
1.0
141
30.0
290
     0
  0
SCALE
  5
51
102
{ACAD_REACTORS
330
47
102
}
330
47
100
AcDbScale
 70
     0
300
1:40
140
1.0
141
40.0
290
     0
  0
SCALE
  5
52
102
{ACAD_REACTORS
330
47
102
}
330
47
100
AcDbScale
 70
     0
300
1:50
140
1.0
141
50.0
290
     0
  0
SCALE
  5
53
102
{ACAD_REACTORS
330
47
102
}
330
47
100
AcDbScale
 70
     0
300
1:100
140
1.0
141
100.0
290
     0
  0
SCALE
  5
54
102
{ACAD_REACTORS
330
47
102
}
330
47
100
AcDbScale
 70
     0
300
2:1
140
2.0
141
1.0
290
     0
  0
SCALE
  5
55
102
{ACAD_REACTORS
330
47
102
}
330
47
100
AcDbScale
 70
     0
300
4:1
140
4.0
141
1.0
290
     0
  0
SCALE
  5
56
102
{ACAD_REACTORS
330
47
102
}
330
47
100
AcDbScale
 70
     0
300
8:1
140
8.0
141
1.0
290
     0
  0
SCALE
  5
57
102
{ACAD_REACTORS
330
47
102
}
330
47
100
AcDbScale
 70
     0
300
10:1
140
10.0
141
1.0
290
     0
  0
SCALE
  5
58
102
{ACAD_REACTORS
330
47
102
}
330
47
100
AcDbScale
 70
     0
300
100:1
140
100.0
141
1.0
290
     0
  0
SCALE
  5
59
102
{ACAD_REACTORS
330
47
102
}
330
47
100
AcDbScale
 70
     0
300
1/128" = 1'-0"
140
0.0078125
141
12.0
290
     0
  0
SCALE
  5
5A
102
{ACAD_REACTORS
330
47
102
}
330
47
100
AcDbScale
 70
     0
300
1/64" = 1'-0"
140
0.015625
141
12.0
290
     0
  0
SCALE
  5
5B
102
{ACAD_REACTORS
330
47
102
}
330
47
100
AcDbScale
 70
     0
300
1/32" = 1'-0"
140
0.03125
141
12.0
290
     0
  0
SCALE
  5
5C
102
{ACAD_REACTORS
330
47
102
}
330
47
100
AcDbScale
 70
     0
300
1/16" = 1'-0"
140
0.0625
141
12.0
290
     0
  0
SCALE
  5
5D
102
{ACAD_REACTORS
330
47
102
}
330
47
100
AcDbScale
 70
     0
300
3/32" = 1'-0"
140
0.09375
141
12.0
290
     0
  0
SCALE
  5
5E
102
{ACAD_REACTORS
330
47
102
}
330
47
100
AcDbScale
 70
     0
300
1/8" = 1'-0"
140
0.125
141
12.0
290
     0
  0
SCALE
  5
5F
102
{ACAD_REACTORS
330
47
102
}
330
47
100
AcDbScale
 70
     0
300
3/16" = 1'-0"
140
0.1875
141
12.0
290
     0
  0
SCALE
  5
60
102
{ACAD_REACTORS
330
47
102
}
330
47
100
AcDbScale
 70
     0
300
1/4" = 1'-0"
140
0.25
141
12.0
290
     0
  0
SCALE
  5
61
102
{ACAD_REACTORS
330
47
102
}
330
47
100
AcDbScale
 70
     0
300
3/8" = 1'-0"
140
0.375
141
12.0
290
     0
  0
SCALE
  5
62
102
{ACAD_REACTORS
330
47
102
}
330
47
100
AcDbScale
 70
     0
300
1/2" = 1'-0"
140
0.5
141
12.0
290
     0
  0
SCALE
  5
63
102
{ACAD_REACTORS
330
47
102
}
330
47
100
AcDbScale
 70
     0
300
3/4" = 1'-0"
140
0.75
141
12.0
290
     0
  0
SCALE
  5
64
102
{ACAD_REACTORS
330
47
102
}
330
47
100
AcDbScale
 70
     0
300
1" = 1'-0"
140
1.0
141
12.0
290
     0
  0
SCALE
  5
65
102
{ACAD_REACTORS
330
47
102
}
330
47
100
AcDbScale
 70
     0
300
1-1/2" = 1'-0"
140
1.5
141
12.0
290
     0
  0
SCALE
  5
66
102
{ACAD_REACTORS
330
47
102
}
330
47
100
AcDbScale
 70
     0
300
3" = 1'-0"
140
3.0
141
12.0
290
     0
  0
SCALE
  5
67
102
{ACAD_REACTORS
330
47
102
}
330
47
100
AcDbScale
 70
     0
300
6" = 1'-0"
140
6.0
141
12.0
290
     0
  0
SCALE
  5
68
102
{ACAD_REACTORS
330
47
102
}
330
47
100
AcDbScale
 70
     0
300
1'-0" = 1'-0"
140
12.0
141
12.0
290
     0
  0
ENDSEC
  0
EOF
