  0
SECTION
  2
HEADER
  9
$ACADVER
  1
AC1015
  9
$ACADMAINTVER
 70
     6
  9
$DWGCODEPAGE
  3
ANSI_949
  9
$INSBASE
 10
0.0
 20
0.0
 30
0.0
  9
$EXTMIN
 10
-58.57761178033175
 20
-49.97180738881174
 30
0.0
  9
$EXTMAX
 10
48.31263503120474
 20
24.76413260158164
 30
0.0
  9
$LIMMIN
 10
0.0
 20
0.0
  9
$LIMMAX
 10
420.0
 20
297.0
  9
$ORTHOMODE
 70
     0
  9
$REGENMODE
 70
     1
  9
$FILLMODE
 70
     1
  9
$QTEXTMODE
 70
     0
  9
$MIRRTEXT
 70
     1
  9
$LTSCALE
 40
1.0
  9
$ATTMODE
 70
     1
  9
$TEXTSIZE
 40
3.5
  9
$TRACEWID
 40
1.0
  9
$TEXTSTYLE
  7
Standard
  9
$CLAYER
  8
0
  9
$CELTYPE
  6
ByLayer
  9
$CECOLOR
 62
   256
  9
$CELTSCALE
 40
1.0
  9
$DISPSILH
 70
     0
  9
$DIMSCALE
 40
1.0
  9
$DIMASZ
 40
3.302
  9
$DIMEXO
 40
1.0
  9
$DIMDLI
 40
3.75
  9
$DIMRND
 40
0.0
  9
$DIMDLE
 40
0.0
  9
$DIMEXE
 40
1.0
  9
$DIMTP
 40
0.0
  9
$DIMTM
 40
0.0
  9
$DIMTXT
 40
3.5
  9
$DIMCEN
 40
2.5
  9
$DIMTSZ
 40
0.0
  9
$DIMTOL
 70
     0
  9
$DIMLIM
 70
     0
  9
$DIMTIH
 70
     1
  9
$DIMTOH
 70
     1
  9
$DIMSE1
 70
     0
  9
$DIMSE2
 70
     0
  9
$DIMTAD
 70
     1
  9
$DIMZIN
 70
     0
  9
$DIMBLK
  1

  9
$DIMASO
 70
     1
  9
$DIMSHO
 70
     1
  9
$DIMPOST
  1

  9
$DIMAPOST
  1

  9
$DIMALT
 70
     0
  9
$DIMALTD
 70
     3
  9
$DIMALTF
 40
0.0393700787401575
  9
$DIMLFAC
 40
1.0
  9
$DIMTOFL
 70
     1
  9
$DIMTVP
 40
0.0
  9
$DIMTIX
 70
     0
  9
$DIMSOXD
 70
     0
  9
$DIMSAH
 70
     0
  9
$DIMBLK1
  1

  9
$DIMBLK2
  1

  9
$DIMSTYLE
  2
ISO-25
  9
$DIMCLRD
 70
     0
  9
$DIMCLRE
 70
     0
  9
$DIMCLRT
 70
     0
  9
$DIMTFAC
 40
1.0
  9
$DIMGAP
 40
1.524
  9
$DIMJUST
 70
     0
  9
$DIMSD1
 70
     0
  9
$DIMSD2
 70
     0
  9
$DIMTOLJ
 70
     0
  9
$DIMTZIN
 70
     0
  9
$DIMALTZ
 70
     0
  9
$DIMALTTZ
 70
     0
  9
$DIMUPT
 70
     0
  9
$DIMDEC
 70
     2
  9
$DIMTDEC
 70
     2
  9
$DIMALTU
 70
     2
  9
$DIMALTTD
 70
     3
  9
$DIMTXSTY
  7
Standard
  9
$DIMAUNIT
 70
     0
  9
$DIMADEC
 70
     2
  9
$DIMALTRND
 40
0.0
  9
$DIMAZIN
 70
     0
  9
$DIMDSEP
 70
    44
  9
$DIMATFIT
 70
     3
  9
$DIMFRAC
 70
     0
  9
$DIMLDRBLK
  1

  9
$DIMLUNIT
 70
     2
  9
$DIMLWD
 70
    -2
  9
$DIMLWE
 70
    -2
  9
$DIMTMOVE
 70
     0
  9
$LUNITS
 70
     2
  9
$LUPREC
 70
     2
  9
$SKETCHINC
 40
1.0
  9
$FILLETRAD
 40
10.0
  9
$AUNITS
 70
     0
  9
$AUPREC
 70
     2
  9
$MENU
  1
.
  9
$ELEVATION
 40
0.0
  9
$PELEVATION
 40
0.0
  9
$THICKNESS
 40
0.0
  9
$LIMCHECK
 70
     0
  9
$CHAMFERA
 40
0.0
  9
$CHAMFERB
 40
0.0
  9
$CHAMFERC
 40
0.0
  9
$CHAMFERD
 40
0.0
  9
$SKPOLY
 70
     0
  9
$TDCREATE
 40
2458260.572865486
  9
$TDUCREATE
 40
2458260.197865486
  9
$TDUPDATE
 40
2458268.49905485
  9
$TDUUPDATE
 40
2458268.12405485
  9
$TDINDWG
 40
0.0004170486
  9
$TDUSRTIMER
 40
2458268.123637835
  9
$USRTIMER
 70
     1
  9
$ANGBASE
 50
0.0
  9
$ANGDIR
 70
     0
  9
$PDMODE
 70
     0
  9
$PDSIZE
 40
-1.0
  9
$PLINEWID
 40
0.0
  9
$SPLFRAME
 70
     0
  9
$SPLINETYPE
 70
     6
  9
$SPLINESEGS
 70
     8
  9
$HANDSEED
  5
155
  9
$SURFTAB1
 70
     6
  9
$SURFTAB2
 70
     6
  9
$SURFTYPE
 70
     6
  9
$SURFU
 70
     6
  9
$SURFV
 70
     6
  9
$UCSBASE
  2

  9
$UCSNAME
  2

  9
$UCSORG
 10
0.0
 20
0.0
 30
0.0
  9
$UCSXDIR
 10
1.0
 20
0.0
 30
0.0
  9
$UCSYDIR
 10
0.0
 20
1.0
 30
0.0
  9
$UCSORTHOREF
  2

  9
$UCSORTHOVIEW
 70
     0
  9
$UCSORGTOP
 10
0.0
 20
0.0
 30
0.0
  9
$UCSORGBOTTOM
 10
0.0
 20
0.0
 30
0.0
  9
$UCSORGLEFT
 10
0.0
 20
0.0
 30
0.0
  9
$UCSORGRIGHT
 10
0.0
 20
0.0
 30
0.0
  9
$UCSORGFRONT
 10
0.0
 20
0.0
 30
0.0
  9
$UCSORGBACK
 10
0.0
 20
0.0
 30
0.0
  9
$PUCSBASE
  2

  9
$PUCSNAME
  2

  9
$PUCSORG
 10
0.0
 20
0.0
 30
0.0
  9
$PUCSXDIR
 10
1.0
 20
0.0
 30
0.0
  9
$PUCSYDIR
 10
0.0
 20
1.0
 30
0.0
  9
$PUCSORTHOREF
  2

  9
$PUCSORTHOVIEW
 70
     0
  9
$PUCSORGTOP
 10
0.0
 20
0.0
 30
0.0
  9
$PUCSORGBOTTOM
 10
0.0
 20
0.0
 30
0.0
  9
$PUCSORGLEFT
 10
0.0
 20
0.0
 30
0.0
  9
$PUCSORGRIGHT
 10
0.0
 20
0.0
 30
0.0
  9
$PUCSORGFRONT
 10
0.0
 20
0.0
 30
0.0
  9
$PUCSORGBACK
 10
0.0
 20
0.0
 30
0.0
  9
$USERI1
 70
     0
  9
$USERI2
 70
     0
  9
$USERI3
 70
     0
  9
$USERI4
 70
     0
  9
$USERI5
 70
     0
  9
$USERR1
 40
0.0
  9
$USERR2
 40
0.0
  9
$USERR3
 40
0.0
  9
$USERR4
 40
0.0
  9
$USERR5
 40
0.0
  9
$WORLDVIEW
 70
     1
  9
$SHADEDGE
 70
     3
  9
$SHADEDIF
 70
    70
  9
$TILEMODE
 70
     1
  9
$MAXACTVP
 70
    64
  9
$PINSBASE
 10
0.0
 20
0.0
 30
0.0
  9
$PLIMCHECK
 70
     0
  9
$PEXTMIN
 10
1.000000000000000E+20
 20
1.000000000000000E+20
 30
1.000000000000000E+20
  9
$PEXTMAX
 10
-1.000000000000000E+20
 20
-1.000000000000000E+20
 30
-1.000000000000000E+20
  9
$PLIMMIN
 10
0.0
 20
0.0
  9
$PLIMMAX
 10
0.0
 20
0.0
  9
$UNITMODE
 70
     0
  9
$VISRETAIN
 70
     1
  9
$PLINEGEN
 70
     0
  9
$PSLTSCALE
 70
     1
  9
$TREEDEPTH
 70
  3020
  9
$CMLSTYLE
  2
Standard
  9
$CMLJUST
 70
     0
  9
$CMLSCALE
 40
20.0
  9
$PROXYGRAPHICS
 70
     1
  9
$MEASUREMENT
 70
     1
  9
$CELWEIGHT
370
    -1
  9
$ENDCAPS
280
     0
  9
$JOINSTYLE
280
     0
  9
$LWDISPLAY
290
     1
  9
$INSUNITS
 70
     4
  9
$HYPERLINKBASE
  1

  9
$STYLESHEET
  1

  9
$XEDIT
290
     1
  9
$CEPSNTYPE
380
     0
  9
$PSTYLEMODE
290
     1
  9
$FINGERPRINTGUID
  2
{1F751A74-4B4B-4AD6-836E-E051339A81FE}
  9
$VERSIONGUID
  2
{FAEB1C32-E019-11D5-929B-00C0DF256EC4}
  9
$EXTNAMES
290
     1
  9
$PSVPSCALE
 40
0.0
  9
$OLESTARTUP
290
     0
  0
ENDSEC
  0
SECTION
  2
CLASSES
  0
CLASS
  1
ACDBDICTIONARYWDFLT
  2
AcDbDictionaryWithDefault
  3
ObjectDBX Classes
 90
        0
280
     0
281
     0
  0
CLASS
  1
VISUALSTYLE
  2
AcDbVisualStyle
  3
ObjectDBX Classes
 90
     4095
280
     0
281
     0
  0
CLASS
  1
MATERIAL
  2
AcDbMaterial
  3
ObjectDBX Classes
 90
     1153
280
     0
281
     0
  0
CLASS
  1
SCALE
  2
AcDbScale
  3
ObjectDBX Classes
 90
     1153
280
     0
281
     0
  0
CLASS
  1
TABLESTYLE
  2
AcDbTableStyle
  3
ObjectDBX Classes
 90
     4095
280
     0
281
     0
  0
CLASS
  1
MLEADERSTYLE
  2
AcDbMLeaderStyle
  3
ACDB_MLEADERSTYLE_CLASS
 90
     4095
280
     0
281
     0
  0
CLASS
  1
SUN
  2
AcDbSun
  3
SCENEOE
 90
     1153
280
     0
281
     0
  0
CLASS
  1
ACDBPLACEHOLDER
  2
AcDbPlaceHolder
  3
ObjectDBX Classes
 90
        0
280
     0
281
     0
  0
CLASS
  1
LAYOUT
  2
AcDbLayout
  3
ObjectDBX Classes
 90
        0
280
     0
281
     0
  0
CLASS
  1
RASTERVARIABLES
  2
AcDbRasterVariables
  3
ISM
 90
        0
280
     0
281
     0
  0
ENDSEC
  0
SECTION
  2
TABLES
  0
TABLE
  2
VPORT
  5
8
330
0
100
AcDbSymbolTable
 70
     1
  0
VPORT
  5
29
330
8
100
AcDbSymbolTableRecord
100
AcDbViewportTableRecord
  2
*Active
 70
     0
 10
0.0
 20
0.0
 11
1.0
 21
1.0
 12
-5.132488374563508
 22
-12.60383739361505
 13
0.0
 23
0.0
 14
10.0
 24
10.0
 15
10.0
 25
10.0
 16
0.0
 26
0.0
 36
1.0
 17
0.0
 27
0.0
 37
0.0
 40
76.23065879020125
 41
1.737726098191214
 42
50.0
 43
0.0
 44
0.0
 50
0.0
 51
0.0
 71
    16
 72
  2000
 73
     1
 74
     3
 75
     0
 76
     0
 77
     0
 78
     0
281
     0
 65
     1
110
0.0
120
0.0
130
0.0
111
1.0
121
0.0
131
0.0
112
0.0
122
1.0
132
0.0
 79
     0
146
0.0
  0
ENDTAB
  0
TABLE
  2
LTYPE
  5
5
330
0
100
AcDbSymbolTable
 70
     6
  0
LTYPE
  5
14
330
5
100
AcDbSymbolTableRecord
100
AcDbLinetypeTableRecord
  2
ByBlock
 70
     0
  3

 72
    65
 73
     0
 40
0.0
  0
LTYPE
  5
15
330
5
100
AcDbSymbolTableRecord
100
AcDbLinetypeTableRecord
  2
ByLayer
 70
     0
  3

 72
    65
 73
     0
 40
0.0
  0
LTYPE
  5
16
330
5
100
AcDbSymbolTableRecord
100
AcDbLinetypeTableRecord
  2
Continuous
 70
     0
  3
Solid line
 72
    65
 73
     0
 40
0.0
  0
LTYPE
  5
6E
330
5
100
AcDbSymbolTableRecord
100
AcDbLinetypeTableRecord
  2
HIDDEN
 70
     0
  3
Hidden __ __ __ __ __ __ __ __ __ __ __ __ __ __
 72
    65
 73
     2
 40
1.905
 49
1.27
 74
     0
 49
-0.635
 74
     0
  0
LTYPE
  5
6F
330
5
100
AcDbSymbolTableRecord
100
AcDbLinetypeTableRecord
  2
PHANTOM
 70
     0
  3
Phantom ______  __  __  ______  __  __  ______
 72
    65
 73
     6
 40
12.7
 49
6.35
 74
     0
 49
-1.27
 74
     0
 49
1.27
 74
     0
 49
-1.27
 74
     0
 49
1.27
 74
     0
 49
-1.27
 74
     0
  0
LTYPE
  5
70
330
5
100
AcDbSymbolTableRecord
100
AcDbLinetypeTableRecord
  2
CENTER
 70
     0
  3
Center ____ _ ____ _ ____ _ ____ _ ____ _ ____
 72
    65
 73
     4
 40
10.16
 49
6.35
 74
     0
 49
-1.27
 74
     0
 49
1.27
 74
     0
 49
-1.27
 74
     0
  0
LTYPE
  5
71
330
5
100
AcDbSymbolTableRecord
100
AcDbLinetypeTableRecord
  2
CENTERX2
 70
     0
  3
Center (2x) ________  __  ________  __  _____
 72
    65
 73
     4
 40
20.32
 49
12.7
 74
     0
 49
-2.54
 74
     0
 49
2.54
 74
     0
 49
-2.54
 74
     0
  0
LTYPE
  5
72
330
5
100
AcDbSymbolTableRecord
100
AcDbLinetypeTableRecord
  2
DOT2
 70
     0
  3
Dot (.5x) ........................................
 72
    65
 73
     2
 40
0.635
 49
0.0
 74
     0
 49
-0.635
 74
     0
  0
ENDTAB
  0
TABLE
  2
LAYER
  5
2
330
0
100
AcDbSymbolTable
 70
    17
  0
LAYER
  5
10
330
2
100
AcDbSymbolTableRecord
100
AcDbLayerTableRecord
  2
0
 70
     0
 62
     7
  6
Continuous
370
    -3
390
F
  0
LAYER
  5
73
330
2
100
AcDbSymbolTableRecord
100
AcDbLayerTableRecord
  2
FORMAT
 70
     0
 62
     2
  6
Continuous
370
    -3
390
F
  0
LAYER
  5
74
330
2
100
AcDbSymbolTableRecord
100
AcDbLayerTableRecord
  2
외형선
 70
     0
 62
   100
  6
Continuous
370
    35
390
F
  0
LAYER
  5
75
330
2
100
AcDbSymbolTableRecord
100
AcDbLayerTableRecord
  2
숨은선
 70
     0
 62
     2
  6
HIDDEN
370
    25
390
F
  0
LAYER
  5
76
330
2
100
AcDbSymbolTableRecord
100
AcDbLayerTableRecord
  2
중심선
 70
     0
 62
     1
  6
CENTERX2
370
    -3
390
F
  0
LAYER
  5
77
330
2
100
AcDbSymbolTableRecord
100
AcDbLayerTableRecord
  2
파단선
 70
     0
 62
     4
  6
Continuous
370
    -3
390
F
  0
LAYER
  5
78
330
2
100
AcDbSymbolTableRecord
100
AcDbLayerTableRecord
  2
해칭선
 70
     0
 62
   100
  6
Continuous
370
    -3
390
F
  0
LAYER
  5
79
330
2
100
AcDbSymbolTableRecord
100
AcDbLayerTableRecord
  2
가는실선
 70
     0
 62
     4
  6
Continuous
370
    -3
390
F
  0
LAYER
  5
7A
330
2
100
AcDbSymbolTableRecord
100
AcDbLayerTableRecord
  2
치수_보조선
 70
     0
 62
     4
  6
Continuous
370
    -3
390
F
  0
LAYER
  5
7B
330
2
100
AcDbSymbolTableRecord
100
AcDbLayerTableRecord
  2
치수문자_일반주서
 70
     0
 62
     7
  6
Continuous
370
    25
390
F
  0
LAYER
  5
7C
330
2
100
AcDbSymbolTableRecord
100
AcDbLayerTableRecord
  2
개별주서
 70
     0
 62
   100
  6
Continuous
370
    35
390
F
  0
LAYER
  5
7D
330
2
100
AcDbSymbolTableRecord
100
AcDbLayerTableRecord
  2
중간선
 70
     0
 62
     2
  6
Continuous
370
    25
390
F
  0
LAYER
  5
7E
330
2
100
AcDbSymbolTableRecord
100
AcDbLayerTableRecord
  2
윤곽선
 70
     0
 62
     3
  6
Continuous
370
    50
390
F
  0
LAYER
  5
7F
330
2
100
AcDbSymbolTableRecord
100
AcDbLayerTableRecord
  2
중심마크
 70
     0
 62
   100
  6
Continuous
370
    35
390
F
  0
LAYER
  5
80
330
2
100
AcDbSymbolTableRecord
100
AcDbLayerTableRecord
  2
가상선
 70
     0
 62
     4
  6
PHANTOM
370
    -3
390
F
  0
LAYER
  5
81
330
2
100
AcDbSymbolTableRecord
100
AcDbLayerTableRecord
  2
특수지정선
 70
     0
 62
     5
  6
CENTERX2
370
    70
390
F
  0
LAYER
  5
146
330
2
100
AcDbSymbolTableRecord
100
AcDbLayerTableRecord
  2
Defpoints
 70
     0
 62
     7
  6
Continuous
290
     0
370
    -3
390
F
  0
ENDTAB
  0
TABLE
  2
STYLE
  5
3
330
0
100
AcDbSymbolTable
 70
     2
  0
STYLE
  5
11
330
3
100
AcDbSymbolTableRecord
100
AcDbTextStyleTableRecord
  2
Standard
 70
     0
 40
0.0
 41
1.0
 50
0.0
 71
     0
 42
3.5
  3
txt
  4

  0
STYLE
  5
97
330
3
100
AcDbSymbolTableRecord
100
AcDbTextStyleTableRecord
  2
SLDTEXTSTYLE0
 70
     0
 40
0.0
 41
0.75
 50
0.0
 71
     0
 42
3.5
  3
TXT
  4

  0
ENDTAB
  0
TABLE
  2
VIEW
  5
6
330
0
100
AcDbSymbolTable
 70
     0
  0
ENDTAB
  0
TABLE
  2
UCS
  5
7
330
0
100
AcDbSymbolTable
 70
     0
  0
ENDTAB
  0
TABLE
  2
APPID
  5
9
330
0
100
AcDbSymbolTable
 70
     1
  0
APPID
  5
12
330
9
100
AcDbSymbolTableRecord
100
AcDbRegAppTableRecord
  2
ACAD
 70
     0
  0
ENDTAB
  0
TABLE
  2
DIMSTYLE
  5
A
330
0
100
AcDbSymbolTable
 70
     4
100
AcDbDimStyleTable
  0
DIMSTYLE
105
27
330
A
100
AcDbSymbolTableRecord
100
AcDbDimStyleTableRecord
  2
ISO-25
 70
     0
 41
2.5
 42
0.625
 43
3.75
 44
1.25
 73
     0
 74
     0
 77
     1
 78
     8
140
2.5
141
2.5
143
0.03937007874016
147
0.625
171
     3
172
     1
178
     0
271
     2
272
     2
274
     3
278
    44
283
     0
284
     8
340
11
  0
DIMSTYLE
105
EB
102
{ACAD_REACTORS
330
EA
102
}
330
A
100
AcDbSymbolTableRecord
100
AcDbDimStyleTableRecord
  2
SLDDIMSTYLE0
 70
     0
 41
3.302
 44
0.0
 45
0.000000001
 73
     0
 74
     0
 77
     1
 78
    12
 79
     3
140
3.5
147
0.875
172
     1
173
     1
178
     0
271
     1
272
     1
276
     2
284
    12
289
     0
340
97
  0
DIMSTYLE
105
F9
102
{ACAD_REACTORS
330
F8
330
111
102
}
330
A
100
AcDbSymbolTableRecord
100
AcDbDimStyleTableRecord
  2
SLDDIMSTYLE1
 70
     0
 41
3.302
 44
0.0
 45
0.000000001
 73
     0
 74
     0
 77
     1
 78
    12
 79
     3
140
3.5
147
0.875
173
     1
178
     0
271
     2
272
     2
276
     2
284
    12
340
97
  0
DIMSTYLE
105
104
102
{ACAD_REACTORS
330
103
102
}
330
A
100
AcDbSymbolTableRecord
100
AcDbDimStyleTableRecord
  2
SLDDIMSTYLE2
 70
     0
 41
3.302
 44
0.0
 45
0.000000001
 73
     0
 74
     0
 77
     1
 78
    12
 79
     3
140
3.5
147
0.875
172
     1
173
     1
178
     0
271
     2
272
     2
276
     2
284
    12
289
     0
340
97
  0
ENDTAB
  0
TABLE
  2
BLOCK_RECORD
  5
1
330
0
100
AcDbSymbolTable
 70
     7
  0
BLOCK_RECORD
  5
1F
330
1
100
AcDbSymbolTableRecord
100
AcDbBlockTableRecord
  2
*Model_Space
340
22
  0
BLOCK_RECORD
  5
1B
330
1
100
AcDbSymbolTableRecord
100
AcDbBlockTableRecord
  2
*Paper_Space
340
1E
  0
BLOCK_RECORD
  5
23
330
1
100
AcDbSymbolTableRecord
100
AcDbBlockTableRecord
  2
*Paper_Space0
340
26
  0
BLOCK_RECORD
  5
82
330
1
100
AcDbSymbolTableRecord
100
AcDbBlockTableRecord
  2
블럭10
340
0
102
{BLKREFS
331
E3
102
}
  0
BLOCK_RECORD
  5
EC
330
1
100
AcDbSymbolTableRecord
100
AcDbBlockTableRecord
  2
_D
340
0
  0
BLOCK_RECORD
  5
FA
330
1
100
AcDbSymbolTableRecord
100
AcDbBlockTableRecord
  2
_D_1
340
0
  0
BLOCK_RECORD
  5
105
330
1
100
AcDbSymbolTableRecord
100
AcDbBlockTableRecord
  2
_D_2
340
0
  0
BLOCK_RECORD
  5
112
330
1
100
AcDbSymbolTableRecord
100
AcDbBlockTableRecord
  2
_D_3
340
0
  0
BLOCK_RECORD
  5
11B
330
1
100
AcDbSymbolTableRecord
100
AcDbBlockTableRecord
  2
SW_DOWELSYMBOL_0
340
0
102
{BLKREFS
331
121
102
}
  0
ENDTAB
  0
ENDSEC
  0
SECTION
  2
BLOCKS
  0
BLOCK
  5
20
330
1F
100
AcDbEntity
  8
0
100
AcDbBlockBegin
  2
*Model_Space
 70
     0
 10
0.0
 20
0.0
 30
0.0
  3
*Model_Space
  1

  0
ENDBLK
  5
21
330
1F
100
AcDbEntity
  8
0
100
AcDbBlockEnd
  0
BLOCK
  5
1C
330
1B
100
AcDbEntity
 67
     1
  8
0
100
AcDbBlockBegin
  2
*Paper_Space
 70
     0
 10
0.0
 20
0.0
 30
0.0
  3
*Paper_Space
  1

  0
ENDBLK
  5
1D
330
1B
100
AcDbEntity
 67
     1
  8
0
100
AcDbBlockEnd
  0
BLOCK
  5
24
330
23
100
AcDbEntity
  8
0
100
AcDbBlockBegin
  2
*Paper_Space0
 70
     0
 10
0.0
 20
0.0
 30
0.0
  3
*Paper_Space0
  1

  0
ENDBLK
  5
25
330
23
100
AcDbEntity
  8
0
100
AcDbBlockEnd
  0
BLOCK
  5
83
330
82
100
AcDbEntity
  8
0
100
AcDbBlockBegin
  2
블럭10
 70
     2
 10
0.0
 20
0.0
 30
0.0
  3
블럭10
  1

  0
ELLIPSE
  5
85
330
82
100
AcDbEntity
  8
중심선
100
AcDbEllipse
 10
20.54032771741204
 20
12.0471743016438
 30
0.0
 11
6.600054785286829
 21
-1.261213355974178E-13
 31
0.0
210
0.0
220
0.0
230
1.0
 40
0.636358354079598
 41
0.9219305317359503
 42
6.513795318482858
  0
ELLIPSE
  5
86
330
82
100
AcDbEntity
  8
중심선
100
AcDbEllipse
 10
20.54032771746488
 20
12.04717430159265
 30
0.0
 11
3.960054785062283
 21
1.540847449632565E-10
 31
0.0
210
0.0
220
0.0
230
1.0
 40
0.3939339440162632
 41
1.131841032648279
 42
5.62031148352944
  0
LINE
  5
87
330
82
100
AcDbEntity
  8
중심선
100
AcDbLine
 10
2.268634060543552
 20
16.24717430164393
 30
0.0
 11
5.714909304380834
 21
16.24717430164393
 31
0.0
  0
LINE
  5
88
330
82
100
AcDbEntity
  8
중심선
100
AcDbLine
 10
5.245725140726316
 20
7.84717430164391
 30
0.0
 11
8.692000384563599
 21
7.84717430164391
 31
0.0
  0
LINE
  5
89
330
82
100
AcDbEntity
  8
중심선
100
AcDbLine
 10
15.74043728645272
 20
16.24717430164393
 30
0.0
 11
8.692000384563599
 21
7.84717430164391
 31
0.0
  0
LINE
  5
8A
330
82
100
AcDbEntity
  8
중심선
100
AcDbLine
 10
0.1404042013395286
 20
13.71084872107135
 30
0.0
 11
3.58671253028996
 21
13.71088815037384
 31
0.0
  0
LINE
  5
8B
330
82
100
AcDbEntity
  8
중심선
100
AcDbLine
 10
2.750260043222114
 20
10.84717430164391
 30
0.0
 11
6.196535287059397
 21
10.84717430164391
 31
0.0
  0
LINE
  5
8C
330
82
100
AcDbEntity
  8
중심선
100
AcDbLine
 10
12.29416204261559
 20
16.24717430164393
 30
0.0
 11
5.245725140726316
 21
7.84717430164391
 31
0.0
  0
LINE
  5
8D
330
82
100
AcDbEntity
  8
중심선
100
AcDbLine
 10
10.72767329541681
 20
16.24717430164393
 30
0.0
 11
6.196535287059397
 21
10.84717430164391
 31
0.0
  0
LINE
  5
8E
330
82
100
AcDbEntity
  8
중심선
100
AcDbLine
 10
7.28139805157953
 20
16.24717430164393
 30
0.0
 11
2.750260043222114
 21
10.84717430164391
 31
0.0
  0
LINE
  5
8F
330
82
100
AcDbEntity
  8
중심선
100
AcDbLine
 10
5.714909304380834
 20
16.24717430164393
 30
0.0
 11
3.58671253028996
 21
13.71088815037384
 31
0.0
  0
LINE
  5
90
330
82
100
AcDbEntity
  8
중심선
100
AcDbLine
 10
2.268634060543552
 20
16.24717430164393
 30
0.0
 11
0.1404042013395286
 21
13.71084872107135
 31
0.0
  0
LINE
  5
91
330
82
100
AcDbEntity
  8
중심선
100
AcDbLine
 10
7.28139805157953
 20
16.24717430164393
 30
0.0
 11
10.72767329541681
 21
16.24717430164393
 31
0.0
  0
LINE
  5
92
330
82
100
AcDbEntity
  8
중심선
100
AcDbLine
 10
12.29416204261559
 20
16.24717430164393
 30
0.0
 11
15.74043728645272
 21
16.24717430164393
 31
0.0
  0
LINE
  5
93
330
82
100
AcDbEntity
  8
중심선
100
AcDbLine
 10
19.22036997980202
 20
11.08717430171403
 30
0.0
 11
23.66174974927406
 21
11.08717430171406
 31
0.0
  0
LINE
  5
94
330
82
100
AcDbEntity
  8
중심선
100
AcDbLine
 10
19.22039502424796
 20
13.00717430171391
 30
0.0
 11
19.22036997980202
 21
11.08717430171403
 31
0.0
  0
LINE
  5
95
330
82
100
AcDbEntity
  8
중심선
100
AcDbLine
 10
19.22039502424796
 20
13.00717430171391
 30
0.0
 11
26.96566020931264
 21
13.00717430171391
 31
0.0
  0
LINE
  5
96
330
82
100
AcDbEntity
  8
중심선
100
AcDbLine
 10
22.22332737316547
 20
13.45928029700563
 30
0.0
 11
24.52862924686651
 21
15.39360700705356
 31
0.0
  0
ATTDEF
  5
98
330
82
100
AcDbEntity
  8
FORMAT
 62
     2
100
AcDbText
 10
-16.11926103943555
 20
2.075366912832191
 30
0.0
 40
4.233333333333333
  1
SEME7205030E [ 4 FLUTE ]
 41
0.75
  7
SLDTEXTSTYLE0
 11
-16.11926103943555
 21
-0.0412997538344756
 31
0.0
100
AcDbAttributeDefinition
  3

  2
AUTOATTR0
 70
     0
 74
     1
  0
ENDBLK
  5
84
330
82
100
AcDbEntity
  8
0
100
AcDbBlockEnd
  0
BLOCK
  5
ED
330
EC
100
AcDbEntity
  8
0
100
AcDbBlockBegin
  2
_D
 70
     0
 10
0.0
 20
0.0
 30
0.0
  3
_D
  1

  0
LINE
  5
EF
330
EC
100
AcDbEntity
  8
치수문자_일반주서
 62
     0
370
    -2
100
AcDbLine
 10
34.92852540378447
 20
-2.500000000000008
 30
0.0
 11
47.7623016978714
 21
-2.499999999999961
 31
0.0
  0
LINE
  5
F0
330
EC
100
AcDbEntity
  8
치수문자_일반주서
 62
     0
370
    -2
100
AcDbLine
 10
34.92852540378447
 20
2.500000000000011
 30
0.0
 11
47.76230169787139
 21
2.500000000000059
 31
0.0
  0
LINE
  5
F1
330
EC
100
AcDbEntity
  8
치수문자_일반주서
 62
     0
370
    -2
100
AcDbLine
 10
47.7623016978714
 20
-2.499999999999961
 30
0.0
 11
47.76230169787135
 21
15.22900000000006
 31
0.0
  0
LINE
  5
F2
330
EC
100
AcDbEntity
  8
치수문자_일반주서
 62
     0
370
    -2
100
AcDbLine
 10
47.7623016978714
 20
-2.499999999999961
 30
0.0
 11
47.76230169787139
 21
2.500000000000059
 31
0.0
  0
LINE
  5
F3
330
EC
100
AcDbEntity
  8
치수문자_일반주서
 62
     0
370
    -2
100
AcDbLine
 10
47.76230169787141
 20
-5.801999999999961
 30
0.0
 11
47.76230169787141
 21
-9.10399999999996
 31
0.0
  0
LINE
  5
F4
330
EC
100
AcDbEntity
  8
치수문자_일반주서
 62
     0
370
    -2
100
AcDbLine
 10
47.76230169787138
 20
5.802000000000058
 30
0.0
 11
47.76230169787137
 21
9.104000000000058
 31
0.0
  0
SOLID
  5
F5
330
EC
100
AcDbEntity
  8
치수문자_일반주서
 62
     0
100
AcDbTrace
 10
48.31263503120474
 20
-5.801999999999959
 30
0.0
 11
47.21196836453807
 21
-5.801999999999962
 31
0.0
 12
47.7623016978714
 22
-2.499999999999961
 32
0.0
 13
47.7623016978714
 23
-2.499999999999961
 33
0.0
  0
SOLID
  5
F6
330
EC
100
AcDbEntity
  8
치수문자_일반주서
 62
     0
100
AcDbTrace
 10
47.21196836453804
 20
5.802000000000056
 30
0.0
 11
48.31263503120471
 21
5.80200000000006
 31
0.0
 12
47.76230169787139
 22
2.500000000000059
 32
0.0
 13
47.76230169787139
 23
2.500000000000059
 33
0.0
  0
MTEXT
  5
F7
330
EC
100
AcDbEntity
  8
치수문자_일반주서
 62
     0
100
AcDbMText
 10
43.38730169787136
 20
12.16650000000005
 30
0.0
 40
3.5
 41
0.0
 71
     2
 72
     1
  1
\A1;%%c5
  7
SLDTEXTSTYLE0
 11
-2.842170943040389E-15
 21
1.0
 31
0.0
 73
     1
 44
1.0
  0
POINT
  5
150
330
EC
100
AcDbEntity
  8
Defpoints
 62
     0
100
AcDbPoint
 10
34.86602540378447
 20
-2.500000000000009
 30
0.0
  0
POINT
  5
151
330
EC
100
AcDbEntity
  8
Defpoints
 62
     0
100
AcDbPoint
 10
34.86602540378447
 20
2.500000000000011
 30
0.0
  0
POINT
  5
152
330
EC
100
AcDbEntity
  8
Defpoints
 62
     0
100
AcDbPoint
 10
47.76230169787139
 20
2.500000000000059
 30
0.0
  0
ENDBLK
  5
EE
330
EC
100
AcDbEntity
  8
0
100
AcDbBlockEnd
  0
BLOCK
  5
FB
330
FA
100
AcDbEntity
  8
0
100
AcDbBlockBegin
  2
_D_1
 70
     0
 10
0.0
 20
0.0
 30
0.0
  3
_D_1
  1

  0
LINE
  5
FD
330
FA
100
AcDbEntity
  8
치수문자_일반주서
 62
     0
370
    -2
100
AcDbLine
 10
-45.13397459621557
 20
2.562499999999995
 30
0.0
 11
-45.13397459621557
 21
20.38913260158164
 31
0.0
  0
LINE
  5
FE
330
FA
100
AcDbEntity
  8
치수문자_일반주서
 62
     0
370
    -2
100
AcDbLine
 10
34.86602540378443
 20
2.562500000000008
 30
0.0
 11
34.86602540378443
 21
20.38913260158164
 31
0.0
  0
LINE
  5
FF
330
FA
100
AcDbEntity
  8
치수문자_일반주서
 62
     0
370
    -2
100
AcDbLine
 10
-41.83197459621557
 20
20.38913260158164
 30
0.0
 11
31.56402540378443
 21
20.38913260158164
 31
0.0
  0
SOLID
  5
100
330
FA
100
AcDbEntity
  8
치수문자_일반주서
 62
     0
100
AcDbTrace
 10
-41.83197459621557
 20
20.93946593491498
 30
0.0
 11
-41.83197459621557
 21
19.83879926824831
 31
0.0
 12
-45.13397459621557
 22
20.38913260158164
 32
0.0
 13
-45.13397459621557
 23
20.38913260158164
 33
0.0
  0
SOLID
  5
101
330
FA
100
AcDbEntity
  8
치수문자_일반주서
 62
     0
100
AcDbTrace
 10
31.56402540378443
 20
19.83879926824831
 30
0.0
 11
31.56402540378443
 21
20.93946593491498
 31
0.0
 12
34.86602540378443
 22
20.38913260158164
 32
0.0
 13
34.86602540378443
 23
20.38913260158164
 33
0.0
  0
MTEXT
  5
102
330
FA
100
AcDbEntity
  8
치수문자_일반주서
 62
     0
100
AcDbMText
 10
-5.133974596215565
 20
24.76413260158164
 30
0.0
 40
3.5
 41
0.0
 71
     2
 72
     1
  1
\A1;80
  7
SLDTEXTSTYLE0
 73
     1
 44
1.0
  0
POINT
  5
147
330
FA
100
AcDbEntity
  8
Defpoints
 62
     0
100
AcDbPoint
 10
-45.13397459621557
 20
2.499999999999995
 30
0.0
  0
POINT
  5
148
330
FA
100
AcDbEntity
  8
Defpoints
 62
     0
100
AcDbPoint
 10
34.86602540378443
 20
2.500000000000008
 30
0.0
  0
POINT
  5
149
330
FA
100
AcDbEntity
  8
Defpoints
 62
     0
100
AcDbPoint
 10
34.86602540378443
 20
20.38913260158164
 30
0.0
  0
ENDBLK
  5
FC
330
FA
100
AcDbEntity
  8
0
100
AcDbBlockEnd
  0
BLOCK
  5
106
330
105
100
AcDbEntity
  8
0
100
AcDbBlockBegin
  2
_D_2
 70
     0
 10
0.0
 20
0.0
 30
0.0
  3
_D_2
  1

  0
LINE
  5
108
330
105
100
AcDbEntity
  8
치수문자_일반주서
 62
     0
370
    -2
100
AcDbLine
 10
-44.69647459621555
 20
3.000000000000004
 30
0.0
 11
-54.20261178033171
 21
2.999999999999968
 31
0.0
  0
LINE
  5
109
330
105
100
AcDbEntity
  8
치수문자_일반주서
 62
     0
370
    -2
100
AcDbLine
 10
-44.69647459621555
 20
-3.000000000000001
 30
0.0
 11
-54.20261178033169
 21
-3.000000000000036
 31
0.0
  0
LINE
  5
10A
330
105
100
AcDbEntity
  8
치수문자_일반주서
 62
     0
370
    -2
100
AcDbLine
 10
-54.20261178033171
 20
2.999999999999968
 30
0.0
 11
-54.20261178033176
 21
15.72899999999997
 31
0.0
  0
LINE
  5
10B
330
105
100
AcDbEntity
  8
치수문자_일반주서
 62
     0
370
    -2
100
AcDbLine
 10
-54.20261178033171
 20
2.999999999999968
 30
0.0
 11
-54.20261178033169
 21
-3.000000000000036
 31
0.0
  0
LINE
  5
10C
330
105
100
AcDbEntity
  8
치수문자_일반주서
 62
     0
370
    -2
100
AcDbLine
 10
-54.20261178033172
 20
6.301999999999968
 30
0.0
 11
-54.20261178033174
 21
9.603999999999967
 31
0.0
  0
LINE
  5
10D
330
105
100
AcDbEntity
  8
치수문자_일반주서
 62
     0
370
    -2
100
AcDbLine
 10
-54.20261178033167
 20
-6.302000000000035
 30
0.0
 11
-54.20261178033166
 21
-9.604000000000035
 31
0.0
  0
SOLID
  5
10E
330
105
100
AcDbEntity
  8
치수문자_일반주서
 62
     0
100
AcDbTrace
 10
-54.75294511366506
 20
6.301999999999966
 30
0.0
 11
-53.65227844699839
 21
6.301999999999969
 31
0.0
 12
-54.20261178033171
 22
2.999999999999968
 32
0.0
 13
-54.20261178033171
 23
2.999999999999968
 33
0.0
  0
SOLID
  5
10F
330
105
100
AcDbEntity
  8
치수문자_일반주서
 62
     0
100
AcDbTrace
 10
-53.65227844699834
 20
-6.302000000000033
 30
0.0
 11
-54.75294511366501
 21
-6.302000000000037
 31
0.0
 12
-54.20261178033169
 22
-3.000000000000036
 32
0.0
 13
-54.20261178033169
 23
-3.000000000000036
 33
0.0
  0
MTEXT
  5
110
330
105
100
AcDbEntity
  8
치수문자_일반주서
 62
     0
100
AcDbMText
 10
-58.57761178033174
 20
12.66649999999995
 30
0.0
 40
3.5
 41
0.0
 71
     2
 72
     1
  1
\A1;%%c6
  7
SLDTEXTSTYLE0
 11
-3.552713678800498E-15
 21
1.0
 31
0.0
 73
     1
 44
1.0
  0
POINT
  5
14D
330
105
100
AcDbEntity
  8
Defpoints
 62
     0
100
AcDbPoint
 10
-44.63397459621555
 20
3.000000000000004
 30
0.0
  0
POINT
  5
14E
330
105
100
AcDbEntity
  8
Defpoints
 62
     0
100
AcDbPoint
 10
-44.63397459621555
 20
-3.000000000000001
 30
0.0
  0
POINT
  5
14F
330
105
100
AcDbEntity
  8
Defpoints
 62
     0
100
AcDbPoint
 10
-54.20261178033169
 20
-3.000000000000037
 30
0.0
  0
ENDBLK
  5
107
330
105
100
AcDbEntity
  8
0
100
AcDbBlockEnd
  0
BLOCK
  5
113
330
112
100
AcDbEntity
  8
0
100
AcDbBlockBegin
  2
_D_3
 70
     0
 10
0.0
 20
0.0
 30
0.0
  3
_D_3
  1

  0
LINE
  5
115
330
112
100
AcDbEntity
  8
치수문자_일반주서
 62
     0
370
    -2
100
AcDbLine
 10
4.866025403784432
 20
2.343312595236934
 30
0.0
 11
4.866025403784434
 21
13.12673089782461
 31
0.0
  0
LINE
  5
116
330
112
100
AcDbEntity
  8
치수문자_일반주서
 62
     0
370
    -2
100
AcDbLine
 10
34.86602540378443
 20
2.562500000000008
 30
0.0
 11
34.86602540378443
 21
13.12673089782461
 31
0.0
  0
LINE
  5
117
330
112
100
AcDbEntity
  8
치수문자_일반주서
 62
     0
370
    -2
100
AcDbLine
 10
8.168025403784434
 20
13.12673089782461
 30
0.0
 11
31.56402540378443
 21
13.12673089782461
 31
0.0
  0
SOLID
  5
118
330
112
100
AcDbEntity
  8
치수문자_일반주서
 62
     0
100
AcDbTrace
 10
8.168025403784434
 20
13.67706423115794
 30
0.0
 11
8.168025403784434
 21
12.57639756449128
 31
0.0
 12
4.866025403784434
 22
13.12673089782461
 32
0.0
 13
4.866025403784434
 23
13.12673089782461
 33
0.0
  0
SOLID
  5
119
330
112
100
AcDbEntity
  8
치수문자_일반주서
 62
     0
100
AcDbTrace
 10
31.56402540378443
 20
12.57639756449128
 30
0.0
 11
31.56402540378443
 21
13.67706423115794
 31
0.0
 12
34.86602540378443
 22
13.12673089782461
 32
0.0
 13
34.86602540378443
 23
13.12673089782461
 33
0.0
  0
MTEXT
  5
11A
330
112
100
AcDbEntity
  8
치수문자_일반주서
 62
     0
100
AcDbMText
 10
19.86602540378441
 20
17.50173089782461
 30
0.0
 40
3.5
 41
0.0
 71
     2
 72
     1
  1
\A1;30
  7
SLDTEXTSTYLE0
 73
     1
 44
1.0
  0
POINT
  5
14A
330
112
100
AcDbEntity
  8
Defpoints
 62
     0
100
AcDbPoint
 10
4.866025403784432
 20
2.280812595236934
 30
0.0
  0
POINT
  5
14B
330
112
100
AcDbEntity
  8
Defpoints
 62
     0
100
AcDbPoint
 10
34.86602540378443
 20
2.500000000000008
 30
0.0
  0
POINT
  5
14C
330
112
100
AcDbEntity
  8
Defpoints
 62
     0
100
AcDbPoint
 10
34.86602540378443
 20
13.12673089782461
 30
0.0
  0
ENDBLK
  5
114
330
112
100
AcDbEntity
  8
0
100
AcDbBlockEnd
  0
BLOCK
  5
11C
330
11B
100
AcDbEntity
  8
0
100
AcDbBlockBegin
  2
SW_DOWELSYMBOL_0
 70
     0
 10
0.0
 20
0.0
 30
0.0
  3
SW_DOWELSYMBOL_0
  1

  0
CIRCLE
  5
11E
330
11B
100
AcDbEntity
  8
해칭선
 62
     0
100
AcDbCircle
 10
0.0
 20
0.0
 30
0.0
 40
3.0
  0
HATCH
  5
11F
330
11B
100
AcDbEntity
  8
0
  6
Continuous
 62
     0
370
    18
100
AcDbHatch
 10
0.0
 20
0.0
 30
0.0
210
0.0
220
0.0
230
1.0
  2
SOLID
 70
     1
 71
     0
 91
        1
 92
        0
 93
        3
 72
     2
 10
0.0
 20
0.0
 40
3.0
 50
0.0
 51
90.0
 73
     1
 72
     1
 10
0.0
 20
3.0
 11
0.0
 21
0.0
 72
     1
 10
0.0
 20
0.0
 11
3.0
 21
0.0
 97
        0
 75
     0
 76
     1
 98
        1
 10
0.0
 20
0.0
  0
HATCH
  5
120
330
11B
100
AcDbEntity
  8
0
  6
Continuous
 62
     0
370
    18
100
AcDbHatch
 10
0.0
 20
0.0
 30
0.0
210
0.0
220
0.0
230
1.0
  2
SOLID
 70
     1
 71
     0
 91
        1
 92
        0
 93
        3
 72
     2
 10
0.0
 20
0.0
 40
3.0
 50
180.0
 51
270.0000000000008
 73
     1
 72
     1
 10
0.0
 20
-2.999999999999999
 11
0.0
 21
0.0
 72
     1
 10
0.0
 20
0.0
 11
-3.0
 21
0.0
 97
        0
 75
     0
 76
     1
 98
        1
 10
0.0
 20
0.0
  0
ENDBLK
  5
11D
330
11B
100
AcDbEntity
  8
0
100
AcDbBlockEnd
  0
ENDSEC
  0
SECTION
  2
ENTITIES
  0
LINE
  5
99
330
1F
100
AcDbEntity
  8
0
  6
Continuous
 62
     4
370
    25
100
AcDbLine
 10
2.0
 20
3.0
 30
0.0
 11
-44.63397459621557
 21
2.999999999999997
 31
0.0
  0
LINE
  5
9A
330
1F
100
AcDbEntity
  8
0
  6
Continuous
 62
     4
370
    25
100
AcDbLine
 10
-44.63397459621557
 20
-3.0
 30
0.0
 11
2.000000000000004
 21
-2.999999999999996
 31
0.0
  0
LINE
  5
9B
330
1F
100
AcDbEntity
  8
0
  6
Continuous
 62
     4
370
    25
100
AcDbLine
 10
2.0
 20
-2.999999999999998
 30
0.0
 11
3.366052816256687
 21
-2.633967251065757
 31
0.0
  0
LINE
  5
9C
330
1F
100
AcDbEntity
  8
0
  6
Continuous
 62
     4
370
    25
100
AcDbLine
 10
3.366052816256687
 20
2.63396725106576
 30
0.0
 11
2.0
 21
3.000000000000001
 31
0.0
  0
LINE
  5
9D
330
1F
100
AcDbEntity
  8
0
  6
Continuous
 62
     4
370
    25
100
AcDbLine
 10
-44.63397459621557
 20
2.999999999999995
 30
0.0
 11
-45.13397459621557
 21
2.499999999999995
 31
0.0
  0
LINE
  5
9E
330
1F
100
AcDbEntity
  8
0
  6
Continuous
 62
     4
370
    25
100
AcDbLine
 10
-45.13397459621557
 20
-2.499999999999998
 30
0.0
 11
-44.63397459621557
 21
-2.999999999999998
 31
0.0
  0
LINE
  5
9F
330
1F
100
AcDbEntity
  8
0
  6
Continuous
 62
     1
370
    25
100
AcDbLine
 10
33.89944820466125
 20
-2.500000000000001
 30
0.0
 11
34.86602540378443
 21
-2.500000000000001
 31
0.0
  0
LINE
  5
A0
330
1F
100
AcDbEntity
  8
0
  6
Continuous
 62
     1
370
    25
100
AcDbLine
 10
6.692457741148026
 20
-2.500000000000001
 30
0.0
 11
8.627010077723028
 21
-2.500000000000001
 31
0.0
  0
LINE
  5
A1
330
1F
100
AcDbEntity
  8
0
  6
Continuous
 62
     1
370
    25
100
AcDbLine
 10
22.23009388430376
 20
2.500000000000005
 30
0.0
 11
20.29444786426548
 21
2.500000000000005
 31
0.0
  0
LINE
  5
A2
330
1F
100
AcDbEntity
  8
0
  6
Continuous
 62
     1
370
    25
100
AcDbLine
 10
13.49446829647158
 20
-2.500000000000001
 30
0.0
 11
15.42863128969071
 21
-2.500000000000001
 31
0.0
  0
LINE
  5
A3
330
1F
100
AcDbEntity
  8
0
  6
Continuous
 62
     1
370
    25
100
AcDbLine
 10
29.03178805220735
 20
2.500000000000005
 30
0.0
 11
27.09733709210726
 21
2.500000000000005
 31
0.0
  0
LINE
  5
A4
330
1F
100
AcDbEntity
  8
0
  6
Continuous
 62
     1
370
    25
100
AcDbLine
 10
27.09733709210722
 20
-2.500000000000001
 30
0.0
 11
29.03178805220733
 21
-2.500000000000001
 31
0.0
  0
LINE
  5
A5
330
1F
100
AcDbEntity
  8
0
  6
Continuous
 62
     1
370
    25
100
AcDbLine
 10
15.42863128969068
 20
2.500000000000005
 30
0.0
 11
13.49446829647157
 21
2.500000000000005
 31
0.0
  0
LINE
  5
A6
330
1F
100
AcDbEntity
  8
0
  6
Continuous
 62
     1
370
    25
100
AcDbLine
 10
20.29444786426548
 20
-2.500000000000001
 30
0.0
 11
22.23009388430371
 21
-2.500000000000001
 31
0.0
  0
LINE
  5
A7
330
1F
100
AcDbEntity
  8
0
  6
Continuous
 62
     1
370
    25
100
AcDbLine
 10
8.627010077723009
 20
2.500000000000005
 30
0.0
 11
6.692457741148026
 21
2.500000000000005
 31
0.0
  0
LINE
  5
A8
330
1F
100
AcDbEntity
  8
0
  6
Continuous
 62
     1
370
    25
100
AcDbLine
 10
34.86602540378443
 20
2.500000000000005
 30
0.0
 11
33.8994482046613
 21
2.500000000000005
 31
0.0
  0
LINE
  5
A9
330
1F
100
AcDbEntity
  8
0
  6
Continuous
 62
     4
370
    25
100
AcDbLine
 10
2.0
 20
3.000000000000001
 30
0.0
 11
2.0
 21
-3.000000000000001
 31
0.0
  0
LINE
  5
AA
330
1F
100
AcDbEntity
  8
0
  6
Continuous
 62
     4
370
    25
100
AcDbLine
 10
-44.63397459621557
 20
2.999999999999995
 30
0.0
 11
-44.63397459621557
 21
-3.000000000000001
 31
0.0
  0
LINE
  5
AB
330
1F
100
AcDbEntity
  8
0
  6
Continuous
 62
     4
370
    25
100
AcDbLine
 10
3.366052816256687
 20
2.63396725106576
 30
0.0
 11
3.366052816256687
 21
2.550742034724418
 31
0.0
  0
SPLINE
  5
AC
330
1F
100
AcDbEntity
  8
0
  6
Continuous
 62
     4
370
    25
100
AcDbSpline
210
0.0
220
0.0
230
1.0
 70
     8
 71
     3
 72
    10
 73
     6
 74
     0
 42
0.000000001
 43
0.00000001
 40
0.0
 40
0.0
 40
0.0
 40
0.0
 40
0.5
 40
0.5
 40
1.0
 40
1.0
 40
1.0
 40
1.0
 10
3.612209897191908
 20
2.348978076934014
 30
0.0
 10
3.537555377457444
 20
2.384325924221082
 30
0.0
 10
3.474751925913676
 20
2.424046015825277
 30
0.0
 10
3.388682427166717
 20
2.496481531728403
 30
0.0
 10
3.366052816256698
 20
2.528771583320471
 30
0.0
 10
3.366052816256687
 20
2.550742034724403
 30
0.0
  0
SPLINE
  5
AD
330
1F
100
AcDbEntity
  8
0
  6
Continuous
 62
     4
370
    25
100
AcDbSpline
210
0.0
220
0.0
230
1.0
 70
     8
 71
     3
 72
     8
 73
     4
 74
     0
 42
0.000000001
 43
0.00000001
 40
0.0
 40
0.0
 40
0.0
 40
0.0
 40
1.0
 40
1.0
 40
1.0
 40
1.0
 10
3.866025403784434
 20
2.227328757442169
 30
0.0
 10
3.780969316734875
 20
2.26853617518767
 30
0.0
 10
3.696379438053349
 20
2.309125003239657
 30
0.0
 10
3.612209897191796
 20
2.348978076934043
 30
0.0
  0
LINE
  5
AE
330
1F
100
AcDbEntity
  8
0
  6
Continuous
 62
     4
370
    25
100
AcDbLine
 10
3.866025403784434
 20
2.227328757441679
 30
0.0
 11
3.866025403784434
 21
1.456118875488092
 31
0.0
  0
SPLINE
  5
AF
330
1F
100
AcDbEntity
  8
0
  6
Continuous
 62
     4
370
    25
100
AcDbSpline
210
0.0
220
0.0
230
1.0
 70
     8
 71
     3
 72
    14
 73
    10
 74
     0
 42
0.000000001
 43
0.00000001
 40
0.0
 40
0.0
 40
0.0
 40
0.0
 40
0.25
 40
0.25
 40
0.5
 40
0.5
 40
0.75
 40
0.75
 40
1.0
 40
1.0
 40
1.0
 40
1.0
 10
3.366052816256691
 20
1.105598022063198
 30
0.0
 10
3.366052816256687
 20
1.166452502936786
 30
0.0
 10
3.378790409112028
 20
1.223969260834332
 30
0.0
 10
3.429431263788473
 20
1.323834875154894
 30
0.0
 10
3.467494258565326
 20
1.36610445693198
 30
0.0
 10
3.561046781993589
 20
1.42868115598816
 30
0.0
 10
3.616931155167805
 20
1.449528403329992
 30
0.0
 10
3.737539042534966
 20
1.468988499832247
 30
0.0
 10
3.801329962862686
 20
1.467793766468477
 30
0.0
 10
3.866025403784434
 20
1.456118875488093
 30
0.0
  0
LINE
  5
B0
330
1F
100
AcDbEntity
  8
0
  6
Continuous
 62
     4
370
    25
100
AcDbLine
 10
3.366052816256691
 20
1.105598022063198
 30
0.0
 11
3.366052816256687
 21
-0.656885493809131
 31
0.0
  0
SPLINE
  5
B1
330
1F
100
AcDbEntity
  8
0
  6
Continuous
 62
     4
370
    25
100
AcDbSpline
210
0.0
220
0.0
230
1.0
 70
     8
 71
     3
 72
    10
 73
     6
 74
     0
 42
0.000000001
 43
0.00000001
 40
0.0
 40
0.0
 40
0.0
 40
0.0
 40
0.5
 40
0.5
 40
1.0
 40
1.0
 40
1.0
 40
1.0
 10
3.612209897191908
 20
-1.037774353137102
 30
0.0
 10
3.537555377457444
 20
-1.007264991169342
 30
0.0
 10
3.474751925913676
 20
-0.9564315175960315
 30
0.0
 10
3.388682427166717
 20
-0.8240262044544462
 30
0.0
 10
3.366052816256698
 20
-0.7421986183126663
 30
0.0
 10
3.366052816256687
 20
-0.65688549380919
 30
0.0
  0
SPLINE
  5
B2
330
1F
100
AcDbEntity
  8
0
  6
Continuous
 62
     4
370
    25
100
AcDbSpline
210
0.0
220
0.0
230
1.0
 70
     8
 71
     3
 72
     8
 73
     4
 74
     0
 42
0.000000001
 43
0.00000001
 40
0.0
 40
0.0
 40
0.0
 40
0.0
 40
1.0
 40
1.0
 40
1.0
 40
1.0
 10
3.866025403784434
 20
-1.135344267731662
 30
0.0
 10
3.780969316734875
 20
-1.10468775854496
 30
0.0
 10
3.696379438053349
 20
-1.07217225694701
 30
0.0
 10
3.612209897191796
 20
-1.037774353137044
 30
0.0
  0
LINE
  5
B3
330
1F
100
AcDbEntity
  8
0
  6
Continuous
 62
     4
370
    25
100
AcDbLine
 10
3.866025403784434
 20
-1.135344267731316
 30
0.0
 11
3.866025403784434
 21
-2.032170716363976
 31
0.0
  0
SPLINE
  5
B4
330
1F
100
AcDbEntity
  8
0
  6
Continuous
 62
     4
370
    25
100
AcDbSpline
210
0.0
220
0.0
230
1.0
 70
     8
 71
     3
 72
    14
 73
    10
 74
     0
 42
0.000000001
 43
0.00000001
 40
0.0
 40
0.0
 40
0.0
 40
0.0
 40
0.25
 40
0.25
 40
0.5
 40
0.5
 40
0.75
 40
0.75
 40
1.0
 40
1.0
 40
1.0
 40
1.0
 10
3.366052816256691
 20
-2.390697909250943
 30
0.0
 10
3.366052816256691
 20
-2.362555251231635
 30
0.0
 10
3.378790409112028
 20
-2.329253469143439
 30
0.0
 10
3.429431263788473
 20
-2.258269008284238
 30
0.0
 10
3.467494258565326
 20
-2.220614966967196
 30
0.0
 10
3.561046781993589
 20
-2.150855747184966
 30
0.0
 10
3.616931155167805
 20
-2.118391017187642
 30
0.0
 10
3.737539042534966
 20
-2.065413368695503
 30
0.0
 10
3.801329962862686
 20
-2.04513109342999
 30
0.0
 10
3.866025403784434
 20
-2.032170716363975
 30
0.0
  0
LINE
  5
B5
330
1F
100
AcDbEntity
  8
0
  6
Continuous
 62
     4
370
    25
100
AcDbLine
 10
3.366052816256691
 20
-2.390697909250943
 30
0.0
 11
3.366052816256687
 21
-2.633967251065757
 31
0.0
  0
SPLINE
  5
B6
330
1F
100
AcDbEntity
  8
0
  6
Continuous
 62
     4
370
    25
100
AcDbSpline
210
0.0
220
0.0
230
1.0
 70
     8
 71
     3
 72
    10
 73
     6
 74
     0
 42
0.000000001
 43
0.00000001
 40
0.0
 40
0.0
 40
0.0
 40
0.0
 40
0.5
 40
0.5
 40
1.0
 40
1.0
 40
1.0
 40
1.0
 10
3.612209897191908
 20
-2.348978076934011
 30
0.0
 10
3.537555377457503
 20
-2.384325924221051
 30
0.0
 10
3.47475192591377
 20
-2.424046015825215
 30
0.0
 10
3.388682427166819
 20
-2.496481531728296
 30
0.0
 10
3.366052816256687
 20
-2.528771583320391
 30
0.0
 10
3.366052816256687
 20
-2.550742034724316
 30
0.0
  0
SPLINE
  5
B7
330
1F
100
AcDbEntity
  8
0
  6
Continuous
 62
     4
370
    25
100
AcDbSpline
210
0.0
220
0.0
230
1.0
 70
     8
 71
     3
 72
     8
 73
     4
 74
     0
 42
0.000000001
 43
0.00000001
 40
0.0
 40
0.0
 40
0.0
 40
0.0
 40
1.0
 40
1.0
 40
1.0
 40
1.0
 10
3.866025403784434
 20
-2.227328757442165
 30
0.0
 10
3.780969316734875
 20
-2.268536175187667
 30
0.0
 10
3.696379438053349
 20
-2.309125003239653
 30
0.0
 10
3.6122098971918
 20
-2.348978076934039
 30
0.0
  0
LINE
  5
B8
330
1F
100
AcDbEntity
  8
0
  6
Continuous
 62
     4
370
    25
100
AcDbLine
 10
-45.13397459621557
 20
2.499999999999995
 30
0.0
 11
-45.13397459621557
 21
-2.5
 31
0.0
  0
SPLINE
  5
B9
330
1F
100
AcDbEntity
  8
0
  6
Continuous
 62
     4
370
    25
100
AcDbSpline
210
0.0
220
0.0
230
1.0
 70
     8
 71
     3
 72
     8
 73
     4
 74
     0
 42
0.000000001
 43
0.00000001
 40
0.0
 40
0.0
 40
0.0
 40
0.0
 40
1.0
 40
1.0
 40
1.0
 40
1.0
 10
3.866025403784434
 20
1.456118875488092
 30
0.0
 10
3.953394834263497
 20
1.456122793578033
 30
0.0
 10
4.038880181356115
 20
1.437669390309498
 30
0.0
 10
4.114507564331996
 20
1.40143693696697
 30
0.0
  0
SPLINE
  5
BA
330
1F
100
AcDbEntity
  8
0
  6
Continuous
 62
     4
370
    25
100
AcDbSpline
210
0.0
220
0.0
230
1.0
 70
    24
 71
     3
 72
    18
 73
    14
 74
     0
 42
0.000000001
 43
0.00000001
 40
0.0
 40
0.0
 40
0.0
 40
0.0
 40
0.1250000000000001
 40
0.1250000000000001
 40
0.2500000000000002
 40
0.2500000000000002
 40
0.5000000000000001
 40
0.5000000000000001
 40
0.75
 40
0.75
 40
0.875
 40
0.875
 40
1.0
 40
1.0
 40
1.0
 40
1.0
 10
4.866025403784432
 20
1.023666891820064
 30
0.0
 10
4.866025403784432
 20
0.9765599750538241
 30
0.0
 10
4.866025403784432
 20
0.929624790139993
 30
0.0
 10
4.866025403784432
 20
0.8166012891644735
 30
0.0
 10
4.866025403784432
 20
0.7512461000326254
 30
0.0
 10
4.866025403784432
 20
0.5231221640511473
 30
0.0
 10
4.866025403784432
 20
0.3264765448599903
 30
0.0
 10
4.866025403784432
 20
-0.1623419880481671
 30
0.0
 10
4.866025403784432
 20
-0.4564228627672379
 30
0.0
 10
4.866025403784432
 20
-0.9115333061209363
 30
0.0
 10
4.866025403784432
 20
-1.064578495795087
 30
0.0
 10
4.866025403784434
 20
-1.355513519919555
 30
0.0
 10
4.866025403784432
 20
-1.493172211401524
 30
0.0
 10
4.866025403784434
 20
-1.614880751931826
 30
0.0
  0
SPLINE
  5
BB
330
1F
100
AcDbEntity
  8
0
  6
Continuous
 62
     4
370
    25
100
AcDbSpline
210
0.0
220
0.0
230
1.0
 70
     8
 71
     3
 72
     8
 73
     4
 74
     0
 42
0.000000001
 43
0.00000001
 40
0.0
 40
0.0
 40
0.0
 40
0.0
 40
1.0
 40
1.0
 40
1.0
 40
1.0
 10
4.866025403784432
 20
-1.614880751931828
 30
0.0
 10
4.532335517429384
 20
-1.467963228533761
 30
0.0
 10
4.197084514575478
 20
-1.306359378149426
 30
0.0
 10
3.866025403784434
 20
-1.135344267731316
 30
0.0
  0
SPLINE
  5
BC
330
1F
100
AcDbEntity
  8
0
  6
Continuous
 62
     4
370
    25
100
AcDbSpline
210
0.0
220
0.0
230
1.0
 70
     8
 71
     3
 72
     8
 73
     4
 74
     0
 42
0.000000001
 43
0.00000001
 40
0.0
 40
0.0
 40
0.0
 40
0.0
 40
1.0
 40
1.0
 40
1.0
 40
1.0
 10
4.866025403784432
 20
1.023666891820059
 30
0.0
 10
4.615879581558973
 20
1.15529053026834
 30
0.0
 10
4.363496646830072
 20
1.282148328007864
 30
0.0
 10
4.114507564332014
 20
1.401436936966957
 30
0.0
  0
SPLINE
  5
BD
330
1F
100
AcDbEntity
  8
0
  6
Continuous
 62
     4
370
    25
100
AcDbSpline
210
0.0
220
0.0
230
1.0
 70
     8
 71
     3
 72
     8
 73
     4
 74
     0
 42
0.000000001
 43
0.00000001
 40
0.0
 40
0.0
 40
0.0
 40
0.0
 40
1.0
 40
1.0
 40
1.0
 40
1.0
 10
4.866025403784432
 20
1.908444433835354
 30
0.0
 10
4.532335517429384
 20
2.032762583450132
 30
0.0
 10
4.197084514575478
 20
2.140156612485558
 30
0.0
 10
3.866025403784434
 20
2.227328757441679
 30
0.0
  0
LINE
  5
BE
330
1F
100
AcDbEntity
  8
0
  6
Continuous
 62
     4
370
    25
100
AcDbLine
 10
4.866025403784432
 20
1.908444433835354
 30
0.0
 11
4.866025403784432
 21
1.023666891820062
 31
0.0
  0
SPLINE
  5
BF
330
1F
100
AcDbEntity
  8
0
  6
Continuous
 62
     4
370
    25
100
AcDbSpline
210
0.0
220
0.0
230
1.0
 70
     8
 71
     3
 72
     8
 73
     4
 74
     0
 42
0.000000001
 43
0.00000001
 40
0.0
 40
0.0
 40
0.0
 40
0.0
 40
1.0
 40
1.0
 40
1.0
 40
1.0
 10
4.866025403784432
 20
-2.280812595236926
 30
0.0
 10
4.615879581558973
 20
-2.221737701867003
 30
0.0
 10
4.363496646830072
 20
-2.151010496532781
 30
0.0
 10
4.114507564332014
 20
-2.07025952762078
 30
0.0
  0
SPLINE
  5
C0
330
1F
100
AcDbEntity
  8
0
  6
Continuous
 62
     4
370
    25
100
AcDbSpline
210
0.0
220
0.0
230
1.0
 70
     8
 71
     3
 72
     8
 73
     4
 74
     0
 42
0.000000001
 43
0.00000001
 40
0.0
 40
0.0
 40
0.0
 40
0.0
 40
1.0
 40
1.0
 40
1.0
 40
1.0
 10
3.866025403784434
 20
-2.032170716363976
 30
0.0
 10
3.953394834263497
 20
-2.032167908920352
 30
0.0
 10
4.038880181356115
 20
-2.045732410245546
 30
0.0
 10
4.114507564331996
 20
-2.07025952762078
 30
0.0
  0
LINE
  5
C1
330
1F
100
AcDbEntity
  8
0
  6
Continuous
 62
     4
370
    25
100
AcDbLine
 10
4.866025403784432
 20
-1.614880751931828
 30
0.0
 11
4.866025403784432
 21
-2.28081259523693
 31
0.0
  0
LINE
  5
C2
330
1F
100
AcDbEntity
  8
0
  6
Continuous
 62
     4
370
    25
100
AcDbLine
 10
4.244432525526912
 20
2.106660658377013
 30
0.0
 11
4.866025403775362
 21
2.280812595234788
 31
0.0
  0
SPLINE
  5
C3
330
1F
100
AcDbEntity
  8
0
  6
Continuous
 62
     4
370
    25
100
AcDbSpline
210
0.0
220
0.0
230
1.0
 70
    24
 71
     3
 72
     9
 73
     5
 74
     0
 42
0.000000001
 43
0.00000001
 40
0.0
 40
0.0
 40
0.0
 40
0.0
 40
0.6716082276299583
 40
1.0
 40
1.0
 40
1.0
 40
1.0
 10
4.866025403784432
 20
2.280812595236934
 30
0.0
 10
4.866025403784429
 20
2.198589784108245
 30
0.0
 10
4.866025403784429
 20
2.076163036272165
 30
0.0
 10
4.866025403784429
 20
1.991246594592426
 30
0.0
 10
4.866025403784429
 20
1.96336073380586
 30
0.0
  0
LINE
  5
C4
330
1F
100
AcDbEntity
  8
0
  6
Continuous
 62
     4
370
    25
100
AcDbLine
 10
4.244432525526912
 20
-2.10666065837701
 30
0.0
 11
3.866025403784434
 21
-2.227328757441675
 31
0.0
  0
SPLINE
  5
C5
330
1F
100
AcDbEntity
  8
0
  6
Continuous
 62
     1
370
    25
100
AcDbSpline
210
0.0
220
0.0
230
1.0
 70
     8
 71
     3
 72
     9
 73
     5
 74
     0
 42
0.000000001
 43
0.00000001
 40
0.0
 40
0.0
 40
0.0
 40
0.0
 40
0.5815123439274075
 40
1.0
 40
1.0
 40
1.0
 40
1.0
 10
4.866025403784432
 20
-2.280812595236926
 30
0.0
 10
5.220068274438246
 20
-2.355217164480171
 30
0.0
 10
5.828899495909294
 20
-2.483167275978634
 30
0.0
 10
6.437687483271617
 20
-2.484356960657716
 30
0.0
 10
6.692457741148026
 20
-2.484854829010531
 30
0.0
  0
SPLINE
  5
C6
330
1F
100
AcDbEntity
  8
0
  6
Continuous
 62
     1
370
    25
100
AcDbSpline
210
0.0
220
0.0
230
1.0
 70
     8
 71
     3
 72
    23
 73
    19
 74
     0
 42
0.000000001
 43
0.00000001
 40
0.0
 40
0.0
 40
0.0
 40
0.0
 40
0.0081030930960054
 40
0.0782242407926272
 40
0.1483605701070579
 40
0.2185178271665185
 40
0.2887015188287417
 40
0.3588811000810255
 40
0.4290349073481345
 40
0.4991686317168766
 40
0.5692880275347176
 40
0.6325951780451795
 40
0.6959139464275026
 40
0.7592890280167547
 40
0.8227388416355574
 40
0.8861115931343123
 40
0.9523391075569377
 40
1.0
 40
1.0
 40
1.0
 40
1.0
 10
17.86013811168455
 20
2.108117467705485
 30
0.0
 10
17.90345934866832
 20
2.123707760677973
 30
0.0
 10
18.32166642504063
 20
2.274210638660284
 30
0.0
 10
19.11486490261011
 20
2.426415210668558
 30
0.0
 10
20.2398736615336
 20
2.530391276820195
 30
0.0
 10
21.36527724553452
 20
2.450818819735782
 30
0.0
 10
22.49103020317262
 20
2.210384009918564
 30
0.0
 10
23.61673896474209
 20
1.820565983611334
 30
0.0
 10
24.74208665505721
 20
1.308765465336566
 30
0.0
 10
25.86701934332849
 20
0.7090924734975732
 30
0.0
 10
26.9554246854175
 20
0.0828784494418451
 30
0.0
 10
28.00694201006147
 20
-0.5262883284748895
 30
0.0
 10
29.02254006198486
 20
-1.085737717566944
 30
0.0
 10
30.03903230706038
 20
-1.585431446522997
 30
0.0
 10
31.05624513335525
 20
-1.999136041085809
 30
0.0
 10
32.08828087990597
 20
-2.303259920149556
 30
0.0
 10
33.03588929095533
 20
-2.479831973821054
 30
0.0
 10
33.64467774957111
 20
-2.483372967052802
 30
0.0
 10
33.89944820466127
 20
-2.484854829010526
 30
0.0
  0
SPLINE
  5
C7
330
1F
100
AcDbEntity
  8
0
  6
Continuous
 62
     1
370
    25
100
AcDbSpline
210
0.0
220
0.0
230
1.0
 70
     8
 71
     3
 72
    19
 73
    15
 74
     0
 42
0.000000001
 43
0.00000001
 40
0.0
 40
0.0
 40
0.0
 40
0.0
 40
0.0890883859531074
 40
0.1781435248837967
 40
0.2671726342156149
 40
0.3561830133395051
 40
0.4451820208415921
 40
0.5341770513342279
 40
0.623175512044808
 40
0.7121847993196254
 40
0.8012122752010118
 40
0.8902652442351723
 40
0.9793509306654808
 40
1.0
 40
1.0
 40
1.0
 40
1.0
 10
34.86602540378444
 20
-2.437914245888152
 30
0.0
 10
34.49073451735627
 20
-2.374026363815549
 30
0.0
 10
33.74029279984364
 20
-2.246274442080606
 30
0.0
 10
32.61492089315852
 20
-1.85994977540896
 30
0.0
 10
31.48993600336479
 20
-1.360562211152857
 30
0.0
 10
30.36523684104329
 20
-0.7667616082003587
 30
0.0
 10
29.2407094504704
 20
-0.1223601037643377
 30
0.0
 10
28.11624250597767
 20
0.5303953352823261
 30
0.0
 10
26.99172338811241
 20
1.14777337629415
 30
0.0
 10
25.86704082019958
 20
1.687181020176931
 30
0.0
 10
24.74208048511112
 20
2.117079256865518
 30
0.0
 10
23.61674216081091
 20
2.391107607719027
 30
0.0
 10
22.77933841741322
 20
2.513833205150633
 30
0.0
 10
22.31707851170781
 20
2.489572886042051
 30
0.0
 10
22.23009388430376
 20
2.485007759816917
 30
0.0
  0
SPLINE
  5
C8
330
1F
100
AcDbEntity
  8
0
  6
Continuous
 62
     1
370
    25
100
AcDbSpline
210
0.0
220
0.0
230
1.0
 70
     8
 71
     3
 72
    13
 73
     9
 74
     0
 42
0.000000001
 43
0.00000001
 40
0.0
 40
0.0
 40
0.0
 40
0.0
 40
0.1630283895953516
 40
0.3559133587226463
 40
0.548784746639597
 40
0.7306138070836395
 40
0.9123750104800528
 40
1.0
 40
1.0
 40
1.0
 40
1.0
 10
11.05703855532393
 20
-2.105546193217208
 30
0.0
 10
10.72055886718821
 20
-2.202226111577319
 30
0.0
 10
9.985977508422556
 20
-2.413291647770035
 30
0.0
 10
8.8533245608258
 20
-2.525550483585057
 30
0.0
 10
7.681784263964266
 20
-2.471071511085223
 30
0.0
 10
6.533444719186788
 20
-2.237751009958388
 30
0.0
 10
5.601681628444862
 20
-1.929746898076325
 30
0.0
 10
5.046585207363288
 20
-1.692161644277941
 30
0.0
 10
4.866025403784432
 20
-1.614880751932277
 30
0.0
  0
LINE
  5
C9
330
1F
100
AcDbEntity
  8
0
  6
Continuous
 62
     1
370
    25
100
AcDbLine
 10
34.86602540378443
 20
-2.500000000000004
 30
0.0
 11
34.86602540378443
 21
-2.437914245888155
 31
0.0
  0
SPLINE
  5
CA
330
1F
100
AcDbEntity
  8
0
  6
Continuous
 62
     1
370
    25
100
AcDbSpline
210
0.0
220
0.0
230
1.0
 70
     8
 71
     3
 72
    22
 73
    18
 74
     0
 42
0.000000001
 43
0.00000001
 40
0.0
 40
0.0
 40
0.0
 40
0.0
 40
0.0652636194221985
 40
0.1354601728177161
 40
0.2056608376172296
 40
0.2758350614210693
 40
0.3459883524187385
 40
0.4161264581270956
 40
0.4862551740439196
 40
0.5563803254105052
 40
0.6265077487743024
 40
0.6966432734754183
 40
0.7667927031816614
 40
0.8369617975962638
 40
0.9114248105594547
 40
0.9858918418120743
 40
1.0
 40
1.0
 40
1.0
 40
1.0
 10
24.66348326463891
 20
-2.110761168989598
 30
0.0
 10
24.31461515181095
 20
-2.208084444310022
 30
0.0
 10
23.59050981912093
 20
-2.410087149811314
 30
0.0
 10
22.49102890795458
 20
-2.52163876802909
 30
0.0
 10
21.36527749554206
 20
-2.478715258182918
 30
0.0
 10
20.2398739560486
 20
-2.266107299945229
 30
0.0
 10
19.11486347524519
 20
-1.902274699904573
 30
0.0
 10
17.99014722734932
 20
-1.410566251911127
 30
0.0
 10
16.86561091951805
 20
-0.8242923582782082
 30
0.0
 10
15.74114338029137
 20
-0.1826794341059427
 30
0.0
 10
14.61663188792707
 20
0.4711180090594079
 30
0.0
 10
13.49196543297798
 20
1.093622223256472
 30
0.0
 10
12.36702857826491
 20
1.64168458684615
 30
0.0
 10
11.21890730134172
 20
2.09262393863174
 30
0.0
 10
10.04757377793859
 20
2.386256427904793
 30
0.0
 10
9.175969323976426
 20
2.518600432686489
 30
0.0
 10
8.702434224517381
 20
2.490008390415653
 30
0.0
 10
8.627010077723005
 20
2.485454281552657
 30
0.0
  0
SPLINE
  5
CB
330
1F
100
AcDbEntity
  8
0
  6
Continuous
 62
     1
370
    25
100
AcDbSpline
210
0.0
220
0.0
230
1.0
 70
     8
 71
     3
 72
    23
 73
    19
 74
     0
 42
0.000000001
 43
0.00000001
 40
0.0
 40
0.0
 40
0.0
 40
0.0
 40
0.0115194964346775
 40
0.081670073723532
 40
0.1518009914934041
 40
0.221918007927581
 40
0.2920269251623245
 40
0.3621335709994204
 40
0.4322437804460952
 40
0.5023633772064036
 40
0.5724981552487344
 40
0.6426538605732163
 40
0.7128359999157815
 40
0.783014028939321
 40
0.8531662845477537
 40
0.923298457702012
 40
0.9934163026222875
 40
1.0
 40
1.0
 40
1.0
 40
1.0
 10
11.0570385553239
 20
2.105546193217211
 30
0.0
 10
11.11863943595424
 20
2.127269046256229
 30
0.0
 10
11.55537280281997
 20
2.281278122889249
 30
0.0
 10
12.36702225681379
 20
2.435592765309499
 30
0.0
 10
13.49196712627802
 20
2.530278212780143
 30
0.0
 10
14.6166314341551
 20
2.443284710251301
 30
0.0
 10
15.74114350242661
 20
2.195509872108367
 30
0.0
 10
16.86561088470837
 20
1.799560461213982
 30
0.0
 10
17.99014724445057
 20
1.28306899437061
 30
0.0
 10
19.11486344164727
 20
0.6803843634089892
 30
0.0
 10
20.23987407337712
 20
0.0319761776102479
 30
0.0
 10
21.3652770596273
 20
-0.6185938808853965
 30
0.0
 10
22.49103053485315
 20
-1.227867741640065
 30
0.0
 10
23.61673782423772
 20
-1.753611647903973
 30
0.0
 10
24.74209088324022
 20
-2.165837996836926
 30
0.0
 10
25.86700357669219
 20
-2.416939495255069
 30
0.0
 10
26.65217021582777
 20
-2.519814808093912
 30
0.0
 10
27.0621466549131
 20
-2.495681920972321
 30
0.0
 10
27.09733709210722
 20
-2.49361046815796
 30
0.0
  0
SPLINE
  5
CC
330
1F
100
AcDbEntity
  8
0
  6
Continuous
 62
     4
370
    25
100
AcDbSpline
210
0.0
220
0.0
230
1.0
 70
    24
 71
     3
 72
    18
 73
    14
 74
     0
 42
0.000000001
 43
0.00000001
 40
0.0
 40
0.0
 40
0.0
 40
0.0
 40
0.1250000000000001
 40
0.1250000000000001
 40
0.2500000000000001
 40
0.2500000000000001
 40
0.5000000000000001
 40
0.5000000000000001
 40
0.7500000000000001
 40
0.7500000000000001
 40
0.875
 40
0.875
 40
1.0
 40
1.0
 40
1.0
 40
1.0
 10
4.866025403784432
 20
1.023666891820064
 30
0.0
 10
4.866025403784432
 20
0.9765599750538165
 30
0.0
 10
4.866025403784432
 20
0.9296247901399781
 30
0.0
 10
4.866025403784432
 20
0.8166012891644362
 30
0.0
 10
4.866025403784432
 20
0.7512461000325734
 30
0.0
 10
4.866025403784432
 20
0.5231221640510405
 30
0.0
 10
4.866025403784432
 20
0.3264765448598296
 30
0.0
 10
4.866025403784432
 20
-0.1623419880484584
 30
0.0
 10
4.866025403784432
 20
-0.4564228627676064
 30
0.0
 10
4.866025403784432
 20
-0.9115333061213816
 30
0.0
 10
4.866025403784432
 20
-1.064578495795552
 30
0.0
 10
4.866025403784434
 20
-1.355513519920031
 30
0.0
 10
4.866025403784434
 20
-1.493172211401993
 30
0.0
 10
4.866025403784434
 20
-1.614880751932275
 30
0.0
  0
SPLINE
  5
CD
330
1F
100
AcDbEntity
  8
0
  6
Continuous
 62
     1
370
    25
100
AcDbSpline
210
0.0
220
0.0
230
1.0
 70
     8
 71
     3
 72
    16
 73
    12
 74
     0
 42
0.000000001
 43
0.00000001
 40
0.0
 40
0.0
 40
0.0
 40
0.0
 40
0.1231076389193696
 40
0.2461861766110975
 40
0.369276615063398
 40
0.4924198652923338
 40
0.6156564355060172
 40
0.7389482768643488
 40
0.8693512223865997
 40
0.9997176228185329
 40
1.0
 40
1.0
 40
1.0
 40
1.0
 10
4.866025403784432
 20
1.02366689182006
 30
0.0
 10
5.220068022064215
 20
0.8311712911899963
 30
0.0
 10
5.928069567027388
 20
0.4462255936723108
 30
0.0
 10
6.989981107409291
 20
-0.1745087228467512
 30
0.0
 10
8.052026027492552
 20
-0.7802981014368843
 30
0.0
 10
9.114608131891854
 20
-1.340984566870565
 30
0.0
 10
10.17795497903634
 20
-1.819630317846288
 30
0.0
 10
11.26232683439756
 20
-2.20156640084445
 30
0.0
 10
12.3670222313502
 20
-2.430108113916123
 30
0.0
 10
13.11788994167466
 20
-2.527840541829568
 30
0.0
 10
13.49365613580137
 20
-2.499879089976484
 30
0.0
 10
13.49446829647158
 20
-2.499818655611094
 30
0.0
  0
SPLINE
  5
CE
330
1F
100
AcDbEntity
  8
0
  6
Continuous
 62
     1
370
    25
100
AcDbSpline
210
0.0
220
0.0
230
1.0
 70
     8
 71
     3
 72
    18
 73
    14
 74
     0
 42
0.000000001
 43
0.00000001
 40
0.0
 40
0.0
 40
0.0
 40
0.0
 40
0.0077441481530625
 40
0.1184513580899946
 40
0.2291359501792795
 40
0.3290673036779437
 40
0.4290169961738701
 40
0.5290555799710613
 40
0.6292121294767465
 40
0.7292470351886775
 40
0.833788230010131
 40
0.9383047124974421
 40
1.0
 40
1.0
 40
1.0
 40
1.0
 10
24.66348326463895
 20
2.110761168989606
 30
0.0
 10
24.6897150730652
 20
2.120280560043248
 30
0.0
 10
25.09094620550655
 20
2.26588531555761
 30
0.0
 10
25.86701294646304
 20
2.417525167293424
 30
0.0
 10
26.95542621103976
 20
2.526472060287017
 30
0.0
 10
28.00694163188098
 20
2.466969050018371
 30
0.0
 10
29.02254011482962
 20
2.277684152513901
 30
0.0
 10
30.03903247449918
 20
1.962477025615921
 30
0.0
 10
31.05624441008318
 20
1.540341699725059
 30
0.0
 10
32.08828365328907
 20
1.025451240311992
 30
0.0
 10
33.13504876773651
 20
0.4438067410419166
 30
0.0
 10
34.05196044361566
 20
-0.0905610600793082
 30
0.0
 10
34.61475734500333
 20
-0.4107981236421292
 30
0.0
 10
34.82365901688118
 20
-0.5296652634763745
 30
0.0
  0
SPLINE
  5
CF
330
1F
100
AcDbEntity
  8
0
  6
Continuous
 62
     1
370
    25
100
AcDbSpline
210
0.0
220
0.0
230
1.0
 70
     8
 71
     3
 72
     8
 73
     4
 74
     0
 42
0.000000001
 43
0.00000001
 40
0.0
 40
0.0
 40
0.0
 40
0.0
 40
1.0
 40
1.0
 40
1.0
 40
1.0
 10
34.86602540378443
 20
-2.053197595406607
 30
0.0
 10
34.48157408017018
 20
-1.83536499372721
 30
0.0
 10
34.12130465450344
 20
-1.564241810314306
 30
0.0
 10
33.7739356452977
 20
-1.264689481294024
 30
0.0
  0
LINE
  5
D0
330
1F
100
AcDbEntity
  8
0
  6
Continuous
 62
     1
370
    25
100
AcDbLine
 10
34.86602540378443
 20
-2.437914245888155
 30
0.0
 11
34.86602540378443
 21
-2.053197595406606
 31
0.0
  0
LINE
  5
D1
330
1F
100
AcDbEntity
  8
0
  6
Continuous
 62
     1
370
    25
100
AcDbLine
 10
34.82365901688118
 20
-0.5296652634763718
 30
0.0
 11
34.82088288867069
 21
-0.5316091293764028
 31
0.0
  0
SPLINE
  5
D2
330
1F
100
AcDbEntity
  8
0
  6
Continuous
 62
     1
370
    25
100
AcDbSpline
210
0.0
220
0.0
230
1.0
 70
    24
 71
     3
 72
    13
 73
     9
 74
     0
 42
0.000000001
 43
0.00000001
 40
0.0
 40
0.0
 40
0.0
 40
0.0
 40
0.0004153642092133
 40
0.2381233684141156
 40
0.4767336773642784
 40
0.6995065308681487
 40
0.9428021219392816
 40
0.9999999999999999
 40
0.9999999999999999
 40
0.9999999999999999
 40
0.9999999999999999
 10
34.77589808928506
 20
-0.5631078250110706
 30
0.0
 10
34.77586381246086
 20
-0.5631318259017608
 30
0.0
 10
34.75621331620686
 20
-0.5768912515078538
 30
0.0
 10
34.65088434213686
 20
-0.650643393144306
 30
0.0
 10
34.43508498373487
 20
-0.8017477306378938
 30
0.0
 10
34.15289336489115
 20
-0.9993404293719624
 30
0.0
 10
33.92719287520997
 20
-1.157377613624328
 30
0.0
 10
33.79844277530587
 20
-1.247529404122423
 30
0.0
 10
33.7739356452977
 20
-1.264689481294026
 30
0.0
  0
SPLINE
  5
D3
330
1F
100
AcDbEntity
  8
0
  6
Continuous
 62
     1
370
    25
100
AcDbSpline
210
0.0
220
0.0
230
1.0
 70
     8
 71
     3
 72
    22
 73
    18
 74
     0
 42
0.000000001
 43
0.00000001
 40
0.0
 40
0.0
 40
0.0
 40
0.0
 40
0.0699328577276145
 40
0.1399573019993525
 40
0.2099786171589294
 40
0.2800026312149551
 40
0.3500351636147844
 40
0.4200820068154061
 40
0.49014890803584
 40
0.5602415513128157
 40
0.6303382999077839
 40
0.7004086466469911
 40
0.7704580915663123
 40
0.8404923736747073
 40
0.9105172798910315
 40
0.9805386268336276
 40
1.0
 40
1.0
 40
1.0
 40
1.0
 10
31.48825085380069
 20
-2.107903450965444
 30
0.0
 10
31.1138961554771
 20
-2.210431325247035
 30
0.0
 10
30.36469649067548
 20
-2.415621347940961
 30
0.0
 10
29.24071004396001
 20
-2.523597085673407
 30
0.0
 10
28.11624233897293
 20
-2.472467846085377
 30
0.0
 10
26.99172346263951
 20
-2.252692730727539
 30
0.0
 10
25.86704068909011
 20
-1.882458770392661
 30
0.0
 10
24.74208093515847
 20
-1.385648297970504
 30
0.0
 10
23.61674049099723
 20
-0.7958027184509603
 30
0.0
 10
22.49102982099333
 20
-0.1525166465011302
 30
0.0
 10
21.3652772476105
 20
0.5009097903592734
 30
0.0
 10
20.23987403504738
 20
1.121019141520565
 30
0.0
 10
19.11486340708861
 20
1.664869068361197
 30
0.0
 10
17.99014742095089
 20
2.100354286350643
 30
0.0
 10
16.86561021336438
 20
2.38210877544785
 30
0.0
 10
16.01179611404189
 20
2.510810983367244
 30
0.0
 10
15.53280571459977
 20
2.488058539550688
 30
0.0
 10
15.42863128969069
 20
2.483110167406639
 30
0.0
  0
SPLINE
  5
D4
330
1F
100
AcDbEntity
  8
0
  6
Continuous
 62
     1
370
    25
100
AcDbSpline
210
0.0
220
0.0
230
1.0
 70
     8
 71
     3
 72
    13
 73
     9
 74
     0
 42
0.000000001
 43
0.00000001
 40
0.0
 40
0.0
 40
0.0
 40
0.0
 40
0.1929505485312567
 40
0.3858290895708076
 40
0.5786512548513132
 40
0.7714328536331091
 40
0.9641898233833972
 40
1.0
 40
1.0
 40
1.0
 40
1.0
 10
34.86602540378443
 20
0.5536913668241725
 30
0.0
 10
34.49073451636758
 20
0.7612981415188952
 30
0.0
 10
33.74029279687795
 20
1.17643421383859
 30
0.0
 10
32.61492090501456
 20
1.709278632066976
 30
0.0
 10
31.48993595892253
 20
2.13395195630303
 30
0.0
 10
30.36523700691501
 20
2.399745912326656
 30
0.0
 10
29.54588848749106
 20
2.516751743115621
 30
0.0
 10
29.10142347773639
 20
2.491271745904126
 30
0.0
 10
29.03178805220735
 20
2.487279732113703
 30
0.0
  0
SPLINE
  5
D5
330
1F
100
AcDbEntity
  8
0
  6
Continuous
 62
     1
370
    25
100
AcDbSpline
210
0.0
220
0.0
230
1.0
 70
     8
 71
     3
 72
    19
 73
    15
 74
     0
 42
0.000000001
 43
0.00000001
 40
0.0
 40
0.0
 40
0.0
 40
0.0
 40
0.0765419362798268
 40
0.1630817275856317
 40
0.2496243227094781
 40
0.3361769155021662
 40
0.4227466681329206
 40
0.509340688515321
 40
0.6012337322557805
 40
0.6931317348722181
 40
0.7850232668646906
 40
0.8716537987720441
 40
0.9582520009070529
 40
1.0
 40
1.0
 40
1.0
 40
1.0
 10
17.86013811168455
 20
-2.108117467705481
 30
0.0
 10
17.52862243784815
 20
-2.202390804405254
 30
0.0
 10
16.82228874107174
 20
-2.403251396147472
 30
0.0
 10
15.74114379414838
 20
-2.519398215074634
 30
0.0
 10
14.61663176733997
 20
-2.484592948913744
 30
0.0
 10
13.49196550142954
 20
-2.279445576701362
 30
0.0
 10
12.36702842502476
 20
-1.922228344033712
 30
0.0
 10
11.21890786022862
 20
-1.425895029044813
 30
0.0
 10
10.0475715579196
 20
-0.8160373800051198
 30
0.0
 10
8.853326262931022
 20
-0.1327399460149722
 30
0.0
 10
7.68178383626277
 20
0.5478516893267708
 30
0.0
 10
6.533444832980436
 20
1.173620437327558
 30
0.0
 10
5.601681616329737
 20
1.620729055511071
 30
0.0
 10
5.046585204389746
 20
1.837827438484563
 30
0.0
 10
4.866025403784432
 20
1.908444433835753
 30
0.0
  0
SPLINE
  5
D6
330
1F
100
AcDbEntity
  8
0
  6
Continuous
 62
     4
370
    25
100
AcDbSpline
210
0.0
220
0.0
230
1.0
 70
    24
 71
     3
 72
     9
 73
     5
 74
     0
 42
0.000000001
 43
0.00000001
 40
0.0
 40
0.0
 40
0.0
 40
0.0
 40
0.6716082276299609
 40
1.0
 40
1.0
 40
1.0
 40
1.0
 10
4.866025403784437
 20
2.280812595236936
 30
0.0
 10
4.866025403784434
 20
2.198589784108245
 30
0.0
 10
4.866025403784429
 20
2.076163036272164
 30
0.0
 10
4.866025403784429
 20
1.991246594592426
 30
0.0
 10
4.866025403784429
 20
1.96336073380586
 30
0.0
  0
SPLINE
  5
D7
330
1F
100
AcDbEntity
  8
0
  6
Continuous
 62
     1
370
    25
100
AcDbSpline
210
0.0
220
0.0
230
1.0
 70
     8
 71
     3
 72
    22
 73
    18
 74
     0
 42
0.000000001
 43
0.00000001
 40
0.0
 40
0.0
 40
0.0
 40
0.0
 40
0.0688487658590402
 40
0.1376812566629684
 40
0.2065204030463992
 40
0.2753890847671664
 40
0.3443099563100783
 40
0.4132617386082451
 40
0.4861904532062961
 40
0.5590987297195242
 40
0.631992554369594
 40
0.7048779590717921
 40
0.7777610024233472
 40
0.8506477505122826
 40
0.9235442576758153
 40
0.9964565473378911
 40
1.0
 40
1.0
 40
1.0
 40
1.0
 10
4.866025403784432
 20
2.28081259523693
 30
0.0
 10
5.220068022412217
 20
2.351256759997984
 30
0.0
 10
5.928069568071319
 20
2.492128437331057
 30
0.0
 10
6.989981103234554
 20
2.517577739522532
 30
0.0
 10
8.052026043152459
 20
2.401993729574305
 30
0.0
 10
9.114608073381689
 20
2.139813239571371
 30
0.0
 10
10.17795519762712
 20
1.750039314396788
 30
0.0
 10
11.26232599832119
 20
1.245749641335249
 30
0.0
 10
12.36702555218855
 20
0.6509367240576295
 30
0.0
 10
13.49196623640214
 20
0.0014747593010624
 30
0.0
 10
14.61663169933105
 20
-0.6479601314598851
 30
0.0
 10
15.7411433314302
 20
-1.254239411746833
 30
0.0
 10
16.86561130353902
 20
-1.774990637762385
 30
0.0
 10
17.99014573995315
 20
-2.181706450699039
 30
0.0
 10
19.11486904209568
 20
-2.423116172964213
 30
0.0
 10
19.88298062013875
 20
-2.525111719490839
 30
0.0
 10
20.27622249709995
 20
-2.497402036140759
 30
0.0
 10
20.29444786426548
 20
-2.496117790533454
 30
0.0
  0
SPLINE
  5
D8
330
1F
100
AcDbEntity
  8
0
  6
Continuous
 62
     1
370
    25
100
AcDbSpline
210
0.0
220
0.0
230
1.0
 70
     8
 71
     3
 72
    11
 73
     7
 74
     0
 42
0.000000001
 43
0.00000001
 40
0.0
 40
0.0
 40
0.0
 40
0.0
 40
0.1752988215929075
 40
0.4937265315957082
 40
0.8120789689561476
 40
1.0
 40
1.0
 40
1.0
 40
1.0
 10
31.48825085380069
 20
2.107903450965452
 30
0.0
 10
31.68317604194954
 20
2.169248815822434
 30
0.0
 10
32.23217994392026
 20
2.342027126281632
 30
0.0
 10
33.13504119625018
 20
2.481033347306208
 30
0.0
 10
34.05196146490339
 20
2.519212359810933
 30
0.0
 10
34.61475762146971
 20
2.463810926981207
 30
0.0
 10
34.82365901688118
 20
2.443246755582923
 30
0.0
  0
SPLINE
  5
D9
330
1F
100
AcDbEntity
  8
0
  6
Continuous
 62
     1
370
    25
100
AcDbSpline
210
0.0
220
0.0
230
1.0
 70
     8
 71
     3
 72
    13
 73
     9
 74
     0
 42
0.000000001
 43
0.00000001
 40
0.0
 40
0.0
 40
0.0
 40
0.0
 40
0.1387201921070184
 40
0.281821756286635
 40
0.4661489174240872
 40
0.6511757574500606
 40
0.8239216765545005
 40
1.0
 40
1.0
 40
1.0
 40
1.0
 10
34.82365901688118
 20
2.443246755582923
 30
0.0
 10
34.82559826280769
 20
2.34939534826821
 30
0.0
 10
34.82953800427274
 20
2.158728308108695
 30
0.0
 10
34.77985729605402
 20
1.84731431431155
 30
0.0
 10
34.65595613625761
 20
1.52882922043841
 30
0.0
 10
34.4338339235297
 20
1.271751863916141
 30
0.0
 10
34.15969197211523
 20
1.117622532432853
 30
0.0
 10
33.96597049107373
 20
1.100880123573496
 30
0.0
 10
33.86818441592075
 20
1.092428946955597
 30
0.0
  0
LINE
  5
DA
330
1F
100
AcDbEntity
  8
0
  6
Continuous
 62
     1
370
    25
100
AcDbLine
 10
34.86602540378443
 20
0.5556562099382448
 30
0.0
 11
34.86602540378443
 21
0.5653176926618421
 31
0.0
  0
LINE
  5
DB
330
1F
100
AcDbEntity
  8
0
  6
Continuous
 62
     1
370
    25
100
AcDbLine
 10
34.86602540378443
 20
-0.5000000000000049
 30
0.0
 11
34.86602540378443
 21
0.5536913668241729
 31
0.0
  0
LINE
  5
DC
330
1F
100
AcDbEntity
  8
0
  6
Continuous
 62
     1
370
    25
100
AcDbLine
 10
34.86602540378443
 20
-0.5000000000000049
 30
0.0
 11
34.82365901688118
 21
-0.5296652634763751
 31
0.0
  0
LINE
  5
DD
330
1F
100
AcDbEntity
  8
0
  6
Continuous
 62
     1
370
    25
100
AcDbLine
 10
34.86602540378443
 20
2.449489742783186
 30
0.0
 11
34.86602540378443
 21
2.500000000000008
 31
0.0
  0
ELLIPSE
  5
DE
330
1F
100
AcDbEntity
  8
0
  6
Continuous
 62
     1
370
    25
100
AcDbEllipse
 10
35.58009940715549
 20
0.0000000000000018
 30
0.0
 11
3.570370016855271
 21
0.0
 31
0.0
210
0.0
220
0.0
230
1.0
 40
0.7002075382097136
 41
1.772154247585229
 42
1.784280345110196
  0
LINE
  5
DF
330
1F
100
AcDbEntity
  8
0
  6
Continuous
 62
     1
370
    25
100
AcDbLine
 10
34.86602540378443
 20
0.5653176926618422
 30
0.0
 11
34.86602540378443
 21
2.449489742783186
 31
0.0
  0
LINE
  5
E0
330
1F
100
AcDbEntity
  8
0
  6
Continuous
 62
     1
370
    25
100
AcDbLine
 10
34.86602540378443
 20
-0.4999999999999963
 30
0.0
 11
34.86602540378443
 21
-2.053197595406606
 31
0.0
  0
LINE
  5
E1
330
1F
100
AcDbEntity
  8
중심선
100
AcDbLine
 10
-48.13397459621556
 20
-0.000000000000003
 30
0.0
 11
37.86602540378445
 21
0.0000000000000075
 31
0.0
  0
CIRCLE
  5
E2
330
1F
100
AcDbEntity
  8
해칭선
100
AcDbCircle
 10
0.0002010956556848
 20
-0.0000000000000041
 30
0.0
 40
3.0
  0
INSERT
  5
E3
330
1F
100
AcDbEntity
  8
0
  6
Continuous
 62
     7
100
AcDbBlockReference
 66
     1
  2
블럭10
 10
-12.44009924894178
 20
-52.04717430164393
 30
0.0
  0
ATTRIB
  5
E4
330
E3
100
AcDbEntity
  8
FORMAT
 62
     2
100
AcDbText
 10
-28.55936028837733
 20
-49.97180738881174
 30
0.0
 40
4.233333333333333
  1
SEME7205030E [ 4 FLUTE ]
 41
0.75
  7
SLDTEXTSTYLE0
 11
-28.55936028837733
 21
-52.08847405547841
 31
0.0
100
AcDbAttribute
  2
AUTOATTR0
 70
     0
 74
     1
  0
SEQEND
  5
E5
330
E3
100
AcDbEntity
  8
0
  6
Continuous
 62
     7
  0
HATCH
  5
E6
330
1F
100
AcDbEntity
  8
중심선
100
AcDbHatch
 10
0.0
 20
0.0
 30
0.0
210
0.0
220
0.0
230
1.0
  2
SOLID
 70
     1
 71
     0
 91
        1
 92
        0
 93
        4
 72
     1
 10
-6.725189944560922
 20
-35.8
 11
-10.17146518839821
 21
-35.8
 72
     1
 10
-10.17146518839821
 20
-35.8
 11
-12.29969504760223
 21
-38.33632558057262
 72
     1
 10
-12.29969504760223
 20
-38.33632558057262
 11
-8.853386718651796
 21
-38.33628615127013
 72
     1
 10
-8.853386718651796
 20
-38.33628615127013
 11
-6.725189944560922
 21
-35.8
 97
        0
 75
     0
 76
     1
 98
        1
 10
0.0
 20
0.0
  0
HATCH
  5
E7
330
1F
100
AcDbEntity
  8
중심선
100
AcDbHatch
 10
0.0
 20
0.0
 30
0.0
210
0.0
220
0.0
230
1.0
  2
SOLID
 70
     1
 71
     0
 91
        1
 92
        0
 93
        4
 72
     1
 10
-1.712425953524915
 20
-35.79999999999997
 11
-5.158701197362225
 21
-35.8
 72
     1
 10
-5.158701197362225
 20
-35.8
 11
-9.689839205719641
 21
-41.20000000000002
 72
     1
 10
-9.689839205719641
 20
-41.20000000000002
 11
-6.243563961882359
 21
-41.20000000000002
 72
     1
 10
-6.243563961882359
 20
-41.20000000000002
 11
-1.712425953524916
 21
-35.79999999999997
 97
        0
 75
     0
 76
     1
 98
        1
 10
0.0
 20
0.0
  0
HATCH
  5
E8
330
1F
100
AcDbEntity
  8
중심선
100
AcDbHatch
 10
0.0
 20
0.0
 30
0.0
210
0.0
220
0.0
230
1.0
  2
SOLID
 70
     1
 71
     0
 91
        1
 92
        0
 93
        4
 72
     1
 10
3.300338037510953
 20
-35.79999999999997
 11
-0.1459372063261632
 21
-35.8
 72
     1
 10
-0.1459372063261632
 20
-35.8
 11
-7.19437410821544
 21
-44.20000000000002
 72
     1
 10
-7.19437410821544
 20
-44.20000000000002
 11
-3.748098864378158
 21
-44.20000000000002
 72
     1
 10
-3.748098864378158
 20
-44.20000000000002
 11
3.300338037510952
 21
-35.79999999999997
 97
        0
 75
     0
 76
     1
 98
        1
 10
0.0
 20
0.0
  0
HATCH
  5
E9
330
1F
100
AcDbEntity
  8
중심선
100
AcDbHatch
 10
0.0
 20
0.0
 30
0.0
210
0.0
220
0.0
230
1.0
  2
SOLID
 70
     1
 71
     0
 91
        1
 92
        0
 93
        6
 72
     3
 10
8.100228468523124
 20
-40.00000000005127
 11
3.960054785062284
 21
1.540850780301639E-10
 40
0.3939339440162633
 50
17.09539180608434
 51
320.0019657685079
 73
     0
 72
     1
 10
9.783228124223719
 20
-38.5878940046383
 11
12.08852999792476
 21
-36.65356729459038
 72
     3
 10
8.100228468470277
 20
-40.00000000000015
 11
6.600054785286829
 21
-1.249000902703301E-13
 40
0.6363583540795982
 50
39.99873849337408
 51
368.4976242363725
 73
     1
 72
     1
 10
14.52556096037089
 20
-39.03999999993002
 11
6.7802957753062
 21
-39.03999999993002
 72
     1
 10
6.7802957753062
 20
-39.03999999993002
 11
6.780270730860266
 21
-40.95999999992991
 72
     1
 10
6.780270730860266
 20
-40.95999999992991
 11
11.2216505003323
 21
-40.95999999992988
 97
        0
 75
     0
 76
     1
 98
        1
 10
0.0
 20
0.0
  0
DIMENSION
  5
EA
330
1F
100
AcDbEntity
  8
치수문자_일반주서
100
AcDbDimension
  2
_D
 10
47.76230169787139
 20
2.500000000000059
 30
0.0
 11
47.76230169787136
 21
12.16650000000006
 31
0.0
 70
   160
  1
%%c<>
 71
     2
 42
5.00000000000002
 52
-270.0
  3
SLDDIMSTYLE0
100
AcDbAlignedDimension
 13
34.86602540378447
 23
-2.500000000000009
 33
0.0
 14
34.86602540378447
 24
2.500000000000011
 34
0.0
 50
90.0000000000002
100
AcDbRotatedDimension
  0
DIMENSION
  5
F8
330
1F
100
AcDbEntity
  8
치수문자_일반주서
100
AcDbDimension
  2
_D_1
 10
34.86602540378443
 20
20.38913260158164
 30
0.0
 11
-5.133974596215565
 21
20.38913260158164
 31
0.0
 70
   160
  1
<>
 71
     2
 42
80.0
  3
SLDDIMSTYLE1
100
AcDbAlignedDimension
 13
-45.13397459621557
 23
2.499999999999995
 33
0.0
 14
34.86602540378443
 24
2.500000000000008
 34
0.0
 50
-0.0000000000000051
100
AcDbRotatedDimension
  0
DIMENSION
  5
103
330
1F
100
AcDbEntity
  8
치수문자_일반주서
100
AcDbDimension
  2
_D_2
 10
-54.20261178033169
 20
-3.000000000000036
 30
0.0
 11
-54.20261178033174
 21
12.66649999999997
 31
0.0
 70
   160
  1
%%c<>
 71
     2
 42
6.000000000000005
 52
-270.0
  3
SLDDIMSTYLE2
100
AcDbAlignedDimension
 13
-44.63397459621555
 23
3.000000000000004
 33
0.0
 14
-44.63397459621555
 24
-3.000000000000001
 34
0.0
 50
90.0000000000002
100
AcDbRotatedDimension
  0
DIMENSION
  5
111
330
1F
100
AcDbEntity
  8
치수문자_일반주서
100
AcDbDimension
  2
_D_3
 10
34.86602540378443
 20
13.12673089782461
 30
0.0
 11
19.86602540378441
 21
13.12673089782461
 31
0.0
 70
   160
  1
<>
 71
     2
 42
30.0
  3
SLDDIMSTYLE1
100
AcDbAlignedDimension
 13
4.866025403784432
 23
2.280812595236934
 33
0.0
 14
34.86602540378443
 24
2.500000000000008
 34
0.0
 50
0.0000000000000814
100
AcDbRotatedDimension
  0
INSERT
  5
121
330
1F
100
AcDbEntity
  8
해칭선
100
AcDbBlockReference
  2
SW_DOWELSYMBOL_0
 10
0.0002010956556848
 20
-0.0000000000000041
 30
0.0
  0
ENDSEC
  0
SECTION
  2
OBJECTS
  0
DICTIONARY
  5
C
330
0
100
AcDbDictionary
281
     1
  3
ACAD_GROUP
350
D
  3
ACAD_IMAGE_VARS
350
145
  3
ACAD_LAYOUT
350
1A
  3
ACAD_MLINESTYLE
350
17
  3
ACAD_PLOTSETTINGS
350
19
  3
ACAD_PLOTSTYLENAME
350
E
  3
ACAD_SCALELIST
350
47
  3
APPDATA
350
143
  3
DWGPROPS
350
154
  0
DICTIONARY
  5
D
102
{ACAD_REACTORS
330
C
102
}
330
C
100
AcDbDictionary
281
     1
  0
RASTERVARIABLES
  5
145
102
{ACAD_REACTORS
330
C
102
}
330
C
100
AcDbRasterVariables
 90
        0
 70
     1
 71
     1
 72
     1
  0
DICTIONARY
  5
1A
102
{ACAD_REACTORS
330
C
102
}
330
C
100
AcDbDictionary
281
     1
  3
Layout1
350
1E
  3
Layout2
350
26
  3
Model
350
22
  0
DICTIONARY
  5
17
102
{ACAD_REACTORS
330
C
102
}
330
C
100
AcDbDictionary
281
     1
  3
Standard
350
18
  0
DICTIONARY
  5
19
102
{ACAD_REACTORS
330
C
102
}
330
C
100
AcDbDictionary
281
     1
  0
ACDBDICTIONARYWDFLT
  5
E
102
{ACAD_REACTORS
330
C
102
}
330
C
100
AcDbDictionary
281
     1
  3
Normal
350
F
100
AcDbDictionaryWithDefault
340
F
  0
DICTIONARY
  5
47
102
{ACAD_REACTORS
330
C
102
}
330
C
100
AcDbDictionary
281
     1
  3
A0
350
48
  3
A1
350
49
  3
A2
350
4A
  3
A3
350
4B
  3
A4
350
4C
  3
A5
350
4D
  3
A6
350
4E
  3
A7
350
4F
  3
A8
350
50
  3
A9
350
51
  3
B0
350
52
  3
B1
350
53
  3
B2
350
54
  3
B3
350
55
  3
B4
350
56
  3
B5
350
57
  3
B6
350
58
  3
B7
350
59
  3
B8
350
5A
  3
B9
350
5B
  3
C0
350
5C
  3
C1
350
5D
  3
C2
350
5E
  3
C3
350
5F
  3
C4
350
60
  3
C5
350
61
  3
C6
350
62
  3
C7
350
63
  3
C8
350
64
  3
C9
350
65
  3
D0
350
66
  3
D1
350
67
  3
D2
350
68
  0
DICTIONARY
  5
143
102
{ACAD_REACTORS
330
C
102
}
330
C
100
AcDbDictionary
281
     1
  0
XRECORD
  5
154
102
{ACAD_REACTORS
330
C
102
}
330
C
100
AcDbXrecord
280
     1
  1
DWGPROPS COOKIE
  2

  3

  4

  6

  7

  8
12014102
  9

300
=
301
=
302
=
303
=
304
=
305
=
306
=
307
=
308
=
309
=
 40
0.0
 41
2458260.197865486
 42
2458268.12405485
  1

 90
        0
  0
LAYOUT
  5
1E
102
{ACAD_REACTORS
330
1A
102
}
330
1A
100
AcDbPlotSettings
  1

  2
none_device
  4

  6

 40
0.0
 41
0.0
 42
0.0
 43
0.0
 44
0.0
 45
0.0
 46
0.0
 47
0.0
 48
0.0
 49
0.0
140
0.0
141
0.0
142
1.0
143
1.0
 70
   688
 72
     1
 73
     0
 74
     5
  7

 75
    16
147
1.0
148
0.0
149
0.0
100
AcDbLayout
  1
Layout1
 70
     1
 71
     1
 10
0.0
 20
0.0
 11
420.0
 21
297.0
 12
0.0
 22
0.0
 32
0.0
 14
1.000000000000000E+20
 24
1.000000000000000E+20
 34
1.000000000000000E+20
 15
-1.000000000000000E+20
 25
-1.000000000000000E+20
 35
-1.000000000000000E+20
146
0.0
 13
0.0
 23
0.0
 33
0.0
 16
1.0
 26
0.0
 36
0.0
 17
0.0
 27
1.0
 37
0.0
 76
     0
330
1B
  0
LAYOUT
  5
26
102
{ACAD_REACTORS
330
1A
102
}
330
1A
100
AcDbPlotSettings
  1

  2
none_device
  4

  6

 40
0.0
 41
0.0
 42
0.0
 43
0.0
 44
0.0
 45
0.0
 46
0.0
 47
0.0
 48
0.0
 49
0.0
140
0.0
141
0.0
142
1.0
143
1.0
 70
   688
 72
     1
 73
     0
 74
     5
  7

 75
    16
147
1.0
148
0.0
149
0.0
100
AcDbLayout
  1
Layout2
 70
     1
 71
     2
 10
0.0
 20
0.0
 11
0.0
 21
0.0
 12
0.0
 22
0.0
 32
0.0
 14
0.0
 24
0.0
 34
0.0
 15
0.0
 25
0.0
 35
0.0
146
0.0
 13
0.0
 23
0.0
 33
0.0
 16
1.0
 26
0.0
 36
0.0
 17
0.0
 27
1.0
 37
0.0
 76
     0
330
23
  0
LAYOUT
  5
22
102
{ACAD_REACTORS
330
1A
102
}
330
1A
100
AcDbPlotSettings
  1

  2
none_device
  4
ANSI_A_(11.00_x_8.50_Inches)
  6

 40
6.35
 41
19.05
 42
6.35000508
 43
19.05000254
 44
279.4
 45
215.9
 46
131.2460501477456
 47
119.9830074287183
 48
0.0
 49
0.0
140
0.0
141
0.0
142
0.0948088374384318
143
1.0
 70
  1696
 72
     0
 73
     0
 74
     0
  7

 75
     0
147
0.0235690232323232
148
0.0
149
0.0
100
AcDbLayout
  1
Model
 70
     1
 71
     0
 10
0.0
 20
0.0
 11
420.0
 21
297.0
 12
0.0
 22
0.0
 32
0.0
 14
-58.57761178033175
 24
-49.97180738881174
 34
0.0
 15
48.31263503120474
 25
24.76413260158164
 35
0.0
146
0.0
 13
0.0
 23
0.0
 33
0.0
 16
1.0
 26
0.0
 36
0.0
 17
0.0
 27
1.0
 37
0.0
 76
     0
330
1F
331
29
  0
MLINESTYLE
  5
18
102
{ACAD_REACTORS
330
17
102
}
330
17
100
AcDbMlineStyle
  2
Standard
 70
     0
  3

 62
   256
 51
90.0
 52
90.0
 71
     2
 49
0.5
 62
   256
  6
BYLAYER
 49
-0.5
 62
   256
  6
BYLAYER
  0
ACDBPLACEHOLDER
  5
F
102
{ACAD_REACTORS
330
E
102
}
330
E
  0
SCALE
  5
48
102
{ACAD_REACTORS
330
47
102
}
330
47
100
AcDbScale
 70
     0
300
1:1
140
1.0
141
1.0
290
     1
  0
SCALE
  5
49
102
{ACAD_REACTORS
330
47
102
}
330
47
100
AcDbScale
 70
     0
300
1:2
140
1.0
141
2.0
290
     0
  0
SCALE
  5
4A
102
{ACAD_REACTORS
330
47
102
}
330
47
100
AcDbScale
 70
     0
300
1:4
140
1.0
141
4.0
290
     0
  0
SCALE
  5
4B
102
{ACAD_REACTORS
330
47
102
}
330
47
100
AcDbScale
 70
     0
300
1:5
140
1.0
141
5.0
290
     0
  0
SCALE
  5
4C
102
{ACAD_REACTORS
330
47
102
}
330
47
100
AcDbScale
 70
     0
300
1:8
140
1.0
141
8.0
290
     0
  0
SCALE
  5
4D
102
{ACAD_REACTORS
330
47
102
}
330
47
100
AcDbScale
 70
     0
300
1:10
140
1.0
141
10.0
290
     0
  0
SCALE
  5
4E
102
{ACAD_REACTORS
330
47
102
}
330
47
100
AcDbScale
 70
     0
300
1:16
140
1.0
141
16.0
290
     0
  0
SCALE
  5
4F
102
{ACAD_REACTORS
330
47
102
}
330
47
100
AcDbScale
 70
     0
300
1:20
140
1.0
141
20.0
290
     0
  0
SCALE
  5
50
102
{ACAD_REACTORS
330
47
102
}
330
47
100
AcDbScale
 70
     0
300
1:30
140
1.0
141
30.0
290
     0
  0
SCALE
  5
51
102
{ACAD_REACTORS
330
47
102
}
330
47
100
AcDbScale
 70
     0
300
1:40
140
1.0
141
40.0
290
     0
  0
SCALE
  5
52
102
{ACAD_REACTORS
330
47
102
}
330
47
100
AcDbScale
 70
     0
300
1:50
140
1.0
141
50.0
290
     0
  0
SCALE
  5
53
102
{ACAD_REACTORS
330
47
102
}
330
47
100
AcDbScale
 70
     0
300
1:100
140
1.0
141
100.0
290
     0
  0
SCALE
  5
54
102
{ACAD_REACTORS
330
47
102
}
330
47
100
AcDbScale
 70
     0
300
2:1
140
2.0
141
1.0
290
     0
  0
SCALE
  5
55
102
{ACAD_REACTORS
330
47
102
}
330
47
100
AcDbScale
 70
     0
300
4:1
140
4.0
141
1.0
290
     0
  0
SCALE
  5
56
102
{ACAD_REACTORS
330
47
102
}
330
47
100
AcDbScale
 70
     0
300
8:1
140
8.0
141
1.0
290
     0
  0
SCALE
  5
57
102
{ACAD_REACTORS
330
47
102
}
330
47
100
AcDbScale
 70
     0
300
10:1
140
10.0
141
1.0
290
     0
  0
SCALE
  5
58
102
{ACAD_REACTORS
330
47
102
}
330
47
100
AcDbScale
 70
     0
300
100:1
140
100.0
141
1.0
290
     0
  0
SCALE
  5
59
102
{ACAD_REACTORS
330
47
102
}
330
47
100
AcDbScale
 70
     0
300
1/128" = 1'-0"
140
0.0078125
141
12.0
290
     0
  0
SCALE
  5
5A
102
{ACAD_REACTORS
330
47
102
}
330
47
100
AcDbScale
 70
     0
300
1/64" = 1'-0"
140
0.015625
141
12.0
290
     0
  0
SCALE
  5
5B
102
{ACAD_REACTORS
330
47
102
}
330
47
100
AcDbScale
 70
     0
300
1/32" = 1'-0"
140
0.03125
141
12.0
290
     0
  0
SCALE
  5
5C
102
{ACAD_REACTORS
330
47
102
}
330
47
100
AcDbScale
 70
     0
300
1/16" = 1'-0"
140
0.0625
141
12.0
290
     0
  0
SCALE
  5
5D
102
{ACAD_REACTORS
330
47
102
}
330
47
100
AcDbScale
 70
     0
300
3/32" = 1'-0"
140
0.09375
141
12.0
290
     0
  0
SCALE
  5
5E
102
{ACAD_REACTORS
330
47
102
}
330
47
100
AcDbScale
 70
     0
300
1/8" = 1'-0"
140
0.125
141
12.0
290
     0
  0
SCALE
  5
5F
102
{ACAD_REACTORS
330
47
102
}
330
47
100
AcDbScale
 70
     0
300
3/16" = 1'-0"
140
0.1875
141
12.0
290
     0
  0
SCALE
  5
60
102
{ACAD_REACTORS
330
47
102
}
330
47
100
AcDbScale
 70
     0
300
1/4" = 1'-0"
140
0.25
141
12.0
290
     0
  0
SCALE
  5
61
102
{ACAD_REACTORS
330
47
102
}
330
47
100
AcDbScale
 70
     0
300
3/8" = 1'-0"
140
0.375
141
12.0
290
     0
  0
SCALE
  5
62
102
{ACAD_REACTORS
330
47
102
}
330
47
100
AcDbScale
 70
     0
300
1/2" = 1'-0"
140
0.5
141
12.0
290
     0
  0
SCALE
  5
63
102
{ACAD_REACTORS
330
47
102
}
330
47
100
AcDbScale
 70
     0
300
3/4" = 1'-0"
140
0.75
141
12.0
290
     0
  0
SCALE
  5
64
102
{ACAD_REACTORS
330
47
102
}
330
47
100
AcDbScale
 70
     0
300
1" = 1'-0"
140
1.0
141
12.0
290
     0
  0
SCALE
  5
65
102
{ACAD_REACTORS
330
47
102
}
330
47
100
AcDbScale
 70
     0
300
1-1/2" = 1'-0"
140
1.5
141
12.0
290
     0
  0
SCALE
  5
66
102
{ACAD_REACTORS
330
47
102
}
330
47
100
AcDbScale
 70
     0
300
3" = 1'-0"
140
3.0
141
12.0
290
     0
  0
SCALE
  5
67
102
{ACAD_REACTORS
330
47
102
}
330
47
100
AcDbScale
 70
     0
300
6" = 1'-0"
140
6.0
141
12.0
290
     0
  0
SCALE
  5
68
102
{ACAD_REACTORS
330
47
102
}
330
47
100
AcDbScale
 70
     0
300
1'-0" = 1'-0"
140
12.0
141
12.0
290
     0
  0
ENDSEC
  0
EOF
