  0
SECTION
  2
HEADER
  9
$ACADVER
  1
AC1015
  9
$ACADMAINTVER
 70
     6
  9
$DWGCODEPAGE
  3
ANSI_949
  9
$INSBASE
 10
0.0
 20
0.0
 30
0.0
  9
$EXTMIN
 10
-50.60824602579263
 20
-49.97180738881174
 30
0.0
  9
$EXTMAX
 10
44.40730637828931
 20
24.76413260158164
 30
0.0
  9
$LIMMIN
 10
0.0
 20
0.0
  9
$LIMMAX
 10
420.0
 20
297.0
  9
$ORTHOMODE
 70
     0
  9
$REGENMODE
 70
     1
  9
$FILLMODE
 70
     1
  9
$QTEXTMODE
 70
     0
  9
$MIRRTEXT
 70
     1
  9
$LTSCALE
 40
1.0
  9
$ATTMODE
 70
     1
  9
$TEXTSIZE
 40
3.5
  9
$TRACEWID
 40
1.0
  9
$TEXTSTYLE
  7
Standard
  9
$CLAYER
  8
0
  9
$CELTYPE
  6
ByLayer
  9
$CECOLOR
 62
   256
  9
$CELTSCALE
 40
1.0
  9
$DISPSILH
 70
     0
  9
$DIMSCALE
 40
1.0
  9
$DIMASZ
 40
3.302
  9
$DIMEXO
 40
1.0
  9
$DIMDLI
 40
3.75
  9
$DIMRND
 40
0.0
  9
$DIMDLE
 40
0.0
  9
$DIMEXE
 40
1.0
  9
$DIMTP
 40
0.0
  9
$DIMTM
 40
0.0
  9
$DIMTXT
 40
3.5
  9
$DIMCEN
 40
2.5
  9
$DIMTSZ
 40
0.0
  9
$DIMTOL
 70
     0
  9
$DIMLIM
 70
     0
  9
$DIMTIH
 70
     1
  9
$DIMTOH
 70
     1
  9
$DIMSE1
 70
     0
  9
$DIMSE2
 70
     0
  9
$DIMTAD
 70
     1
  9
$DIMZIN
 70
     0
  9
$DIMBLK
  1

  9
$DIMASO
 70
     1
  9
$DIMSHO
 70
     1
  9
$DIMPOST
  1

  9
$DIMAPOST
  1

  9
$DIMALT
 70
     0
  9
$DIMALTD
 70
     3
  9
$DIMALTF
 40
0.0393700787401575
  9
$DIMLFAC
 40
1.0
  9
$DIMTOFL
 70
     1
  9
$DIMTVP
 40
0.0
  9
$DIMTIX
 70
     0
  9
$DIMSOXD
 70
     0
  9
$DIMSAH
 70
     0
  9
$DIMBLK1
  1

  9
$DIMBLK2
  1

  9
$DIMSTYLE
  2
ISO-25
  9
$DIMCLRD
 70
     0
  9
$DIMCLRE
 70
     0
  9
$DIMCLRT
 70
     0
  9
$DIMTFAC
 40
1.0
  9
$DIMGAP
 40
1.524
  9
$DIMJUST
 70
     0
  9
$DIMSD1
 70
     0
  9
$DIMSD2
 70
     0
  9
$DIMTOLJ
 70
     0
  9
$DIMTZIN
 70
     0
  9
$DIMALTZ
 70
     0
  9
$DIMALTTZ
 70
     0
  9
$DIMUPT
 70
     0
  9
$DIMDEC
 70
     2
  9
$DIMTDEC
 70
     2
  9
$DIMALTU
 70
     2
  9
$DIMALTTD
 70
     3
  9
$DIMTXSTY
  7
Standard
  9
$DIMAUNIT
 70
     0
  9
$DIMADEC
 70
     2
  9
$DIMALTRND
 40
0.0
  9
$DIMAZIN
 70
     0
  9
$DIMDSEP
 70
    44
  9
$DIMATFIT
 70
     3
  9
$DIMFRAC
 70
     0
  9
$DIMLDRBLK
  1

  9
$DIMLUNIT
 70
     2
  9
$DIMLWD
 70
    -2
  9
$DIMLWE
 70
    -2
  9
$DIMTMOVE
 70
     0
  9
$LUNITS
 70
     2
  9
$LUPREC
 70
     2
  9
$SKETCHINC
 40
1.0
  9
$FILLETRAD
 40
10.0
  9
$AUNITS
 70
     0
  9
$AUPREC
 70
     2
  9
$MENU
  1
.
  9
$ELEVATION
 40
0.0
  9
$PELEVATION
 40
0.0
  9
$THICKNESS
 40
0.0
  9
$LIMCHECK
 70
     0
  9
$CHAMFERA
 40
0.0
  9
$CHAMFERB
 40
0.0
  9
$CHAMFERC
 40
0.0
  9
$CHAMFERD
 40
0.0
  9
$SKPOLY
 70
     0
  9
$TDCREATE
 40
2458260.571920093
  9
$TDUCREATE
 40
2458260.196920093
  9
$TDUPDATE
 40
2458268.49679772
  9
$TDUUPDATE
 40
2458268.12179772
  9
$TDINDWG
 40
0.0006308681
  9
$TDUSRTIMER
 40
2458268.12116691
  9
$USRTIMER
 70
     1
  9
$ANGBASE
 50
0.0
  9
$ANGDIR
 70
     0
  9
$PDMODE
 70
     0
  9
$PDSIZE
 40
-1.0
  9
$PLINEWID
 40
0.0
  9
$SPLFRAME
 70
     0
  9
$SPLINETYPE
 70
     6
  9
$SPLINESEGS
 70
     8
  9
$HANDSEED
  5
157
  9
$SURFTAB1
 70
     6
  9
$SURFTAB2
 70
     6
  9
$SURFTYPE
 70
     6
  9
$SURFU
 70
     6
  9
$SURFV
 70
     6
  9
$UCSBASE
  2

  9
$UCSNAME
  2

  9
$UCSORG
 10
0.0
 20
0.0
 30
0.0
  9
$UCSXDIR
 10
1.0
 20
0.0
 30
0.0
  9
$UCSYDIR
 10
0.0
 20
1.0
 30
0.0
  9
$UCSORTHOREF
  2

  9
$UCSORTHOVIEW
 70
     0
  9
$UCSORGTOP
 10
0.0
 20
0.0
 30
0.0
  9
$UCSORGBOTTOM
 10
0.0
 20
0.0
 30
0.0
  9
$UCSORGLEFT
 10
0.0
 20
0.0
 30
0.0
  9
$UCSORGRIGHT
 10
0.0
 20
0.0
 30
0.0
  9
$UCSORGFRONT
 10
0.0
 20
0.0
 30
0.0
  9
$UCSORGBACK
 10
0.0
 20
0.0
 30
0.0
  9
$PUCSBASE
  2

  9
$PUCSNAME
  2

  9
$PUCSORG
 10
0.0
 20
0.0
 30
0.0
  9
$PUCSXDIR
 10
1.0
 20
0.0
 30
0.0
  9
$PUCSYDIR
 10
0.0
 20
1.0
 30
0.0
  9
$PUCSORTHOREF
  2

  9
$PUCSORTHOVIEW
 70
     0
  9
$PUCSORGTOP
 10
0.0
 20
0.0
 30
0.0
  9
$PUCSORGBOTTOM
 10
0.0
 20
0.0
 30
0.0
  9
$PUCSORGLEFT
 10
0.0
 20
0.0
 30
0.0
  9
$PUCSORGRIGHT
 10
0.0
 20
0.0
 30
0.0
  9
$PUCSORGFRONT
 10
0.0
 20
0.0
 30
0.0
  9
$PUCSORGBACK
 10
0.0
 20
0.0
 30
0.0
  9
$USERI1
 70
     0
  9
$USERI2
 70
     0
  9
$USERI3
 70
     0
  9
$USERI4
 70
     0
  9
$USERI5
 70
     0
  9
$USERR1
 40
0.0
  9
$USERR2
 40
0.0
  9
$USERR3
 40
0.0
  9
$USERR4
 40
0.0
  9
$USERR5
 40
0.0
  9
$WORLDVIEW
 70
     1
  9
$SHADEDGE
 70
     3
  9
$SHADEDIF
 70
    70
  9
$TILEMODE
 70
     1
  9
$MAXACTVP
 70
    64
  9
$PINSBASE
 10
0.0
 20
0.0
 30
0.0
  9
$PLIMCHECK
 70
     0
  9
$PEXTMIN
 10
1.000000000000000E+20
 20
1.000000000000000E+20
 30
1.000000000000000E+20
  9
$PEXTMAX
 10
-1.000000000000000E+20
 20
-1.000000000000000E+20
 30
-1.000000000000000E+20
  9
$PLIMMIN
 10
0.0
 20
0.0
  9
$PLIMMAX
 10
0.0
 20
0.0
  9
$UNITMODE
 70
     0
  9
$VISRETAIN
 70
     1
  9
$PLINEGEN
 70
     0
  9
$PSLTSCALE
 70
     1
  9
$TREEDEPTH
 70
  3020
  9
$CMLSTYLE
  2
Standard
  9
$CMLJUST
 70
     0
  9
$CMLSCALE
 40
20.0
  9
$PROXYGRAPHICS
 70
     1
  9
$MEASUREMENT
 70
     1
  9
$CELWEIGHT
370
    -1
  9
$ENDCAPS
280
     0
  9
$JOINSTYLE
280
     0
  9
$LWDISPLAY
290
     1
  9
$INSUNITS
 70
     4
  9
$HYPERLINKBASE
  1

  9
$STYLESHEET
  1

  9
$XEDIT
290
     1
  9
$CEPSNTYPE
380
     0
  9
$PSTYLEMODE
290
     1
  9
$FINGERPRINTGUID
  2
{794DE627-91E9-425F-A251-A8BCACD0854D}
  9
$VERSIONGUID
  2
{FAEB1C32-E019-11D5-929B-00C0DF256EC4}
  9
$EXTNAMES
290
     1
  9
$PSVPSCALE
 40
0.0
  9
$OLESTARTUP
290
     0
  0
ENDSEC
  0
SECTION
  2
CLASSES
  0
CLASS
  1
ACDBDICTIONARYWDFLT
  2
AcDbDictionaryWithDefault
  3
ObjectDBX Classes
 90
        0
280
     0
281
     0
  0
CLASS
  1
VISUALSTYLE
  2
AcDbVisualStyle
  3
ObjectDBX Classes
 90
     4095
280
     0
281
     0
  0
CLASS
  1
MATERIAL
  2
AcDbMaterial
  3
ObjectDBX Classes
 90
     1153
280
     0
281
     0
  0
CLASS
  1
SCALE
  2
AcDbScale
  3
ObjectDBX Classes
 90
     1153
280
     0
281
     0
  0
CLASS
  1
TABLESTYLE
  2
AcDbTableStyle
  3
ObjectDBX Classes
 90
     4095
280
     0
281
     0
  0
CLASS
  1
MLEADERSTYLE
  2
AcDbMLeaderStyle
  3
ACDB_MLEADERSTYLE_CLASS
 90
     4095
280
     0
281
     0
  0
CLASS
  1
SUN
  2
AcDbSun
  3
SCENEOE
 90
     1153
280
     0
281
     0
  0
CLASS
  1
ACDBPLACEHOLDER
  2
AcDbPlaceHolder
  3
ObjectDBX Classes
 90
        0
280
     0
281
     0
  0
CLASS
  1
LAYOUT
  2
AcDbLayout
  3
ObjectDBX Classes
 90
        0
280
     0
281
     0
  0
CLASS
  1
RASTERVARIABLES
  2
AcDbRasterVariables
  3
ISM
 90
        0
280
     0
281
     0
  0
ENDSEC
  0
SECTION
  2
TABLES
  0
TABLE
  2
VPORT
  5
8
330
0
100
AcDbSymbolTable
 70
     1
  0
VPORT
  5
29
330
8
100
AcDbSymbolTableRecord
100
AcDbViewportTableRecord
  2
*Active
 70
     0
 10
0.0
 20
0.0
 11
1.0
 21
1.0
 12
-3.100469823751666
 22
-12.60383739361505
 13
0.0
 23
0.0
 14
10.0
 24
10.0
 15
10.0
 25
10.0
 16
0.0
 26
0.0
 36
1.0
 17
0.0
 27
0.0
 37
0.0
 40
76.23065879020125
 41
1.737726098191214
 42
50.0
 43
0.0
 44
0.0
 50
0.0
 51
0.0
 71
    16
 72
  2000
 73
     1
 74
     3
 75
     0
 76
     0
 77
     0
 78
     0
281
     0
 65
     1
110
0.0
120
0.0
130
0.0
111
1.0
121
0.0
131
0.0
112
0.0
122
1.0
132
0.0
 79
     0
146
0.0
  0
ENDTAB
  0
TABLE
  2
LTYPE
  5
5
330
0
100
AcDbSymbolTable
 70
     6
  0
LTYPE
  5
14
330
5
100
AcDbSymbolTableRecord
100
AcDbLinetypeTableRecord
  2
ByBlock
 70
     0
  3

 72
    65
 73
     0
 40
0.0
  0
LTYPE
  5
15
330
5
100
AcDbSymbolTableRecord
100
AcDbLinetypeTableRecord
  2
ByLayer
 70
     0
  3

 72
    65
 73
     0
 40
0.0
  0
LTYPE
  5
16
330
5
100
AcDbSymbolTableRecord
100
AcDbLinetypeTableRecord
  2
Continuous
 70
     0
  3
Solid line
 72
    65
 73
     0
 40
0.0
  0
LTYPE
  5
6E
330
5
100
AcDbSymbolTableRecord
100
AcDbLinetypeTableRecord
  2
HIDDEN
 70
     0
  3
Hidden __ __ __ __ __ __ __ __ __ __ __ __ __ __
 72
    65
 73
     2
 40
1.905
 49
1.27
 74
     0
 49
-0.635
 74
     0
  0
LTYPE
  5
6F
330
5
100
AcDbSymbolTableRecord
100
AcDbLinetypeTableRecord
  2
PHANTOM
 70
     0
  3
Phantom ______  __  __  ______  __  __  ______
 72
    65
 73
     6
 40
12.7
 49
6.35
 74
     0
 49
-1.27
 74
     0
 49
1.27
 74
     0
 49
-1.27
 74
     0
 49
1.27
 74
     0
 49
-1.27
 74
     0
  0
LTYPE
  5
70
330
5
100
AcDbSymbolTableRecord
100
AcDbLinetypeTableRecord
  2
CENTER
 70
     0
  3
Center ____ _ ____ _ ____ _ ____ _ ____ _ ____
 72
    65
 73
     4
 40
10.16
 49
6.35
 74
     0
 49
-1.27
 74
     0
 49
1.27
 74
     0
 49
-1.27
 74
     0
  0
LTYPE
  5
71
330
5
100
AcDbSymbolTableRecord
100
AcDbLinetypeTableRecord
  2
CENTERX2
 70
     0
  3
Center (2x) ________  __  ________  __  _____
 72
    65
 73
     4
 40
20.32
 49
12.7
 74
     0
 49
-2.54
 74
     0
 49
2.54
 74
     0
 49
-2.54
 74
     0
  0
LTYPE
  5
72
330
5
100
AcDbSymbolTableRecord
100
AcDbLinetypeTableRecord
  2
DOT2
 70
     0
  3
Dot (.5x) ........................................
 72
    65
 73
     2
 40
0.635
 49
0.0
 74
     0
 49
-0.635
 74
     0
  0
ENDTAB
  0
TABLE
  2
LAYER
  5
2
330
0
100
AcDbSymbolTable
 70
    17
  0
LAYER
  5
10
330
2
100
AcDbSymbolTableRecord
100
AcDbLayerTableRecord
  2
0
 70
     0
 62
     7
  6
Continuous
370
    -3
390
F
  0
LAYER
  5
73
330
2
100
AcDbSymbolTableRecord
100
AcDbLayerTableRecord
  2
FORMAT
 70
     0
 62
     2
  6
Continuous
370
    -3
390
F
  0
LAYER
  5
74
330
2
100
AcDbSymbolTableRecord
100
AcDbLayerTableRecord
  2
외형선
 70
     0
 62
   100
  6
Continuous
370
    35
390
F
  0
LAYER
  5
75
330
2
100
AcDbSymbolTableRecord
100
AcDbLayerTableRecord
  2
숨은선
 70
     0
 62
     2
  6
HIDDEN
370
    25
390
F
  0
LAYER
  5
76
330
2
100
AcDbSymbolTableRecord
100
AcDbLayerTableRecord
  2
중심선
 70
     0
 62
     1
  6
CENTERX2
370
    -3
390
F
  0
LAYER
  5
77
330
2
100
AcDbSymbolTableRecord
100
AcDbLayerTableRecord
  2
파단선
 70
     0
 62
     4
  6
Continuous
370
    -3
390
F
  0
LAYER
  5
78
330
2
100
AcDbSymbolTableRecord
100
AcDbLayerTableRecord
  2
해칭선
 70
     0
 62
   100
  6
Continuous
370
    -3
390
F
  0
LAYER
  5
79
330
2
100
AcDbSymbolTableRecord
100
AcDbLayerTableRecord
  2
가는실선
 70
     0
 62
     4
  6
Continuous
370
    -3
390
F
  0
LAYER
  5
7A
330
2
100
AcDbSymbolTableRecord
100
AcDbLayerTableRecord
  2
치수_보조선
 70
     0
 62
     4
  6
Continuous
370
    -3
390
F
  0
LAYER
  5
7B
330
2
100
AcDbSymbolTableRecord
100
AcDbLayerTableRecord
  2
치수문자_일반주서
 70
     0
 62
     7
  6
Continuous
370
    25
390
F
  0
LAYER
  5
7C
330
2
100
AcDbSymbolTableRecord
100
AcDbLayerTableRecord
  2
개별주서
 70
     0
 62
   100
  6
Continuous
370
    35
390
F
  0
LAYER
  5
7D
330
2
100
AcDbSymbolTableRecord
100
AcDbLayerTableRecord
  2
중간선
 70
     0
 62
     2
  6
Continuous
370
    25
390
F
  0
LAYER
  5
7E
330
2
100
AcDbSymbolTableRecord
100
AcDbLayerTableRecord
  2
윤곽선
 70
     0
 62
     3
  6
Continuous
370
    50
390
F
  0
LAYER
  5
7F
330
2
100
AcDbSymbolTableRecord
100
AcDbLayerTableRecord
  2
중심마크
 70
     0
 62
   100
  6
Continuous
370
    35
390
F
  0
LAYER
  5
80
330
2
100
AcDbSymbolTableRecord
100
AcDbLayerTableRecord
  2
가상선
 70
     0
 62
     4
  6
PHANTOM
370
    -3
390
F
  0
LAYER
  5
81
330
2
100
AcDbSymbolTableRecord
100
AcDbLayerTableRecord
  2
특수지정선
 70
     0
 62
     5
  6
CENTERX2
370
    70
390
F
  0
LAYER
  5
148
330
2
100
AcDbSymbolTableRecord
100
AcDbLayerTableRecord
  2
Defpoints
 70
     0
 62
     7
  6
Continuous
290
     0
370
    -3
390
F
  0
ENDTAB
  0
TABLE
  2
STYLE
  5
3
330
0
100
AcDbSymbolTable
 70
     2
  0
STYLE
  5
11
330
3
100
AcDbSymbolTableRecord
100
AcDbTextStyleTableRecord
  2
Standard
 70
     0
 40
0.0
 41
1.0
 50
0.0
 71
     0
 42
3.5
  3
txt
  4

  0
STYLE
  5
97
330
3
100
AcDbSymbolTableRecord
100
AcDbTextStyleTableRecord
  2
SLDTEXTSTYLE0
 70
     0
 40
0.0
 41
0.75
 50
0.0
 71
     0
 42
3.5
  3
TXT
  4

  0
ENDTAB
  0
TABLE
  2
VIEW
  5
6
330
0
100
AcDbSymbolTable
 70
     0
  0
ENDTAB
  0
TABLE
  2
UCS
  5
7
330
0
100
AcDbSymbolTable
 70
     0
  0
ENDTAB
  0
TABLE
  2
APPID
  5
9
330
0
100
AcDbSymbolTable
 70
     1
  0
APPID
  5
12
330
9
100
AcDbSymbolTableRecord
100
AcDbRegAppTableRecord
  2
ACAD
 70
     0
  0
ENDTAB
  0
TABLE
  2
DIMSTYLE
  5
A
330
0
100
AcDbSymbolTable
 70
     4
100
AcDbDimStyleTable
  0
DIMSTYLE
105
27
330
A
100
AcDbSymbolTableRecord
100
AcDbDimStyleTableRecord
  2
ISO-25
 70
     0
 41
2.5
 42
0.625
 43
3.75
 44
1.25
 73
     0
 74
     0
 77
     1
 78
     8
140
2.5
141
2.5
143
0.03937007874016
147
0.625
171
     3
172
     1
178
     0
271
     2
272
     2
274
     3
278
    44
283
     0
284
     8
340
11
  0
DIMSTYLE
105
ED
102
{ACAD_REACTORS
330
EC
102
}
330
A
100
AcDbSymbolTableRecord
100
AcDbDimStyleTableRecord
  2
SLDDIMSTYLE0
 70
     0
 41
3.302
 44
0.0
 45
0.000000001
 73
     0
 74
     0
 77
     1
 78
    12
 79
     3
140
3.5
147
0.875
172
     1
173
     1
178
     0
271
     1
272
     1
276
     2
284
    12
289
     0
340
97
  0
DIMSTYLE
105
FB
102
{ACAD_REACTORS
330
FA
330
113
102
}
330
A
100
AcDbSymbolTableRecord
100
AcDbDimStyleTableRecord
  2
SLDDIMSTYLE1
 70
     0
 41
3.302
 44
0.0
 45
0.000000001
 73
     0
 74
     0
 77
     1
 78
    12
 79
     3
140
3.5
147
0.875
173
     1
178
     0
271
     2
272
     2
276
     2
284
    12
340
97
  0
DIMSTYLE
105
106
102
{ACAD_REACTORS
330
105
102
}
330
A
100
AcDbSymbolTableRecord
100
AcDbDimStyleTableRecord
  2
SLDDIMSTYLE2
 70
     0
 41
3.302
 44
0.0
 45
0.000000001
 73
     0
 74
     0
 77
     1
 78
    12
 79
     3
140
3.5
147
0.875
172
     1
173
     1
178
     0
271
     2
272
     2
276
     2
284
    12
289
     0
340
97
  0
ENDTAB
  0
TABLE
  2
BLOCK_RECORD
  5
1
330
0
100
AcDbSymbolTable
 70
     7
  0
BLOCK_RECORD
  5
1F
330
1
100
AcDbSymbolTableRecord
100
AcDbBlockTableRecord
  2
*Model_Space
340
22
  0
BLOCK_RECORD
  5
1B
330
1
100
AcDbSymbolTableRecord
100
AcDbBlockTableRecord
  2
*Paper_Space
340
1E
  0
BLOCK_RECORD
  5
23
330
1
100
AcDbSymbolTableRecord
100
AcDbBlockTableRecord
  2
*Paper_Space0
340
26
  0
BLOCK_RECORD
  5
82
330
1
100
AcDbSymbolTableRecord
100
AcDbBlockTableRecord
  2
블럭10
340
0
102
{BLKREFS
331
E5
102
}
  0
BLOCK_RECORD
  5
EE
330
1
100
AcDbSymbolTableRecord
100
AcDbBlockTableRecord
  2
_D
340
0
  0
BLOCK_RECORD
  5
FC
330
1
100
AcDbSymbolTableRecord
100
AcDbBlockTableRecord
  2
_D_1
340
0
  0
BLOCK_RECORD
  5
107
330
1
100
AcDbSymbolTableRecord
100
AcDbBlockTableRecord
  2
_D_2
340
0
  0
BLOCK_RECORD
  5
114
330
1
100
AcDbSymbolTableRecord
100
AcDbBlockTableRecord
  2
_D_3
340
0
  0
BLOCK_RECORD
  5
11D
330
1
100
AcDbSymbolTableRecord
100
AcDbBlockTableRecord
  2
SW_DOWELSYMBOL_0
340
0
102
{BLKREFS
331
123
102
}
  0
ENDTAB
  0
ENDSEC
  0
SECTION
  2
BLOCKS
  0
BLOCK
  5
20
330
1F
100
AcDbEntity
  8
0
100
AcDbBlockBegin
  2
*Model_Space
 70
     0
 10
0.0
 20
0.0
 30
0.0
  3
*Model_Space
  1

  0
ENDBLK
  5
21
330
1F
100
AcDbEntity
  8
0
100
AcDbBlockEnd
  0
BLOCK
  5
1C
330
1B
100
AcDbEntity
 67
     1
  8
0
100
AcDbBlockBegin
  2
*Paper_Space
 70
     0
 10
0.0
 20
0.0
 30
0.0
  3
*Paper_Space
  1

  0
ENDBLK
  5
1D
330
1B
100
AcDbEntity
 67
     1
  8
0
100
AcDbBlockEnd
  0
BLOCK
  5
24
330
23
100
AcDbEntity
  8
0
100
AcDbBlockBegin
  2
*Paper_Space0
 70
     0
 10
0.0
 20
0.0
 30
0.0
  3
*Paper_Space0
  1

  0
ENDBLK
  5
25
330
23
100
AcDbEntity
  8
0
100
AcDbBlockEnd
  0
BLOCK
  5
83
330
82
100
AcDbEntity
  8
0
100
AcDbBlockBegin
  2
블럭10
 70
     2
 10
0.0
 20
0.0
 30
0.0
  3
블럭10
  1

  0
ELLIPSE
  5
85
330
82
100
AcDbEntity
  8
중심선
100
AcDbEllipse
 10
20.54032771741204
 20
12.0471743016438
 30
0.0
 11
6.600054785286829
 21
-1.261213355974178E-13
 31
0.0
210
0.0
220
0.0
230
1.0
 40
0.636358354079598
 41
0.9219305317359503
 42
6.513795318482858
  0
ELLIPSE
  5
86
330
82
100
AcDbEntity
  8
중심선
100
AcDbEllipse
 10
20.54032771746488
 20
12.04717430159265
 30
0.0
 11
3.960054785062283
 21
1.540847449632565E-10
 31
0.0
210
0.0
220
0.0
230
1.0
 40
0.3939339440162632
 41
1.131841032648279
 42
5.62031148352944
  0
LINE
  5
87
330
82
100
AcDbEntity
  8
중심선
100
AcDbLine
 10
2.268634060543552
 20
16.24717430164393
 30
0.0
 11
5.714909304380834
 21
16.24717430164393
 31
0.0
  0
LINE
  5
88
330
82
100
AcDbEntity
  8
중심선
100
AcDbLine
 10
5.245725140726316
 20
7.84717430164391
 30
0.0
 11
8.692000384563599
 21
7.84717430164391
 31
0.0
  0
LINE
  5
89
330
82
100
AcDbEntity
  8
중심선
100
AcDbLine
 10
15.74043728645272
 20
16.24717430164393
 30
0.0
 11
8.692000384563599
 21
7.84717430164391
 31
0.0
  0
LINE
  5
8A
330
82
100
AcDbEntity
  8
중심선
100
AcDbLine
 10
0.1404042013395286
 20
13.71084872107135
 30
0.0
 11
3.58671253028996
 21
13.71088815037384
 31
0.0
  0
LINE
  5
8B
330
82
100
AcDbEntity
  8
중심선
100
AcDbLine
 10
2.750260043222114
 20
10.84717430164391
 30
0.0
 11
6.196535287059397
 21
10.84717430164391
 31
0.0
  0
LINE
  5
8C
330
82
100
AcDbEntity
  8
중심선
100
AcDbLine
 10
12.29416204261559
 20
16.24717430164393
 30
0.0
 11
5.245725140726316
 21
7.84717430164391
 31
0.0
  0
LINE
  5
8D
330
82
100
AcDbEntity
  8
중심선
100
AcDbLine
 10
10.72767329541681
 20
16.24717430164393
 30
0.0
 11
6.196535287059397
 21
10.84717430164391
 31
0.0
  0
LINE
  5
8E
330
82
100
AcDbEntity
  8
중심선
100
AcDbLine
 10
7.28139805157953
 20
16.24717430164393
 30
0.0
 11
2.750260043222114
 21
10.84717430164391
 31
0.0
  0
LINE
  5
8F
330
82
100
AcDbEntity
  8
중심선
100
AcDbLine
 10
5.714909304380834
 20
16.24717430164393
 30
0.0
 11
3.58671253028996
 21
13.71088815037384
 31
0.0
  0
LINE
  5
90
330
82
100
AcDbEntity
  8
중심선
100
AcDbLine
 10
2.268634060543552
 20
16.24717430164393
 30
0.0
 11
0.1404042013395286
 21
13.71084872107135
 31
0.0
  0
LINE
  5
91
330
82
100
AcDbEntity
  8
중심선
100
AcDbLine
 10
7.28139805157953
 20
16.24717430164393
 30
0.0
 11
10.72767329541681
 21
16.24717430164393
 31
0.0
  0
LINE
  5
92
330
82
100
AcDbEntity
  8
중심선
100
AcDbLine
 10
12.29416204261559
 20
16.24717430164393
 30
0.0
 11
15.74043728645272
 21
16.24717430164393
 31
0.0
  0
LINE
  5
93
330
82
100
AcDbEntity
  8
중심선
100
AcDbLine
 10
19.22036997980202
 20
11.08717430171403
 30
0.0
 11
23.66174974927406
 21
11.08717430171406
 31
0.0
  0
LINE
  5
94
330
82
100
AcDbEntity
  8
중심선
100
AcDbLine
 10
19.22039502424796
 20
13.00717430171391
 30
0.0
 11
19.22036997980202
 21
11.08717430171403
 31
0.0
  0
LINE
  5
95
330
82
100
AcDbEntity
  8
중심선
100
AcDbLine
 10
19.22039502424796
 20
13.00717430171391
 30
0.0
 11
26.96566020931264
 21
13.00717430171391
 31
0.0
  0
LINE
  5
96
330
82
100
AcDbEntity
  8
중심선
100
AcDbLine
 10
22.22332737316547
 20
13.45928029700563
 30
0.0
 11
24.52862924686651
 21
15.39360700705356
 31
0.0
  0
ATTDEF
  5
98
330
82
100
AcDbEntity
  8
FORMAT
 62
     2
100
AcDbText
 10
-16.11926103943555
 20
2.075366912832191
 30
0.0
 40
4.233333333333333
  1
SEME7204026E [ 4 FLUTE ]
 41
0.75
  7
SLDTEXTSTYLE0
 11
-16.11926103943555
 21
-0.0412997538344756
 31
0.0
100
AcDbAttributeDefinition
  3

  2
AUTOATTR0
 70
     0
 74
     1
  0
ENDBLK
  5
84
330
82
100
AcDbEntity
  8
0
100
AcDbBlockEnd
  0
BLOCK
  5
EF
330
EE
100
AcDbEntity
  8
0
100
AcDbBlockBegin
  2
_D
 70
     0
 10
0.0
 20
0.0
 30
0.0
  3
_D
  1

  0
LINE
  5
F1
330
EE
100
AcDbEntity
  8
치수문자_일반주서
 62
     0
370
    -2
100
AcDbLine
 10
32.7945508075689
 20
-2.000000000000003
 30
0.0
 11
43.73379596647534
 21
-1.999999999999963
 31
0.0
  0
LINE
  5
F2
330
EE
100
AcDbEntity
  8
치수문자_일반주서
 62
     0
370
    -2
100
AcDbLine
 10
32.7945508075689
 20
2.000000000000003
 30
0.0
 11
43.73379596647533
 21
2.000000000000044
 31
0.0
  0
LINE
  5
F3
330
EE
100
AcDbEntity
  8
치수문자_일반주서
 62
     0
370
    -2
100
AcDbLine
 10
43.73379596647534
 20
-1.999999999999963
 30
0.0
 11
43.73379596647528
 21
14.72900000000004
 31
0.0
  0
LINE
  5
F4
330
EE
100
AcDbEntity
  8
치수문자_일반주서
 62
     0
370
    -2
100
AcDbLine
 10
43.73379596647534
 20
-1.999999999999963
 30
0.0
 11
43.73379596647533
 21
2.000000000000044
 31
0.0
  0
LINE
  5
F5
330
EE
100
AcDbEntity
  8
치수문자_일반주서
 62
     0
370
    -2
100
AcDbLine
 10
43.73379596647536
 20
-5.301999999999962
 30
0.0
 11
43.73379596647537
 21
-8.603999999999962
 31
0.0
  0
LINE
  5
F6
330
EE
100
AcDbEntity
  8
치수문자_일반주서
 62
     0
370
    -2
100
AcDbLine
 10
43.73379596647531
 20
5.302000000000044
 30
0.0
 11
43.7337959664753
 21
8.604000000000044
 31
0.0
  0
SOLID
  5
F7
330
EE
100
AcDbEntity
  8
치수문자_일반주서
 62
     0
100
AcDbTrace
 10
44.28412929980869
 20
-5.301999999999961
 30
0.0
 11
43.18346263314202
 21
-5.301999999999964
 31
0.0
 12
43.73379596647534
 22
-1.999999999999963
 32
0.0
 13
43.73379596647534
 23
-1.999999999999963
 33
0.0
  0
SOLID
  5
F8
330
EE
100
AcDbEntity
  8
치수문자_일반주서
 62
     0
100
AcDbTrace
 10
43.18346263314198
 20
5.302000000000042
 30
0.0
 11
44.28412929980865
 21
5.302000000000046
 31
0.0
 12
43.73379596647533
 22
2.000000000000044
 32
0.0
 13
43.73379596647533
 23
2.000000000000044
 33
0.0
  0
MTEXT
  5
F9
330
EE
100
AcDbEntity
  8
치수문자_일반주서
 62
     0
100
AcDbMText
 10
39.35879596647529
 20
11.66650000000003
 30
0.0
 40
3.5
 41
0.0
 71
     2
 72
     1
  1
\A1;%%c4
  7
SLDTEXTSTYLE0
 11
-3.552713678800495E-15
 21
1.0
 31
0.0
 73
     1
 44
1.0
  0
POINT
  5
152
330
EE
100
AcDbEntity
  8
Defpoints
 62
     0
100
AcDbPoint
 10
32.7320508075689
 20
-2.000000000000004
 30
0.0
  0
POINT
  5
153
330
EE
100
AcDbEntity
  8
Defpoints
 62
     0
100
AcDbPoint
 10
32.7320508075689
 20
2.000000000000003
 30
0.0
  0
POINT
  5
154
330
EE
100
AcDbEntity
  8
Defpoints
 62
     0
100
AcDbPoint
 10
43.73379596647529
 20
2.000000000000044
 30
0.0
  0
ENDBLK
  5
F0
330
EE
100
AcDbEntity
  8
0
100
AcDbBlockEnd
  0
BLOCK
  5
FD
330
FC
100
AcDbEntity
  8
0
100
AcDbBlockBegin
  2
_D_1
 70
     0
 10
0.0
 20
0.0
 30
0.0
  3
_D_1
  1

  0
LINE
  5
FF
330
FC
100
AcDbEntity
  8
치수문자_일반주서
 62
     0
370
    -2
100
AcDbLine
 10
-37.26794919243114
 20
2.562499999999994
 30
0.0
 11
-37.26794919243113
 21
20.38913260158164
 31
0.0
  0
LINE
  5
100
330
FC
100
AcDbEntity
  8
치수문자_일반주서
 62
     0
370
    -2
100
AcDbLine
 10
32.73205080756887
 20
2.062500000000005
 30
0.0
 11
32.73205080756887
 21
20.38913260158164
 31
0.0
  0
LINE
  5
101
330
FC
100
AcDbEntity
  8
치수문자_일반주서
 62
     0
370
    -2
100
AcDbLine
 10
-33.96594919243113
 20
20.38913260158164
 30
0.0
 11
29.43005080756888
 21
20.38913260158164
 31
0.0
  0
SOLID
  5
102
330
FC
100
AcDbEntity
  8
치수문자_일반주서
 62
     0
100
AcDbTrace
 10
-33.96594919243113
 20
20.93946593491498
 30
0.0
 11
-33.96594919243113
 21
19.83879926824831
 31
0.0
 12
-37.26794919243113
 22
20.38913260158164
 32
0.0
 13
-37.26794919243113
 23
20.38913260158164
 33
0.0
  0
SOLID
  5
103
330
FC
100
AcDbEntity
  8
치수문자_일반주서
 62
     0
100
AcDbTrace
 10
29.43005080756888
 20
19.83879926824831
 30
0.0
 11
29.43005080756888
 21
20.93946593491498
 31
0.0
 12
32.73205080756887
 22
20.38913260158164
 32
0.0
 13
32.73205080756887
 23
20.38913260158164
 33
0.0
  0
MTEXT
  5
104
330
FC
100
AcDbEntity
  8
치수문자_일반주서
 62
     0
100
AcDbMText
 10
-2.267949192431138
 20
24.76413260158164
 30
0.0
 40
3.5
 41
0.0
 71
     2
 72
     1
  1
\A1;70
  7
SLDTEXTSTYLE0
 73
     1
 44
1.0
  0
POINT
  5
149
330
FC
100
AcDbEntity
  8
Defpoints
 62
     0
100
AcDbPoint
 10
-37.26794919243114
 20
2.499999999999994
 30
0.0
  0
POINT
  5
14A
330
FC
100
AcDbEntity
  8
Defpoints
 62
     0
100
AcDbPoint
 10
32.73205080756887
 20
2.000000000000005
 30
0.0
  0
POINT
  5
14B
330
FC
100
AcDbEntity
  8
Defpoints
 62
     0
100
AcDbPoint
 10
32.73205080756887
 20
20.38913260158164
 30
0.0
  0
ENDBLK
  5
FE
330
FC
100
AcDbEntity
  8
0
100
AcDbBlockEnd
  0
BLOCK
  5
108
330
107
100
AcDbEntity
  8
0
100
AcDbBlockBegin
  2
_D_2
 70
     0
 10
0.0
 20
0.0
 30
0.0
  3
_D_2
  1

  0
LINE
  5
10A
330
107
100
AcDbEntity
  8
치수문자_일반주서
 62
     0
370
    -2
100
AcDbLine
 10
-36.83044919243114
 20
3.000000000000003
 30
0.0
 11
-46.23324602579259
 21
2.999999999999968
 31
0.0
  0
LINE
  5
10B
330
107
100
AcDbEntity
  8
치수문자_일반주서
 62
     0
370
    -2
100
AcDbLine
 10
-36.83044919243114
 20
-3.000000000000003
 30
0.0
 11
-46.23324602579257
 21
-3.000000000000037
 31
0.0
  0
LINE
  5
10C
330
107
100
AcDbEntity
  8
치수문자_일반주서
 62
     0
370
    -2
100
AcDbLine
 10
-46.23324602579259
 20
2.999999999999968
 30
0.0
 11
-46.23324602579264
 21
15.72899999999997
 31
0.0
  0
LINE
  5
10D
330
107
100
AcDbEntity
  8
치수문자_일반주서
 62
     0
370
    -2
100
AcDbLine
 10
-46.23324602579259
 20
2.999999999999968
 30
0.0
 11
-46.23324602579257
 21
-3.000000000000037
 31
0.0
  0
LINE
  5
10E
330
107
100
AcDbEntity
  8
치수문자_일반주서
 62
     0
370
    -2
100
AcDbLine
 10
-46.2332460257926
 20
6.301999999999968
 30
0.0
 11
-46.23324602579262
 21
9.603999999999967
 31
0.0
  0
LINE
  5
10F
330
107
100
AcDbEntity
  8
치수문자_일반주서
 62
     0
370
    -2
100
AcDbLine
 10
-46.23324602579255
 20
-6.302000000000037
 30
0.0
 11
-46.23324602579254
 21
-9.604000000000037
 31
0.0
  0
SOLID
  5
110
330
107
100
AcDbEntity
  8
치수문자_일반주서
 62
     0
100
AcDbTrace
 10
-46.78357935912594
 20
6.301999999999966
 30
0.0
 11
-45.68291269245927
 21
6.301999999999969
 31
0.0
 12
-46.23324602579259
 22
2.999999999999968
 32
0.0
 13
-46.23324602579259
 23
2.999999999999968
 33
0.0
  0
SOLID
  5
111
330
107
100
AcDbEntity
  8
치수문자_일반주서
 62
     0
100
AcDbTrace
 10
-45.68291269245922
 20
-6.302000000000035
 30
0.0
 11
-46.78357935912589
 21
-6.302000000000039
 31
0.0
 12
-46.23324602579257
 22
-3.000000000000037
 32
0.0
 13
-46.23324602579257
 23
-3.000000000000037
 33
0.0
  0
MTEXT
  5
112
330
107
100
AcDbEntity
  8
치수문자_일반주서
 62
     0
100
AcDbMText
 10
-50.60824602579262
 20
12.66649999999995
 30
0.0
 40
3.5
 41
0.0
 71
     2
 72
     1
  1
\A1;%%c6
  7
SLDTEXTSTYLE0
 11
-3.552713678800498E-15
 21
1.0
 31
0.0
 73
     1
 44
1.0
  0
POINT
  5
14F
330
107
100
AcDbEntity
  8
Defpoints
 62
     0
100
AcDbPoint
 10
-36.76794919243114
 20
3.000000000000003
 30
0.0
  0
POINT
  5
150
330
107
100
AcDbEntity
  8
Defpoints
 62
     0
100
AcDbPoint
 10
-36.76794919243114
 20
-3.000000000000002
 30
0.0
  0
POINT
  5
151
330
107
100
AcDbEntity
  8
Defpoints
 62
     0
100
AcDbPoint
 10
-46.23324602579257
 20
-3.000000000000038
 30
0.0
  0
ENDBLK
  5
109
330
107
100
AcDbEntity
  8
0
100
AcDbBlockEnd
  0
BLOCK
  5
115
330
114
100
AcDbEntity
  8
0
100
AcDbBlockBegin
  2
_D_3
 70
     0
 10
0.0
 20
0.0
 30
0.0
  3
_D_3
  1

  0
LINE
  5
117
330
114
100
AcDbEntity
  8
치수문자_일반주서
 62
     0
370
    -2
100
AcDbLine
 10
6.732050807568867
 20
2.046821142042207
 30
0.0
 11
6.732050807568868
 21
12.83023944462986
 31
0.0
  0
LINE
  5
118
330
114
100
AcDbEntity
  8
치수문자_일반주서
 62
     0
370
    -2
100
AcDbLine
 10
32.73205080756887
 20
2.062500000000005
 30
0.0
 11
32.73205080756887
 21
12.83023944462986
 31
0.0
  0
LINE
  5
119
330
114
100
AcDbEntity
  8
치수문자_일반주서
 62
     0
370
    -2
100
AcDbLine
 10
10.03405080756887
 20
12.83023944462986
 30
0.0
 11
29.43005080756887
 21
12.83023944462986
 31
0.0
  0
SOLID
  5
11A
330
114
100
AcDbEntity
  8
치수문자_일반주서
 62
     0
100
AcDbTrace
 10
10.03405080756887
 20
13.38057277796319
 30
0.0
 11
10.03405080756887
 21
12.27990611129652
 31
0.0
 12
6.732050807568868
 22
12.83023944462986
 32
0.0
 13
6.732050807568868
 23
12.83023944462986
 33
0.0
  0
SOLID
  5
11B
330
114
100
AcDbEntity
  8
치수문자_일반주서
 62
     0
100
AcDbTrace
 10
29.43005080756887
 20
12.27990611129652
 30
0.0
 11
29.43005080756887
 21
13.38057277796319
 31
0.0
 12
32.73205080756887
 22
12.83023944462986
 32
0.0
 13
32.73205080756887
 23
12.83023944462986
 33
0.0
  0
MTEXT
  5
11C
330
114
100
AcDbEntity
  8
치수문자_일반주서
 62
     0
100
AcDbMText
 10
19.73205080756886
 20
17.20523944462986
 30
0.0
 40
3.5
 41
0.0
 71
     2
 72
     1
  1
\A1;26
  7
SLDTEXTSTYLE0
 73
     1
 44
1.0
  0
POINT
  5
14C
330
114
100
AcDbEntity
  8
Defpoints
 62
     0
100
AcDbPoint
 10
6.732050807568867
 20
1.984321142042207
 30
0.0
  0
POINT
  5
14D
330
114
100
AcDbEntity
  8
Defpoints
 62
     0
100
AcDbPoint
 10
32.73205080756887
 20
2.000000000000005
 30
0.0
  0
POINT
  5
14E
330
114
100
AcDbEntity
  8
Defpoints
 62
     0
100
AcDbPoint
 10
32.73205080756887
 20
12.83023944462986
 30
0.0
  0
ENDBLK
  5
116
330
114
100
AcDbEntity
  8
0
100
AcDbBlockEnd
  0
BLOCK
  5
11E
330
11D
100
AcDbEntity
  8
0
100
AcDbBlockBegin
  2
SW_DOWELSYMBOL_0
 70
     0
 10
0.0
 20
0.0
 30
0.0
  3
SW_DOWELSYMBOL_0
  1

  0
CIRCLE
  5
120
330
11D
100
AcDbEntity
  8
해칭선
 62
     0
100
AcDbCircle
 10
0.0
 20
0.0
 30
0.0
 40
3.0
  0
HATCH
  5
121
330
11D
100
AcDbEntity
  8
0
  6
Continuous
 62
     0
370
    18
100
AcDbHatch
 10
0.0
 20
0.0
 30
0.0
210
0.0
220
0.0
230
1.0
  2
SOLID
 70
     1
 71
     0
 91
        1
 92
        0
 93
        3
 72
     2
 10
0.0
 20
0.0
 40
3.0
 50
0.0
 51
90.0
 73
     1
 72
     1
 10
0.0
 20
3.0
 11
0.0
 21
0.0
 72
     1
 10
0.0
 20
0.0
 11
3.0
 21
0.0
 97
        0
 75
     0
 76
     1
 98
        1
 10
0.0
 20
0.0
  0
HATCH
  5
122
330
11D
100
AcDbEntity
  8
0
  6
Continuous
 62
     0
370
    18
100
AcDbHatch
 10
0.0
 20
0.0
 30
0.0
210
0.0
220
0.0
230
1.0
  2
SOLID
 70
     1
 71
     0
 91
        1
 92
        0
 93
        3
 72
     2
 10
0.0
 20
0.0
 40
3.0
 50
180.0
 51
270.0000000000008
 73
     1
 72
     1
 10
0.0
 20
-2.999999999999999
 11
0.0
 21
0.0
 72
     1
 10
0.0
 20
0.0
 11
-3.0
 21
0.0
 97
        0
 75
     0
 76
     1
 98
        1
 10
0.0
 20
0.0
  0
ENDBLK
  5
11F
330
11D
100
AcDbEntity
  8
0
100
AcDbBlockEnd
  0
ENDSEC
  0
SECTION
  2
ENTITIES
  0
LINE
  5
99
330
1F
100
AcDbEntity
  8
0
  6
Continuous
 62
     4
370
    25
100
AcDbLine
 10
2.0
 20
2.999999999999998
 30
0.0
 11
-36.76794919243114
 21
2.999999999999996
 31
0.0
  0
LINE
  5
9A
330
1F
100
AcDbEntity
  8
0
  6
Continuous
 62
     4
370
    25
100
AcDbLine
 10
-36.76794919243114
 20
-3.0
 30
0.0
 11
2.0
 21
-2.999999999999998
 31
0.0
  0
LINE
  5
9B
330
1F
100
AcDbEntity
  8
0
  6
Continuous
 62
     4
370
    25
100
AcDbLine
 10
2.0
 20
-2.999999999999999
 30
0.0
 11
5.732050807568867
 21
-2.0
 31
0.0
  0
LINE
  5
9C
330
1F
100
AcDbEntity
  8
0
  6
Continuous
 62
     4
370
    25
100
AcDbLine
 10
5.732050807568867
 20
2.0
 30
0.0
 11
2.0
 21
3.0
 31
0.0
  0
LINE
  5
9D
330
1F
100
AcDbEntity
  8
0
  6
Continuous
 62
     4
370
    25
100
AcDbLine
 10
-36.76794919243114
 20
2.999999999999994
 30
0.0
 11
-37.26794919243114
 21
2.499999999999993
 31
0.0
  0
LINE
  5
9E
330
1F
100
AcDbEntity
  8
0
  6
Continuous
 62
     4
370
    25
100
AcDbLine
 10
-37.26794919243114
 20
-2.499999999999998
 30
0.0
 11
-36.76794919243114
 21
-2.999999999999999
 31
0.0
  0
LINE
  5
9F
330
1F
100
AcDbEntity
  8
0
  6
Continuous
 62
     4
370
    25
100
AcDbLine
 10
6.298158791598328
 20
2.0
 30
0.0
 11
5.732050807568867
 21
2.0
 31
0.0
  0
LINE
  5
A0
330
1F
100
AcDbEntity
  8
0
  6
Continuous
 62
     4
370
    25
100
AcDbLine
 10
5.732050807568867
 20
-2.0
 30
0.0
 11
6.298158791598325
 21
-2.0
 31
0.0
  0
LINE
  5
A1
330
1F
100
AcDbEntity
  8
0
  6
Continuous
 62
     1
370
    25
100
AcDbLine
 10
27.08119976164131
 20
-0.3216981076169713
 30
0.0
 11
27.01461704536503
 21
-0.2858227574260861
 31
0.0
  0
LINE
  5
A2
330
1F
100
AcDbEntity
  8
0
  6
Continuous
 62
     1
370
    25
100
AcDbLine
 10
22.10008888911151
 20
0.2994323251910085
 30
0.0
 11
22.12529029166422
 21
0.2858227574263819
 31
0.0
  0
LINE
  5
A3
330
1F
100
AcDbEntity
  8
0
  6
Continuous
 62
     1
370
    25
100
AcDbLine
 10
21.07427283291677
 20
-2.000000000000002
 30
0.0
 11
22.62345034618519
 21
-2.000000000000002
 31
0.0
  0
LINE
  5
A4
330
1F
100
AcDbEntity
  8
0
  6
Continuous
 62
     1
370
    25
100
AcDbLine
 10
11.73994278256221
 20
2.000000000000003
 30
0.0
 11
10.19293315397017
 21
2.000000000000003
 31
0.0
  0
LINE
  5
A5
330
1F
100
AcDbEntity
  8
0
  6
Continuous
 62
     1
370
    25
100
AcDbLine
 10
32.73205080756887
 20
2.000000000000003
 30
0.0
 11
31.95852552478079
 21
2.000000000000003
 31
0.0
  0
LINE
  5
A6
330
1F
100
AcDbEntity
  8
0
  6
Continuous
 62
     1
370
    25
100
AcDbLine
 10
26.51761605304788
 20
-2.000000000000002
 30
0.0
 11
28.06350650815245
 21
-2.000000000000002
 31
0.0
  0
LINE
  5
A7
330
1F
100
AcDbEntity
  8
0
  6
Continuous
 62
     1
370
    25
100
AcDbLine
 10
17.18107132828959
 20
2.000000000000003
 30
0.0
 11
15.6352389585213
 21
2.000000000000003
 31
0.0
  0
LINE
  5
A8
330
1F
100
AcDbEntity
  8
0
  6
Continuous
 62
     1
370
    25
100
AcDbLine
 10
15.63523895852131
 20
-2.000000000000002
 30
0.0
 11
17.18107132828962
 21
-2.000000000000002
 31
0.0
  0
LINE
  5
A9
330
1F
100
AcDbEntity
  8
0
  6
Continuous
 62
     1
370
    25
100
AcDbLine
 10
28.06350650815243
 20
2.000000000000003
 30
0.0
 11
26.51761605304792
 21
2.000000000000003
 31
0.0
  0
LINE
  5
AA
330
1F
100
AcDbEntity
  8
0
  6
Continuous
 62
     1
370
    25
100
AcDbLine
 10
31.9585255247808
 20
-2.000000000000002
 30
0.0
 11
32.73205080756887
 21
-2.000000000000002
 31
0.0
  0
LINE
  5
AB
330
1F
100
AcDbEntity
  8
0
  6
Continuous
 62
     1
370
    25
100
AcDbLine
 10
10.19293315397018
 20
-2.000000000000002
 30
0.0
 11
11.73994278256223
 21
-2.000000000000002
 31
0.0
  0
LINE
  5
AC
330
1F
100
AcDbEntity
  8
0
  6
Continuous
 62
     1
370
    25
100
AcDbLine
 10
22.62345034618522
 20
2.000000000000003
 30
0.0
 11
21.07427283291675
 21
2.000000000000003
 31
0.0
  0
LINE
  5
AD
330
1F
100
AcDbEntity
  8
0
  6
Continuous
 62
     4
370
    25
100
AcDbLine
 10
2.0
 20
3.0
 30
0.0
 11
2.0
 21
-3.0
 31
0.0
  0
LINE
  5
AE
330
1F
100
AcDbEntity
  8
0
  6
Continuous
 62
     4
370
    25
100
AcDbLine
 10
-36.76794919243114
 20
2.999999999999994
 30
0.0
 11
-36.76794919243114
 21
-2.999999999999999
 31
0.0
  0
LINE
  5
B0
330
1F
100
AcDbEntity
  8
0
  6
Continuous
 62
     4
370
    25
100
AcDbLine
 10
5.732050807568867
 20
2.0
 30
0.0
 11
5.732050807568867
 21
1.915577794714272
 31
0.0
  0
SPLINE
  5
B1
330
1F
100
AcDbEntity
  8
0
  6
Continuous
 62
     4
370
    25
100
AcDbSpline
210
0.0
220
0.0
230
1.0
 70
     8
 71
     3
 72
    12
 73
     8
 74
     0
 42
0.000000001
 43
0.00000001
 40
0.0
 40
0.0
 40
0.0
 40
0.0
 40
0.25
 40
0.25
 40
0.5
 40
0.5
 40
1.0
 40
1.0
 40
1.0
 40
1.0
 10
5.232237312613282
 20
1.902120302445648
 30
0.0
 10
5.232237312613282
 20
1.930408275221505
 30
0.0
 10
5.246407568084174
 20
1.95233585792284
 30
0.0
 10
5.300963378120643
 20
1.980020992001287
 30
0.0
 10
5.341179994007025
 20
1.985914197449861
 30
0.0
 10
5.488298277882978
 20
1.982819905347986
 30
0.0
 10
5.616096661755328
 20
1.955058352867268
 30
0.0
 10
5.732050807568867
 20
1.915577794714271
 30
0.0
  0
LINE
  5
B2
330
1F
100
AcDbEntity
  8
0
  6
Continuous
 62
     4
370
    25
100
AcDbLine
 10
5.232237312613282
 20
1.902120302445649
 30
0.0
 11
5.232237312613282
 21
0.8476747537393227
 31
0.0
  0
SPLINE
  5
B3
330
1F
100
AcDbEntity
  8
0
  6
Continuous
 62
     4
370
    25
100
AcDbSpline
210
0.0
220
0.0
230
1.0
 70
     8
 71
     3
 72
    10
 73
     6
 74
     0
 42
0.000000001
 43
0.00000001
 40
0.0
 40
0.0
 40
0.0
 40
0.0
 40
0.5
 40
0.5
 40
1.0
 40
1.0
 40
1.0
 40
1.0
 10
5.426038880193528
 20
0.5102231135790124
 30
0.0
 10
5.367301653275752
 20
0.547226072245796
 30
0.0
 10
5.317962348883555
 20
0.5986761705090234
 30
0.0
 10
5.250224150302576
 20
0.7168415146027933
 30
0.0
 10
5.232237312613274
 20
0.7836155391768171
 30
0.0
 10
5.232237312613285
 20
0.8476747537393227
 30
0.0
  0
SPLINE
  5
B4
330
1F
100
AcDbEntity
  8
0
  6
Continuous
 62
     4
370
    25
100
AcDbSpline
210
0.0
220
0.0
230
1.0
 70
     8
 71
     3
 72
     8
 73
     4
 74
     0
 42
0.000000001
 43
0.00000001
 40
0.0
 40
0.0
 40
0.0
 40
0.0
 40
1.0
 40
1.0
 40
1.0
 40
1.0
 10
5.732050807568867
 20
0.3252056764735795
 30
0.0
 10
5.62898600428771
 20
0.3845111897169873
 30
0.0
 10
5.527183512794594
 20
0.4465045681879668
 30
0.0
 10
5.426038880193528
 20
0.5102231135790123
 30
0.0
  0
LINE
  5
B5
330
1F
100
AcDbEntity
  8
0
  6
Continuous
 62
     4
370
    25
100
AcDbLine
 10
5.732050807568867
 20
0.3252056764735795
 30
0.0
 11
5.732050807568867
 21
-0.5749449646684457
 31
0.0
  0
SPLINE
  5
B6
330
1F
100
AcDbEntity
  8
0
  6
Continuous
 62
     4
370
    25
100
AcDbSpline
210
0.0
220
0.0
230
1.0
 70
     8
 71
     3
 72
    12
 73
     8
 74
     0
 42
0.000000001
 43
0.00000001
 40
0.0
 40
0.0
 40
0.0
 40
0.0
 40
0.2500000000000002
 40
0.2500000000000002
 40
0.5000000000000002
 40
0.5000000000000002
 40
1.0
 40
1.0
 40
1.0
 40
1.0
 10
5.232237312613282
 20
-0.9672500446373471
 30
0.0
 10
5.232237312613282
 20
-0.9116210708985447
 30
0.0
 10
5.246407568084174
 20
-0.8537083866484678
 30
0.0
 10
5.300963378120643
 20
-0.7469181154053874
 30
0.0
 10
5.341179994007025
 20
-0.6981144313396748
 30
0.0
 10
5.488298277882982
 20
-0.5824150731230936
 30
0.0
 10
5.616096661755328
 20
-0.5514845608208809
 30
0.0
 10
5.732050807568867
 20
-0.57494496466845
 30
0.0
  0
LINE
  5
B7
330
1F
100
AcDbEntity
  8
0
  6
Continuous
 62
     4
370
    25
100
AcDbLine
 10
5.232237312613282
 20
-0.9672500446373473
 30
0.0
 11
5.232237312613282
 21
-1.958336489395945
 31
0.0
  0
SPLINE
  5
B8
330
1F
100
AcDbEntity
  8
0
  6
Continuous
 62
     4
370
    25
100
AcDbSpline
210
0.0
220
0.0
230
1.0
 70
     8
 71
     3
 72
    10
 73
     6
 74
     0
 42
0.000000001
 43
0.00000001
 40
0.0
 40
0.0
 40
0.0
 40
0.0
 40
0.5
 40
0.5
 40
1.0
 40
1.0
 40
1.0
 40
1.0
 10
5.426038880193528
 20
-2.01850891899251
 30
0.0
 10
5.367301653275732
 20
-2.025389203854376
 30
0.0
 10
5.317962348883523
 20
-2.025146821919931
 30
0.0
 10
5.25022415030254
 20
-2.005674403271174
 30
0.0
 10
5.232237312613274
 20
-1.986064808417259
 30
0.0
 10
5.232237312613282
 20
-1.958336489395954
 30
0.0
  0
SPLINE
  5
B9
330
1F
100
AcDbEntity
  8
0
  6
Continuous
 62
     4
370
    25
100
AcDbSpline
210
0.0
220
0.0
230
1.0
 70
     8
 71
     3
 72
     8
 73
     4
 74
     0
 42
0.000000001
 43
0.00000001
 40
0.0
 40
0.0
 40
0.0
 40
0.0
 40
1.0
 40
1.0
 40
1.0
 40
1.0
 10
5.732050807568867
 20
-1.973383203533809
 30
0.0
 10
5.62898600428771
 20
-1.991598506064615
 30
0.0
 10
5.527183512794594
 20
-2.006661170621306
 30
0.0
 10
5.426038880193528
 20
-2.018508918992508
 30
0.0
  0
LINE
  5
BA
330
1F
100
AcDbEntity
  8
0
  6
Continuous
 62
     4
370
    25
100
AcDbLine
 10
5.732050807568867
 20
-1.973383203533328
 30
0.0
 11
5.732050807568867
 21
-2.0
 31
0.0
  0
LINE
  5
BB
330
1F
100
AcDbEntity
  8
0
  6
Continuous
 62
     4
370
    25
100
AcDbLine
 10
-37.26794919243114
 20
2.499999999999994
 30
0.0
 11
-37.26794919243114
 21
-2.499999999999998
 31
0.0
  0
SPLINE
  5
BC
330
1F
100
AcDbEntity
  8
0
  6
Continuous
 62
     4
370
    25
100
AcDbSpline
210
0.0
220
0.0
230
1.0
 70
    24
 71
     3
 72
    16
 73
    12
 74
     0
 42
0.000000001
 43
0.00000001
 40
0.0
 40
0.0
 40
0.0
 40
0.0
 40
0.1249999999999999
 40
0.1249999999999999
 40
0.2499999999999998
 40
0.2499999999999998
 40
0.4999999999999999
 40
0.4999999999999999
 40
0.75
 40
0.75
 40
1.0
 40
1.0
 40
1.0
 40
1.0
 10
6.732050807568867
 20
1.681689949057638
 30
0.0
 10
6.732050807568867
 20
1.617692982019965
 30
0.0
 10
6.732050807568867
 20
1.55863812797892
 30
0.0
 10
6.732050807568867
 20
1.4254591398746
 30
0.0
 10
6.732050807568867
 20
1.352728613255577
 30
0.0
 10
6.732050807568867
 20
1.115669225054005
 30
0.0
 10
6.732050807568867
 20
0.9306399048026376
 30
0.0
 10
6.732050807568867
 20
0.5342235283057942
 30
0.0
 10
6.732050807568867
 20
0.3228943212048473
 30
0.0
 10
6.732050807568867
 20
-0.0369950125648648
 30
0.0
 10
6.732050807568867
 20
-0.180873850984821
 30
0.0
 10
6.732050807568867
 20
-0.249939203092309
 30
0.0
  0
SPLINE
  5
BD
330
1F
100
AcDbEntity
  8
0
  6
Continuous
 62
     4
370
    25
100
AcDbSpline
210
0.0
220
0.0
230
1.0
 70
     8
 71
     3
 72
    10
 73
     6
 74
     0
 42
0.000000001
 43
0.00000001
 40
0.0
 40
0.0
 40
0.0
 40
0.0
 40
0.5
 40
0.5
 40
1.0
 40
1.0
 40
1.0
 40
1.0
 10
6.732050807568867
 20
-0.2499392030923087
 30
0.0
 10
6.566278557900053
 20
-0.1546555182910465
 30
0.0
 10
6.401501898932938
 20
-0.0586981476341195
 30
0.0
 10
6.066756269297392
 20
0.1339561560163477
 30
0.0
 10
5.898524119779277
 20
0.2303140933708782
 30
0.0
 10
5.732050807568895
 20
0.3252056764735534
 30
0.0
  0
SPLINE
  5
BE
330
1F
100
AcDbEntity
  8
0
  6
Continuous
 62
     4
370
    25
100
AcDbSpline
210
0.0
220
0.0
230
1.0
 70
     8
 71
     3
 72
    10
 73
     6
 74
     0
 42
0.000000001
 43
0.00000001
 40
0.0
 40
0.0
 40
0.0
 40
0.0
 40
0.5
 40
0.5
 40
1.0
 40
1.0
 40
1.0
 40
1.0
 10
6.732050807568867
 20
1.68168994905763
 30
0.0
 10
6.582575639478416
 20
1.728561851966247
 30
0.0
 10
6.434207922672475
 20
1.770607896272882
 30
0.0
 10
6.132721954426581
 20
1.84490549332808
 30
0.0
 10
5.981069394391315
 20
1.876994684862111
 30
0.0
 10
5.830430515454439
 20
1.903620923693794
 30
0.0
  0
SPLINE
  5
BF
330
1F
100
AcDbEntity
  8
0
  6
Continuous
 62
     4
370
    25
100
AcDbSpline
210
0.0
220
0.0
230
1.0
 70
     8
 71
     3
 72
     8
 73
     4
 74
     0
 42
0.000000001
 43
0.00000001
 40
0.0
 40
0.0
 40
0.0
 40
0.0
 40
1.0
 40
1.0
 40
1.0
 40
1.0
 10
5.732050807568867
 20
1.915577794714272
 30
0.0
 10
5.766657992741066
 20
1.912995815103344
 30
0.0
 10
5.799452616560028
 20
1.909096435329885
 30
0.0
 10
5.830430515453645
 20
1.90362092369394
 30
0.0
  0
LINE
  5
C0
330
1F
100
AcDbEntity
  8
0
  6
Continuous
 62
     4
370
    25
100
AcDbLine
 10
6.732050807568867
 20
-0.2499392030923087
 30
0.0
 11
6.732050807568867
 21
-1.082552038120348
 31
0.0
  0
SPLINE
  5
C1
330
1F
100
AcDbEntity
  8
0
  6
Continuous
 62
     4
370
    25
100
AcDbSpline
210
0.0
220
0.0
230
1.0
 70
     8
 71
     3
 72
    10
 73
     6
 74
     0
 42
0.000000001
 43
0.00000001
 40
0.0
 40
0.0
 40
0.0
 40
0.0
 40
0.5
 40
0.5
 40
1.0
 40
1.0
 40
1.0
 40
1.0
 10
6.732050807568867
 20
-1.082552038120345
 30
0.0
 10
6.582575639478416
 20
-1.009738902826184
 30
0.0
 10
6.434207922672475
 20
-0.9340710255567282
 30
0.0
 10
6.132721954426581
 20
-0.7770873334550952
 30
0.0
 10
5.981069394391315
 20
-0.6960089699478791
 30
0.0
 10
5.830430515454439
 20
-0.6133737676777162
 30
0.0
  0
SPLINE
  5
C2
330
1F
100
AcDbEntity
  8
0
  6
Continuous
 62
     4
370
    25
100
AcDbSpline
210
0.0
220
0.0
230
1.0
 70
     8
 71
     3
 72
     8
 73
     4
 74
     0
 42
0.000000001
 43
0.00000001
 40
0.0
 40
0.0
 40
0.0
 40
0.0
 40
1.0
 40
1.0
 40
1.0
 40
1.0
 10
5.732050807568867
 20
-0.5749449646684458
 30
0.0
 10
5.766657992741066
 20
-0.5835474972812013
 30
0.0
 10
5.799452616560028
 20
-0.5963803795224774
 30
0.0
 10
5.830430515453645
 20
-0.6133737676772816
 30
0.0
  0
SPLINE
  5
C3
330
1F
100
AcDbEntity
  8
0
  6
Continuous
 62
     4
370
    25
100
AcDbSpline
210
0.0
220
0.0
230
1.0
 70
     8
 71
     3
 72
    10
 73
     6
 74
     0
 42
0.000000001
 43
0.00000001
 40
0.0
 40
0.0
 40
0.0
 40
0.0
 40
0.5
 40
0.5
 40
1.0
 40
1.0
 40
1.0
 40
1.0
 10
6.732050807568867
 20
-1.984321142042206
 30
0.0
 10
6.566278557900049
 20
-1.996322792250103
 30
0.0
 10
6.40150189893293
 20
-2.001458651435847
 30
0.0
 10
6.066756269297371
 20
-1.99783331492104
 30
0.0
 10
5.898524119779252
 20
-1.989020957730943
 30
0.0
 10
5.732050807568867
 20
-1.973383203533328
 30
0.0
  0
SPLINE
  5
C4
330
1F
100
AcDbEntity
  8
0
  6
Continuous
 62
     4
370
    25
100
AcDbSpline
210
0.0
220
0.0
230
1.0
 70
    24
 71
     3
 72
    14
 73
    10
 74
     0
 42
0.000000001
 43
0.00000001
 40
0.0
 40
0.0
 40
0.0
 40
0.0
 40
0.0232787853854328
 40
0.2183963065168555
 40
0.4080148762794901
 40
0.6031323974109103
 40
0.7927509671734825
 40
0.9878684883048411
 40
1.0
 40
1.0
 40
1.0
 40
1.0
 10
6.732050807568867
 20
-1.082552038120346
 30
0.0
 10
6.732050807568867
 20
-1.085856369538655
 30
0.0
 10
6.732050807568867
 20
-1.116856860557312
 30
0.0
 10
6.732050807568867
 20
-1.209387170377788
 30
0.0
 10
6.732050807568867
 20
-1.359904572527279
 30
0.0
 10
6.732050807568867
 20
-1.540790613427396
 30
0.0
 10
6.732050807568867
 20
-1.745550442633688
 30
0.0
 10
6.732050807568865
 20
-1.897956873973488
 30
0.0
 10
6.732050807568867
 20
-1.979545289514336
 30
0.0
 10
6.732050807568867
 20
-1.984321142042206
 30
0.0
  0
LINE
  5
C5
330
1F
100
AcDbEntity
  8
0
  6
Continuous
 62
     4
370
    25
100
AcDbLine
 10
6.732050807568867
 20
1.984321142042207
 30
0.0
 11
6.298158791598325
 21
1.979575257852059
 31
0.0
  0
LINE
  5
C6
330
1F
100
AcDbEntity
  8
0
  6
Continuous
 62
     4
370
    25
100
AcDbLine
 10
6.732050807568867
 20
1.984321142042207
 30
0.0
 11
6.732050807568867
 21
1.681689949057634
 31
0.0
  0
SPLINE
  5
C8
330
1F
100
AcDbEntity
  8
0
  6
Continuous
 62
     1
370
    25
100
AcDbSpline
210
0.0
220
0.0
230
1.0
 70
     8
 71
     3
 72
    21
 73
    17
 74
     0
 42
0.000000001
 43
0.00000001
 40
0.0
 40
0.0
 40
0.0
 40
0.0
 40
0.017714246342332
 40
0.0942334654233554
 40
0.1707416442088892
 40
0.2472485641253943
 40
0.3237640122297878
 40
0.4002977374592406
 40
0.4768594072421214
 40
0.5534585648788289
 40
0.630077407285605
 40
0.7066571729342488
 40
0.7832040681889287
 40
0.8597277019031909
 40
0.936237786478025
 40
1.0
 40
1.0
 40
1.0
 40
1.0
 10
30.0116379595027
 20
-1.680303709703584
 30
0.0
 10
29.93587654064245
 20
-1.707164385203717
 30
0.0
 10
29.53285284397342
 20
-1.850053587886924
 30
0.0
 10
28.80267189507969
 20
-1.974250786136387
 30
0.0
 10
27.82107146832437
 20
-2.023792546365894
 30
0.0
 10
26.8394955936453
 20
-1.901021985183173
 30
0.0
 10
25.85778729924139
 20
-1.629368132423533
 30
0.0
 10
24.87579765205409
 20
-1.226822442565546
 30
0.0
 10
23.89338047120716
 20
-0.7264330572671095
 30
0.0
 10
22.91049467604919
 20
-0.1679555906051201
 30
0.0
 10
21.92744381075954
 20
0.4039051751864847
 30
0.0
 10
20.94477011638521
 20
0.9433162754041635
 30
0.0
 10
19.9625758236679
 20
1.408476462714119
 30
0.0
 10
18.9807422747298
 20
1.756664242479734
 30
0.0
 10
18.05361718614147
 20
1.968769625820086
 30
0.0
 10
17.45374801839786
 20
1.982600796641591
 30
0.0
 10
17.18107132828959
 20
1.98888789736743
 30
0.0
  0
SPLINE
  5
C9
330
1F
100
AcDbEntity
  8
0
  6
Continuous
 62
     1
370
    25
100
AcDbSpline
210
0.0
220
0.0
230
1.0
 70
     8
 71
     3
 72
    10
 73
     6
 74
     0
 42
0.000000001
 43
0.00000001
 40
0.0
 40
0.0
 40
0.0
 40
0.0
 40
0.1500993018631612
 40
0.7984746908701957
 40
1.0
 40
1.0
 40
1.0
 40
1.0
 10
8.246045588692095
 20
-1.680303709703588
 30
0.0
 10
8.170285708028956
 20
-1.707161953837504
 30
0.0
 10
7.767270194019383
 20
-1.850038222520598
 30
0.0
 10
7.262414873475559
 20
-1.936125798292761
 30
0.0
 10
6.833704924543814
 20
-1.975083609890439
 30
0.0
 10
6.732050807568867
 20
-1.98432114204267
 30
0.0
  0
SPLINE
  5
CA
330
1F
100
AcDbEntity
  8
0
  6
Continuous
 62
     4
370
    25
100
AcDbSpline
210
0.0
220
0.0
230
1.0
 70
    24
 71
     3
 72
    14
 73
    10
 74
     0
 42
0.000000001
 43
0.00000001
 40
0.0
 40
0.0
 40
0.0
 40
0.0
 40
0.0232787853854232
 40
0.21839630651677
 40
0.40801487627933
 40
0.6031323974106743
 40
0.7927509671731716
 40
0.9878684883044522
 40
1.0
 40
1.0
 40
1.0
 40
1.0
 10
6.732050807568867
 20
-1.082552038120345
 30
0.0
 10
6.732050807568867
 20
-1.085856369538654
 30
0.0
 10
6.732050807568865
 20
-1.116856860557311
 30
0.0
 10
6.732050807568867
 20
-1.209387170377788
 30
0.0
 10
6.732050807568865
 20
-1.359904572527278
 30
0.0
 10
6.732050807568865
 20
-1.540790613427395
 30
0.0
 10
6.732050807568871
 20
-1.745550442633689
 30
0.0
 10
6.732050807568862
 20
-1.897956873973637
 30
0.0
 10
6.732050807568867
 20
-1.979545289514645
 30
0.0
 10
6.732050807568867
 20
-1.984321142042671
 30
0.0
  0
SPLINE
  5
CB
330
1F
100
AcDbEntity
  8
0
  6
Continuous
 62
     1
370
    25
100
AcDbSpline
210
0.0
220
0.0
230
1.0
 70
     8
 71
     3
 72
    11
 73
     7
 74
     0
 42
0.000000001
 43
0.00000001
 40
0.0
 40
0.0
 40
0.0
 40
0.0
 40
0.2591876377882891
 40
0.5180839636312451
 40
0.7766678327166525
 40
1.0
 40
1.0
 40
1.0
 40
1.0
 10
6.732050807568867
 20
-1.082552038120346
 30
0.0
 10
7.031159363979028
 20
-1.220717348527731
 30
0.0
 10
7.629040296045603
 20
-1.496892679508095
 30
0.0
 10
8.525095871294692
 20
-1.789196143934665
 30
0.0
 10
9.379540881245749
 20
-1.971975467102676
 30
0.0
 10
9.935354817466273
 20
-1.985782983856671
 30
0.0
 10
10.19293315397018
 20
-1.992181738844585
 30
0.0
  0
SPLINE
  5
CC
330
1F
100
AcDbEntity
  8
0
  6
Continuous
 62
     1
370
    25
100
AcDbSpline
210
0.0
220
0.0
230
1.0
 70
     8
 71
     3
 72
    21
 73
    17
 74
     0
 42
0.000000001
 43
0.00000001
 40
0.0
 40
0.0
 40
0.0
 40
0.0
 40
0.064956431161203
 40
0.1415067370703041
 40
0.2180899148379558
 40
0.2947121711048593
 40
0.3713147417246121
 40
0.4478798228202139
 40
0.5244169581172785
 40
0.5930172310753176
 40
0.6616205927650609
 40
0.7302249390538574
 40
0.8001472998346797
 40
0.8699910719176955
 40
0.9397505509599006
 40
1.0
 40
1.0
 40
1.0
 40
1.0
 10
19.1291342531459
 20
1.683616250065083
 30
0.0
 10
19.40691530237907
 20
1.763245951664322
 30
0.0
 10
20.01205769081173
 20
1.936718216777317
 30
0.0
 10
20.94477069889788
 20
2.023216894992501
 30
0.0
 10
21.92744406982948
 20
1.966552179624061
 30
0.0
 10
22.91049305606064
 20
1.749132313971524
 30
0.0
 10
23.89338668870644
 20
1.392966497880655
 30
0.0
 10
24.87577441730808
 20
0.9252672882560636
 30
0.0
 10
25.8240058441404
 20
0.402549682085115
 30
0.0
 10
26.73768387512219
 20
-0.1287127293874081
 30
0.0
 10
27.61754055576253
 20
-0.6320411929103552
 30
0.0
 10
28.50319793153993
 20
-1.097152613970861
 30
0.0
 10
29.3946551524092
 20
-1.49365639202185
 30
0.0
 10
30.29068222752911
 20
-1.790061806332535
 30
0.0
 10
31.14513451840255
 20
-1.971793205172115
 30
0.0
 10
31.70094758929293
 20
-1.985725266656179
 30
0.0
 10
31.9585255247808
 20
-1.992181738844583
 30
0.0
  0
SPLINE
  5
CD
330
1F
100
AcDbEntity
  8
0
  6
Continuous
 62
     1
370
    25
100
AcDbSpline
210
0.0
220
0.0
230
1.0
 70
     8
 71
     3
 72
    12
 73
     8
 74
     0
 42
0.000000001
 43
0.00000001
 40
0.0
 40
0.0
 40
0.0
 40
0.0
 40
0.2105540667517562
 40
0.4209984277198582
 40
0.6313592052101682
 40
0.8416628923218414
 40
1.0
 40
1.0
 40
1.0
 40
1.0
 10
32.73205080756887
 20
0.4429530934592987
 30
0.0
 10
32.40433297116002
 20
0.6237963171446882
 30
0.0
 10
31.74906805040905
 20
0.9853885390850162
 30
0.0
 10
30.76652182403531
 20
1.440990809768806
 30
0.0
 10
29.78443460823874
 20
1.7787499687108
 30
0.0
 10
28.88348291812116
 20
1.975667601556303
 30
0.0
 10
28.30987868526028
 20
1.982265066270542
 30
0.0
 10
28.06350650815243
 20
1.985098782711114
 30
0.0
  0
SPLINE
  5
CE
330
1F
100
AcDbEntity
  8
0
  6
Continuous
 62
     1
370
    25
100
AcDbSpline
210
0.0
220
0.0
230
1.0
 70
     8
 71
     3
 72
    22
 73
    18
 74
     0
 42
0.000000001
 43
0.00000001
 40
0.0
 40
0.0
 40
0.0
 40
0.0
 40
0.0119740797104018
 40
0.0911556007582816
 40
0.1703332137200879
 40
0.2495170502102592
 40
0.3287172140160837
 40
0.4079437360568068
 40
0.4872065300316843
 40
0.566503320922465
 40
0.6124884508751437
 40
0.6584535457068424
 40
0.7377388019907956
 40
0.81698274797708
 40
0.8961952201592244
 40
0.9753861946549484
 40
0.9999999999999999
 40
0.9999999999999999
 40
0.9999999999999999
 40
0.9999999999999999
 10
19.1291342531459
 20
-1.683616250065081
 30
0.0
 10
19.07965276799244
 20
-1.70150423416991
 30
0.0
 10
18.70296289998886
 20
-1.837680873783709
 30
0.0
 10
17.99911913649672
 20
-1.963046648094677
 30
0.0
 10
17.01754891253766
 20
-2.026752025948181
 30
0.0
 10
16.03588746839271
 20
-1.916457028556025
 30
0.0
 10
15.05399306918926
 20
-1.656409960119713
 30
0.0
 10
14.07166686757102
 20
-1.263191025442383
 30
0.0
 10
13.08900238712987
 20
-0.7691735460625541
 30
0.0
 10
12.24312733240047
 20
-0.291705449676365
 30
0.0
 10
11.5361715765572
 20
0.1183658001234719
 30
0.0
 10
10.82890216707031
 20
0.5238425989791229
 30
0.0
 10
9.983424266898155
 20
0.9839612983575821
 30
0.0
 10
9.000929898331115
 20
1.440785255058788
 30
0.0
 10
8.018891809447304
 20
1.78099729098902
 30
0.0
 10
7.262416448440301
 20
1.9378001785842
 30
0.0
 10
6.833705226415041
 20
1.975404535950382
 30
0.0
 10
6.732050807568867
 20
1.984321142042671
 30
0.0
  0
SPLINE
  5
CF
330
1F
100
AcDbEntity
  8
0
  6
Continuous
 62
     1
370
    25
100
AcDbSpline
210
0.0
220
0.0
230
1.0
 70
     8
 71
     3
 72
    22
 73
    18
 74
     0
 42
0.000000001
 43
0.00000001
 40
0.0
 40
0.0
 40
0.0
 40
0.0
 40
0.0217769088758099
 40
0.0915423090398392
 40
0.1612816571583746
 40
0.2310535807184434
 40
0.3009162330239386
 40
0.3775476162805271
 40
0.4541461453615199
 40
0.5307096217189858
 40
0.6072476258224324
 40
0.6837698514212339
 40
0.7602860626834916
 40
0.8368060506690982
 40
0.9133395895479238
 40
0.9898963929781244
 40
1.0
 40
1.0
 40
1.0
 40
1.0
 10
8.246045588692095
 20
1.680303709703588
 30
0.0
 10
8.339171017928425
 20
1.712289691191831
 30
0.0
 10
8.730636899116426
 20
1.846747277391858
 30
0.0
 10
9.420080059767383
 20
1.967261659989844
 30
0.0
 10
10.31470209634678
 20
2.022470821456157
 30
0.0
 10
11.20979253536779
 20
1.935330989978559
 30
0.0
 10
12.13463741865547
 20
1.714908912794834
 30
0.0
 10
13.08891830740966
 20
1.359095681369616
 30
0.0
 10
14.0716893708574
 20
0.8840716142683631
 30
0.0
 10
15.05398708200535
 20
0.3384313581010237
 30
0.0
 10
16.03588892584467
 20
-0.2340651555309052
 30
0.0
 10
17.01754906764491
 20
-0.7881295759492245
 30
0.0
 10
17.99911705899266
 20
-1.278147159196673
 30
0.0
 10
18.9807407690826
 20
-1.670303768854333
 30
0.0
 10
19.96258201351299
 20
-1.913606637602234
 30
0.0
 10
20.66043704888679
 20
-2.019126856405144
 30
0.0
 10
21.03106220315396
 20
-1.993785847592114
 30
0.0
 10
21.07427283291677
 20
-1.990831377456915
 30
0.0
  0
SPLINE
  5
D0
330
1F
100
AcDbEntity
  8
0
  6
Continuous
 62
     1
370
    25
100
AcDbSpline
210
0.0
220
0.0
230
1.0
 70
     8
 71
     3
 72
    11
 73
     7
 74
     0
 42
0.000000001
 43
0.00000001
 40
0.0
 40
0.0
 40
0.0
 40
0.0
 40
0.1026679540774927
 40
0.4315792307460945
 40
0.76036768418824
 40
1.0
 40
1.0
 40
1.0
 40
1.0
 10
30.0116379595027
 20
1.680303709703588
 30
0.0
 10
30.10476337437214
 20
1.712306859430011
 30
0.0
 10
30.49622919516681
 20
1.846836614741552
 30
0.0
 10
31.18567359124959
 20
1.965874674874221
 30
0.0
 10
31.99931056043297
 20
2.021911915597929
 30
0.0
 10
32.5147529028212
 20
1.971558969285911
 30
0.0
 10
32.73205080756887
 20
1.950331396710526
 30
0.0
  0
LINE
  5
D1
330
1F
100
AcDbEntity
  8
0
  6
Continuous
 62
     1
370
    25
100
AcDbLine
 10
32.73205080756887
 20
1.428017363720415
 30
0.0
 11
32.73205080756887
 21
1.950331396710526
 31
0.0
  0
SPLINE
  5
D2
330
1F
100
AcDbEntity
  8
0
  6
Continuous
 62
     1
370
    25
100
AcDbSpline
210
0.0
220
0.0
230
1.0
 70
     8
 71
     3
 72
    11
 73
     7
 74
     0
 42
0.000000001
 43
0.00000001
 40
0.0
 40
0.0
 40
0.0
 40
0.0
 40
0.2488441250389899
 40
0.498443267189377
 40
0.7372384337276826
 40
1.0
 40
1.0
 40
1.0
 40
1.0
 10
32.73205080756887
 20
1.428017363720415
 30
0.0
 10
32.69952644380598
 20
1.33976675585828
 30
0.0
 10
32.63437903421899
 20
1.162997779265569
 30
0.0
 10
32.45323549137294
 20
0.9725582710706554
 30
0.0
 10
32.23183603349368
 20
0.8563902688349081
 30
0.0
 10
32.07271994345161
 20
0.8468674334368186
 30
0.0
 10
31.98936029477479
 20
0.8418784960328016
 30
0.0
  0
SPLINE
  5
D3
330
1F
100
AcDbEntity
  8
0
  6
Continuous
 62
     1
370
    25
100
AcDbSpline
210
0.0
220
0.0
230
1.0
 70
     8
 71
     3
 72
    18
 73
    14
 74
     0
 42
0.000000001
 43
0.00000001
 40
0.0
 40
0.0
 40
0.0
 40
0.0
 40
0.0972412284907387
 40
0.194431791015535
 40
0.2915837517684093
 40
0.3887093461886865
 40
0.4858209271980209
 40
0.5829309103290162
 40
0.6800517182609953
 40
0.7771957252880122
 40
0.8743752022452647
 40
0.971602262412725
 40
1.0
 40
1.0
 40
1.0
 40
1.0
 10
32.73205080756887
 20
-1.950331396710043
 30
0.0
 10
32.40433296592301
 20
-1.893266198279191
 30
0.0
 10
31.74906803470076
 20
-1.779165534314171
 30
0.0
 10
30.76652188681986
 20
-1.424121710203303
 30
0.0
 10
29.78443437292401
 20
-0.966588851173213
 30
0.0
 10
28.80266874792722
 20
-0.4289243433828854
 30
0.0
 10
27.82107231425021
 20
0.1420863871689376
 30
0.0
 10
26.83949535680625
 20
0.7021933551080396
 30
0.0
 10
25.85778740060774
 20
1.205362486077351
 30
0.0
 10
24.87579748342641
 20
1.61552405306965
 30
0.0
 10
23.89338104465209
 20
1.884884705387678
 30
0.0
 10
23.14253134936184
 20
2.009404606009191
 30
0.0
 10
22.71915534209388
 20
1.988203086172831
 30
0.0
 10
22.62345034618522
 20
1.983410440074886
 30
0.0
  0
SPLINE
  5
D4
330
1F
100
AcDbEntity
  8
0
  6
Continuous
 62
     1
370
    25
100
AcDbSpline
210
0.0
220
0.0
230
1.0
 70
     8
 71
     3
 72
    16
 73
    12
 74
     0
 42
0.000000001
 43
0.00000001
 40
0.0
 40
0.0
 40
0.0
 40
0.0
 40
0.085975837401789
 40
0.2273176974983101
 40
0.3092834836452438
 40
0.3912135583688685
 40
0.5325348587079746
 40
0.6737825258741864
 40
0.8149740928379626
 40
0.9561273414416603
 40
1.0
 40
1.0
 40
1.0
 40
1.0
 10
13.6871050103382
 20
-1.676127812794681
 30
0.0
 10
13.4877639610881
 20
-1.739027493175559
 30
0.0
 10
12.96071182991005
 20
-1.90533248013069
 30
0.0
 10
12.24312337534319
 20
-1.993948247214107
 30
0.0
 10
11.53617237420643
 20
-2.005955402160374
 30
0.0
 10
10.82890177582242
 20
-1.94775482176114
 30
0.0
 10
9.98342439432631
 20
-1.772193630555459
 30
0.0
 10
9.000929864132122
 20
-1.425993591167118
 30
0.0
 10
8.018891818893906
 20
-0.9660689220746634
 30
0.0
 10
7.262416447834984
 20
-0.5524511916370427
 30
0.0
 10
6.833705226299018
 20
-0.3079212404261043
 30
0.0
 10
6.732050807568867
 20
-0.2499392030924366
 30
0.0
  0
SPLINE
  5
D5
330
1F
100
AcDbEntity
  8
0
  6
Continuous
 62
     4
370
    25
100
AcDbSpline
210
0.0
220
0.0
230
1.0
 70
    24
 71
     3
 72
    16
 73
    12
 74
     0
 42
0.000000001
 43
0.00000001
 40
0.0
 40
0.0
 40
0.0
 40
0.0
 40
0.1250000000000001
 40
0.1250000000000001
 40
0.2500000000000002
 40
0.2500000000000002
 40
0.5000000000000001
 40
0.5000000000000001
 40
0.75
 40
0.75
 40
1.0
 40
1.0
 40
1.0
 40
1.0
 10
6.732050807568867
 20
1.681689949057638
 30
0.0
 10
6.732050807568867
 20
1.617692982019955
 30
0.0
 10
6.732050807568867
 20
1.558638127978901
 30
0.0
 10
6.732050807568867
 20
1.425459139874558
 30
0.0
 10
6.732050807568867
 20
1.352728613255521
 30
0.0
 10
6.732050807568867
 20
1.115669225053901
 30
0.0
 10
6.732050807568867
 20
0.9306399048024919
 30
0.0
 10
6.732050807568867
 20
0.5342235283055742
 30
0.0
 10
6.732050807568867
 20
0.3228943212045946
 30
0.0
 10
6.732050807568867
 20
-0.0369950125651116
 30
0.0
 10
6.732050807568867
 20
-0.1808738509850249
 30
0.0
 10
6.732050807568867
 20
-0.2499392030924364
 30
0.0
  0
SPLINE
  5
D6
330
1F
100
AcDbEntity
  8
0
  6
Continuous
 62
     1
370
    25
100
AcDbSpline
210
0.0
220
0.0
230
1.0
 70
     8
 71
     3
 72
    17
 73
    13
 74
     0
 42
0.000000001
 43
0.00000001
 40
0.0
 40
0.0
 40
0.0
 40
0.0
 40
0.1007593962495488
 40
0.2014055447532463
 40
0.3019302254488595
 40
0.4024173678583226
 40
0.5029514480886964
 40
0.6036162589984967
 40
0.7140341067427937
 40
0.8244046150394055
 40
0.9347246160095812
 40
1.0
 40
1.0
 40
1.0
 40
1.0
 10
6.732050807568867
 20
1.681689949057631
 30
0.0
 10
7.031159423423394
 20
1.577474826591146
 30
0.0
 10
7.629040474311894
 20
1.369161713440841
 30
0.0
 10
8.525095159522515
 20
0.9356502684892154
 30
0.0
 10
9.42009110736301
 20
0.4479745974546085
 30
0.0
 10
10.31469912972574
 20
-0.0714851185356876
 30
0.0
 10
11.20979335206463
 20
-0.585879420879594
 30
0.0
 10
12.13463708719687
 20
-1.076134073080685
 30
0.0
 10
13.08891877037558
 20
-1.505024419095252
 30
0.0
 10
14.07168787542487
 20
-1.819571438348678
 30
0.0
 10
14.92041258132193
 20
-1.988561219196458
 30
0.0
 10
15.4415227742729
 20
-1.982772931793058
 30
0.0
 10
15.63523895852131
 20
-1.980621208483311
 30
0.0
  0
SPLINE
  5
D7
330
1F
100
AcDbEntity
  8
0
  6
Continuous
 62
     1
370
    25
100
AcDbSpline
210
0.0
220
0.0
230
1.0
 70
     8
 71
     3
 72
    17
 73
    13
 74
     0
 42
0.000000001
 43
0.00000001
 40
0.0
 40
0.0
 40
0.0
 40
0.0
 40
0.0375060235174852
 40
0.1577919976876288
 40
0.2656043769864914
 40
0.3734216105446695
 40
0.4812403915014513
 40
0.5911305676904733
 40
0.7008972336639938
 40
0.8105314244607217
 40
0.9201246752654249
 40
1.0
 40
1.0
 40
1.0
 40
1.0
 10
24.56970362153822
 20
1.67774708263888
 30
0.0
 10
24.67177066974993
 20
1.713170427933552
 30
0.0
 10
25.10117805355049
 20
1.862200367516968
 30
0.0
 10
25.82400507707949
 20
1.978506700721592
 30
0.0
 10
26.7376840662909
 20
2.018918574428965
 30
0.0
 10
27.61754052260214
 20
1.919968490799881
 30
0.0
 10
28.50319787284271
 20
1.698459820381648
 30
0.0
 10
29.3946554270103
 20
1.36413216965647
 30
0.0
 10
30.29068119173812
 20
0.9369044186267211
 30
0.0
 10
31.18568628818943
 20
0.4479782566757627
 30
0.0
 10
31.99930836824958
 20
-0.0256165319962736
 30
0.0
 10
32.5147522527179
 20
-0.3191897806960612
 30
0.0
 10
32.73205080756887
 20
-0.4429530934593353
 30
0.0
  0
LINE
  5
D8
330
1F
100
AcDbEntity
  8
0
  6
Continuous
 62
     1
370
    25
100
AcDbLine
 10
32.73205080756887
 20
-0.5000000000000029
 30
0.0
 11
32.73205080756887
 21
-0.4450151339268208
 31
0.0
  0
SPLINE
  5
D9
330
1F
100
AcDbEntity
  8
0
  6
Continuous
 62
     1
370
    25
100
AcDbSpline
210
0.0
220
0.0
230
1.0
 70
    24
 71
     3
 72
    12
 73
     8
 74
     0
 42
0.000000001
 43
0.00000001
 40
0.0
 40
0.0
 40
0.0
 40
0.0
 40
0.2499999999999984
 40
0.2499999999999984
 40
0.4999999999999969
 40
0.4999999999999969
 40
1.0
 40
1.0
 40
1.0
 40
1.0
 10
32.73205080756887
 20
-0.5000000000000027
 30
0.0
 10
32.70272378227621
 20
-0.5205350041831881
 30
0.0
 10
32.65967197027497
 20
-0.5506802074800615
 30
0.0
 10
32.54496027032937
 20
-0.6310022045028228
 30
0.0
 10
32.47454100370157
 20
-0.6803103058307771
 30
0.0
 10
32.23951662439411
 20
-0.844876147884928
 30
0.0
 10
32.05516950957546
 20
-0.9739573873281654
 30
0.0
 10
31.88112755632612
 20
-1.095822874958102
 30
0.0
  0
SPLINE
  5
DA
330
1F
100
AcDbEntity
  8
0
  6
Continuous
 62
     1
370
    25
100
AcDbSpline
210
0.0
220
0.0
230
1.0
 70
     8
 71
     3
 72
     8
 73
     4
 74
     0
 42
0.000000001
 43
0.00000001
 40
0.0
 40
0.0
 40
0.0
 40
0.0
 40
1.0
 40
1.0
 40
1.0
 40
1.0
 10
32.73205080756887
 20
-1.718789664692075
 30
0.0
 10
32.43159910321511
 20
-1.547826766026007
 30
0.0
 10
32.1514419232582
 20
-1.332566820248718
 30
0.0
 10
31.88112755632607
 20
-1.09582287495811
 30
0.0
  0
LINE
  5
DB
330
1F
100
AcDbEntity
  8
0
  6
Continuous
 62
     1
370
    25
100
AcDbLine
 10
32.73205080756887
 20
-1.950331396710525
 30
0.0
 11
32.73205080756887
 21
-1.718789664692075
 31
0.0
  0
SPLINE
  5
DC
330
1F
100
AcDbEntity
  8
0
  6
Continuous
 62
     1
370
    25
100
AcDbSpline
210
0.0
220
0.0
230
1.0
 70
     8
 71
     3
 72
    21
 73
    17
 74
     0
 42
0.000000001
 43
0.00000001
 40
0.0
 40
0.0
 40
0.0
 40
0.0
 40
0.0527023021155708
 40
0.1293078451959504
 40
0.2059330746873564
 40
0.2825192241631211
 40
0.3590725005047868
 40
0.4356025133669109
 40
0.5121189759601262
 40
0.5886316620039915
 40
0.665150362107312
 40
0.7416848399883375
 40
0.8182447889498364
 40
0.8948397890199298
 40
0.9714676417519772
 40
1.0
 40
1.0
 40
1.0
 40
1.0
 10
24.5697036215382
 20
-1.677747082638876
 30
0.0
 10
24.34431410235581
 20
-1.74673555522689
 30
0.0
 10
23.79130916926358
 20
-1.916002368546614
 30
0.0
 10
22.91049274038465
 20
-2.016806284353438
 30
0.0
 10
21.92744432565013
 20
-1.987207162994399
 30
0.0
 10
20.94476999171125
 20
-1.793770818998065
 30
0.0
 10
19.9625758078366
 20
-1.458463962428936
 30
0.0
 10
18.98074246259055
 20
-1.006386847263179
 30
0.0
 10
17.9991164887102
 20
-0.4740926098774368
 30
0.0
 10
17.01754965549441
 20
0.0960384414293273
 30
0.0
 10
16.03588714443621
 20
0.6586017554263753
 30
0.0
 10
15.05399362208204
 20
1.168304122175975
 30
0.0
 10
14.07166497903704
 20
1.585997630812768
 30
0.0
 10
13.08900939281788
 20
1.872491902085664
 30
0.0
 10
12.31117271294785
 20
1.994213117549794
 30
0.0
 10
11.86185335029129
 20
1.993871446967743
 30
0.0
 10
11.73994278256221
 20
1.993778743963831
 30
0.0
  0
SPLINE
  5
DD
330
1F
100
AcDbEntity
  8
0
  6
Continuous
 62
     1
370
    25
100
AcDbSpline
210
0.0
220
0.0
230
1.0
 70
     8
 71
     3
 72
    21
 73
    17
 74
     0
 42
0.000000001
 43
0.00000001
 40
0.0
 40
0.0
 40
0.0
 40
0.0
 40
0.029981258696322
 40
0.1065352622509984
 40
0.1830637967032055
 40
0.2595765546029605
 40
0.3360832989102943
 40
0.4125938194737024
 40
0.4891178892537478
 40
0.5656652207067656
 40
0.6422454227410577
 40
0.7188647017561582
 40
0.7954642958890182
 40
0.8720264019544287
 40
0.9485605633071703
 40
1.0
 40
1.0
 40
1.0
 40
1.0
 10
13.68710501033818
 20
1.676127812794683
 30
0.0
 10
13.8153471744144
 20
1.71959930000632
 30
0.0
 10
14.27104227113735
 20
1.874070676189765
 30
0.0
 10
15.05398242954257
 20
1.993246546190603
 30
0.0
 10
16.03589014235597
 20
2.014816866728204
 30
0.0
 10
17.01754885238195
 20
1.8671717555271
 30
0.0
 10
17.99911670377337
 20
1.572721899639687
 30
0.0
 10
18.98074240545055
 20
1.152121424237705
 30
0.0
 10
19.96257582129449
 20
0.6396618320506965
 30
0.0
 10
20.94476999504389
 20
0.0760462877885198
 30
0.0
 10
21.92744429883538
 20
-0.4938355578933596
 30
0.0
 10
22.91049284435541
 20
-1.023794068179386
 30
0.0
 10
23.89338730619479
 20
-1.473406263328216
 30
0.0
 10
24.87577216050719
 20
-1.800333341087789
 30
0.0
 10
25.75062397323394
 20
-1.979950605235814
 30
0.0
 10
26.29771207231973
 20
-1.985626884215037
 30
0.0
 10
26.51761605304788
 20
-1.987908484464321
 30
0.0
  0
LINE
  5
DE
330
1F
100
AcDbEntity
  8
0
  6
Continuous
 62
     1
370
    25
100
AcDbLine
 10
32.73205080756887
 20
1.950331396710526
 30
0.0
 11
32.73205080756887
 21
2.000000000000005
 31
0.0
  0
LINE
  5
DF
330
1F
100
AcDbEntity
  8
0
  6
Continuous
 62
     1
370
    25
100
AcDbLine
 10
32.73205080756887
 20
-0.4429530934593353
 30
0.0
 11
32.73205080756887
 21
0.4429530934593369
 31
0.0
  0
LINE
  5
E0
330
1F
100
AcDbEntity
  8
0
  6
Continuous
 62
     1
370
    25
100
AcDbLine
 10
32.73205080756887
 20
-2.0
 30
0.0
 11
32.73205080756887
 21
-1.950331396710525
 31
0.0
  0
LINE
  5
E1
330
1F
100
AcDbEntity
  8
0
  6
Continuous
 62
     1
370
    25
100
AcDbLine
 10
32.73205080756887
 20
0.4436031597791958
 30
0.0
 11
32.73205080756887
 21
1.428017363720415
 31
0.0
  0
LINE
  5
E2
330
1F
100
AcDbEntity
  8
0
  6
Continuous
 62
     1
370
    25
100
AcDbLine
 10
32.73205080756887
 20
-0.4999999999999979
 30
0.0
 11
32.73205080756887
 21
-1.718789664692074
 31
0.0
  0
LINE
  5
E3
330
1F
100
AcDbEntity
  8
중심선
100
AcDbLine
 10
-40.26794919243114
 20
-0.0000000000000043
 30
0.0
 11
35.73205080756887
 21
0.000000000000005
 31
0.0
  0
CIRCLE
  5
E4
330
1F
100
AcDbEntity
  8
해칭선
100
AcDbCircle
 10
0.0003601882278426
 20
-0.0000000000000041
 30
0.0
 40
2.999999999999999
  0
INSERT
  5
E5
330
1F
100
AcDbEntity
  8
0
  6
Continuous
 62
     7
100
AcDbBlockReference
 66
     1
  2
블럭10
 10
-11.44009924894178
 20
-52.04717430164393
 30
0.0
  0
ATTRIB
  5
E6
330
E5
100
AcDbEntity
  8
FORMAT
 62
     2
100
AcDbText
 10
-27.55936028837734
 20
-49.97180738881174
 30
0.0
 40
4.233333333333333
  1
SEME7204026E [ 4 FLUTE ]
 41
0.75
  7
SLDTEXTSTYLE0
 11
-27.55936028837734
 21
-52.08847405547841
 31
0.0
100
AcDbAttribute
  2
AUTOATTR0
 70
     0
 74
     1
  0
SEQEND
  5
E7
330
E5
100
AcDbEntity
  8
0
  6
Continuous
 62
     7
  0
HATCH
  5
E8
330
1F
100
AcDbEntity
  8
중심선
100
AcDbHatch
 10
0.0
 20
0.0
 30
0.0
210
0.0
220
0.0
230
1.0
  2
SOLID
 70
     1
 71
     0
 91
        1
 92
        0
 93
        4
 72
     1
 10
-5.725189944560949
 20
-35.8
 11
-9.171465188398232
 21
-35.8
 72
     1
 10
-9.171465188398232
 20
-35.8
 11
-11.29969504760225
 21
-38.33632558057259
 72
     1
 10
-11.29969504760225
 20
-38.33632558057259
 11
-7.853386718651823
 21
-38.3362861512701
 72
     1
 10
-7.853386718651823
 20
-38.3362861512701
 11
-5.725189944560949
 21
-35.8
 97
        0
 75
     0
 76
     1
 98
        1
 10
0.0
 20
0.0
  0
HATCH
  5
E9
330
1F
100
AcDbEntity
  8
중심선
100
AcDbHatch
 10
0.0
 20
0.0
 30
0.0
210
0.0
220
0.0
230
1.0
  2
SOLID
 70
     1
 71
     0
 91
        1
 92
        0
 93
        4
 72
     1
 10
-0.71242595352497
 20
-35.8
 11
-4.158701197362197
 21
-35.79999999999997
 72
     1
 10
-4.158701197362197
 20
-35.79999999999997
 11
-8.689839205719668
 21
-41.20000000000002
 72
     1
 10
-8.689839205719668
 20
-41.20000000000002
 11
-5.243563961882386
 21
-41.20000000000002
 72
     1
 10
-5.243563961882386
 20
-41.20000000000002
 11
-0.7124259535249697
 21
-35.8
 97
        0
 75
     0
 76
     1
 98
        1
 10
0.0
 20
0.0
  0
HATCH
  5
EA
330
1F
100
AcDbEntity
  8
중심선
100
AcDbHatch
 10
0.0
 20
0.0
 30
0.0
210
0.0
220
0.0
230
1.0
  2
SOLID
 70
     1
 71
     0
 91
        1
 92
        0
 93
        4
 72
     1
 10
4.300338037510926
 20
-35.79999999999997
 11
0.8540627936738101
 21
-35.79999999999997
 72
     1
 10
0.8540627936738099
 20
-35.79999999999997
 11
-6.194374108215467
 21
-44.20000000000002
 72
     1
 10
-6.194374108215467
 20
-44.20000000000002
 11
-2.748098864378185
 21
-44.20000000000002
 72
     1
 10
-2.748098864378185
 20
-44.20000000000002
 11
4.300338037510926
 21
-35.79999999999997
 97
        0
 75
     0
 76
     1
 98
        1
 10
0.0
 20
0.0
  0
HATCH
  5
EB
330
1F
100
AcDbEntity
  8
중심선
100
AcDbHatch
 10
0.0
 20
0.0
 30
0.0
210
0.0
220
0.0
230
1.0
  2
SOLID
 70
     1
 71
     0
 91
        1
 92
        0
 93
        6
 72
     3
 10
9.100228468523097
 20
-40.00000000005127
 11
3.960054785062284
 21
1.540850780301639E-10
 40
0.3939339440162633
 50
17.09539180608434
 51
320.0019657685075
 73
     0
 72
     1
 10
10.78322812422367
 20
-38.5878940046383
 11
13.08852999792473
 21
-36.65356729459038
 72
     3
 10
9.10022846847025
 20
-40.00000000000015
 11
6.600054785286829
 21
-1.249000902703301E-13
 40
0.6363583540795982
 50
39.99873849337408
 51
368.4976242363725
 73
     1
 72
     1
 10
15.52556096037086
 20
-39.03999999993002
 11
7.780295775306173
 21
-39.03999999993002
 72
     1
 10
7.780295775306173
 20
-39.03999999993002
 11
7.78027073086024
 21
-40.95999999992991
 72
     1
 10
7.78027073086024
 20
-40.95999999992991
 11
12.22165050033228
 21
-40.95999999992988
 97
        0
 75
     0
 76
     1
 98
        1
 10
0.0
 20
0.0
  0
DIMENSION
  5
EC
330
1F
100
AcDbEntity
  8
치수문자_일반주서
100
AcDbDimension
  2
_D
 10
43.73379596647533
 20
2.000000000000044
 30
0.0
 11
43.73379596647529
 21
11.66650000000004
 31
0.0
 70
   160
  1
%%c<>
 71
     2
 42
4.000000000000006
 52
-270.0
  3
SLDDIMSTYLE0
100
AcDbAlignedDimension
 13
32.7320508075689
 23
-2.000000000000004
 33
0.0
 14
32.7320508075689
 24
2.000000000000003
 34
0.0
 50
90.0000000000002
100
AcDbRotatedDimension
  0
DIMENSION
  5
FA
330
1F
100
AcDbEntity
  8
치수문자_일반주서
100
AcDbDimension
  2
_D_1
 10
32.73205080756887
 20
20.38913260158164
 30
0.0
 11
-2.267949192431138
 21
20.38913260158164
 31
0.0
 70
   160
  1
<>
 71
     2
 42
70.0
  3
SLDDIMSTYLE1
100
AcDbAlignedDimension
 13
-37.26794919243114
 23
2.499999999999994
 33
0.0
 14
32.73205080756887
 24
2.000000000000005
 34
0.0
 50
-0.0000000000000058
100
AcDbRotatedDimension
  0
DIMENSION
  5
105
330
1F
100
AcDbEntity
  8
치수문자_일반주서
100
AcDbDimension
  2
_D_2
 10
-46.23324602579257
 20
-3.000000000000037
 30
0.0
 11
-46.23324602579262
 21
12.66649999999997
 31
0.0
 70
   160
  1
%%c<>
 71
     2
 42
6.000000000000005
 52
-270.0
  3
SLDDIMSTYLE2
100
AcDbAlignedDimension
 13
-36.76794919243114
 23
3.000000000000003
 33
0.0
 14
-36.76794919243114
 24
-3.000000000000002
 34
0.0
 50
90.0000000000002
100
AcDbRotatedDimension
  0
DIMENSION
  5
113
330
1F
100
AcDbEntity
  8
치수문자_일반주서
100
AcDbDimension
  2
_D_3
 10
32.73205080756887
 20
12.83023944462986
 30
0.0
 11
19.73205080756886
 21
12.83023944462986
 31
0.0
 70
   160
  1
<>
 71
     2
 42
26.0
  3
SLDDIMSTYLE1
100
AcDbAlignedDimension
 13
6.732050807568867
 23
1.984321142042207
 33
0.0
 14
32.73205080756887
 24
2.000000000000005
 34
0.0
100
AcDbRotatedDimension
  0
INSERT
  5
123
330
1F
100
AcDbEntity
  8
해칭선
100
AcDbBlockReference
  2
SW_DOWELSYMBOL_0
 10
0.0003601882278426
 20
-0.0000000000000041
 30
0.0
  0
ENDSEC
  0
SECTION
  2
OBJECTS
  0
DICTIONARY
  5
C
330
0
100
AcDbDictionary
281
     1
  3
ACAD_GROUP
350
D
  3
ACAD_IMAGE_VARS
350
147
  3
ACAD_LAYOUT
350
1A
  3
ACAD_MLINESTYLE
350
17
  3
ACAD_PLOTSETTINGS
350
19
  3
ACAD_PLOTSTYLENAME
350
E
  3
ACAD_SCALELIST
350
47
  3
APPDATA
350
145
  3
DWGPROPS
350
156
  0
DICTIONARY
  5
D
102
{ACAD_REACTORS
330
C
102
}
330
C
100
AcDbDictionary
281
     1
  0
RASTERVARIABLES
  5
147
102
{ACAD_REACTORS
330
C
102
}
330
C
100
AcDbRasterVariables
 90
        0
 70
     1
 71
     1
 72
     1
  0
DICTIONARY
  5
1A
102
{ACAD_REACTORS
330
C
102
}
330
C
100
AcDbDictionary
281
     1
  3
Layout1
350
1E
  3
Layout2
350
26
  3
Model
350
22
  0
DICTIONARY
  5
17
102
{ACAD_REACTORS
330
C
102
}
330
C
100
AcDbDictionary
281
     1
  3
Standard
350
18
  0
DICTIONARY
  5
19
102
{ACAD_REACTORS
330
C
102
}
330
C
100
AcDbDictionary
281
     1
  0
ACDBDICTIONARYWDFLT
  5
E
102
{ACAD_REACTORS
330
C
102
}
330
C
100
AcDbDictionary
281
     1
  3
Normal
350
F
100
AcDbDictionaryWithDefault
340
F
  0
DICTIONARY
  5
47
102
{ACAD_REACTORS
330
C
102
}
330
C
100
AcDbDictionary
281
     1
  3
A0
350
48
  3
A1
350
49
  3
A2
350
4A
  3
A3
350
4B
  3
A4
350
4C
  3
A5
350
4D
  3
A6
350
4E
  3
A7
350
4F
  3
A8
350
50
  3
A9
350
51
  3
B0
350
52
  3
B1
350
53
  3
B2
350
54
  3
B3
350
55
  3
B4
350
56
  3
B5
350
57
  3
B6
350
58
  3
B7
350
59
  3
B8
350
5A
  3
B9
350
5B
  3
C0
350
5C
  3
C1
350
5D
  3
C2
350
5E
  3
C3
350
5F
  3
C4
350
60
  3
C5
350
61
  3
C6
350
62
  3
C7
350
63
  3
C8
350
64
  3
C9
350
65
  3
D0
350
66
  3
D1
350
67
  3
D2
350
68
  0
DICTIONARY
  5
145
102
{ACAD_REACTORS
330
C
102
}
330
C
100
AcDbDictionary
281
     1
  0
XRECORD
  5
156
102
{ACAD_REACTORS
330
C
102
}
330
C
100
AcDbXrecord
280
     1
  1
DWGPROPS COOKIE
  2

  3

  4

  6

  7

  8
12014102
  9

300
=
301
=
302
=
303
=
304
=
305
=
306
=
307
=
308
=
309
=
 40
0.0
 41
2458260.196920093
 42
2458268.12179772
  1

 90
        0
  0
LAYOUT
  5
1E
102
{ACAD_REACTORS
330
1A
102
}
330
1A
100
AcDbPlotSettings
  1

  2
none_device
  4

  6

 40
0.0
 41
0.0
 42
0.0
 43
0.0
 44
0.0
 45
0.0
 46
0.0
 47
0.0
 48
0.0
 49
0.0
140
0.0
141
0.0
142
1.0
143
1.0
 70
   688
 72
     1
 73
     0
 74
     5
  7

 75
    16
147
1.0
148
0.0
149
0.0
100
AcDbLayout
  1
Layout1
 70
     1
 71
     1
 10
0.0
 20
0.0
 11
420.0
 21
297.0
 12
0.0
 22
0.0
 32
0.0
 14
1.000000000000000E+20
 24
1.000000000000000E+20
 34
1.000000000000000E+20
 15
-1.000000000000000E+20
 25
-1.000000000000000E+20
 35
-1.000000000000000E+20
146
0.0
 13
0.0
 23
0.0
 33
0.0
 16
1.0
 26
0.0
 36
0.0
 17
0.0
 27
1.0
 37
0.0
 76
     0
330
1B
  0
LAYOUT
  5
26
102
{ACAD_REACTORS
330
1A
102
}
330
1A
100
AcDbPlotSettings
  1

  2
none_device
  4

  6

 40
0.0
 41
0.0
 42
0.0
 43
0.0
 44
0.0
 45
0.0
 46
0.0
 47
0.0
 48
0.0
 49
0.0
140
0.0
141
0.0
142
1.0
143
1.0
 70
   688
 72
     1
 73
     0
 74
     5
  7

 75
    16
147
1.0
148
0.0
149
0.0
100
AcDbLayout
  1
Layout2
 70
     1
 71
     2
 10
0.0
 20
0.0
 11
0.0
 21
0.0
 12
0.0
 22
0.0
 32
0.0
 14
0.0
 24
0.0
 34
0.0
 15
0.0
 25
0.0
 35
0.0
146
0.0
 13
0.0
 23
0.0
 33
0.0
 16
1.0
 26
0.0
 36
0.0
 17
0.0
 27
1.0
 37
0.0
 76
     0
330
23
  0
LAYOUT
  5
22
102
{ACAD_REACTORS
330
1A
102
}
330
1A
100
AcDbPlotSettings
  1

  2
none_device
  4
ANSI_A_(11.00_x_8.50_Inches)
  6

 40
6.35
 41
19.05
 42
6.35000508
 43
19.05000254
 44
279.4
 45
215.9
 46
128.4076200411199
 47
122.9471696842158
 48
0.0
 49
0.0
140
0.0
141
0.0
142
0.103850072157585
143
1.0
 70
  1696
 72
     0
 73
     0
 74
     0
  7

 75
     0
147
0.0235690232323232
148
0.0
149
0.0
100
AcDbLayout
  1
Model
 70
     1
 71
     0
 10
0.0
 20
0.0
 11
420.0
 21
297.0
 12
0.0
 22
0.0
 32
0.0
 14
-50.60824602579263
 24
-49.97180738881174
 34
0.0
 15
44.40730637828931
 25
24.76413260158164
 35
0.0
146
0.0
 13
0.0
 23
0.0
 33
0.0
 16
1.0
 26
0.0
 36
0.0
 17
0.0
 27
1.0
 37
0.0
 76
     0
330
1F
331
29
  0
MLINESTYLE
  5
18
102
{ACAD_REACTORS
330
17
102
}
330
17
100
AcDbMlineStyle
  2
Standard
 70
     0
  3

 62
   256
 51
90.0
 52
90.0
 71
     2
 49
0.5
 62
   256
  6
BYLAYER
 49
-0.5
 62
   256
  6
BYLAYER
  0
ACDBPLACEHOLDER
  5
F
102
{ACAD_REACTORS
330
E
102
}
330
E
  0
SCALE
  5
48
102
{ACAD_REACTORS
330
47
102
}
330
47
100
AcDbScale
 70
     0
300
1:1
140
1.0
141
1.0
290
     1
  0
SCALE
  5
49
102
{ACAD_REACTORS
330
47
102
}
330
47
100
AcDbScale
 70
     0
300
1:2
140
1.0
141
2.0
290
     0
  0
SCALE
  5
4A
102
{ACAD_REACTORS
330
47
102
}
330
47
100
AcDbScale
 70
     0
300
1:4
140
1.0
141
4.0
290
     0
  0
SCALE
  5
4B
102
{ACAD_REACTORS
330
47
102
}
330
47
100
AcDbScale
 70
     0
300
1:5
140
1.0
141
5.0
290
     0
  0
SCALE
  5
4C
102
{ACAD_REACTORS
330
47
102
}
330
47
100
AcDbScale
 70
     0
300
1:8
140
1.0
141
8.0
290
     0
  0
SCALE
  5
4D
102
{ACAD_REACTORS
330
47
102
}
330
47
100
AcDbScale
 70
     0
300
1:10
140
1.0
141
10.0
290
     0
  0
SCALE
  5
4E
102
{ACAD_REACTORS
330
47
102
}
330
47
100
AcDbScale
 70
     0
300
1:16
140
1.0
141
16.0
290
     0
  0
SCALE
  5
4F
102
{ACAD_REACTORS
330
47
102
}
330
47
100
AcDbScale
 70
     0
300
1:20
140
1.0
141
20.0
290
     0
  0
SCALE
  5
50
102
{ACAD_REACTORS
330
47
102
}
330
47
100
AcDbScale
 70
     0
300
1:30
140
1.0
141
30.0
290
     0
  0
SCALE
  5
51
102
{ACAD_REACTORS
330
47
102
}
330
47
100
AcDbScale
 70
     0
300
1:40
140
1.0
141
40.0
290
     0
  0
SCALE
  5
52
102
{ACAD_REACTORS
330
47
102
}
330
47
100
AcDbScale
 70
     0
300
1:50
140
1.0
141
50.0
290
     0
  0
SCALE
  5
53
102
{ACAD_REACTORS
330
47
102
}
330
47
100
AcDbScale
 70
     0
300
1:100
140
1.0
141
100.0
290
     0
  0
SCALE
  5
54
102
{ACAD_REACTORS
330
47
102
}
330
47
100
AcDbScale
 70
     0
300
2:1
140
2.0
141
1.0
290
     0
  0
SCALE
  5
55
102
{ACAD_REACTORS
330
47
102
}
330
47
100
AcDbScale
 70
     0
300
4:1
140
4.0
141
1.0
290
     0
  0
SCALE
  5
56
102
{ACAD_REACTORS
330
47
102
}
330
47
100
AcDbScale
 70
     0
300
8:1
140
8.0
141
1.0
290
     0
  0
SCALE
  5
57
102
{ACAD_REACTORS
330
47
102
}
330
47
100
AcDbScale
 70
     0
300
10:1
140
10.0
141
1.0
290
     0
  0
SCALE
  5
58
102
{ACAD_REACTORS
330
47
102
}
330
47
100
AcDbScale
 70
     0
300
100:1
140
100.0
141
1.0
290
     0
  0
SCALE
  5
59
102
{ACAD_REACTORS
330
47
102
}
330
47
100
AcDbScale
 70
     0
300
1/128" = 1'-0"
140
0.0078125
141
12.0
290
     0
  0
SCALE
  5
5A
102
{ACAD_REACTORS
330
47
102
}
330
47
100
AcDbScale
 70
     0
300
1/64" = 1'-0"
140
0.015625
141
12.0
290
     0
  0
SCALE
  5
5B
102
{ACAD_REACTORS
330
47
102
}
330
47
100
AcDbScale
 70
     0
300
1/32" = 1'-0"
140
0.03125
141
12.0
290
     0
  0
SCALE
  5
5C
102
{ACAD_REACTORS
330
47
102
}
330
47
100
AcDbScale
 70
     0
300
1/16" = 1'-0"
140
0.0625
141
12.0
290
     0
  0
SCALE
  5
5D
102
{ACAD_REACTORS
330
47
102
}
330
47
100
AcDbScale
 70
     0
300
3/32" = 1'-0"
140
0.09375
141
12.0
290
     0
  0
SCALE
  5
5E
102
{ACAD_REACTORS
330
47
102
}
330
47
100
AcDbScale
 70
     0
300
1/8" = 1'-0"
140
0.125
141
12.0
290
     0
  0
SCALE
  5
5F
102
{ACAD_REACTORS
330
47
102
}
330
47
100
AcDbScale
 70
     0
300
3/16" = 1'-0"
140
0.1875
141
12.0
290
     0
  0
SCALE
  5
60
102
{ACAD_REACTORS
330
47
102
}
330
47
100
AcDbScale
 70
     0
300
1/4" = 1'-0"
140
0.25
141
12.0
290
     0
  0
SCALE
  5
61
102
{ACAD_REACTORS
330
47
102
}
330
47
100
AcDbScale
 70
     0
300
3/8" = 1'-0"
140
0.375
141
12.0
290
     0
  0
SCALE
  5
62
102
{ACAD_REACTORS
330
47
102
}
330
47
100
AcDbScale
 70
     0
300
1/2" = 1'-0"
140
0.5
141
12.0
290
     0
  0
SCALE
  5
63
102
{ACAD_REACTORS
330
47
102
}
330
47
100
AcDbScale
 70
     0
300
3/4" = 1'-0"
140
0.75
141
12.0
290
     0
  0
SCALE
  5
64
102
{ACAD_REACTORS
330
47
102
}
330
47
100
AcDbScale
 70
     0
300
1" = 1'-0"
140
1.0
141
12.0
290
     0
  0
SCALE
  5
65
102
{ACAD_REACTORS
330
47
102
}
330
47
100
AcDbScale
 70
     0
300
1-1/2" = 1'-0"
140
1.5
141
12.0
290
     0
  0
SCALE
  5
66
102
{ACAD_REACTORS
330
47
102
}
330
47
100
AcDbScale
 70
     0
300
3" = 1'-0"
140
3.0
141
12.0
290
     0
  0
SCALE
  5
67
102
{ACAD_REACTORS
330
47
102
}
330
47
100
AcDbScale
 70
     0
300
6" = 1'-0"
140
6.0
141
12.0
290
     0
  0
SCALE
  5
68
102
{ACAD_REACTORS
330
47
102
}
330
47
100
AcDbScale
 70
     0
300
1'-0" = 1'-0"
140
12.0
141
12.0
290
     0
  0
ENDSEC
  0
EOF
