  0
SECTION
  2
HEADER
  9
$ACADVER
  1
AC1015
  9
$ACADMAINTVER
 70
     6
  9
$DWGCODEPAGE
  3
ANSI_949
  9
$INSBASE
 10
0.0
 20
0.0
 30
0.0
  9
$EXTMIN
 10
-50.30620399188975
 20
-49.97180738881174
 30
0.0
  9
$EXTMAX
 10
52.58914882143357
 20
24.76413260158165
 30
0.0
  9
$LIMMIN
 10
0.0
 20
0.0
  9
$LIMMAX
 10
420.0
 20
297.0
  9
$ORTHOMODE
 70
     0
  9
$REGENMODE
 70
     1
  9
$FILLMODE
 70
     1
  9
$QTEXTMODE
 70
     0
  9
$MIRRTEXT
 70
     1
  9
$LTSCALE
 40
1.0
  9
$ATTMODE
 70
     1
  9
$TEXTSIZE
 40
3.5
  9
$TRACEWID
 40
1.0
  9
$TEXTSTYLE
  7
Standard
  9
$CLAYER
  8
0
  9
$CELTYPE
  6
ByLayer
  9
$CECOLOR
 62
   256
  9
$CELTSCALE
 40
1.0
  9
$DISPSILH
 70
     0
  9
$DIMSCALE
 40
1.0
  9
$DIMASZ
 40
3.302
  9
$DIMEXO
 40
1.0
  9
$DIMDLI
 40
3.75
  9
$DIMRND
 40
0.0
  9
$DIMDLE
 40
0.0
  9
$DIMEXE
 40
1.0
  9
$DIMTP
 40
0.0
  9
$DIMTM
 40
0.0
  9
$DIMTXT
 40
3.5
  9
$DIMCEN
 40
2.5
  9
$DIMTSZ
 40
0.0
  9
$DIMTOL
 70
     0
  9
$DIMLIM
 70
     0
  9
$DIMTIH
 70
     1
  9
$DIMTOH
 70
     1
  9
$DIMSE1
 70
     0
  9
$DIMSE2
 70
     0
  9
$DIMTAD
 70
     1
  9
$DIMZIN
 70
     0
  9
$DIMBLK
  1

  9
$DIMASO
 70
     1
  9
$DIMSHO
 70
     1
  9
$DIMPOST
  1

  9
$DIMAPOST
  1

  9
$DIMALT
 70
     0
  9
$DIMALTD
 70
     3
  9
$DIMALTF
 40
0.0393700787401575
  9
$DIMLFAC
 40
1.0
  9
$DIMTOFL
 70
     1
  9
$DIMTVP
 40
0.0
  9
$DIMTIX
 70
     0
  9
$DIMSOXD
 70
     0
  9
$DIMSAH
 70
     0
  9
$DIMBLK1
  1

  9
$DIMBLK2
  1

  9
$DIMSTYLE
  2
ISO-25
  9
$DIMCLRD
 70
     0
  9
$DIMCLRE
 70
     0
  9
$DIMCLRT
 70
     0
  9
$DIMTFAC
 40
1.0
  9
$DIMGAP
 40
1.524
  9
$DIMJUST
 70
     0
  9
$DIMSD1
 70
     0
  9
$DIMSD2
 70
     0
  9
$DIMTOLJ
 70
     0
  9
$DIMTZIN
 70
     0
  9
$DIMALTZ
 70
     0
  9
$DIMALTTZ
 70
     0
  9
$DIMUPT
 70
     0
  9
$DIMDEC
 70
     2
  9
$DIMTDEC
 70
     2
  9
$DIMALTU
 70
     2
  9
$DIMALTTD
 70
     3
  9
$DIMTXSTY
  7
Standard
  9
$DIMAUNIT
 70
     0
  9
$DIMADEC
 70
     2
  9
$DIMALTRND
 40
0.0
  9
$DIMAZIN
 70
     0
  9
$DIMDSEP
 70
    44
  9
$DIMATFIT
 70
     3
  9
$DIMFRAC
 70
     0
  9
$DIMLDRBLK
  1

  9
$DIMLUNIT
 70
     2
  9
$DIMLWD
 70
    -2
  9
$DIMLWE
 70
    -2
  9
$DIMTMOVE
 70
     0
  9
$LUNITS
 70
     2
  9
$LUPREC
 70
     2
  9
$SKETCHINC
 40
1.0
  9
$FILLETRAD
 40
10.0
  9
$AUNITS
 70
     0
  9
$AUPREC
 70
     2
  9
$MENU
  1
.
  9
$ELEVATION
 40
0.0
  9
$PELEVATION
 40
0.0
  9
$THICKNESS
 40
0.0
  9
$LIMCHECK
 70
     0
  9
$CHAMFERA
 40
0.0
  9
$CHAMFERB
 40
0.0
  9
$CHAMFERC
 40
0.0
  9
$CHAMFERD
 40
0.0
  9
$SKPOLY
 70
     0
  9
$TDCREATE
 40
2458260.570975972
  9
$TDUCREATE
 40
2458260.195975972
  9
$TDUPDATE
 40
2458268.494340532
  9
$TDUUPDATE
 40
2458268.119340532
  9
$TDINDWG
 40
0.0015404745
  9
$TDUSRTIMER
 40
2458268.117800093
  9
$USRTIMER
 70
     1
  9
$ANGBASE
 50
0.0
  9
$ANGDIR
 70
     0
  9
$PDMODE
 70
     0
  9
$PDSIZE
 40
-1.0
  9
$PLINEWID
 40
0.0
  9
$SPLFRAME
 70
     0
  9
$SPLINETYPE
 70
     6
  9
$SPLINESEGS
 70
     8
  9
$HANDSEED
  5
166
  9
$SURFTAB1
 70
     6
  9
$SURFTAB2
 70
     6
  9
$SURFTYPE
 70
     6
  9
$SURFU
 70
     6
  9
$SURFV
 70
     6
  9
$UCSBASE
  2

  9
$UCSNAME
  2

  9
$UCSORG
 10
0.0
 20
0.0
 30
0.0
  9
$UCSXDIR
 10
1.0
 20
0.0
 30
0.0
  9
$UCSYDIR
 10
0.0
 20
1.0
 30
0.0
  9
$UCSORTHOREF
  2

  9
$UCSORTHOVIEW
 70
     0
  9
$UCSORGTOP
 10
0.0
 20
0.0
 30
0.0
  9
$UCSORGBOTTOM
 10
0.0
 20
0.0
 30
0.0
  9
$UCSORGLEFT
 10
0.0
 20
0.0
 30
0.0
  9
$UCSORGRIGHT
 10
0.0
 20
0.0
 30
0.0
  9
$UCSORGFRONT
 10
0.0
 20
0.0
 30
0.0
  9
$UCSORGBACK
 10
0.0
 20
0.0
 30
0.0
  9
$PUCSBASE
  2

  9
$PUCSNAME
  2

  9
$PUCSORG
 10
0.0
 20
0.0
 30
0.0
  9
$PUCSXDIR
 10
1.0
 20
0.0
 30
0.0
  9
$PUCSYDIR
 10
0.0
 20
1.0
 30
0.0
  9
$PUCSORTHOREF
  2

  9
$PUCSORTHOVIEW
 70
     0
  9
$PUCSORGTOP
 10
0.0
 20
0.0
 30
0.0
  9
$PUCSORGBOTTOM
 10
0.0
 20
0.0
 30
0.0
  9
$PUCSORGLEFT
 10
0.0
 20
0.0
 30
0.0
  9
$PUCSORGRIGHT
 10
0.0
 20
0.0
 30
0.0
  9
$PUCSORGFRONT
 10
0.0
 20
0.0
 30
0.0
  9
$PUCSORGBACK
 10
0.0
 20
0.0
 30
0.0
  9
$USERI1
 70
     0
  9
$USERI2
 70
     0
  9
$USERI3
 70
     0
  9
$USERI4
 70
     0
  9
$USERI5
 70
     0
  9
$USERR1
 40
0.0
  9
$USERR2
 40
0.0
  9
$USERR3
 40
0.0
  9
$USERR4
 40
0.0
  9
$USERR5
 40
0.0
  9
$WORLDVIEW
 70
     1
  9
$SHADEDGE
 70
     3
  9
$SHADEDIF
 70
    70
  9
$TILEMODE
 70
     1
  9
$MAXACTVP
 70
    64
  9
$PINSBASE
 10
0.0
 20
0.0
 30
0.0
  9
$PLIMCHECK
 70
     0
  9
$PEXTMIN
 10
1.000000000000000E+20
 20
1.000000000000000E+20
 30
1.000000000000000E+20
  9
$PEXTMAX
 10
-1.000000000000000E+20
 20
-1.000000000000000E+20
 30
-1.000000000000000E+20
  9
$PLIMMIN
 10
0.0
 20
0.0
  9
$PLIMMAX
 10
0.0
 20
0.0
  9
$UNITMODE
 70
     0
  9
$VISRETAIN
 70
     1
  9
$PLINEGEN
 70
     0
  9
$PSLTSCALE
 70
     1
  9
$TREEDEPTH
 70
  3020
  9
$CMLSTYLE
  2
Standard
  9
$CMLJUST
 70
     0
  9
$CMLSCALE
 40
20.0
  9
$PROXYGRAPHICS
 70
     1
  9
$MEASUREMENT
 70
     1
  9
$CELWEIGHT
370
    -1
  9
$ENDCAPS
280
     0
  9
$JOINSTYLE
280
     0
  9
$LWDISPLAY
290
     1
  9
$INSUNITS
 70
     4
  9
$HYPERLINKBASE
  1

  9
$STYLESHEET
  1

  9
$XEDIT
290
     1
  9
$CEPSNTYPE
380
     0
  9
$PSTYLEMODE
290
     1
  9
$FINGERPRINTGUID
  2
{513609E4-1D3B-45D3-992C-7CCC0C3A60EB}
  9
$VERSIONGUID
  2
{FAEB1C32-E019-11D5-929B-00C0DF256EC4}
  9
$EXTNAMES
290
     1
  9
$PSVPSCALE
 40
0.0
  9
$OLESTARTUP
290
     0
  0
ENDSEC
  0
SECTION
  2
CLASSES
  0
CLASS
  1
ACDBDICTIONARYWDFLT
  2
AcDbDictionaryWithDefault
  3
ObjectDBX Classes
 90
        0
280
     0
281
     0
  0
CLASS
  1
VISUALSTYLE
  2
AcDbVisualStyle
  3
ObjectDBX Classes
 90
     4095
280
     0
281
     0
  0
CLASS
  1
MATERIAL
  2
AcDbMaterial
  3
ObjectDBX Classes
 90
     1153
280
     0
281
     0
  0
CLASS
  1
SCALE
  2
AcDbScale
  3
ObjectDBX Classes
 90
     1153
280
     0
281
     0
  0
CLASS
  1
TABLESTYLE
  2
AcDbTableStyle
  3
ObjectDBX Classes
 90
     4095
280
     0
281
     0
  0
CLASS
  1
MLEADERSTYLE
  2
AcDbMLeaderStyle
  3
ACDB_MLEADERSTYLE_CLASS
 90
     4095
280
     0
281
     0
  0
CLASS
  1
SUN
  2
AcDbSun
  3
SCENEOE
 90
     1153
280
     0
281
     0
  0
CLASS
  1
ACDBPLACEHOLDER
  2
AcDbPlaceHolder
  3
ObjectDBX Classes
 90
        0
280
     0
281
     0
  0
CLASS
  1
LAYOUT
  2
AcDbLayout
  3
ObjectDBX Classes
 90
        0
280
     0
281
     0
  0
CLASS
  1
RASTERVARIABLES
  2
AcDbRasterVariables
  3
ISM
 90
        0
280
     0
281
     0
  0
ENDSEC
  0
SECTION
  2
TABLES
  0
TABLE
  2
VPORT
  5
8
330
0
100
AcDbSymbolTable
 70
     1
  0
VPORT
  5
29
330
8
100
AcDbSymbolTableRecord
100
AcDbViewportTableRecord
  2
*Active
 70
     0
 10
0.0
 20
0.0
 11
1.0
 21
1.0
 12
1.141472414771911
 22
-12.60383739361504
 13
0.0
 23
0.0
 14
10.0
 24
10.0
 15
10.0
 25
10.0
 16
0.0
 26
0.0
 36
1.0
 17
0.0
 27
0.0
 37
0.0
 40
76.23065879020126
 41
1.737726098191214
 42
50.0
 43
0.0
 44
0.0
 50
0.0
 51
0.0
 71
    16
 72
  2000
 73
     1
 74
     3
 75
     0
 76
     0
 77
     0
 78
     0
281
     0
 65
     1
110
0.0
120
0.0
130
0.0
111
1.0
121
0.0
131
0.0
112
0.0
122
1.0
132
0.0
 79
     0
146
0.0
  0
ENDTAB
  0
TABLE
  2
LTYPE
  5
5
330
0
100
AcDbSymbolTable
 70
     6
  0
LTYPE
  5
14
330
5
100
AcDbSymbolTableRecord
100
AcDbLinetypeTableRecord
  2
ByBlock
 70
     0
  3

 72
    65
 73
     0
 40
0.0
  0
LTYPE
  5
15
330
5
100
AcDbSymbolTableRecord
100
AcDbLinetypeTableRecord
  2
ByLayer
 70
     0
  3

 72
    65
 73
     0
 40
0.0
  0
LTYPE
  5
16
330
5
100
AcDbSymbolTableRecord
100
AcDbLinetypeTableRecord
  2
Continuous
 70
     0
  3
Solid line
 72
    65
 73
     0
 40
0.0
  0
LTYPE
  5
6E
330
5
100
AcDbSymbolTableRecord
100
AcDbLinetypeTableRecord
  2
HIDDEN
 70
     0
  3
Hidden __ __ __ __ __ __ __ __ __ __ __ __ __ __
 72
    65
 73
     2
 40
1.905
 49
1.27
 74
     0
 49
-0.635
 74
     0
  0
LTYPE
  5
6F
330
5
100
AcDbSymbolTableRecord
100
AcDbLinetypeTableRecord
  2
PHANTOM
 70
     0
  3
Phantom ______  __  __  ______  __  __  ______
 72
    65
 73
     6
 40
12.7
 49
6.35
 74
     0
 49
-1.27
 74
     0
 49
1.27
 74
     0
 49
-1.27
 74
     0
 49
1.27
 74
     0
 49
-1.27
 74
     0
  0
LTYPE
  5
70
330
5
100
AcDbSymbolTableRecord
100
AcDbLinetypeTableRecord
  2
CENTER
 70
     0
  3
Center ____ _ ____ _ ____ _ ____ _ ____ _ ____
 72
    65
 73
     4
 40
10.16
 49
6.35
 74
     0
 49
-1.27
 74
     0
 49
1.27
 74
     0
 49
-1.27
 74
     0
  0
LTYPE
  5
71
330
5
100
AcDbSymbolTableRecord
100
AcDbLinetypeTableRecord
  2
CENTERX2
 70
     0
  3
Center (2x) ________  __  ________  __  _____
 72
    65
 73
     4
 40
20.32
 49
12.7
 74
     0
 49
-2.54
 74
     0
 49
2.54
 74
     0
 49
-2.54
 74
     0
  0
LTYPE
  5
72
330
5
100
AcDbSymbolTableRecord
100
AcDbLinetypeTableRecord
  2
DOT2
 70
     0
  3
Dot (.5x) ........................................
 72
    65
 73
     2
 40
0.635
 49
0.0
 74
     0
 49
-0.635
 74
     0
  0
ENDTAB
  0
TABLE
  2
LAYER
  5
2
330
0
100
AcDbSymbolTable
 70
    17
  0
LAYER
  5
10
330
2
100
AcDbSymbolTableRecord
100
AcDbLayerTableRecord
  2
0
 70
     0
 62
     7
  6
Continuous
370
    -3
390
F
  0
LAYER
  5
73
330
2
100
AcDbSymbolTableRecord
100
AcDbLayerTableRecord
  2
FORMAT
 70
     0
 62
     2
  6
Continuous
370
    -3
390
F
  0
LAYER
  5
74
330
2
100
AcDbSymbolTableRecord
100
AcDbLayerTableRecord
  2
외형선
 70
     0
 62
   100
  6
Continuous
370
    35
390
F
  0
LAYER
  5
75
330
2
100
AcDbSymbolTableRecord
100
AcDbLayerTableRecord
  2
숨은선
 70
     0
 62
     2
  6
HIDDEN
370
    25
390
F
  0
LAYER
  5
76
330
2
100
AcDbSymbolTableRecord
100
AcDbLayerTableRecord
  2
중심선
 70
     0
 62
     1
  6
CENTERX2
370
    -3
390
F
  0
LAYER
  5
77
330
2
100
AcDbSymbolTableRecord
100
AcDbLayerTableRecord
  2
파단선
 70
     0
 62
     4
  6
Continuous
370
    -3
390
F
  0
LAYER
  5
78
330
2
100
AcDbSymbolTableRecord
100
AcDbLayerTableRecord
  2
해칭선
 70
     0
 62
   100
  6
Continuous
370
    -3
390
F
  0
LAYER
  5
79
330
2
100
AcDbSymbolTableRecord
100
AcDbLayerTableRecord
  2
가는실선
 70
     0
 62
     4
  6
Continuous
370
    -3
390
F
  0
LAYER
  5
7A
330
2
100
AcDbSymbolTableRecord
100
AcDbLayerTableRecord
  2
치수_보조선
 70
     0
 62
     4
  6
Continuous
370
    -3
390
F
  0
LAYER
  5
7B
330
2
100
AcDbSymbolTableRecord
100
AcDbLayerTableRecord
  2
치수문자_일반주서
 70
     0
 62
     7
  6
Continuous
370
    25
390
F
  0
LAYER
  5
7C
330
2
100
AcDbSymbolTableRecord
100
AcDbLayerTableRecord
  2
개별주서
 70
     0
 62
   100
  6
Continuous
370
    35
390
F
  0
LAYER
  5
7D
330
2
100
AcDbSymbolTableRecord
100
AcDbLayerTableRecord
  2
중간선
 70
     0
 62
     2
  6
Continuous
370
    25
390
F
  0
LAYER
  5
7E
330
2
100
AcDbSymbolTableRecord
100
AcDbLayerTableRecord
  2
윤곽선
 70
     0
 62
     3
  6
Continuous
370
    50
390
F
  0
LAYER
  5
7F
330
2
100
AcDbSymbolTableRecord
100
AcDbLayerTableRecord
  2
중심마크
 70
     0
 62
   100
  6
Continuous
370
    35
390
F
  0
LAYER
  5
80
330
2
100
AcDbSymbolTableRecord
100
AcDbLayerTableRecord
  2
가상선
 70
     0
 62
     4
  6
PHANTOM
370
    -3
390
F
  0
LAYER
  5
81
330
2
100
AcDbSymbolTableRecord
100
AcDbLayerTableRecord
  2
특수지정선
 70
     0
 62
     5
  6
CENTERX2
370
    70
390
F
  0
LAYER
  5
157
330
2
100
AcDbSymbolTableRecord
100
AcDbLayerTableRecord
  2
Defpoints
 70
     0
 62
     7
  6
Continuous
290
     0
370
    -3
390
F
  0
ENDTAB
  0
TABLE
  2
STYLE
  5
3
330
0
100
AcDbSymbolTable
 70
     2
  0
STYLE
  5
11
330
3
100
AcDbSymbolTableRecord
100
AcDbTextStyleTableRecord
  2
Standard
 70
     0
 40
0.0
 41
1.0
 50
0.0
 71
     0
 42
3.5
  3
txt
  4

  0
STYLE
  5
97
330
3
100
AcDbSymbolTableRecord
100
AcDbTextStyleTableRecord
  2
SLDTEXTSTYLE0
 70
     0
 40
0.0
 41
0.75
 50
0.0
 71
     0
 42
3.5
  3
TXT
  4

  0
ENDTAB
  0
TABLE
  2
VIEW
  5
6
330
0
100
AcDbSymbolTable
 70
     0
  0
ENDTAB
  0
TABLE
  2
UCS
  5
7
330
0
100
AcDbSymbolTable
 70
     0
  0
ENDTAB
  0
TABLE
  2
APPID
  5
9
330
0
100
AcDbSymbolTable
 70
     1
  0
APPID
  5
12
330
9
100
AcDbSymbolTableRecord
100
AcDbRegAppTableRecord
  2
ACAD
 70
     0
  0
ENDTAB
  0
TABLE
  2
DIMSTYLE
  5
A
330
0
100
AcDbSymbolTable
 70
     4
100
AcDbDimStyleTable
  0
DIMSTYLE
105
27
330
A
100
AcDbSymbolTableRecord
100
AcDbDimStyleTableRecord
  2
ISO-25
 70
     0
 41
2.5
 42
0.625
 43
3.75
 44
1.25
 73
     0
 74
     0
 77
     1
 78
     8
140
2.5
141
2.5
143
0.03937007874016
147
0.625
171
     3
172
     1
178
     0
271
     2
272
     2
274
     3
278
    44
283
     0
284
     8
340
11
  0
DIMSTYLE
105
FC
102
{ACAD_REACTORS
330
FB
102
}
330
A
100
AcDbSymbolTableRecord
100
AcDbDimStyleTableRecord
  2
SLDDIMSTYLE0
 70
     0
 41
3.302
 44
0.0
 45
0.000000001
 73
     0
 74
     0
 77
     1
 78
    12
 79
     3
140
3.5
147
0.875
172
     1
173
     1
178
     0
271
     1
272
     1
276
     2
284
    12
289
     0
340
97
  0
DIMSTYLE
105
10A
102
{ACAD_REACTORS
330
109
330
122
102
}
330
A
100
AcDbSymbolTableRecord
100
AcDbDimStyleTableRecord
  2
SLDDIMSTYLE1
 70
     0
 41
3.302
 44
0.0
 45
0.000000001
 73
     0
 74
     0
 77
     1
 78
    12
 79
     3
140
3.5
147
0.875
173
     1
178
     0
271
     2
272
     2
276
     2
284
    12
340
97
  0
DIMSTYLE
105
115
102
{ACAD_REACTORS
330
114
102
}
330
A
100
AcDbSymbolTableRecord
100
AcDbDimStyleTableRecord
  2
SLDDIMSTYLE2
 70
     0
 41
3.302
 44
0.0
 45
0.000000001
 73
     0
 74
     0
 77
     1
 78
    12
 79
     3
140
3.5
147
0.875
172
     1
173
     1
178
     0
271
     2
272
     2
276
     2
284
    12
289
     0
340
97
  0
ENDTAB
  0
TABLE
  2
BLOCK_RECORD
  5
1
330
0
100
AcDbSymbolTable
 70
     7
  0
BLOCK_RECORD
  5
1F
330
1
100
AcDbSymbolTableRecord
100
AcDbBlockTableRecord
  2
*Model_Space
340
22
  0
BLOCK_RECORD
  5
1B
330
1
100
AcDbSymbolTableRecord
100
AcDbBlockTableRecord
  2
*Paper_Space
340
1E
  0
BLOCK_RECORD
  5
23
330
1
100
AcDbSymbolTableRecord
100
AcDbBlockTableRecord
  2
*Paper_Space0
340
26
  0
BLOCK_RECORD
  5
82
330
1
100
AcDbSymbolTableRecord
100
AcDbBlockTableRecord
  2
블럭10
340
0
102
{BLKREFS
331
F4
102
}
  0
BLOCK_RECORD
  5
FD
330
1
100
AcDbSymbolTableRecord
100
AcDbBlockTableRecord
  2
_D
340
0
  0
BLOCK_RECORD
  5
10B
330
1
100
AcDbSymbolTableRecord
100
AcDbBlockTableRecord
  2
_D_1
340
0
  0
BLOCK_RECORD
  5
116
330
1
100
AcDbSymbolTableRecord
100
AcDbBlockTableRecord
  2
_D_2
340
0
  0
BLOCK_RECORD
  5
123
330
1
100
AcDbSymbolTableRecord
100
AcDbBlockTableRecord
  2
_D_3
340
0
  0
BLOCK_RECORD
  5
12C
330
1
100
AcDbSymbolTableRecord
100
AcDbBlockTableRecord
  2
SW_DOWELSYMBOL_0
340
0
102
{BLKREFS
331
132
102
}
  0
ENDTAB
  0
ENDSEC
  0
SECTION
  2
BLOCKS
  0
BLOCK
  5
20
330
1F
100
AcDbEntity
  8
0
100
AcDbBlockBegin
  2
*Model_Space
 70
     0
 10
0.0
 20
0.0
 30
0.0
  3
*Model_Space
  1

  0
ENDBLK
  5
21
330
1F
100
AcDbEntity
  8
0
100
AcDbBlockEnd
  0
BLOCK
  5
1C
330
1B
100
AcDbEntity
 67
     1
  8
0
100
AcDbBlockBegin
  2
*Paper_Space
 70
     0
 10
0.0
 20
0.0
 30
0.0
  3
*Paper_Space
  1

  0
ENDBLK
  5
1D
330
1B
100
AcDbEntity
 67
     1
  8
0
100
AcDbBlockEnd
  0
BLOCK
  5
24
330
23
100
AcDbEntity
  8
0
100
AcDbBlockBegin
  2
*Paper_Space0
 70
     0
 10
0.0
 20
0.0
 30
0.0
  3
*Paper_Space0
  1

  0
ENDBLK
  5
25
330
23
100
AcDbEntity
  8
0
100
AcDbBlockEnd
  0
BLOCK
  5
83
330
82
100
AcDbEntity
  8
0
100
AcDbBlockBegin
  2
블럭10
 70
     2
 10
0.0
 20
0.0
 30
0.0
  3
블럭10
  1

  0
ELLIPSE
  5
85
330
82
100
AcDbEntity
  8
중심선
100
AcDbEllipse
 10
20.54032771741204
 20
12.0471743016438
 30
0.0
 11
6.600054785286829
 21
-1.261213355974178E-13
 31
0.0
210
0.0
220
0.0
230
1.0
 40
0.636358354079598
 41
0.9219305317359503
 42
6.513795318482858
  0
ELLIPSE
  5
86
330
82
100
AcDbEntity
  8
중심선
100
AcDbEllipse
 10
20.54032771746488
 20
12.04717430159265
 30
0.0
 11
3.960054785062283
 21
1.540847449632565E-10
 31
0.0
210
0.0
220
0.0
230
1.0
 40
0.3939339440162632
 41
1.131841032648279
 42
5.62031148352944
  0
LINE
  5
87
330
82
100
AcDbEntity
  8
중심선
100
AcDbLine
 10
2.268634060543552
 20
16.24717430164393
 30
0.0
 11
5.714909304380834
 21
16.24717430164393
 31
0.0
  0
LINE
  5
88
330
82
100
AcDbEntity
  8
중심선
100
AcDbLine
 10
5.245725140726316
 20
7.84717430164391
 30
0.0
 11
8.692000384563599
 21
7.84717430164391
 31
0.0
  0
LINE
  5
89
330
82
100
AcDbEntity
  8
중심선
100
AcDbLine
 10
15.74043728645272
 20
16.24717430164393
 30
0.0
 11
8.692000384563599
 21
7.84717430164391
 31
0.0
  0
LINE
  5
8A
330
82
100
AcDbEntity
  8
중심선
100
AcDbLine
 10
0.1404042013395286
 20
13.71084872107135
 30
0.0
 11
3.58671253028996
 21
13.71088815037384
 31
0.0
  0
LINE
  5
8B
330
82
100
AcDbEntity
  8
중심선
100
AcDbLine
 10
2.750260043222114
 20
10.84717430164391
 30
0.0
 11
6.196535287059397
 21
10.84717430164391
 31
0.0
  0
LINE
  5
8C
330
82
100
AcDbEntity
  8
중심선
100
AcDbLine
 10
12.29416204261559
 20
16.24717430164393
 30
0.0
 11
5.245725140726316
 21
7.84717430164391
 31
0.0
  0
LINE
  5
8D
330
82
100
AcDbEntity
  8
중심선
100
AcDbLine
 10
10.72767329541681
 20
16.24717430164393
 30
0.0
 11
6.196535287059397
 21
10.84717430164391
 31
0.0
  0
LINE
  5
8E
330
82
100
AcDbEntity
  8
중심선
100
AcDbLine
 10
7.28139805157953
 20
16.24717430164393
 30
0.0
 11
2.750260043222114
 21
10.84717430164391
 31
0.0
  0
LINE
  5
8F
330
82
100
AcDbEntity
  8
중심선
100
AcDbLine
 10
5.714909304380834
 20
16.24717430164393
 30
0.0
 11
3.58671253028996
 21
13.71088815037384
 31
0.0
  0
LINE
  5
90
330
82
100
AcDbEntity
  8
중심선
100
AcDbLine
 10
2.268634060543552
 20
16.24717430164393
 30
0.0
 11
0.1404042013395286
 21
13.71084872107135
 31
0.0
  0
LINE
  5
91
330
82
100
AcDbEntity
  8
중심선
100
AcDbLine
 10
7.28139805157953
 20
16.24717430164393
 30
0.0
 11
10.72767329541681
 21
16.24717430164393
 31
0.0
  0
LINE
  5
92
330
82
100
AcDbEntity
  8
중심선
100
AcDbLine
 10
12.29416204261559
 20
16.24717430164393
 30
0.0
 11
15.74043728645272
 21
16.24717430164393
 31
0.0
  0
LINE
  5
93
330
82
100
AcDbEntity
  8
중심선
100
AcDbLine
 10
19.22036997980202
 20
11.08717430171403
 30
0.0
 11
23.66174974927406
 21
11.08717430171406
 31
0.0
  0
LINE
  5
94
330
82
100
AcDbEntity
  8
중심선
100
AcDbLine
 10
19.22039502424796
 20
13.00717430171391
 30
0.0
 11
19.22036997980202
 21
11.08717430171403
 31
0.0
  0
LINE
  5
95
330
82
100
AcDbEntity
  8
중심선
100
AcDbLine
 10
19.22039502424796
 20
13.00717430171391
 30
0.0
 11
26.96566020931264
 21
13.00717430171391
 31
0.0
  0
LINE
  5
96
330
82
100
AcDbEntity
  8
중심선
100
AcDbLine
 10
22.22332737316547
 20
13.45928029700563
 30
0.0
 11
24.52862924686651
 21
15.39360700705356
 31
0.0
  0
ATTDEF
  5
98
330
82
100
AcDbEntity
  8
FORMAT
 62
     2
100
AcDbText
 10
-16.11926103943555
 20
2.075366912832191
 30
0.0
 40
4.233333333333333
  1
SEME7203030E [ 4 FLUTE ]
 41
0.75
  7
SLDTEXTSTYLE0
 11
-16.11926103943555
 21
-0.0412997538344756
 31
0.0
100
AcDbAttributeDefinition
  3

  2
AUTOATTR0
 70
     0
 74
     1
  0
ENDBLK
  5
84
330
82
100
AcDbEntity
  8
0
100
AcDbBlockEnd
  0
BLOCK
  5
FE
330
FD
100
AcDbEntity
  8
0
100
AcDbBlockBegin
  2
_D
 70
     0
 10
0.0
 20
0.0
 30
0.0
  3
_D
  1

  0
LINE
  5
100
330
FD
100
AcDbEntity
  8
치수문자_일반주서
 62
     0
370
    -2
100
AcDbLine
 10
38.66057621135333
 20
-1.500000000000004
 30
0.0
 11
52.03881548810022
 21
-1.499999999999954
 31
0.0
  0
LINE
  5
101
330
FD
100
AcDbEntity
  8
치수문자_일반주서
 62
     0
370
    -2
100
AcDbLine
 10
38.66057621135333
 20
1.500000000000004
 30
0.0
 11
52.03881548810021
 21
1.500000000000053
 31
0.0
  0
LINE
  5
102
330
FD
100
AcDbEntity
  8
치수문자_일반주서
 62
     0
370
    -2
100
AcDbLine
 10
52.03881548810022
 20
-1.499999999999954
 30
0.0
 11
52.03881548810018
 21
14.22900000000005
 31
0.0
  0
LINE
  5
103
330
FD
100
AcDbEntity
  8
치수문자_일반주서
 62
     0
370
    -2
100
AcDbLine
 10
52.03881548810022
 20
-1.499999999999954
 30
0.0
 11
52.03881548810021
 21
1.500000000000053
 31
0.0
  0
LINE
  5
104
330
FD
100
AcDbEntity
  8
치수문자_일반주서
 62
     0
370
    -2
100
AcDbLine
 10
52.03881548810023
 20
-4.801999999999953
 30
0.0
 11
52.03881548810023
 21
-8.103999999999953
 31
0.0
  0
LINE
  5
105
330
FD
100
AcDbEntity
  8
치수문자_일반주서
 62
     0
370
    -2
100
AcDbLine
 10
52.03881548810021
 20
4.802000000000053
 30
0.0
 11
52.0388154881002
 21
8.104000000000052
 31
0.0
  0
SOLID
  5
106
330
FD
100
AcDbEntity
  8
치수문자_일반주서
 62
     0
100
AcDbTrace
 10
52.58914882143356
 20
-4.801999999999953
 30
0.0
 11
51.48848215476689
 21
-4.801999999999954
 31
0.0
 12
52.03881548810022
 22
-1.499999999999954
 32
0.0
 13
52.03881548810022
 23
-1.499999999999954
 33
0.0
  0
SOLID
  5
107
330
FD
100
AcDbEntity
  8
치수문자_일반주서
 62
     0
100
AcDbTrace
 10
51.48848215476687
 20
4.802000000000052
 30
0.0
 11
52.58914882143354
 21
4.802000000000054
 31
0.0
 12
52.03881548810021
 22
1.500000000000053
 32
0.0
 13
52.03881548810021
 23
1.500000000000053
 33
0.0
  0
MTEXT
  5
108
330
FD
100
AcDbEntity
  8
치수문자_일반주서
 62
     0
100
AcDbMText
 10
47.66381548810019
 20
11.16650000000004
 30
0.0
 40
3.5
 41
0.0
 71
     2
 72
     1
  1
\A1;%%c3
  7
SLDTEXTSTYLE0
 11
-2.368475785866994E-15
 21
1.0
 31
0.0
 73
     1
 44
1.0
  0
POINT
  5
161
330
FD
100
AcDbEntity
  8
Defpoints
 62
     0
100
AcDbPoint
 10
38.59807621135333
 20
-1.500000000000004
 30
0.0
  0
POINT
  5
162
330
FD
100
AcDbEntity
  8
Defpoints
 62
     0
100
AcDbPoint
 10
38.59807621135333
 20
1.500000000000004
 30
0.0
  0
POINT
  5
163
330
FD
100
AcDbEntity
  8
Defpoints
 62
     0
100
AcDbPoint
 10
52.03881548810022
 20
1.500000000000054
 30
0.0
  0
ENDBLK
  5
FF
330
FD
100
AcDbEntity
  8
0
100
AcDbBlockEnd
  0
BLOCK
  5
10C
330
10B
100
AcDbEntity
  8
0
100
AcDbBlockBegin
  2
_D_1
 70
     0
 10
0.0
 20
0.0
 30
0.0
  3
_D_1
  1

  0
LINE
  5
10E
330
10B
100
AcDbEntity
  8
치수문자_일반주서
 62
     0
370
    -2
100
AcDbLine
 10
-31.40192378864671
 20
2.562499999999995
 30
0.0
 11
-31.40192378864669
 21
20.38913260158165
 31
0.0
  0
LINE
  5
10F
330
10B
100
AcDbEntity
  8
치수문자_일반주서
 62
     0
370
    -2
100
AcDbLine
 10
38.5980762113533
 20
1.562500000000006
 30
0.0
 11
38.59807621135331
 21
20.38913260158165
 31
0.0
  0
LINE
  5
110
330
10B
100
AcDbEntity
  8
치수문자_일반주서
 62
     0
370
    -2
100
AcDbLine
 10
-28.0999237886467
 20
20.38913260158165
 30
0.0
 11
35.29607621135331
 21
20.38913260158165
 31
0.0
  0
SOLID
  5
111
330
10B
100
AcDbEntity
  8
치수문자_일반주서
 62
     0
100
AcDbTrace
 10
-28.0999237886467
 20
20.93946593491498
 30
0.0
 11
-28.0999237886467
 21
19.83879926824831
 31
0.0
 12
-31.40192378864669
 22
20.38913260158165
 32
0.0
 13
-31.40192378864669
 23
20.38913260158165
 33
0.0
  0
SOLID
  5
112
330
10B
100
AcDbEntity
  8
치수문자_일반주서
 62
     0
100
AcDbTrace
 10
35.29607621135331
 20
19.83879926824831
 30
0.0
 11
35.29607621135331
 21
20.93946593491498
 31
0.0
 12
38.59807621135331
 22
20.38913260158165
 32
0.0
 13
38.59807621135331
 23
20.38913260158165
 33
0.0
  0
MTEXT
  5
113
330
10B
100
AcDbEntity
  8
치수문자_일반주서
 62
     0
100
AcDbMText
 10
3.598076211353297
 20
24.76413260158165
 30
0.0
 40
3.5
 41
0.0
 71
     2
 72
     1
  1
\A1;70
  7
SLDTEXTSTYLE0
 73
     1
 44
1.0
  0
POINT
  5
158
330
10B
100
AcDbEntity
  8
Defpoints
 62
     0
100
AcDbPoint
 10
-31.40192378864671
 20
2.499999999999995
 30
0.0
  0
POINT
  5
159
330
10B
100
AcDbEntity
  8
Defpoints
 62
     0
100
AcDbPoint
 10
38.5980762113533
 20
1.500000000000006
 30
0.0
  0
POINT
  5
15A
330
10B
100
AcDbEntity
  8
Defpoints
 62
     0
100
AcDbPoint
 10
38.5980762113533
 20
20.38913260158165
 30
0.0
  0
ENDBLK
  5
10D
330
10B
100
AcDbEntity
  8
0
100
AcDbBlockEnd
  0
BLOCK
  5
117
330
116
100
AcDbEntity
  8
0
100
AcDbBlockBegin
  2
_D_2
 70
     0
 10
0.0
 20
0.0
 30
0.0
  3
_D_2
  1

  0
LINE
  5
119
330
116
100
AcDbEntity
  8
치수문자_일반주서
 62
     0
370
    -2
100
AcDbLine
 10
-30.96442378864671
 20
3.000000000000003
 30
0.0
 11
-45.9312039918897
 21
2.999999999999947
 31
0.0
  0
LINE
  5
11A
330
116
100
AcDbEntity
  8
치수문자_일반주서
 62
     0
370
    -2
100
AcDbLine
 10
-30.96442378864671
 20
-3.000000000000003
 30
0.0
 11
-45.93120399188968
 21
-3.000000000000059
 31
0.0
  0
LINE
  5
11B
330
116
100
AcDbEntity
  8
치수문자_일반주서
 62
     0
370
    -2
100
AcDbLine
 10
-45.9312039918897
 20
2.999999999999947
 30
0.0
 11
-45.93120399188975
 21
15.72899999999995
 31
0.0
  0
LINE
  5
11C
330
116
100
AcDbEntity
  8
치수문자_일반주서
 62
     0
370
    -2
100
AcDbLine
 10
-45.9312039918897
 20
2.999999999999947
 30
0.0
 11
-45.93120399188968
 21
-3.000000000000059
 31
0.0
  0
LINE
  5
11D
330
116
100
AcDbEntity
  8
치수문자_일반주서
 62
     0
370
    -2
100
AcDbLine
 10
-45.93120399188972
 20
6.301999999999946
 30
0.0
 11
-45.93120399188973
 21
9.603999999999946
 31
0.0
  0
LINE
  5
11E
330
116
100
AcDbEntity
  8
치수문자_일반주서
 62
     0
370
    -2
100
AcDbLine
 10
-45.93120399188967
 20
-6.302000000000058
 30
0.0
 11
-45.93120399188965
 21
-9.604000000000058
 31
0.0
  0
SOLID
  5
11F
330
116
100
AcDbEntity
  8
치수문자_일반주서
 62
     0
100
AcDbTrace
 10
-46.48153732522305
 20
6.301999999999945
 30
0.0
 11
-45.38087065855638
 21
6.301999999999948
 31
0.0
 12
-45.9312039918897
 22
2.999999999999947
 32
0.0
 13
-45.9312039918897
 23
2.999999999999947
 33
0.0
  0
SOLID
  5
120
330
116
100
AcDbEntity
  8
치수문자_일반주서
 62
     0
100
AcDbTrace
 10
-45.38087065855633
 20
-6.302000000000056
 30
0.0
 11
-46.481537325223
 21
-6.30200000000006
 31
0.0
 12
-45.93120399188968
 22
-3.000000000000059
 32
0.0
 13
-45.93120399188968
 23
-3.000000000000059
 33
0.0
  0
MTEXT
  5
121
330
116
100
AcDbEntity
  8
치수문자_일반주서
 62
     0
100
AcDbMText
 10
-50.30620399188974
 20
12.66649999999993
 30
0.0
 40
3.5
 41
0.0
 71
     2
 72
     1
  1
\A1;%%c6
  7
SLDTEXTSTYLE0
 11
-3.552713678800498E-15
 21
1.0
 31
0.0
 73
     1
 44
1.0
  0
POINT
  5
15E
330
116
100
AcDbEntity
  8
Defpoints
 62
     0
100
AcDbPoint
 10
-30.90192378864671
 20
3.000000000000003
 30
0.0
  0
POINT
  5
15F
330
116
100
AcDbEntity
  8
Defpoints
 62
     0
100
AcDbPoint
 10
-30.90192378864671
 20
-3.000000000000002
 30
0.0
  0
POINT
  5
160
330
116
100
AcDbEntity
  8
Defpoints
 62
     0
100
AcDbPoint
 10
-45.93120399188968
 20
-3.000000000000058
 30
0.0
  0
ENDBLK
  5
118
330
116
100
AcDbEntity
  8
0
100
AcDbBlockEnd
  0
BLOCK
  5
124
330
123
100
AcDbEntity
  8
0
100
AcDbBlockBegin
  2
_D_3
 70
     0
 10
0.0
 20
0.0
 30
0.0
  3
_D_3
  1

  0
LINE
  5
126
330
123
100
AcDbEntity
  8
치수문자_일반주서
 62
     0
370
    -2
100
AcDbLine
 10
8.598076211353298
 20
1.482376585683962
 30
0.0
 11
8.598076211353298
 21
12.26579488827161
 31
0.0
  0
LINE
  5
127
330
123
100
AcDbEntity
  8
치수문자_일반주서
 62
     0
370
    -2
100
AcDbLine
 10
38.5980762113533
 20
1.562500000000006
 30
0.0
 11
38.5980762113533
 21
12.26579488827161
 31
0.0
  0
LINE
  5
128
330
123
100
AcDbEntity
  8
치수문자_일반주서
 62
     0
370
    -2
100
AcDbLine
 10
11.9000762113533
 20
12.26579488827161
 30
0.0
 11
35.2960762113533
 21
12.26579488827161
 31
0.0
  0
SOLID
  5
129
330
123
100
AcDbEntity
  8
치수문자_일반주서
 62
     0
100
AcDbTrace
 10
11.9000762113533
 20
12.81612822160495
 30
0.0
 11
11.9000762113533
 21
11.71546155493828
 31
0.0
 12
8.598076211353298
 22
12.26579488827161
 32
0.0
 13
8.598076211353298
 23
12.26579488827161
 33
0.0
  0
SOLID
  5
12A
330
123
100
AcDbEntity
  8
치수문자_일반주서
 62
     0
100
AcDbTrace
 10
35.2960762113533
 20
11.71546155493828
 30
0.0
 11
35.2960762113533
 21
12.81612822160495
 31
0.0
 12
38.5980762113533
 22
12.26579488827161
 32
0.0
 13
38.5980762113533
 23
12.26579488827161
 33
0.0
  0
MTEXT
  5
12B
330
123
100
AcDbEntity
  8
치수문자_일반주서
 62
     0
100
AcDbMText
 10
23.5980762113533
 20
16.64079488827161
 30
0.0
 40
3.5
 41
0.0
 71
     2
 72
     1
  1
\A1;30
  7
SLDTEXTSTYLE0
 73
     1
 44
1.0
  0
POINT
  5
15B
330
123
100
AcDbEntity
  8
Defpoints
 62
     0
100
AcDbPoint
 10
8.598076211353298
 20
1.419876585683962
 30
0.0
  0
POINT
  5
15C
330
123
100
AcDbEntity
  8
Defpoints
 62
     0
100
AcDbPoint
 10
38.5980762113533
 20
1.500000000000006
 30
0.0
  0
POINT
  5
15D
330
123
100
AcDbEntity
  8
Defpoints
 62
     0
100
AcDbPoint
 10
38.5980762113533
 20
12.26579488827161
 30
0.0
  0
ENDBLK
  5
125
330
123
100
AcDbEntity
  8
0
100
AcDbBlockEnd
  0
BLOCK
  5
12D
330
12C
100
AcDbEntity
  8
0
100
AcDbBlockBegin
  2
SW_DOWELSYMBOL_0
 70
     0
 10
0.0
 20
0.0
 30
0.0
  3
SW_DOWELSYMBOL_0
  1

  0
CIRCLE
  5
12F
330
12C
100
AcDbEntity
  8
해칭선
 62
     0
100
AcDbCircle
 10
0.0
 20
0.0
 30
0.0
 40
3.000000000000003
  0
HATCH
  5
130
330
12C
100
AcDbEntity
  8
0
  6
Continuous
 62
     0
370
    18
100
AcDbHatch
 10
0.0
 20
0.0
 30
0.0
210
0.0
220
0.0
230
1.0
  2
SOLID
 70
     1
 71
     0
 91
        1
 92
        0
 93
        3
 72
     2
 10
0.0
 20
0.0
 40
3.000000000000003
 50
0.0
 51
90.0
 73
     1
 72
     1
 10
0.0
 20
3.000000000000003
 11
0.0
 21
0.0
 72
     1
 10
0.0
 20
0.0
 11
3.000000000000003
 21
0.0
 97
        0
 75
     0
 76
     1
 98
        1
 10
0.0
 20
0.0
  0
HATCH
  5
131
330
12C
100
AcDbEntity
  8
0
  6
Continuous
 62
     0
370
    18
100
AcDbHatch
 10
0.0
 20
0.0
 30
0.0
210
0.0
220
0.0
230
1.0
  2
SOLID
 70
     1
 71
     0
 91
        1
 92
        0
 93
        3
 72
     2
 10
0.0
 20
0.0
 40
3.000000000000003
 50
180.0
 51
270.0000000000008
 73
     1
 72
     1
 10
0.0
 20
-3.000000000000003
 11
0.0
 21
0.0
 72
     1
 10
0.0
 20
0.0
 11
-3.000000000000003
 21
0.0
 97
        0
 75
     0
 76
     1
 98
        1
 10
0.0
 20
0.0
  0
ENDBLK
  5
12E
330
12C
100
AcDbEntity
  8
0
100
AcDbBlockEnd
  0
ENDSEC
  0
SECTION
  2
ENTITIES
  0
LINE
  5
99
330
1F
100
AcDbEntity
  8
0
  6
Continuous
 62
     4
370
    25
100
AcDbLine
 10
2.0
 20
2.999999999999998
 30
0.0
 11
-30.90192378864671
 21
2.999999999999996
 31
0.0
  0
LINE
  5
9A
330
1F
100
AcDbEntity
  8
0
  6
Continuous
 62
     4
370
    25
100
AcDbLine
 10
-30.90192378864671
 20
-3.0
 30
0.0
 11
1.999999999999996
 21
-2.999999999999998
 31
0.0
  0
LINE
  5
9B
330
1F
100
AcDbEntity
  8
0
  6
Continuous
 62
     4
370
    25
100
AcDbLine
 10
2.0
 20
-2.999999999999999
 30
0.0
 11
7.097883193211098
 21
-1.634026315270889
 31
0.0
  0
LINE
  5
9C
330
1F
100
AcDbEntity
  8
0
  6
Continuous
 62
     4
370
    25
100
AcDbLine
 10
7.097883193211098
 20
1.63402631527089
 30
0.0
 11
2.0
 21
3.0
 31
0.0
  0
LINE
  5
9D
330
1F
100
AcDbEntity
  8
0
  6
Continuous
 62
     4
370
    25
100
AcDbLine
 10
-30.90192378864671
 20
2.999999999999995
 30
0.0
 11
-31.40192378864671
 21
2.499999999999995
 31
0.0
  0
LINE
  5
9E
330
1F
100
AcDbEntity
  8
0
  6
Continuous
 62
     4
370
    25
100
AcDbLine
 10
-31.40192378864671
 20
-2.5
 30
0.0
 11
-30.90192378864671
 21
-2.999999999999999
 31
0.0
  0
LINE
  5
9F
330
1F
100
AcDbEntity
  8
0
  6
Continuous
 62
     1
370
    25
100
AcDbLine
 10
14.28106765775834
 20
0.2339198652458034
 30
0.0
 11
14.31787592198754
 21
0.2147546684248566
 31
0.0
  0
LINE
  5
A0
330
1F
100
AcDbEntity
  8
0
  6
Continuous
 62
     1
370
    25
100
AcDbLine
 10
18.06526904702977
 20
-0.2563263527611676
 30
0.0
 11
17.98309050665172
 21
-0.2136522862395901
 31
0.0
  0
LINE
  5
A1
330
1F
100
AcDbEntity
  8
0
  6
Continuous
 62
     1
370
    25
100
AcDbLine
 10
34.38946332513773
 20
-0.2563263527611647
 30
0.0
 11
34.30728478475967
 21
-0.2136522862395881
 31
0.0
  0
LINE
  5
A2
330
1F
100
AcDbEntity
  8
0
  6
Continuous
 62
     1
370
    25
100
AcDbLine
 10
30.60526193586633
 20
0.233919865245791
 30
0.0
 11
30.64207020009551
 21
0.2147546684248586
 31
0.0
  0
LINE
  5
A3
330
1F
100
AcDbEntity
  8
0
  6
Continuous
 62
     1
370
    25
100
AcDbLine
 10
9.886712863158285
 20
-0.2475238560829744
 30
0.0
 11
9.820993367597739
 21
-0.2136522862395963
 31
0.0
  0
SPLINE
  5
A4
330
1F
100
AcDbEntity
  8
0
  6
Continuous
 62
     1
370
    25
100
AcDbSpline
210
0.0
220
0.0
230
1.0
 70
     8
 71
     3
 72
     9
 73
     5
 74
     0
 42
0.000000001
 43
0.00000001
 40
0.0
 40
0.0
 40
0.0
 40
0.0
 40
0.4990260427460167
 40
1.0
 40
1.0
 40
1.0
 40
1.0
 10
22.27388193328332
 20
0.3333115528179107
 30
0.0
 10
22.33068273967749
 20
0.3018317535796785
 30
0.0
 10
22.44450607058343
 20
0.2387492758296061
 30
0.0
 10
22.55951336943259
 20
0.1705118204138901
 30
0.0
 10
22.61712903105014
 20
0.1363266323413365
 30
0.0
  0
LINE
  5
A5
330
1F
100
AcDbEntity
  8
0
  6
Continuous
 62
     1
370
    25
100
AcDbLine
 10
26.21090714126626
 20
-0.2475238560829839
 30
0.0
 11
26.1451876457057
 21
-0.2136522862395963
 31
0.0
  0
LINE
  5
A6
330
1F
100
AcDbEntity
  8
0
  6
Continuous
 62
     1
370
    25
100
AcDbLine
 10
25.77530005444612
 20
-1.500000000000002
 30
0.0
 11
26.93490617489528
 21
-1.500000000000002
 31
0.0
  0
LINE
  5
A7
330
1F
100
AcDbEntity
  8
0
  6
Continuous
 62
     1
370
    25
100
AcDbLine
 10
9.451105776338185
 20
-1.500000000000002
 30
0.0
 11
10.61071189678731
 21
-1.500000000000002
 31
0.0
  0
LINE
  5
A8
330
1F
100
AcDbEntity
  8
0
  6
Continuous
 62
     1
370
    25
100
AcDbLine
 10
18.77358143972562
 20
1.500000000000003
 30
0.0
 11
17.61224346121447
 21
1.500000000000003
 31
0.0
  0
LINE
  5
A9
330
1F
100
AcDbEntity
  8
0
  6
Continuous
 62
     1
370
    25
100
AcDbLine
 10
35.09777571783357
 20
1.500000000000003
 30
0.0
 11
33.93643773932243
 21
1.500000000000003
 31
0.0
  0
LINE
  5
AA
330
1F
100
AcDbEntity
  8
0
  6
Continuous
 62
     1
370
    25
100
AcDbLine
 10
33.93643773932243
 20
-1.500000000000002
 30
0.0
 11
35.09777571783357
 21
-1.500000000000002
 31
0.0
  0
LINE
  5
AB
330
1F
100
AcDbEntity
  8
0
  6
Continuous
 62
     1
370
    25
100
AcDbLine
 10
17.61224346121446
 20
-1.500000000000002
 30
0.0
 11
18.7735814397256
 21
-1.500000000000002
 31
0.0
  0
LINE
  5
AC
330
1F
100
AcDbEntity
  8
0
  6
Continuous
 62
     1
370
    25
100
AcDbLine
 10
10.61071189678729
 20
1.500000000000003
 30
0.0
 11
9.45110577633817
 21
1.500000000000003
 31
0.0
  0
LINE
  5
AD
330
1F
100
AcDbEntity
  8
0
  6
Continuous
 62
     1
370
    25
100
AcDbLine
 10
26.93490617489527
 20
1.500000000000003
 30
0.0
 11
25.77530005444612
 21
1.500000000000003
 31
0.0
  0
LINE
  5
AE
330
1F
100
AcDbEntity
  8
0
  6
Continuous
 62
     1
370
    25
100
AcDbLine
 10
29.85435605391796
 20
-1.500000000000002
 30
0.0
 11
31.01505576629264
 21
-1.500000000000002
 31
0.0
  0
LINE
  5
AF
330
1F
100
AcDbEntity
  8
0
  6
Continuous
 62
     1
370
    25
100
AcDbLine
 10
13.53016177580998
 20
-1.500000000000002
 30
0.0
 11
14.6908614881847
 21
-1.500000000000002
 31
0.0
  0
LINE
  5
B0
330
1F
100
AcDbEntity
  8
0
  6
Continuous
 62
     1
370
    25
100
AcDbLine
 10
22.85463800931124
 20
1.500000000000003
 30
0.0
 11
21.69454154668192
 21
1.500000000000003
 31
0.0
  0
LINE
  5
B1
330
1F
100
AcDbEntity
  8
0
  6
Continuous
 62
     1
370
    25
100
AcDbLine
 10
38.5980762113533
 20
1.500000000000003
 30
0.0
 11
38.01873582478987
 21
1.500000000000003
 31
0.0
  0
LINE
  5
B2
330
1F
100
AcDbEntity
  8
0
  6
Continuous
 62
     1
370
    25
100
AcDbLine
 10
38.01873582478987
 20
-1.500000000000002
 30
0.0
 11
38.5980762113533
 21
-1.500000000000002
 31
0.0
  0
LINE
  5
B3
330
1F
100
AcDbEntity
  8
0
  6
Continuous
 62
     1
370
    25
100
AcDbLine
 10
21.69454154668191
 20
-1.500000000000002
 30
0.0
 11
22.85463800931124
 21
-1.500000000000002
 31
0.0
  0
LINE
  5
B4
330
1F
100
AcDbEntity
  8
0
  6
Continuous
 62
     1
370
    25
100
AcDbLine
 10
14.6908614881847
 20
1.500000000000003
 30
0.0
 11
13.53016177580998
 21
1.500000000000003
 31
0.0
  0
LINE
  5
B5
330
1F
100
AcDbEntity
  8
0
  6
Continuous
 62
     1
370
    25
100
AcDbLine
 10
31.01505576629268
 20
1.500000000000003
 30
0.0
 11
29.85435605391794
 21
1.500000000000003
 31
0.0
  0
LINE
  5
B6
330
1F
100
AcDbEntity
  8
0
  6
Continuous
 62
     4
370
    25
100
AcDbLine
 10
2.0
 20
3.0
 30
0.0
 11
2.0
 21
-3.0
 31
0.0
  0
LINE
  5
B7
330
1F
100
AcDbEntity
  8
0
  6
Continuous
 62
     4
370
    25
100
AcDbLine
 10
-30.90192378864671
 20
2.999999999999995
 30
0.0
 11
-30.90192378864671
 21
-2.999999999999999
 31
0.0
  0
SPLINE
  5
B8
330
1F
100
AcDbEntity
  8
0
  6
Continuous
 62
     4
370
    25
100
AcDbSpline
210
0.0
220
0.0
230
1.0
 70
     8
 71
     3
 72
     8
 73
     4
 74
     0
 42
0.000000001
 43
0.00000001
 40
0.0
 40
0.0
 40
0.0
 40
0.0
 40
1.0
 40
1.0
 40
1.0
 40
1.0
 10
7.547843535898663
 20
1.013671084777111
 30
0.0
 10
7.564582135048985
 20
1.003000494539136
 30
0.0
 10
7.581326296353707
 20
0.9922916155240661
 30
0.0
 10
7.598076211353304
 20
0.9815445990510592
 30
0.0
  0
SPLINE
  5
B9
330
1F
100
AcDbEntity
  8
0
  6
Continuous
 62
     4
370
    25
100
AcDbSpline
210
0.0
220
0.0
230
1.0
 70
     8
 71
     3
 72
    12
 73
     8
 74
     0
 42
0.000000001
 43
0.00000001
 40
0.0
 40
0.0
 40
0.0
 40
0.0
 40
0.2499999999999999
 40
0.2499999999999999
 40
0.4999999999999998
 40
0.4999999999999998
 40
1.0
 40
1.0
 40
1.0
 40
1.0
 10
7.097883193211098
 20
0.8942270486622702
 30
0.0
 10
7.097883193211098
 20
0.9393779912019251
 30
0.0
 10
7.112303561111412
 20
0.9799384991147392
 30
0.0
 10
7.166306304976931
 20
1.042017656119685
 30
0.0
 10
7.205944777622641
 20
1.06343313283717
 30
0.0
 10
7.342271377386728
 20
1.094015970169527
 30
0.0
 10
7.458405500816648
 20
1.070686406996068
 30
0.0
 10
7.547843535898735
 20
1.013671084777066
 30
0.0
  0
LINE
  5
BA
330
1F
100
AcDbEntity
  8
0
  6
Continuous
 62
     4
370
    25
100
AcDbLine
 10
7.097883193211098
 20
0.8942270486622702
 30
0.0
 11
7.097883193211098
 21
-0.2003118957810817
 31
0.0
  0
SPLINE
  5
BB
330
1F
100
AcDbEntity
  8
0
  6
Continuous
 62
     4
370
    25
100
AcDbSpline
210
0.0
220
0.0
230
1.0
 70
     8
 71
     3
 72
    10
 73
     6
 74
     0
 42
0.000000001
 43
0.00000001
 40
0.0
 40
0.0
 40
0.0
 40
0.0
 40
0.5
 40
0.5
 40
1.0
 40
1.0
 40
1.0
 40
1.0
 10
7.24154925395572
 20
-0.4407851397371943
 30
0.0
 10
7.198102183595971
 20
-0.4189948860011981
 30
0.0
 10
7.161641434317687
 20
-0.3855223049411453
 30
0.0
 10
7.111414345996636
 20
-0.3021058132394178
 30
0.0
 10
7.097883193210736
 20
-0.2519240981156983
 30
0.0
 10
7.097883193211098
 20
-0.2003118957810815
 30
0.0
  0
SPLINE
  5
BC
330
1F
100
AcDbEntity
  8
0
  6
Continuous
 62
     4
370
    25
100
AcDbSpline
210
0.0
220
0.0
230
1.0
 70
     8
 71
     3
 72
     8
 73
     4
 74
     0
 42
0.000000001
 43
0.00000001
 40
0.0
 40
0.0
 40
0.0
 40
0.0
 40
1.0
 40
1.0
 40
1.0
 40
1.0
 10
7.598076211352881
 20
-0.5990137912390946
 30
0.0
 10
7.477609660229984
 20
-0.5523444571370577
 30
0.0
 10
7.358890893854444
 20
-0.4996361528439323
 30
0.0
 10
7.241549253955716
 20
-0.4407851397371861
 30
0.0
  0
LINE
  5
BD
330
1F
100
AcDbEntity
  8
0
  6
Continuous
 62
     4
370
    25
100
AcDbLine
 10
7.5980762113533
 20
-0.5990137912400804
 30
0.0
 11
7.598076211353304
 21
-1.134270778991374
 31
0.0
  0
SPLINE
  5
BE
330
1F
100
AcDbEntity
  8
0
  6
Continuous
 62
     4
370
    25
100
AcDbSpline
210
0.0
220
0.0
230
1.0
 70
     8
 71
     3
 72
     8
 73
     4
 74
     0
 42
0.000000001
 43
0.00000001
 40
0.0
 40
0.0
 40
0.0
 40
0.0
 40
1.0
 40
1.0
 40
1.0
 40
1.0
 10
7.547843535898663
 20
-1.123846747869929
 30
0.0
 10
7.564582135048985
 20
-1.127431274951324
 30
0.0
 10
7.581326296353707
 20
-1.130906073887858
 30
0.0
 10
7.598076211353304
 20
-1.134270778991377
 30
0.0
  0
SPLINE
  5
BF
330
1F
100
AcDbEntity
  8
0
  6
Continuous
 62
     4
370
    25
100
AcDbSpline
210
0.0
220
0.0
230
1.0
 70
     8
 71
     3
 72
    12
 73
     8
 74
     0
 42
0.000000001
 43
0.00000001
 40
0.0
 40
0.0
 40
0.0
 40
0.0
 40
0.2500000000000001
 40
0.2500000000000001
 40
0.5000000000000001
 40
0.5000000000000001
 40
1.0
 40
1.0
 40
1.0
 40
1.0
 10
7.097883193211098
 20
-1.367625674093074
 30
0.0
 10
7.097883193211098
 20
-1.33810356518829
 30
0.0
 10
7.112303561111412
 20
-1.30353931522589
 30
0.0
 10
7.166306304976931
 20
-1.235607510980963
 30
0.0
 10
7.205944777622641
 20
-1.202490887269173
 30
0.0
 10
7.342271377386728
 20
-1.125138736959694
 30
0.0
 10
7.458405500816648
 20
-1.10469382736691
 30
0.0
 10
7.547843535898735
 20
-1.123846747869944
 30
0.0
  0
LINE
  5
C0
330
1F
100
AcDbEntity
  8
0
  6
Continuous
 62
     4
370
    25
100
AcDbLine
 10
7.097883193211098
 20
-1.367625674093074
 30
0.0
 11
7.097883193211098
 21
-1.634026315270889
 31
0.0
  0
SPLINE
  5
C1
330
1F
100
AcDbEntity
  8
0
  6
Continuous
 62
     4
370
    25
100
AcDbSpline
210
0.0
220
0.0
230
1.0
 70
     8
 71
     3
 72
    10
 73
     6
 74
     0
 42
0.000000001
 43
0.00000001
 40
0.0
 40
0.0
 40
0.0
 40
0.0
 40
0.5
 40
0.5
 40
1.0
 40
1.0
 40
1.0
 40
1.0
 10
7.24154925395572
 20
-1.533436658153405
 30
0.0
 10
7.198102183595967
 20
-1.55181326777404
 30
0.0
 10
7.16164143431768
 20
-1.570930586693372
 30
0.0
 10
7.111414345996629
 20
-1.60277452403549
 30
0.0
 10
7.097883193210736
 20
-1.615326811924442
 30
0.0
 10
7.097883193211098
 20
-1.621701928039292
 30
0.0
  0
SPLINE
  5
C2
330
1F
100
AcDbEntity
  8
0
  6
Continuous
 62
     4
370
    25
100
AcDbSpline
210
0.0
220
0.0
230
1.0
 70
     8
 71
     3
 72
     8
 73
     4
 74
     0
 42
0.000000001
 43
0.00000001
 40
0.0
 40
0.0
 40
0.0
 40
0.0
 40
1.0
 40
1.0
 40
1.0
 40
1.0
 10
7.598076211352884
 20
-1.375202704296733
 30
0.0
 10
7.477609660229984
 20
-1.430739206042222
 30
0.0
 10
7.358890893854444
 20
-1.483805198752119
 30
0.0
 10
7.241549253955716
 20
-1.533436658153388
 30
0.0
  0
LINE
  5
C3
330
1F
100
AcDbEntity
  8
0
  6
Continuous
 62
     4
370
    25
100
AcDbLine
 10
7.097883193211098
 20
1.63402631527089
 30
0.0
 11
7.097883193211098
 21
1.621701928039292
 31
0.0
  0
SPLINE
  5
C4
330
1F
100
AcDbEntity
  8
0
  6
Continuous
 62
     4
370
    25
100
AcDbSpline
210
0.0
220
0.0
230
1.0
 70
     8
 71
     3
 72
    10
 73
     6
 74
     0
 42
0.000000001
 43
0.00000001
 40
0.0
 40
0.0
 40
0.0
 40
0.0
 40
0.5
 40
0.5
 40
1.0
 40
1.0
 40
1.0
 40
1.0
 10
7.24154925395572
 20
1.533436658153404
 30
0.0
 10
7.198102183595967
 20
1.551813267774038
 30
0.0
 10
7.16164143431768
 20
1.57093058669337
 30
0.0
 10
7.111414345996629
 20
1.602774524035489
 30
0.0
 10
7.097883193210736
 20
1.615326811924441
 30
0.0
 10
7.097883193211098
 20
1.621701928039291
 30
0.0
  0
SPLINE
  5
C5
330
1F
100
AcDbEntity
  8
0
  6
Continuous
 62
     4
370
    25
100
AcDbSpline
210
0.0
220
0.0
230
1.0
 70
     8
 71
     3
 72
     8
 73
     4
 74
     0
 42
0.000000001
 43
0.00000001
 40
0.0
 40
0.0
 40
0.0
 40
0.0
 40
1.0
 40
1.0
 40
1.0
 40
1.0
 10
7.598076211352881
 20
1.375202704296729
 30
0.0
 10
7.477609660229984
 20
1.430739206042219
 30
0.0
 10
7.358890893854444
 20
1.483805198752116
 30
0.0
 10
7.241549253955716
 20
1.533436658153386
 30
0.0
  0
LINE
  5
C6
330
1F
100
AcDbEntity
  8
0
  6
Continuous
 62
     4
370
    25
100
AcDbLine
 10
7.5980762113533
 20
1.375202704296025
 30
0.0
 11
7.5980762113533
 21
0.9815445990510562
 31
0.0
  0
LINE
  5
C7
330
1F
100
AcDbEntity
  8
0
  6
Continuous
 62
     4
370
    25
100
AcDbLine
 10
-31.40192378864671
 20
2.499999999999995
 30
0.0
 11
-31.40192378864671
 21
-2.5
 31
0.0
  0
SPLINE
  5
C8
330
1F
100
AcDbEntity
  8
0
  6
Continuous
 62
     4
370
    25
100
AcDbSpline
210
0.0
220
0.0
230
1.0
 70
     8
 71
     3
 72
    10
 73
     6
 74
     0
 42
0.000000001
 43
0.00000001
 40
0.0
 40
0.0
 40
0.0
 40
0.0
 40
0.5
 40
0.5
 40
1.0
 40
1.0
 40
1.0
 40
1.0
 10
8.598076211353295
 20
0.4836842786639133
 30
0.0
 10
8.432746901605613
 20
0.5745536226969259
 30
0.0
 10
8.263885682628281
 20
0.6630658890895305
 30
0.0
 10
7.928387807824492
 20
0.8303857610269262
 30
0.0
 10
7.764560088291043
 20
0.9087853609669084
 30
0.0
 10
7.5980762113533
 20
0.9815445990510562
 30
0.0
  0
SPLINE
  5
C9
330
1F
100
AcDbEntity
  8
0
  6
Continuous
 62
     4
370
    25
100
AcDbSpline
210
0.0
220
0.0
230
1.0
 70
    24
 71
     3
 72
    16
 73
    12
 74
     0
 42
0.000000001
 43
0.00000001
 40
0.0
 40
0.0
 40
0.0
 40
0.0
 40
0.1249999999999999
 40
0.1249999999999999
 40
0.2499999999999998
 40
0.2499999999999998
 40
0.4999999999999999
 40
0.4999999999999999
 40
0.75
 40
0.75
 40
1.0
 40
1.0
 40
1.0
 40
1.0
 10
8.5980762113533
 20
0.4836842786639401
 30
0.0
 10
8.5980762113533
 20
0.45970640433493
 30
0.0
 10
8.5980762113533
 20
0.4352111885698511
 30
0.0
 10
8.5980762113533
 20
0.3750651666221232
 30
0.0
 10
8.5980762113533
 20
0.3397364625665423
 30
0.0
 10
8.5980762113533
 20
0.2142620248266868
 30
0.0
 10
8.5980762113533
 20
0.1036204073076589
 30
0.0
 10
8.598076211353304
 20
-0.1795695027642303
 30
0.0
 10
8.598076211353304
 20
-0.3534292944325874
 30
0.0
 10
8.598076211353304
 20
-0.721958892320023
 30
0.0
 10
8.598076211353304
 20
-0.9141500058753758
 30
0.0
 10
8.598076211353304
 20
-1.071652696468024
 30
0.0
  0
SPLINE
  5
CA
330
1F
100
AcDbEntity
  8
0
  6
Continuous
 62
     4
370
    25
100
AcDbSpline
210
0.0
220
0.0
230
1.0
 70
     8
 71
     3
 72
    10
 73
     6
 74
     0
 42
0.000000001
 43
0.00000001
 40
0.0
 40
0.0
 40
0.0
 40
0.0
 40
0.5
 40
0.5
 40
1.0
 40
1.0
 40
1.0
 40
1.0
 10
8.5980762113533
 20
-1.071652696468023
 30
0.0
 10
8.43274690160562
 20
-1.004483373276002
 30
0.0
 10
8.263885682628285
 20
-0.9301940524023716
 30
0.0
 10
7.928387807824492
 20
-0.7713006792278374
 30
0.0
 10
7.764560088291043
 20
-0.687227913325474
 30
0.0
 10
7.5980762113533
 20
-0.5990137912400803
 30
0.0
  0
SPLINE
  5
CB
330
1F
100
AcDbEntity
  8
0
  6
Continuous
 62
     4
370
    25
100
AcDbSpline
210
0.0
220
0.0
230
1.0
 70
     8
 71
     3
 72
    10
 73
     6
 74
     0
 42
0.000000001
 43
0.00000001
 40
0.0
 40
0.0
 40
0.0
 40
0.0
 40
0.5
 40
0.5
 40
1.0
 40
1.0
 40
1.0
 40
1.0
 10
8.5980762113533
 20
1.049552522817093
 30
0.0
 10
8.43274690160562
 20
1.118136214203451
 30
0.0
 10
8.263885682628285
 20
1.180696397424764
 30
0.0
 10
7.928387807824492
 20
1.29011635918596
 30
0.0
 10
7.764560088291043
 20
1.336778204732276
 30
0.0
 10
7.5980762113533
 20
1.375202704296025
 30
0.0
  0
LINE
  5
CC
330
1F
100
AcDbEntity
  8
0
  6
Continuous
 62
     4
370
    25
100
AcDbLine
 10
8.5980762113533
 20
1.049552522817093
 30
0.0
 11
8.598076211353298
 21
0.4836842786639413
 31
0.0
  0
SPLINE
  5
CD
330
1F
100
AcDbEntity
  8
0
  6
Continuous
 62
     4
370
    25
100
AcDbSpline
210
0.0
220
0.0
230
1.0
 70
     8
 71
     3
 72
    10
 73
     6
 74
     0
 42
0.000000001
 43
0.00000001
 40
0.0
 40
0.0
 40
0.0
 40
0.0
 40
0.5
 40
0.5
 40
1.0
 40
1.0
 40
1.0
 40
1.0
 10
8.598076211353295
 20
-1.419876585683898
 30
0.0
 10
8.432746901605617
 20
-1.388921731181456
 30
0.0
 10
8.263885682628281
 20
-1.348943506876238
 30
0.0
 10
7.928387807824492
 20
-1.252902408769887
 30
0.0
 10
7.764560088291043
 20
-1.197233202510801
 30
0.0
 10
7.5980762113533
 20
-1.134270778991375
 30
0.0
  0
LINE
  5
CE
330
1F
100
AcDbEntity
  8
0
  6
Continuous
 62
     4
370
    25
100
AcDbLine
 10
8.5980762113533
 20
-1.071652696468023
 30
0.0
 11
8.598076211353298
 21
-1.419876585683957
 31
0.0
  0
SPLINE
  5
CF
330
1F
100
AcDbEntity
  8
0
  6
Continuous
 62
     4
370
    25
100
AcDbSpline
210
0.0
220
0.0
230
1.0
 70
     8
 71
     3
 72
     9
 73
     5
 74
     0
 42
0.000000001
 43
0.00000001
 40
0.0
 40
0.0
 40
0.0
 40
0.0
 40
0.1752002619457542
 40
1.0
 40
1.0
 40
1.0
 40
1.0
 10
7.989654833718793
 20
1.265293869886906
 30
0.0
 10
8.025144779894985
 20
1.27747278854212
 30
0.0
 10
8.227712662968035
 20
1.346987060495584
 30
0.0
 10
8.430673865044634
 20
1.386930909493451
 30
0.0
 10
8.598076211352586
 20
1.41987658568377
 30
0.0
  0
SPLINE
  5
D0
330
1F
100
AcDbEntity
  8
0
  6
Continuous
 62
     4
370
    25
100
AcDbSpline
210
0.0
220
0.0
230
1.0
 70
    24
 71
     3
 72
    11
 73
     7
 74
     0
 42
0.000000001
 43
0.00000001
 40
0.0
 40
0.0
 40
0.0
 40
0.0
 40
0.2344453324569513
 40
0.4718262880386839
 40
0.8235924827211578
 40
1.0
 40
1.0
 40
1.0
 40
1.0
 10
8.598076211353298
 20
1.419876585683962
 30
0.0
 10
8.598076211353298
 20
1.385877438384074
 30
0.0
 10
8.598076211353298
 20
1.317453421156382
 30
0.0
 10
8.598076211353298
 20
1.208959220686475
 30
0.0
 10
8.598076211353298
 20
1.115354624967394
 30
0.0
 10
8.598076211353298
 20
1.066027536613152
 30
0.0
 10
8.598076211353298
 20
1.049552522817306
 30
0.0
  0
LINE
  5
D1
330
1F
100
AcDbEntity
  8
0
  6
Continuous
 62
     4
370
    25
100
AcDbLine
 10
7.989654833718809
 20
-1.265293869886905
 30
0.0
 11
7.598076211353321
 21
-1.375202704296023
 31
0.0
  0
SPLINE
  5
D2
330
1F
100
AcDbEntity
  8
0
  6
Continuous
 62
     1
370
    25
100
AcDbSpline
210
0.0
220
0.0
230
1.0
 70
     8
 71
     3
 72
    20
 73
    16
 74
     0
 42
0.000000001
 43
0.00000001
 40
0.0
 40
0.0
 40
0.0
 40
0.0
 40
0.0193468196850831
 40
0.1011831586918312
 40
0.1829410233809241
 40
0.2646529492876968
 40
0.3463519309542559
 40
0.42807109268527
 40
0.5098433565675291
 40
0.5917011147513287
 40
0.6735948154221788
 40
0.7553953966864663
 40
0.8371306436411979
 40
0.9188333175155404
 40
1.0
 40
1.0
 40
1.0
 40
1.0
 10
32.48402544830063
 20
-1.2567330393781
 30
0.0
 10
32.42190494036878
 20
-1.278965923553364
 30
0.0
 10
32.09701695803371
 20
-1.395243093873887
 30
0.0
 10
31.50973057087531
 20
-1.489900349763985
 30
0.0
 10
30.72237626665288
 20
-1.514997686964974
 30
0.0
 10
29.93555453779508
 20
-1.392911007600885
 30
0.0
 10
29.14888175610748
 20
-1.146332141406855
 30
0.0
 10
28.36197458240509
 20
-0.7946002700692766
 30
0.0
 10
27.5744623630891
 20
-0.3704998306991653
 30
0.0
 10
26.78619842328393
 20
0.087483821155548
 30
0.0
 10
25.99771994730992
 20
0.5371351708272856
 30
0.0
 10
25.20990790300366
 20
0.9387469242742116
 30
0.0
 10
24.42281092966855
 20
1.251933856005553
 30
0.0
 10
23.63782206424156
 20
1.460497364732648
 30
0.0
 10
23.11512597582118
 20
1.486563853961536
 30
0.0
 10
22.85463800931124
 20
1.49955420710117
 30
0.0
  0
SPLINE
  5
D3
330
1F
100
AcDbEntity
  8
0
  6
Continuous
 62
     1
370
    25
100
AcDbSpline
210
0.0
220
0.0
230
1.0
 70
     8
 71
     3
 72
    18
 73
    14
 74
     0
 42
0.000000001
 43
0.00000001
 40
0.0
 40
0.0
 40
0.0
 40
0.0
 40
0.0246359645659192
 40
0.1288451927900973
 40
0.2329544929361438
 40
0.3370052952912426
 40
0.4410396146352613
 40
0.5450996309858651
 40
0.649227266859354
 40
0.7534637699584449
 40
0.8577460417084977
 40
0.9619097365328426
 40
1.0
 40
1.0
 40
1.0
 40
1.0
 10
16.15983117019267
 20
-1.256733039378102
 30
0.0
 10
16.09771066239604
 20
-1.278965923873922
 30
0.0
 10
15.77282268076828
 20
-1.395243095870945
 30
0.0
 10
15.18553627482413
 20
-1.489900307233909
 30
0.0
 10
14.39818205297885
 20
-1.514997839690128
 30
0.0
 10
13.61136002002983
 20
-1.392910439550735
 30
0.0
 10
12.8246883721917
 20
-1.146334260875076
 30
0.0
 10
12.03777696531637
 20
-0.7945923558157967
 30
0.0
 10
11.25028056064337
 20
-0.3705294012658984
 30
0.0
 10
10.46195752356313
 20
0.0875943265129518
 30
0.0
 10
9.673699658479663
 20
0.5367227709521489
 30
0.0
 10
9.051586163665805
 20
0.8550713225401204
 30
0.0
 10
8.693861445834937
 20
1.008476406900044
 30
0.0
 10
8.5980762113533
 20
1.049552522817305
 30
0.0
  0
SPLINE
  5
D4
330
1F
100
AcDbEntity
  8
0
  6
Continuous
 62
     4
370
    25
100
AcDbSpline
210
0.0
220
0.0
230
1.0
 70
    24
 71
     3
 72
    10
 73
     6
 74
     0
 42
0.000000001
 43
0.00000001
 40
0.0
 40
0.0
 40
0.0
 40
0.0
 40
0.4714392807897055
 40
0.8234632241336612
 40
1.0
 40
1.0
 40
1.0
 40
1.0
 10
8.598076211353298
 20
1.419876585683962
 30
0.0
 10
8.598076211353298
 20
1.352985125391306
 30
0.0
 10
8.598076211353298
 20
1.236145778726492
 30
0.0
 10
8.598076211353298
 20
1.115489269266815
 30
0.0
 10
8.598076211353298
 20
1.066061247795896
 30
0.0
 10
8.598076211353298
 20
1.049552522817306
 30
0.0
  0
SPLINE
  5
D5
330
1F
100
AcDbEntity
  8
0
  6
Continuous
 62
     1
370
    25
100
AcDbSpline
210
0.0
220
0.0
230
1.0
 70
     8
 71
     3
 72
    19
 73
    15
 74
     0
 42
0.000000001
 43
0.00000001
 40
0.0
 40
0.0
 40
0.0
 40
0.0
 40
0.0902388363483273
 40
0.1804257703205246
 40
0.2705776111830768
 40
0.3578561940852205
 40
0.4451408685027343
 40
0.5324669422077345
 40
0.6198693088932026
 40
0.7073636207323974
 40
0.7947903956075623
 40
0.882132271444735
 40
0.9694239843573298
 40
1.0
 40
1.0
 40
1.0
 40
1.0
 10
8.598076211352586
 20
1.419876585683771
 30
0.0
 10
8.869268147610388
 20
1.456847049929139
 30
0.0
 10
9.411496039547679
 20
1.530766714238969
 30
0.0
 10
10.22451750177157
 20
1.455988219754686
 30
0.0
 10
11.02863188099066
 20
1.251882659966562
 30
0.0
 10
11.82383965184486
 20
0.9304392288675517
 30
0.0
 10
12.61060287714165
 20
0.5283199728213654
 30
0.0
 10
13.39780883793469
 20
0.0778326315865593
 30
0.0
 10
14.18576562845404
 20
-0.380033480918803
 30
0.0
 10
14.97429475795094
 20
-0.8023350183291617
 30
0.0
 10
15.76243153699211
 20
-1.154161381620682
 30
0.0
 10
16.54980580566201
 20
-1.391482453862211
 30
0.0
 10
17.16629785523096
 20
-1.504820648307199
 30
0.0
 10
17.52038886742201
 20
-1.488580594173818
 30
0.0
 10
17.61224346121446
 20
-1.484367768871198
 30
0.0
  0
SPLINE
  5
D6
330
1F
100
AcDbEntity
  8
0
  6
Continuous
 62
     1
370
    25
100
AcDbSpline
210
0.0
220
0.0
230
1.0
 70
     8
 71
     3
 72
    20
 73
    16
 74
     0
 42
0.000000001
 43
0.00000001
 40
0.0
 40
0.0
 40
0.0
 40
0.0
 40
0.0636353004063324
 40
0.148131761295316
 40
0.2325796226314665
 40
0.316994624018546
 40
0.3987192080786728
 40
0.4804494960187594
 40
0.562218548790236
 40
0.64405903961545
 40
0.7259856246369122
 40
0.807848970429339
 40
0.8896328197595604
 40
0.9713696982979788
 40
1.0
 40
1.0
 40
1.0
 40
1.0
 10
24.30949261711413
 20
1.263118645107812
 30
0.0
 10
24.51375688115067
 20
1.321048332234238
 30
0.0
 10
24.98924807877549
 20
1.455898431637088
 30
0.0
 10
25.73568327305545
 20
1.52272520343474
 30
0.0
 10
26.54871366823344
 20
1.458143802474461
 30
0.0
 10
27.35282567111904
 20
1.251325624356219
 30
0.0
 10
28.14803405891994
 20
0.9305864466659454
 30
0.0
 10
28.9347971206748
 20
0.5282805051774164
 30
0.0
 10
29.72200312531752
 20
0.077843218975776
 30
0.0
 10
30.50995990407288
 20
-0.3800363222814273
 30
0.0
 10
31.29848903672571
 20
-0.8023342571678893
 30
0.0
 10
32.08662581492128
 20
-1.154161585703549
 30
0.0
 10
32.87400008381918
 20
-1.39148239769501
 30
0.0
 10
33.49049213333531
 20
-1.5048206524357
 30
0.0
 10
33.84458314552923
 20
-1.488580595024194
 30
0.0
 10
33.93643773932243
 20
-1.484367768871196
 30
0.0
  0
SPLINE
  5
D7
330
1F
100
AcDbEntity
  8
0
  6
Continuous
 62
     1
370
    25
100
AcDbSpline
210
0.0
220
0.0
230
1.0
 70
     8
 71
     3
 72
    17
 73
    13
 74
     0
 42
0.000000001
 43
0.00000001
 40
0.0
 40
0.0
 40
0.0
 40
0.0
 40
0.1039776310834652
 40
0.2078390827369188
 40
0.3116253187913019
 40
0.415378052808121
 40
0.519139333897942
 40
0.6229511254715236
 40
0.7268548857985322
 40
0.830865402626721
 40
0.9347909654369543
 40
1.0
 40
1.0
 40
1.0
 40
1.0
 10
38.5980762113533
 20
-1.462748547532532
 30
0.0
 10
38.33518366160702
 20
-1.416141256695858
 30
0.0
 10
37.80969230516537
 20
-1.322978751689648
 30
0.0
 10
37.02203103209449
 20
-1.026771956243718
 30
0.0
 10
36.235035783886
 20
-0.6466060879324803
 30
0.0
 10
35.44834890810712
 20
-0.2050316237799784
 30
0.0
 10
34.66158439592687
 20
0.2546658382741876
 30
0.0
 10
33.87435722829161
 20
0.6910144229918497
 30
0.0
 10
33.08637679981001
 20
1.065934038344098
 30
0.0
 10
32.2978471261447
 20
1.337809547579184
 30
0.0
 10
31.60734077734466
 20
1.487805512216679
 30
0.0
 10
31.17986644810099
 20
1.485018701818008
 30
0.0
 10
31.01505576629267
 20
1.48394426040608
 30
0.0
  0
SPLINE
  5
D8
330
1F
100
AcDbEntity
  8
0
  6
Continuous
 62
     1
370
    25
100
AcDbSpline
210
0.0
220
0.0
230
1.0
 70
     8
 71
     3
 72
    20
 73
    16
 74
     0
 42
0.000000001
 43
0.00000001
 40
0.0
 40
0.0
 40
0.0
 40
0.0
 40
0.070020675246325
 40
0.1518153081115554
 40
0.2116671719905056
 40
0.2936361519522616
 40
0.3755135438554
 40
0.4573316408326128
 40
0.5391233270538086
 40
0.6209217512132352
 40
0.702759994445169
 40
0.7846707396645802
 40
0.8666656445384755
 40
0.948593577371145
 40
0.9999999999999999
 40
0.9999999999999999
 40
0.9999999999999999
 40
0.9999999999999999
 10
24.30949261711416
 20
-1.263118645107809
 30
0.0
 10
24.08503024242476
 20
-1.326822188935363
 30
0.0
 10
23.59836220540508
 20
-1.464941010268576
 30
0.0
 10
22.91978449054674
 20
-1.515535505858991
 30
0.0
 10
22.2030621507364
 20
-1.470590292589805
 30
0.0
 10
21.48546338687772
 20
-1.316811137966087
 30
0.0
 10
20.6978460240261
 20
-1.028422467984719
 30
0.0
 10
19.91083902354142
 20
-0.6461641307358662
 30
0.0
 10
19.12415529507057
 20
-0.2051500383963162
 30
0.0
 10
18.33738993951577
 20
0.2546975847905226
 30
0.0
 10
17.55016299801787
 20
0.6910059062048807
 30
0.0
 10
16.7621825088553
 20
1.065936325683387
 30
0.0
 10
15.97365285151399
 20
1.337808928459701
 30
0.0
 10
15.28314649873304
 20
1.48780560189235
 30
0.0
 10
14.85567216985288
 20
1.485018726771379
 30
0.0
 10
14.69086148818471
 20
1.483944260406079
 30
0.0
  0
SPLINE
  5
D9
330
1F
100
AcDbEntity
  8
0
  6
Continuous
 62
     1
370
    25
100
AcDbSpline
210
0.0
220
0.0
230
1.0
 70
     8
 71
     3
 72
     9
 73
     5
 74
     0
 42
0.000000001
 43
0.00000001
 40
0.0
 40
0.0
 40
0.0
 40
0.0
 40
0.9537168245365382
 40
1.0
 40
1.0
 40
1.0
 40
1.0
 10
8.598076211352586
 20
-1.419876585683767
 30
0.0
 10
8.86927537923425
 20
-1.469695627431137
 30
0.0
 10
9.153635643103403
 20
-1.521932350602692
 30
0.0
 10
9.437946946401397
 20
-1.497749548471385
 30
0.0
 10
9.451105776338185
 20
-1.496630291597143
 30
0.0
  0
SPLINE
  5
DA
330
1F
100
AcDbEntity
  8
0
  6
Continuous
 62
     1
370
    25
100
AcDbSpline
210
0.0
220
0.0
230
1.0
 70
     8
 71
     3
 72
    21
 73
    17
 74
     0
 42
0.000000001
 43
0.00000001
 40
0.0
 40
0.0
 40
0.0
 40
0.0
 40
0.0405711296491559
 40
0.1224005913898786
 40
0.204216061421158
 40
0.2860507122856915
 40
0.3679375243081504
 40
0.4499089571719695
 40
0.531921501946179
 40
0.6138413621101568
 40
0.6956947854259965
 40
0.7674066009237566
 40
0.8392045837473048
 40
0.9113026343999748
 40
0.9958948042647888
 40
1.0
 40
1.0
 40
1.0
 40
1.0
 10
16.15983117019268
 20
1.256733039378103
 30
0.0
 10
16.28987037177354
 20
1.299427136439862
 30
0.0
 10
16.68219060823251
 20
1.42823258934213
 30
0.0
 10
17.33663486230065
 20
1.510706536733165
 30
0.0
 10
18.12331156119661
 20
1.494781924980551
 30
0.0
 10
18.9102040026932
 20
1.336571566738443
 30
0.0
 10
19.697693677739
 20
1.058068828044237
 30
0.0
 10
20.48593439025148
 20
0.6826220048756316
 30
0.0
 10
21.27443398529774
 20
0.245204889357257
 30
0.0
 10
22.06223429423603
 20
-0.2147899307649194
 30
0.0
 10
22.81708223670475
 20
-0.6370881880234395
 30
0.0
 10
23.53887204316682
 20
-0.9892734337288954
 30
0.0
 10
24.22963424888712
 20
-1.259810090077924
 30
0.0
 10
24.96238277244428
 20
-1.438330647568217
 30
0.0
 10
25.47782940441365
 20
-1.521831088353942
 30
0.0
 10
25.76214120164838
 20
-1.49774506905459
 30
0.0
 10
25.77530005444613
 20
-1.496630291597142
 30
0.0
  0
SPLINE
  5
DB
330
1F
100
AcDbEntity
  8
0
  6
Continuous
 62
     1
370
    25
100
AcDbSpline
210
0.0
220
0.0
230
1.0
 70
     8
 71
     3
 72
    16
 73
    12
 74
     0
 42
0.000000001
 43
0.00000001
 40
0.0
 40
0.0
 40
0.0
 40
0.0
 40
0.063804049634907
 40
0.1924928754983361
 40
0.3211596973472967
 40
0.4498566838687121
 40
0.5786357014584779
 40
0.7075477977278114
 40
0.8365245485037811
 40
0.9653555391413777
 40
1.0
 40
1.0
 40
1.0
 40
1.0
 10
32.48402544830064
 20
1.256733039378104
 30
0.0
 10
32.61406464286827
 20
1.299427138657342
 30
0.0
 10
33.00638485816873
 20
1.428232598249608
 30
0.0
 10
33.66082939644151
 20
1.510706455779458
 30
0.0
 10
34.4475049008401
 20
1.494782221708718
 30
0.0
 10
35.23440178052365
 20
1.336570460179485
 30
0.0
 10
36.02187488104578
 20
1.05807296209726
 30
0.0
 10
36.81017752928528
 20
0.6826065557949746
 30
0.0
 10
37.5984459039357
 20
0.2452625486445615
 30
0.0
 10
38.19514847233926
 20
-0.1029761669081267
 30
0.0
 10
38.52761779999422
 20
-0.292128745690357
 30
0.0
 10
38.5980762113533
 20
-0.3322148200945009
 30
0.0
  0
LINE
  5
DC
330
1F
100
AcDbEntity
  8
0
  6
Continuous
 62
     1
370
    25
100
AcDbLine
 10
38.5980762113533
 20
-0.5000000000000006
 30
0.0
 11
38.5980762113533
 21
-0.33338569005303
 31
0.0
  0
SPLINE
  5
DD
330
1F
100
AcDbEntity
  8
0
  6
Continuous
 62
     1
370
    25
100
AcDbSpline
210
0.0
220
0.0
230
1.0
 70
    24
 71
     3
 72
    10
 73
     6
 74
     0
 42
0.000000001
 43
0.00000001
 40
0.0
 40
0.0
 40
0.0
 40
0.0
 40
0.5
 40
0.5
 40
1.0
 40
1.0
 40
1.0
 40
1.0
 10
38.5980762113533
 20
-0.5000000000000004
 30
0.0
 10
38.52274727136002
 20
-0.5527458916286447
 30
0.0
 10
38.42051794841747
 20
-0.6243276341790962
 30
0.0
 10
38.20162612327923
 20
-0.77759734019338
 30
0.0
 10
38.08808910964737
 20
-0.8570968130042111
 30
0.0
 10
37.98017819404714
 20
-0.9326568495626048
 30
0.0
  0
SPLINE
  5
DE
330
1F
100
AcDbEntity
  8
0
  6
Continuous
 62
     1
370
    25
100
AcDbSpline
210
0.0
220
0.0
230
1.0
 70
     8
 71
     3
 72
     8
 73
     4
 74
     0
 42
0.000000001
 43
0.00000001
 40
0.0
 40
0.0
 40
0.0
 40
0.0
 40
1.0
 40
1.0
 40
1.0
 40
1.0
 10
38.5980762113533
 20
-1.404383063753667
 30
0.0
 10
38.37780991610113
 20
-1.277322519792193
 30
0.0
 10
38.17575580507328
 20
-1.111824184871076
 30
0.0
 10
37.98017819404716
 20
-0.9326568495625895
 30
0.0
  0
LINE
  5
DF
330
1F
100
AcDbEntity
  8
0
  6
Continuous
 62
     1
370
    25
100
AcDbLine
 10
38.5980762113533
 20
-1.462748547532896
 30
0.0
 11
38.5980762113533
 21
-1.404383063753667
 31
0.0
  0
SPLINE
  5
E0
330
1F
100
AcDbEntity
  8
0
  6
Continuous
 62
     1
370
    25
100
AcDbSpline
210
0.0
220
0.0
230
1.0
 70
     8
 71
     3
 72
    20
 73
    16
 74
     0
 42
0.000000001
 43
0.00000001
 40
0.0
 40
0.0
 40
0.0
 40
0.0
 40
0.0332425750532768
 40
0.1150237472992796
 40
0.1968116566173798
 40
0.2786393798894138
 40
0.3605395958291017
 40
0.442523960604906
 40
0.5244413619484569
 40
0.6062802112422394
 40
0.6880730762494052
 40
0.769852984194543
 40
0.8516530921933384
 40
0.9335063549432937
 40
0.9999999999999999
 40
0.9999999999999999
 40
0.9999999999999999
 40
0.9999999999999999
 10
36.55471649189242
 20
-1.256043638847225
 30
0.0
 10
36.44813000694339
 20
-1.292205342928153
 30
0.0
 10
36.07932654058597
 20
-1.417329666343223
 30
0.0
 10
35.44835175370974
 20
-1.504843657142586
 30
0.0
 10
34.66158368623364
 20
-1.502882880680871
 30
0.0
 10
33.87435721995044
 20
-1.356941040049936
 30
0.0
 10
33.08637754474231
 20
-1.089037355590222
 30
0.0
 10
32.29784415244043
 20
-0.7215325809301552
 30
0.0
 10
31.50972909485074
 20
-0.2881805230014624
 30
0.0
 10
30.72237670819932
 20
0.1714795252354903
 30
0.0
 10
29.93555424628329
 20
0.6151072585181843
 30
0.0
 10
29.14888248077689
 20
1.003722827225758
 30
0.0
 10
28.36197197379632
 20
1.296913608472865
 30
0.0
 10
27.62399763893861
 20
1.474870846040701
 30
0.0
 10
27.14818156732477
 20
1.484969148914865
 30
0.0
 10
26.93490617489527
 20
1.489495518738932
 30
0.0
  0
SPLINE
  5
E1
330
1F
100
AcDbEntity
  8
0
  6
Continuous
 62
     1
370
    25
100
AcDbSpline
210
0.0
220
0.0
230
1.0
 70
     8
 71
     3
 72
    20
 73
    16
 74
     0
 42
0.000000001
 43
0.00000001
 40
0.0
 40
0.0
 40
0.0
 40
0.0
 40
0.0332425750532768
 40
0.1150237472992795
 40
0.1968116566173795
 40
0.2786393798894134
 40
0.3605395958291011
 40
0.4425239606049052
 40
0.524441361948456
 40
0.6062802112422384
 40
0.6880730762494041
 40
0.7698529841945417
 40
0.851653092193337
 40
0.9335063549432923
 40
1.0
 40
1.0
 40
1.0
 40
1.0
 10
20.23052221378445
 20
-1.256043638847227
 30
0.0
 10
20.12393572883542
 20
-1.292205342928154
 30
0.0
 10
19.75513226247799
 20
-1.417329666343225
 30
0.0
 10
19.12415747560178
 20
-1.504843657142588
 30
0.0
 10
18.33738940812567
 20
-1.502882880680873
 30
0.0
 10
17.55016294184248
 20
-1.356941040049938
 30
0.0
 10
16.76218326663434
 20
-1.089037355590223
 30
0.0
 10
15.97364987433247
 20
-0.721532580930157
 30
0.0
 10
15.18553481674279
 20
-0.2881805230014643
 30
0.0
 10
14.39818243009136
 20
0.1714795252354882
 30
0.0
 10
13.61135996817532
 20
0.6151072585181826
 30
0.0
 10
12.82468820266894
 20
1.003722827225755
 30
0.0
 10
12.03777769568835
 20
1.296913608472863
 30
0.0
 10
11.29980336083065
 20
1.4748708460407
 30
0.0
 10
10.8239872892168
 20
1.484969148914864
 30
0.0
 10
10.6107118967873
 20
1.48949551873893
 30
0.0
  0
SPLINE
  5
E2
330
1F
100
AcDbEntity
  8
0
  6
Continuous
 62
     1
370
    25
100
AcDbSpline
210
0.0
220
0.0
230
1.0
 70
     8
 71
     3
 72
    20
 73
    16
 74
     0
 42
0.000000001
 43
0.00000001
 40
0.0
 40
0.0
 40
0.0
 40
0.0
 40
0.054416076614136
 40
0.1363579828660453
 40
0.2183714781862358
 40
0.3004712496991753
 40
0.3825076483002192
 40
0.4644643823896589
 40
0.5463740463946588
 40
0.6282697049767343
 40
0.710184563191482
 40
0.7921516336880766
 40
0.8742034079641681
 40
0.9562963344450406
 40
0.9999999999999999
 40
0.9999999999999999
 40
0.9999999999999999
 40
0.9999999999999999
 10
12.08783537193257
 20
1.261113309361354
 30
0.0
 10
12.26205121346612
 20
1.314464230861815
 30
0.0
 10
12.69860824243528
 20
1.448153105409558
 30
0.0
 10
13.39781017655211
 20
1.518281155884055
 30
0.0
 10
14.18576527001986
 20
1.475781360862447
 30
0.0
 10
14.97429485093082
 20
1.294232982075703
 30
0.0
 10
15.76243152338888
 20
0.9957965511188417
 30
0.0
 10
16.54980576727609
 20
0.6062534235709118
 30
0.0
 10
17.33663885495283
 20
0.1616691306297856
 30
0.0
 10
18.12331055742263
 20
-0.2977711760491926
 30
0.0
 10
18.91020402455355
 20
-0.7296270135371395
 30
0.0
 10
19.69769459588899
 20
-1.09687523536447
 30
0.0
 10
20.48593069072882
 20
-1.357370408775791
 30
0.0
 10
21.15176629610522
 20
-1.493951843173051
 30
0.0
 10
21.55459327545285
 20
-1.485733485856437
 30
0.0
 10
21.69454154668191
 20
-1.482878302470594
 30
0.0
  0
SPLINE
  5
E3
330
1F
100
AcDbEntity
  8
0
  6
Continuous
 62
     1
370
    25
100
AcDbSpline
210
0.0
220
0.0
230
1.0
 70
     8
 71
     3
 72
    20
 73
    16
 74
     0
 42
0.000000001
 43
0.00000001
 40
0.0
 40
0.0
 40
0.0
 40
0.0
 40
0.0544160766141361
 40
0.1363579828660453
 40
0.2183714781862357
 40
0.3004712496991752
 40
0.3825076483002192
 40
0.4644643823896588
 40
0.5463740463946587
 40
0.6282697049767341
 40
0.7101845631914817
 40
0.7921516336880764
 40
0.8742034079641677
 40
0.9562963344450403
 40
0.9999999999999999
 40
0.9999999999999999
 40
0.9999999999999999
 40
0.9999999999999999
 10
28.41202965004053
 20
1.261113309361356
 30
0.0
 10
28.58624549157409
 20
1.314464230861817
 30
0.0
 10
29.02280252054325
 20
1.448153105409559
 30
0.0
 10
29.72200445466007
 20
1.518281155884057
 30
0.0
 10
30.50995954812781
 20
1.47578136086245
 30
0.0
 10
31.29848912903878
 20
1.294232982075705
 30
0.0
 10
32.08662580149684
 20
0.9957965511188439
 30
0.0
 10
32.87400004538405
 20
0.6062534235709135
 30
0.0
 10
33.66083313306078
 20
0.1616691306297879
 30
0.0
 10
34.44750483553059
 20
-0.2977711760491905
 30
0.0
 10
35.2343983026615
 20
-0.7296270135371385
 30
0.0
 10
36.02188887399696
 20
-1.096875235364468
 30
0.0
 10
36.8101249688368
 20
-1.35737040877579
 30
0.0
 10
37.47596057421318
 20
-1.493951843173049
 30
0.0
 10
37.87878755356081
 20
-1.485733485856435
 30
0.0
 10
38.01873582478987
 20
-1.482878302470592
 30
0.0
  0
SPLINE
  5
E4
330
1F
100
AcDbEntity
  8
0
  6
Continuous
 62
     1
370
    25
100
AcDbSpline
210
0.0
220
0.0
230
1.0
 70
     8
 71
     3
 72
    12
 73
     8
 74
     0
 42
0.000000001
 43
0.00000001
 40
0.0
 40
0.0
 40
0.0
 40
0.0
 40
0.2252445799667858
 40
0.4502374828503272
 40
0.6750674477457355
 40
0.8998248378738548
 40
1.0
 40
1.0
 40
1.0
 40
1.0
 10
38.5980762113533
 20
0.3322148200944747
 30
0.0
 10
38.33518362542264
 20
0.4769758452348252
 30
0.0
 10
37.80969219665268
 20
0.7663361467507828
 30
0.0
 10
37.02203146544872
 20
1.124508296122603
 30
0.0
 10
36.23503416028252
 20
1.37444697024936
 30
0.0
 10
35.59370809997226
 20
1.49929771073897
 30
0.0
 10
35.21464046788111
 20
1.4868582429492
 30
0.0
 10
35.09777571783357
 20
1.483023214128733
 30
0.0
  0
SPLINE
  5
E5
330
1F
100
AcDbEntity
  8
0
  6
Continuous
 62
     1
370
    25
100
AcDbSpline
210
0.0
220
0.0
230
1.0
 70
     8
 71
     3
 72
    21
 73
    17
 74
     0
 42
0.000000001
 43
0.00000001
 40
0.0
 40
0.0
 40
0.0
 40
0.0
 40
0.0051778809902762
 40
0.086873575544605
 40
0.1686546843459313
 40
0.2504717019787391
 40
0.3321956873994684
 40
0.4138543996879158
 40
0.4954805693965221
 40
0.5771072528153753
 40
0.6368362224768079
 40
0.7186368950041708
 40
0.8003461675312666
 40
0.8819962668830901
 40
0.9636200097082719
 40
1.0
 40
1.0
 40
1.0
 40
1.0
 10
28.41202965004053
 20
-1.261113309361354
 30
0.0
 10
28.39539618517647
 20
-1.267347124188032
 30
0.0
 10
28.1163228404723
 20
-1.371936971713218
 30
0.0
 10
27.57445706934167
 20
-1.469869107888457
 30
0.0
 10
26.78619988783622
 20
-1.522660322385672
 30
0.0
 10
25.9977193883954
 20
-1.424711129867942
 30
0.0
 10
25.20990867437722
 20
-1.199977875605164
 30
0.0
 10
24.42280840485667
 20
-0.865027126410408
 30
0.0
 10
23.63610962705259
 20
-0.4516167214564838
 30
0.0
 10
22.91978387083053
 20
-0.0373870153065876
 30
0.0
 10
22.20306237585297
 20
0.3758173747878579
 30
0.0
 10
21.48546320348513
 20
0.7649637533258667
 30
0.0
 10
20.69784649166886
 20
1.124876124922104
 30
0.0
 10
19.91083733762293
 20
1.374346376271679
 30
0.0
 10
19.2695140691215
 20
1.499307485579064
 30
0.0
 10
18.89044624803846
 20
1.48686054635645
 30
0.0
 10
18.77358143972562
 20
1.483023214128733
 30
0.0
  0
SPLINE
  5
E6
330
1F
100
AcDbEntity
  8
0
  6
Continuous
 62
     1
370
    25
100
AcDbSpline
210
0.0
220
0.0
230
1.0
 70
     8
 71
     3
 72
    13
 73
     9
 74
     0
 42
0.000000001
 43
0.00000001
 40
0.0
 40
0.0
 40
0.0
 40
0.0
 40
0.0143003678327258
 40
0.2399290535191876
 40
0.4657936378584988
 40
0.6917573958751487
 40
0.9174642158015812
 40
1.0
 40
1.0
 40
1.0
 40
1.0
 10
12.08783537193257
 20
-1.261113309361354
 30
0.0
 10
12.07120189872278
 20
-1.267347160513216
 30
0.0
 10
11.79212841399543
 20
-1.371937617495933
 30
0.0
 10
11.25027605359242
 20
-1.469811382845289
 30
0.0
 10
10.46195873474205
 20
-1.522864347978876
 30
0.0
 10
9.673699325530775
 20
-1.423952849786392
 30
0.0
 10
9.051586189377856
 20
-1.249498505261271
 30
0.0
 10
8.693861451265544
 20
-1.109215273452448
 30
0.0
 10
8.5980762113533
 20
-1.071652696468314
 30
0.0
  0
SPLINE
  5
E7
330
1F
100
AcDbEntity
  8
0
  6
Continuous
 62
     4
370
    25
100
AcDbSpline
210
0.0
220
0.0
230
1.0
 70
    24
 71
     3
 72
    16
 73
    12
 74
     0
 42
0.000000001
 43
0.00000001
 40
0.0
 40
0.0
 40
0.0
 40
0.0
 40
0.125
 40
0.125
 40
0.25
 40
0.25
 40
0.5
 40
0.5
 40
0.75
 40
0.75
 40
1.0
 40
1.0
 40
1.0
 40
1.0
 10
8.5980762113533
 20
0.4836842786639401
 30
0.0
 10
8.5980762113533
 20
0.4597064043349263
 30
0.0
 10
8.5980762113533
 20
0.4352111885698434
 30
0.0
 10
8.5980762113533
 20
0.375065166622103
 30
0.0
 10
8.5980762113533
 20
0.3397364625665142
 30
0.0
 10
8.5980762113533
 20
0.2142620248266277
 30
0.0
 10
8.598076211353304
 20
0.1036204073075683
 30
0.0
 10
8.598076211353304
 20
-0.1795695027644004
 30
0.0
 10
8.598076211353304
 20
-0.3534292944328067
 30
0.0
 10
8.598076211353304
 20
-0.721958892320313
 30
0.0
 10
8.598076211353304
 20
-0.9141500058756833
 30
0.0
 10
8.598076211353304
 20
-1.071652696468314
 30
0.0
  0
SPLINE
  5
E8
330
1F
100
AcDbEntity
  8
0
  6
Continuous
 62
     1
370
    25
100
AcDbSpline
210
0.0
220
0.0
230
1.0
 70
     8
 71
     3
 72
    14
 73
    10
 74
     0
 42
0.000000001
 43
0.00000001
 40
0.0
 40
0.0
 40
0.0
 40
0.0
 40
0.1649187413997648
 40
0.3297426270268556
 40
0.4945023771696178
 40
0.6540110169731649
 40
0.8135307895116708
 40
0.9731262225824197
 40
1.0
 40
1.0
 40
1.0
 40
1.0
 10
8.598076211352586
 20
0.4836842786643027
 30
0.0
 10
8.869268164619756
 20
0.3309708786804532
 30
0.0
 10
9.411496090566006
 20
0.0256319143791567
 30
0.0
 10
10.22451729786825
 20
-0.4478014423030512
 30
0.0
 10
11.02863263502567
 20
-0.8688303381329735
 30
0.0
 10
11.82383693637514
 20
-1.207965295379654
 30
0.0
 10
12.61061302544531
 20
-1.420695390906145
 30
0.0
 10
13.17936716954189
 20
-1.514543049422119
 30
0.0
 10
13.48597388728049
 20
-1.493438634750247
 30
0.0
 10
13.53016177580998
 20
-1.490397085204695
 30
0.0
  0
SPLINE
  5
E9
330
1F
100
AcDbEntity
  8
0
  6
Continuous
 62
     1
370
    25
100
AcDbSpline
210
0.0
220
0.0
230
1.0
 70
     8
 71
     3
 72
    21
 73
    17
 74
     0
 42
0.000000001
 43
0.00000001
 40
0.0
 40
0.0
 40
0.0
 40
0.0
 40
0.0265223395380383
 40
0.1084634679519656
 40
0.1903119924652347
 40
0.2720941379834406
 40
0.3437435069754107
 40
0.4154789682588338
 40
0.4875142360729123
 40
0.5720327432450644
 40
0.6565026381840948
 40
0.7409396646004439
 40
0.8226855717231353
 40
0.9044371842140067
 40
0.9862275716505433
 40
1.0
 40
1.0
 40
1.0
 40
1.0
 10
20.23052221378445
 20
1.256043638847229
 30
0.0
 10
20.31562232685033
 20
1.285698091739836
 30
0.0
 10
20.66364039565574
 20
1.406970379817492
 30
0.0
 10
21.2744412571245
 20
1.498253055403625
 30
0.0
 10
22.0622323515247
 20
1.509273796428918
 30
0.0
 10
22.81708264436946
 20
1.380229584603526
 30
0.0
 10
23.53887207158097
 20
1.150679167162472
 30
0.0
 10
24.22963374263312
 20
0.8496789095521421
 30
0.0
 10
24.96238492375006
 20
0.4688044222157417
 30
0.0
 10
25.73567327480614
 20
0.0234394860843444
 30
0.0
 10
26.54871615818216
 20
-0.447213736929231
 30
0.0
 10
27.35282572874054
 20
-0.8689822462296636
 30
0.0
 10
28.1480315285115
 20
-1.207925018668481
 30
0.0
 10
28.93480721559304
 20
-1.420706672525978
 30
0.0
 10
29.50356145047481
 20
-1.514542687097606
 30
0.0
 10
29.8101681657443
 20
-1.493438589109992
 30
0.0
 10
29.85435605391796
 20
-1.490397085204694
 30
0.0
  0
SPLINE
  5
EA
330
1F
100
AcDbEntity
  8
0
  6
Continuous
 62
     1
370
    25
100
AcDbSpline
210
0.0
220
0.0
230
1.0
 70
     8
 71
     3
 72
    11
 73
     7
 74
     0
 42
0.000000001
 43
0.00000001
 40
0.0
 40
0.0
 40
0.0
 40
0.0
 40
0.1249155218361103
 40
0.5108437240214997
 40
0.8963357782359236
 40
1.0
 40
1.0
 40
1.0
 40
1.0
 10
36.55471649189242
 20
1.256043638847229
 30
0.0
 10
36.63981908974266
 20
1.28571061743516
 30
0.0
 10
36.98784732010753
 20
1.407034129514051
 30
0.0
 10
37.59844726733914
 20
1.497304004734715
 30
0.0
 10
38.19514839832186
 20
1.508957229153919
 30
0.0
 10
38.52761778705107
 20
1.470828880512656
 30
0.0
 10
38.5980762113533
 20
1.462748547532896
 30
0.0
  0
LINE
  5
EB
330
1F
100
AcDbEntity
  8
0
  6
Continuous
 62
     1
370
    25
100
AcDbLine
 10
38.5980762113533
 20
0.8043077700777138
 30
0.0
 11
38.5980762113533
 21
1.462748547532896
 31
0.0
  0
SPLINE
  5
EC
330
1F
100
AcDbEntity
  8
0
  6
Continuous
 62
     1
370
    25
100
AcDbSpline
210
0.0
220
0.0
230
1.0
 70
     8
 71
     3
 72
    10
 73
     6
 74
     0
 42
0.000000001
 43
0.00000001
 40
0.0
 40
0.0
 40
0.0
 40
0.0
 40
0.3173897196613434
 40
0.6335278095279446
 40
1.0
 40
1.0
 40
1.0
 40
1.0
 10
38.5980762113533
 20
0.8043077700777138
 30
0.0
 10
38.55422533846537
 20
0.7566917650555591
 30
0.0
 10
38.46669651908135
 20
0.6616475292424249
 30
0.0
 10
38.28674261807275
 20
0.5889335232969938
 30
0.0
 10
38.16094840391209
 20
0.5974587763237499
 30
0.0
 10
38.09341340987525
 20
0.6020357190406012
 30
0.0
  0
LINE
  5
ED
330
1F
100
AcDbEntity
  8
0
  6
Continuous
 62
     1
370
    25
100
AcDbLine
 10
38.5980762113533
 20
-0.3322148200945009
 30
0.0
 11
38.5980762113533
 21
0.3322148200945039
 31
0.0
  0
LINE
  5
EE
330
1F
100
AcDbEntity
  8
0
  6
Continuous
 62
     1
370
    25
100
AcDbLine
 10
38.5980762113533
 20
1.462748547532896
 30
0.0
 11
38.5980762113533
 21
1.500000000000006
 31
0.0
  0
LINE
  5
EF
330
1F
100
AcDbEntity
  8
0
  6
Continuous
 62
     1
370
    25
100
AcDbLine
 10
38.5980762113533
 20
-1.500000000000001
 30
0.0
 11
38.5980762113533
 21
-1.462748547532896
 31
0.0
  0
LINE
  5
F0
330
1F
100
AcDbEntity
  8
0
  6
Continuous
 62
     1
370
    25
100
AcDbLine
 10
38.5980762113533
 20
0.3322148200944765
 30
0.0
 11
38.5980762113533
 21
0.8043077700777138
 31
0.0
  0
LINE
  5
F1
330
1F
100
AcDbEntity
  8
0
  6
Continuous
 62
     1
370
    25
100
AcDbLine
 10
38.5980762113533
 20
-0.4999999999999976
 30
0.0
 11
38.5980762113533
 21
-1.404383063753667
 31
0.0
  0
LINE
  5
F2
330
1F
100
AcDbEntity
  8
중심선
100
AcDbLine
 10
-34.4019237886467
 20
-0.0000000000000043
 30
0.0
 11
41.59807621135332
 21
0.000000000000005
 31
0.0
  0
CIRCLE
  5
F3
330
1F
100
AcDbEntity
  8
해칭선
100
AcDbCircle
 10
-0.0000193349587747
 20
-0.0000000000000041
 30
0.0
 40
3.000000000000003
  0
INSERT
  5
F4
330
1F
100
AcDbEntity
  8
0
  6
Continuous
 62
     7
100
AcDbBlockReference
 66
     1
  2
블럭10
 10
-7.440099248941779
 20
-52.04717430164393
 30
0.0
  0
ATTRIB
  5
F5
330
F4
100
AcDbEntity
  8
FORMAT
 62
     2
100
AcDbText
 10
-23.55936028837733
 20
-49.97180738881174
 30
0.0
 40
4.233333333333333
  1
SEME7203030E [ 4 FLUTE ]
 41
0.75
  7
SLDTEXTSTYLE0
 11
-23.55936028837733
 21
-52.08847405547841
 31
0.0
100
AcDbAttribute
  2
AUTOATTR0
 70
     0
 74
     1
  0
SEQEND
  5
F6
330
F4
100
AcDbEntity
  8
0
  6
Continuous
 62
     7
  0
HATCH
  5
F7
330
1F
100
AcDbEntity
  8
중심선
100
AcDbHatch
 10
0.0
 20
0.0
 30
0.0
210
0.0
220
0.0
230
1.0
  2
SOLID
 70
     1
 71
     0
 91
        1
 92
        0
 93
        4
 72
     1
 10
-1.725189944560945
 20
-35.8
 11
-5.171465188398228
 21
-35.8
 72
     1
 10
-5.171465188398228
 20
-35.8
 11
-7.299695047602251
 21
-38.33632558057259
 72
     1
 10
-7.299695047602251
 20
-38.33632558057259
 11
-3.853386718651819
 21
-38.3362861512701
 72
     1
 10
-3.853386718651819
 20
-38.3362861512701
 11
-1.725189944560945
 21
-35.8
 97
        0
 75
     0
 76
     1
 98
        1
 10
0.0
 20
0.0
  0
HATCH
  5
F8
330
1F
100
AcDbEntity
  8
중심선
100
AcDbHatch
 10
0.0
 20
0.0
 30
0.0
210
0.0
220
0.0
230
1.0
  2
SOLID
 70
     1
 71
     0
 91
        1
 92
        0
 93
        4
 72
     1
 10
3.287574046475034
 20
-35.8
 11
-0.158701197362249
 21
-35.79999999999997
 72
     1
 10
-0.1587011973622487
 20
-35.79999999999997
 11
-4.689839205719665
 21
-41.20000000000002
 72
     1
 10
-4.689839205719665
 20
-41.20000000000002
 11
-1.243563961882383
 21
-41.20000000000002
 72
     1
 10
-1.243563961882382
 20
-41.20000000000002
 11
3.287574046475034
 21
-35.8
 97
        0
 75
     0
 76
     1
 98
        1
 10
0.0
 20
0.0
  0
HATCH
  5
F9
330
1F
100
AcDbEntity
  8
중심선
100
AcDbHatch
 10
0.0
 20
0.0
 30
0.0
210
0.0
220
0.0
230
1.0
  2
SOLID
 70
     1
 71
     0
 91
        1
 92
        0
 93
        4
 72
     1
 10
8.30033803751093
 20
-35.79999999999997
 11
4.854062793673814
 21
-35.79999999999997
 72
     1
 10
4.854062793673814
 20
-35.79999999999997
 11
-2.194374108215463
 21
-44.20000000000002
 72
     1
 10
-2.194374108215463
 20
-44.20000000000002
 11
1.251901135621819
 21
-44.20000000000002
 72
     1
 10
1.251901135621819
 20
-44.20000000000002
 11
8.30033803751093
 21
-35.79999999999997
 97
        0
 75
     0
 76
     1
 98
        1
 10
0.0
 20
0.0
  0
HATCH
  5
FA
330
1F
100
AcDbEntity
  8
중심선
100
AcDbHatch
 10
0.0
 20
0.0
 30
0.0
210
0.0
220
0.0
230
1.0
  2
SOLID
 70
     1
 71
     0
 91
        1
 92
        0
 93
        6
 72
     3
 10
13.1002284685231
 20
-40.00000000005127
 11
3.960054785062284
 21
1.540850780301639E-10
 40
0.3939339440162633
 50
17.09539180608433
 51
320.0019657685081
 73
     0
 72
     1
 10
14.78322812422367
 20
-38.58789400463833
 11
17.08852999792473
 21
-36.65356729459038
 72
     3
 10
13.10022846847025
 20
-40.00000000000015
 11
6.600054785286829
 21
-1.249000902703301E-13
 40
0.6363583540795982
 50
39.99873849337408
 51
368.4976242363725
 73
     1
 72
     1
 10
19.52556096037086
 20
-39.03999999993002
 11
11.78029577530618
 21
-39.03999999993002
 72
     1
 10
11.78029577530618
 20
-39.03999999993002
 11
11.78027073086024
 21
-40.95999999992991
 72
     1
 10
11.78027073086024
 20
-40.95999999992991
 11
16.22165050033228
 21
-40.95999999992988
 97
        0
 75
     0
 76
     1
 98
        1
 10
0.0
 20
0.0
  0
DIMENSION
  5
FB
330
1F
100
AcDbEntity
  8
치수문자_일반주서
100
AcDbDimension
  2
_D
 10
52.03881548810021
 20
1.500000000000053
 30
0.0
 11
52.03881548810019
 21
11.16650000000005
 31
0.0
 70
   160
  1
%%c<>
 71
     2
 42
3.000000000000008
 52
-270.0
  3
SLDDIMSTYLE0
100
AcDbAlignedDimension
 13
38.59807621135333
 23
-1.500000000000004
 33
0.0
 14
38.59807621135333
 24
1.500000000000004
 34
0.0
 50
90.0000000000002
100
AcDbRotatedDimension
  0
DIMENSION
  5
109
330
1F
100
AcDbEntity
  8
치수문자_일반주서
100
AcDbDimension
  2
_D_1
 10
38.59807621135331
 20
20.38913260158165
 30
0.0
 11
3.598076211353297
 21
20.38913260158165
 31
0.0
 70
   160
  1
<>
 71
     2
 42
70.0
  3
SLDDIMSTYLE1
100
AcDbAlignedDimension
 13
-31.40192378864671
 23
2.499999999999995
 33
0.0
 14
38.5980762113533
 24
1.500000000000006
 34
0.0
 50
-0.0000000000000058
100
AcDbRotatedDimension
  0
DIMENSION
  5
114
330
1F
100
AcDbEntity
  8
치수문자_일반주서
100
AcDbDimension
  2
_D_2
 10
-45.93120399188968
 20
-3.000000000000059
 30
0.0
 11
-45.93120399188974
 21
12.66649999999995
 31
0.0
 70
   160
  1
%%c<>
 71
     2
 42
6.000000000000005
 52
-270.0
  3
SLDDIMSTYLE2
100
AcDbAlignedDimension
 13
-30.90192378864671
 23
3.000000000000003
 33
0.0
 14
-30.90192378864671
 24
-3.000000000000002
 34
0.0
 50
90.0000000000002
100
AcDbRotatedDimension
  0
DIMENSION
  5
122
330
1F
100
AcDbEntity
  8
치수문자_일반주서
100
AcDbDimension
  2
_D_3
 10
38.5980762113533
 20
12.26579488827161
 30
0.0
 11
23.5980762113533
 21
12.26579488827161
 31
0.0
 70
   160
  1
<>
 71
     2
 42
30.0
  3
SLDDIMSTYLE1
100
AcDbAlignedDimension
 13
8.598076211353298
 23
1.419876585683962
 33
0.0
 14
38.5980762113533
 24
1.500000000000006
 34
0.0
 50
-0.0000000000000068
100
AcDbRotatedDimension
  0
INSERT
  5
132
330
1F
100
AcDbEntity
  8
해칭선
100
AcDbBlockReference
  2
SW_DOWELSYMBOL_0
 10
-0.0000193349587747
 20
-0.0000000000000041
 30
0.0
  0
ENDSEC
  0
SECTION
  2
OBJECTS
  0
DICTIONARY
  5
C
330
0
100
AcDbDictionary
281
     1
  3
ACAD_GROUP
350
D
  3
ACAD_IMAGE_VARS
350
156
  3
ACAD_LAYOUT
350
1A
  3
ACAD_MLINESTYLE
350
17
  3
ACAD_PLOTSETTINGS
350
19
  3
ACAD_PLOTSTYLENAME
350
E
  3
ACAD_SCALELIST
350
47
  3
APPDATA
350
154
  3
DWGPROPS
350
165
  0
DICTIONARY
  5
D
102
{ACAD_REACTORS
330
C
102
}
330
C
100
AcDbDictionary
281
     1
  0
RASTERVARIABLES
  5
156
102
{ACAD_REACTORS
330
C
102
}
330
C
100
AcDbRasterVariables
 90
        0
 70
     1
 71
     1
 72
     1
  0
DICTIONARY
  5
1A
102
{ACAD_REACTORS
330
C
102
}
330
C
100
AcDbDictionary
281
     1
  3
Layout1
350
1E
  3
Layout2
350
26
  3
Model
350
22
  0
DICTIONARY
  5
17
102
{ACAD_REACTORS
330
C
102
}
330
C
100
AcDbDictionary
281
     1
  3
Standard
350
18
  0
DICTIONARY
  5
19
102
{ACAD_REACTORS
330
C
102
}
330
C
100
AcDbDictionary
281
     1
  0
ACDBDICTIONARYWDFLT
  5
E
102
{ACAD_REACTORS
330
C
102
}
330
C
100
AcDbDictionary
281
     1
  3
Normal
350
F
100
AcDbDictionaryWithDefault
340
F
  0
DICTIONARY
  5
47
102
{ACAD_REACTORS
330
C
102
}
330
C
100
AcDbDictionary
281
     1
  3
A0
350
48
  3
A1
350
49
  3
A2
350
4A
  3
A3
350
4B
  3
A4
350
4C
  3
A5
350
4D
  3
A6
350
4E
  3
A7
350
4F
  3
A8
350
50
  3
A9
350
51
  3
B0
350
52
  3
B1
350
53
  3
B2
350
54
  3
B3
350
55
  3
B4
350
56
  3
B5
350
57
  3
B6
350
58
  3
B7
350
59
  3
B8
350
5A
  3
B9
350
5B
  3
C0
350
5C
  3
C1
350
5D
  3
C2
350
5E
  3
C3
350
5F
  3
C4
350
60
  3
C5
350
61
  3
C6
350
62
  3
C7
350
63
  3
C8
350
64
  3
C9
350
65
  3
D0
350
66
  3
D1
350
67
  3
D2
350
68
  0
DICTIONARY
  5
154
102
{ACAD_REACTORS
330
C
102
}
330
C
100
AcDbDictionary
281
     1
  0
XRECORD
  5
165
102
{ACAD_REACTORS
330
C
102
}
330
C
100
AcDbXrecord
280
     1
  1
DWGPROPS COOKIE
  2

  3

  4

  6

  7

  8
12014102
  9

300
=
301
=
302
=
303
=
304
=
305
=
306
=
307
=
308
=
309
=
 40
0.0
 41
2458260.195975972
 42
2458268.119340532
  1

 90
        0
  0
LAYOUT
  5
1E
102
{ACAD_REACTORS
330
1A
102
}
330
1A
100
AcDbPlotSettings
  1

  2
none_device
  4

  6

 40
0.0
 41
0.0
 42
0.0
 43
0.0
 44
0.0
 45
0.0
 46
0.0
 47
0.0
 48
0.0
 49
0.0
140
0.0
141
0.0
142
1.0
143
1.0
 70
   688
 72
     1
 73
     0
 74
     5
  7

 75
    16
147
1.0
148
0.0
149
0.0
100
AcDbLayout
  1
Layout1
 70
     1
 71
     1
 10
0.0
 20
0.0
 11
420.0
 21
297.0
 12
0.0
 22
0.0
 32
0.0
 14
1.000000000000000E+20
 24
1.000000000000000E+20
 34
1.000000000000000E+20
 15
-1.000000000000000E+20
 25
-1.000000000000000E+20
 35
-1.000000000000000E+20
146
0.0
 13
0.0
 23
0.0
 33
0.0
 16
1.0
 26
0.0
 36
0.0
 17
0.0
 27
1.0
 37
0.0
 76
     0
330
1B
  0
LAYOUT
  5
26
102
{ACAD_REACTORS
330
1A
102
}
330
1A
100
AcDbPlotSettings
  1

  2
none_device
  4

  6

 40
0.0
 41
0.0
 42
0.0
 43
0.0
 44
0.0
 45
0.0
 46
0.0
 47
0.0
 48
0.0
 49
0.0
140
0.0
141
0.0
142
1.0
143
1.0
 70
   688
 72
     1
 73
     0
 74
     5
  7

 75
    16
147
1.0
148
0.0
149
0.0
100
AcDbLayout
  1
Layout2
 70
     1
 71
     2
 10
0.0
 20
0.0
 11
0.0
 21
0.0
 12
0.0
 22
0.0
 32
0.0
 14
0.0
 24
0.0
 34
0.0
 15
0.0
 25
0.0
 35
0.0
146
0.0
 13
0.0
 23
0.0
 33
0.0
 16
1.0
 26
0.0
 36
0.0
 17
0.0
 27
1.0
 37
0.0
 76
     0
330
23
  0
LAYOUT
  5
22
102
{ACAD_REACTORS
330
1A
102
}
330
1A
100
AcDbPlotSettings
  1

  2
none_device
  4
ANSI_A_(11.00_x_8.50_Inches)
  6

 40
6.35
 41
19.05
 42
6.35000508
 43
19.05000254
 44
279.4
 45
215.9
 46
117.8564527099092
 47
122.9471696842158
 48
0.0
 49
0.0
140
0.0
141
0.0
142
0.103850072157585
143
1.0
 70
  1696
 72
     0
 73
     0
 74
     0
  7

 75
     0
147
0.0235690232323232
148
0.0
149
0.0
100
AcDbLayout
  1
Model
 70
     1
 71
     0
 10
0.0
 20
0.0
 11
420.0
 21
297.0
 12
0.0
 22
0.0
 32
0.0
 14
-50.30620399188975
 24
-49.97180738881174
 34
0.0
 15
52.58914882143357
 25
24.76413260158165
 35
0.0
146
0.0
 13
0.0
 23
0.0
 33
0.0
 16
1.0
 26
0.0
 36
0.0
 17
0.0
 27
1.0
 37
0.0
 76
     0
330
1F
331
29
  0
MLINESTYLE
  5
18
102
{ACAD_REACTORS
330
17
102
}
330
17
100
AcDbMlineStyle
  2
Standard
 70
     0
  3

 62
   256
 51
90.0
 52
90.0
 71
     2
 49
0.5
 62
   256
  6
BYLAYER
 49
-0.5
 62
   256
  6
BYLAYER
  0
ACDBPLACEHOLDER
  5
F
102
{ACAD_REACTORS
330
E
102
}
330
E
  0
SCALE
  5
48
102
{ACAD_REACTORS
330
47
102
}
330
47
100
AcDbScale
 70
     0
300
1:1
140
1.0
141
1.0
290
     1
  0
SCALE
  5
49
102
{ACAD_REACTORS
330
47
102
}
330
47
100
AcDbScale
 70
     0
300
1:2
140
1.0
141
2.0
290
     0
  0
SCALE
  5
4A
102
{ACAD_REACTORS
330
47
102
}
330
47
100
AcDbScale
 70
     0
300
1:4
140
1.0
141
4.0
290
     0
  0
SCALE
  5
4B
102
{ACAD_REACTORS
330
47
102
}
330
47
100
AcDbScale
 70
     0
300
1:5
140
1.0
141
5.0
290
     0
  0
SCALE
  5
4C
102
{ACAD_REACTORS
330
47
102
}
330
47
100
AcDbScale
 70
     0
300
1:8
140
1.0
141
8.0
290
     0
  0
SCALE
  5
4D
102
{ACAD_REACTORS
330
47
102
}
330
47
100
AcDbScale
 70
     0
300
1:10
140
1.0
141
10.0
290
     0
  0
SCALE
  5
4E
102
{ACAD_REACTORS
330
47
102
}
330
47
100
AcDbScale
 70
     0
300
1:16
140
1.0
141
16.0
290
     0
  0
SCALE
  5
4F
102
{ACAD_REACTORS
330
47
102
}
330
47
100
AcDbScale
 70
     0
300
1:20
140
1.0
141
20.0
290
     0
  0
SCALE
  5
50
102
{ACAD_REACTORS
330
47
102
}
330
47
100
AcDbScale
 70
     0
300
1:30
140
1.0
141
30.0
290
     0
  0
SCALE
  5
51
102
{ACAD_REACTORS
330
47
102
}
330
47
100
AcDbScale
 70
     0
300
1:40
140
1.0
141
40.0
290
     0
  0
SCALE
  5
52
102
{ACAD_REACTORS
330
47
102
}
330
47
100
AcDbScale
 70
     0
300
1:50
140
1.0
141
50.0
290
     0
  0
SCALE
  5
53
102
{ACAD_REACTORS
330
47
102
}
330
47
100
AcDbScale
 70
     0
300
1:100
140
1.0
141
100.0
290
     0
  0
SCALE
  5
54
102
{ACAD_REACTORS
330
47
102
}
330
47
100
AcDbScale
 70
     0
300
2:1
140
2.0
141
1.0
290
     0
  0
SCALE
  5
55
102
{ACAD_REACTORS
330
47
102
}
330
47
100
AcDbScale
 70
     0
300
4:1
140
4.0
141
1.0
290
     0
  0
SCALE
  5
56
102
{ACAD_REACTORS
330
47
102
}
330
47
100
AcDbScale
 70
     0
300
8:1
140
8.0
141
1.0
290
     0
  0
SCALE
  5
57
102
{ACAD_REACTORS
330
47
102
}
330
47
100
AcDbScale
 70
     0
300
10:1
140
10.0
141
1.0
290
     0
  0
SCALE
  5
58
102
{ACAD_REACTORS
330
47
102
}
330
47
100
AcDbScale
 70
     0
300
100:1
140
100.0
141
1.0
290
     0
  0
SCALE
  5
59
102
{ACAD_REACTORS
330
47
102
}
330
47
100
AcDbScale
 70
     0
300
1/128" = 1'-0"
140
0.0078125
141
12.0
290
     0
  0
SCALE
  5
5A
102
{ACAD_REACTORS
330
47
102
}
330
47
100
AcDbScale
 70
     0
300
1/64" = 1'-0"
140
0.015625
141
12.0
290
     0
  0
SCALE
  5
5B
102
{ACAD_REACTORS
330
47
102
}
330
47
100
AcDbScale
 70
     0
300
1/32" = 1'-0"
140
0.03125
141
12.0
290
     0
  0
SCALE
  5
5C
102
{ACAD_REACTORS
330
47
102
}
330
47
100
AcDbScale
 70
     0
300
1/16" = 1'-0"
140
0.0625
141
12.0
290
     0
  0
SCALE
  5
5D
102
{ACAD_REACTORS
330
47
102
}
330
47
100
AcDbScale
 70
     0
300
3/32" = 1'-0"
140
0.09375
141
12.0
290
     0
  0
SCALE
  5
5E
102
{ACAD_REACTORS
330
47
102
}
330
47
100
AcDbScale
 70
     0
300
1/8" = 1'-0"
140
0.125
141
12.0
290
     0
  0
SCALE
  5
5F
102
{ACAD_REACTORS
330
47
102
}
330
47
100
AcDbScale
 70
     0
300
3/16" = 1'-0"
140
0.1875
141
12.0
290
     0
  0
SCALE
  5
60
102
{ACAD_REACTORS
330
47
102
}
330
47
100
AcDbScale
 70
     0
300
1/4" = 1'-0"
140
0.25
141
12.0
290
     0
  0
SCALE
  5
61
102
{ACAD_REACTORS
330
47
102
}
330
47
100
AcDbScale
 70
     0
300
3/8" = 1'-0"
140
0.375
141
12.0
290
     0
  0
SCALE
  5
62
102
{ACAD_REACTORS
330
47
102
}
330
47
100
AcDbScale
 70
     0
300
1/2" = 1'-0"
140
0.5
141
12.0
290
     0
  0
SCALE
  5
63
102
{ACAD_REACTORS
330
47
102
}
330
47
100
AcDbScale
 70
     0
300
3/4" = 1'-0"
140
0.75
141
12.0
290
     0
  0
SCALE
  5
64
102
{ACAD_REACTORS
330
47
102
}
330
47
100
AcDbScale
 70
     0
300
1" = 1'-0"
140
1.0
141
12.0
290
     0
  0
SCALE
  5
65
102
{ACAD_REACTORS
330
47
102
}
330
47
100
AcDbScale
 70
     0
300
1-1/2" = 1'-0"
140
1.5
141
12.0
290
     0
  0
SCALE
  5
66
102
{ACAD_REACTORS
330
47
102
}
330
47
100
AcDbScale
 70
     0
300
3" = 1'-0"
140
3.0
141
12.0
290
     0
  0
SCALE
  5
67
102
{ACAD_REACTORS
330
47
102
}
330
47
100
AcDbScale
 70
     0
300
6" = 1'-0"
140
6.0
141
12.0
290
     0
  0
SCALE
  5
68
102
{ACAD_REACTORS
330
47
102
}
330
47
100
AcDbScale
 70
     0
300
1'-0" = 1'-0"
140
12.0
141
12.0
290
     0
  0
ENDSEC
  0
EOF
