  0
SECTION
  2
HEADER
  9
$ACADVER
  1
AC1015
  9
$ACADMAINTVER
 70
     6
  9
$DWGCODEPAGE
  3
ANSI_949
  9
$INSBASE
 10
0.0
 20
0.0
 30
0.0
  9
$EXTMIN
 10
-88.54697841256706
 20
-49.97180738881174
 30
0.0
  9
$EXTMAX
 10
39.01642545054926
 20
23.26413260158164
 30
0.0
  9
$LIMMIN
 10
0.0
 20
0.0
  9
$LIMMAX
 10
420.0
 20
297.0
  9
$ORTHOMODE
 70
     0
  9
$REGENMODE
 70
     1
  9
$FILLMODE
 70
     1
  9
$QTEXTMODE
 70
     0
  9
$MIRRTEXT
 70
     1
  9
$LTSCALE
 40
1.0
  9
$ATTMODE
 70
     1
  9
$TEXTSIZE
 40
3.5
  9
$TRACEWID
 40
1.0
  9
$TEXTSTYLE
  7
Standard
  9
$CLAYER
  8
0
  9
$CELTYPE
  6
ByLayer
  9
$CECOLOR
 62
   256
  9
$CELTSCALE
 40
1.0
  9
$DISPSILH
 70
     0
  9
$DIMSCALE
 40
1.0
  9
$DIMASZ
 40
3.302
  9
$DIMEXO
 40
1.0
  9
$DIMDLI
 40
3.75
  9
$DIMRND
 40
0.0
  9
$DIMDLE
 40
0.0
  9
$DIMEXE
 40
1.0
  9
$DIMTP
 40
0.0
  9
$DIMTM
 40
0.0
  9
$DIMTXT
 40
3.5
  9
$DIMCEN
 40
2.5
  9
$DIMTSZ
 40
0.0
  9
$DIMTOL
 70
     0
  9
$DIMLIM
 70
     0
  9
$DIMTIH
 70
     1
  9
$DIMTOH
 70
     1
  9
$DIMSE1
 70
     0
  9
$DIMSE2
 70
     0
  9
$DIMTAD
 70
     1
  9
$DIMZIN
 70
     0
  9
$DIMBLK
  1

  9
$DIMASO
 70
     1
  9
$DIMSHO
 70
     1
  9
$DIMPOST
  1

  9
$DIMAPOST
  1

  9
$DIMALT
 70
     0
  9
$DIMALTD
 70
     3
  9
$DIMALTF
 40
0.0393700787401575
  9
$DIMLFAC
 40
1.0
  9
$DIMTOFL
 70
     1
  9
$DIMTVP
 40
0.0
  9
$DIMTIX
 70
     0
  9
$DIMSOXD
 70
     0
  9
$DIMSAH
 70
     0
  9
$DIMBLK1
  1

  9
$DIMBLK2
  1

  9
$DIMSTYLE
  2
ISO-25
  9
$DIMCLRD
 70
     0
  9
$DIMCLRE
 70
     0
  9
$DIMCLRT
 70
     0
  9
$DIMTFAC
 40
1.0
  9
$DIMGAP
 40
1.524
  9
$DIMJUST
 70
     0
  9
$DIMSD1
 70
     0
  9
$DIMSD2
 70
     0
  9
$DIMTOLJ
 70
     0
  9
$DIMTZIN
 70
     0
  9
$DIMALTZ
 70
     0
  9
$DIMALTTZ
 70
     0
  9
$DIMUPT
 70
     0
  9
$DIMDEC
 70
     2
  9
$DIMTDEC
 70
     2
  9
$DIMALTU
 70
     2
  9
$DIMALTTD
 70
     3
  9
$DIMTXSTY
  7
Standard
  9
$DIMAUNIT
 70
     0
  9
$DIMADEC
 70
     2
  9
$DIMALTRND
 40
0.0
  9
$DIMAZIN
 70
     0
  9
$DIMDSEP
 70
    44
  9
$DIMATFIT
 70
     3
  9
$DIMFRAC
 70
     0
  9
$DIMLDRBLK
  1

  9
$DIMLUNIT
 70
     2
  9
$DIMLWD
 70
    -2
  9
$DIMLWE
 70
    -2
  9
$DIMTMOVE
 70
     0
  9
$LUNITS
 70
     2
  9
$LUPREC
 70
     2
  9
$SKETCHINC
 40
1.0
  9
$FILLETRAD
 40
10.0
  9
$AUNITS
 70
     0
  9
$AUPREC
 70
     2
  9
$MENU
  1
.
  9
$ELEVATION
 40
0.0
  9
$PELEVATION
 40
0.0
  9
$THICKNESS
 40
0.0
  9
$LIMCHECK
 70
     0
  9
$CHAMFERA
 40
0.0
  9
$CHAMFERB
 40
0.0
  9
$CHAMFERC
 40
0.0
  9
$CHAMFERD
 40
0.0
  9
$SKPOLY
 70
     0
  9
$TDCREATE
 40
2458260.570218715
  9
$TDUCREATE
 40
2458260.195218715
  9
$TDUPDATE
 40
2458268.60828794
  9
$TDUUPDATE
 40
2458268.23328794
  9
$TDINDWG
 40
0.0008585417
  9
$TDUSRTIMER
 40
2458268.232429433
  9
$USRTIMER
 70
     1
  9
$ANGBASE
 50
0.0
  9
$ANGDIR
 70
     0
  9
$PDMODE
 70
     0
  9
$PDSIZE
 40
-1.0
  9
$PLINEWID
 40
0.0
  9
$SPLFRAME
 70
     0
  9
$SPLINETYPE
 70
     6
  9
$SPLINESEGS
 70
     8
  9
$HANDSEED
  5
153
  9
$SURFTAB1
 70
     6
  9
$SURFTAB2
 70
     6
  9
$SURFTYPE
 70
     6
  9
$SURFU
 70
     6
  9
$SURFV
 70
     6
  9
$UCSBASE
  2

  9
$UCSNAME
  2

  9
$UCSORG
 10
0.0
 20
0.0
 30
0.0
  9
$UCSXDIR
 10
1.0
 20
0.0
 30
0.0
  9
$UCSYDIR
 10
0.0
 20
1.0
 30
0.0
  9
$UCSORTHOREF
  2

  9
$UCSORTHOVIEW
 70
     0
  9
$UCSORGTOP
 10
0.0
 20
0.0
 30
0.0
  9
$UCSORGBOTTOM
 10
0.0
 20
0.0
 30
0.0
  9
$UCSORGLEFT
 10
0.0
 20
0.0
 30
0.0
  9
$UCSORGRIGHT
 10
0.0
 20
0.0
 30
0.0
  9
$UCSORGFRONT
 10
0.0
 20
0.0
 30
0.0
  9
$UCSORGBACK
 10
0.0
 20
0.0
 30
0.0
  9
$PUCSBASE
  2

  9
$PUCSNAME
  2

  9
$PUCSORG
 10
0.0
 20
0.0
 30
0.0
  9
$PUCSXDIR
 10
1.0
 20
0.0
 30
0.0
  9
$PUCSYDIR
 10
0.0
 20
1.0
 30
0.0
  9
$PUCSORTHOREF
  2

  9
$PUCSORTHOVIEW
 70
     0
  9
$PUCSORGTOP
 10
0.0
 20
0.0
 30
0.0
  9
$PUCSORGBOTTOM
 10
0.0
 20
0.0
 30
0.0
  9
$PUCSORGLEFT
 10
0.0
 20
0.0
 30
0.0
  9
$PUCSORGRIGHT
 10
0.0
 20
0.0
 30
0.0
  9
$PUCSORGFRONT
 10
0.0
 20
0.0
 30
0.0
  9
$PUCSORGBACK
 10
0.0
 20
0.0
 30
0.0
  9
$USERI1
 70
     0
  9
$USERI2
 70
     0
  9
$USERI3
 70
     0
  9
$USERI4
 70
     0
  9
$USERI5
 70
     0
  9
$USERR1
 40
0.0
  9
$USERR2
 40
0.0
  9
$USERR3
 40
0.0
  9
$USERR4
 40
0.0
  9
$USERR5
 40
0.0
  9
$WORLDVIEW
 70
     1
  9
$SHADEDGE
 70
     3
  9
$SHADEDIF
 70
    70
  9
$TILEMODE
 70
     1
  9
$MAXACTVP
 70
    64
  9
$PINSBASE
 10
0.0
 20
0.0
 30
0.0
  9
$PLIMCHECK
 70
     0
  9
$PEXTMIN
 10
1.000000000000000E+20
 20
1.000000000000000E+20
 30
1.000000000000000E+20
  9
$PEXTMAX
 10
-1.000000000000000E+20
 20
-1.000000000000000E+20
 30
-1.000000000000000E+20
  9
$PLIMMIN
 10
0.0
 20
0.0
  9
$PLIMMAX
 10
0.0
 20
0.0
  9
$UNITMODE
 70
     0
  9
$VISRETAIN
 70
     1
  9
$PLINEGEN
 70
     0
  9
$PSLTSCALE
 70
     1
  9
$TREEDEPTH
 70
  3020
  9
$CMLSTYLE
  2
Standard
  9
$CMLJUST
 70
     0
  9
$CMLSCALE
 40
20.0
  9
$PROXYGRAPHICS
 70
     1
  9
$MEASUREMENT
 70
     1
  9
$CELWEIGHT
370
    -1
  9
$ENDCAPS
280
     0
  9
$JOINSTYLE
280
     0
  9
$LWDISPLAY
290
     1
  9
$INSUNITS
 70
     4
  9
$HYPERLINKBASE
  1

  9
$STYLESHEET
  1

  9
$XEDIT
290
     1
  9
$CEPSNTYPE
380
     0
  9
$PSTYLEMODE
290
     1
  9
$FINGERPRINTGUID
  2
{3FF74EA1-BA4B-4672-B306-FD6CF2421338}
  9
$VERSIONGUID
  2
{FAEB1C32-E019-11D5-929B-00C0DF256EC4}
  9
$EXTNAMES
290
     1
  9
$PSVPSCALE
 40
0.0
  9
$OLESTARTUP
290
     0
  0
ENDSEC
  0
SECTION
  2
CLASSES
  0
CLASS
  1
ACDBDICTIONARYWDFLT
  2
AcDbDictionaryWithDefault
  3
ObjectDBX Classes
 90
        0
280
     0
281
     0
  0
CLASS
  1
VISUALSTYLE
  2
AcDbVisualStyle
  3
ObjectDBX Classes
 90
     4095
280
     0
281
     0
  0
CLASS
  1
MATERIAL
  2
AcDbMaterial
  3
ObjectDBX Classes
 90
     1153
280
     0
281
     0
  0
CLASS
  1
SCALE
  2
AcDbScale
  3
ObjectDBX Classes
 90
     1153
280
     0
281
     0
  0
CLASS
  1
TABLESTYLE
  2
AcDbTableStyle
  3
ObjectDBX Classes
 90
     4095
280
     0
281
     0
  0
CLASS
  1
MLEADERSTYLE
  2
AcDbMLeaderStyle
  3
ACDB_MLEADERSTYLE_CLASS
 90
     4095
280
     0
281
     0
  0
CLASS
  1
SUN
  2
AcDbSun
  3
SCENEOE
 90
     1153
280
     0
281
     0
  0
CLASS
  1
ACDBPLACEHOLDER
  2
AcDbPlaceHolder
  3
ObjectDBX Classes
 90
        0
280
     0
281
     0
  0
CLASS
  1
LAYOUT
  2
AcDbLayout
  3
ObjectDBX Classes
 90
        0
280
     0
281
     0
  0
CLASS
  1
RASTERVARIABLES
  2
AcDbRasterVariables
  3
ISM
 90
        0
280
     0
281
     0
  0
ENDSEC
  0
SECTION
  2
TABLES
  0
TABLE
  2
VPORT
  5
8
330
0
100
AcDbSymbolTable
 70
     1
  0
VPORT
  5
29
330
8
100
AcDbSymbolTableRecord
100
AcDbViewportTableRecord
  2
*Active
 70
     0
 10
0.0
 20
0.0
 11
1.0
 21
1.0
 12
-24.7652764810089
 22
-13.35383739361505
 13
0.0
 23
0.0
 14
10.0
 24
10.0
 15
10.0
 25
10.0
 16
0.0
 26
0.0
 36
1.0
 17
0.0
 27
0.0
 37
0.0
 40
74.82076974877643
 41
1.739018087855297
 42
50.0
 43
0.0
 44
0.0
 50
0.0
 51
0.0
 71
    16
 72
  2000
 73
     1
 74
     3
 75
     0
 76
     0
 77
     0
 78
     0
281
     0
 65
     1
110
0.0
120
0.0
130
0.0
111
1.0
121
0.0
131
0.0
112
0.0
122
1.0
132
0.0
 79
     0
146
0.0
  0
ENDTAB
  0
TABLE
  2
LTYPE
  5
5
330
0
100
AcDbSymbolTable
 70
     6
  0
LTYPE
  5
14
330
5
100
AcDbSymbolTableRecord
100
AcDbLinetypeTableRecord
  2
ByBlock
 70
     0
  3

 72
    65
 73
     0
 40
0.0
  0
LTYPE
  5
15
330
5
100
AcDbSymbolTableRecord
100
AcDbLinetypeTableRecord
  2
ByLayer
 70
     0
  3

 72
    65
 73
     0
 40
0.0
  0
LTYPE
  5
16
330
5
100
AcDbSymbolTableRecord
100
AcDbLinetypeTableRecord
  2
Continuous
 70
     0
  3
Solid line
 72
    65
 73
     0
 40
0.0
  0
LTYPE
  5
6E
330
5
100
AcDbSymbolTableRecord
100
AcDbLinetypeTableRecord
  2
HIDDEN
 70
     0
  3
Hidden __ __ __ __ __ __ __ __ __ __ __ __ __ __
 72
    65
 73
     2
 40
1.905
 49
1.27
 74
     0
 49
-0.635
 74
     0
  0
LTYPE
  5
6F
330
5
100
AcDbSymbolTableRecord
100
AcDbLinetypeTableRecord
  2
PHANTOM
 70
     0
  3
Phantom ______  __  __  ______  __  __  ______
 72
    65
 73
     6
 40
12.7
 49
6.35
 74
     0
 49
-1.27
 74
     0
 49
1.27
 74
     0
 49
-1.27
 74
     0
 49
1.27
 74
     0
 49
-1.27
 74
     0
  0
LTYPE
  5
70
330
5
100
AcDbSymbolTableRecord
100
AcDbLinetypeTableRecord
  2
CENTER
 70
     0
  3
Center ____ _ ____ _ ____ _ ____ _ ____ _ ____
 72
    65
 73
     4
 40
10.16
 49
6.35
 74
     0
 49
-1.27
 74
     0
 49
1.27
 74
     0
 49
-1.27
 74
     0
  0
LTYPE
  5
71
330
5
100
AcDbSymbolTableRecord
100
AcDbLinetypeTableRecord
  2
CENTERX2
 70
     0
  3
Center (2x) ________  __  ________  __  _____
 72
    65
 73
     4
 40
20.32
 49
12.7
 74
     0
 49
-2.54
 74
     0
 49
2.54
 74
     0
 49
-2.54
 74
     0
  0
LTYPE
  5
72
330
5
100
AcDbSymbolTableRecord
100
AcDbLinetypeTableRecord
  2
DOT2
 70
     0
  3
Dot (.5x) ........................................
 72
    65
 73
     2
 40
0.635
 49
0.0
 74
     0
 49
-0.635
 74
     0
  0
ENDTAB
  0
TABLE
  2
LAYER
  5
2
330
0
100
AcDbSymbolTable
 70
    17
  0
LAYER
  5
10
330
2
100
AcDbSymbolTableRecord
100
AcDbLayerTableRecord
  2
0
 70
     0
 62
     7
  6
Continuous
370
    -3
390
F
  0
LAYER
  5
73
330
2
100
AcDbSymbolTableRecord
100
AcDbLayerTableRecord
  2
FORMAT
 70
     0
 62
     2
  6
Continuous
370
    -3
390
F
  0
LAYER
  5
74
330
2
100
AcDbSymbolTableRecord
100
AcDbLayerTableRecord
  2
외형선
 70
     0
 62
   100
  6
Continuous
370
    35
390
F
  0
LAYER
  5
75
330
2
100
AcDbSymbolTableRecord
100
AcDbLayerTableRecord
  2
숨은선
 70
     0
 62
     2
  6
HIDDEN
370
    25
390
F
  0
LAYER
  5
76
330
2
100
AcDbSymbolTableRecord
100
AcDbLayerTableRecord
  2
중심선
 70
     0
 62
     1
  6
CENTERX2
370
    -3
390
F
  0
LAYER
  5
77
330
2
100
AcDbSymbolTableRecord
100
AcDbLayerTableRecord
  2
파단선
 70
     0
 62
     4
  6
Continuous
370
    -3
390
F
  0
LAYER
  5
78
330
2
100
AcDbSymbolTableRecord
100
AcDbLayerTableRecord
  2
해칭선
 70
     0
 62
   100
  6
Continuous
370
    -3
390
F
  0
LAYER
  5
79
330
2
100
AcDbSymbolTableRecord
100
AcDbLayerTableRecord
  2
가는실선
 70
     0
 62
     4
  6
Continuous
370
    -3
390
F
  0
LAYER
  5
7A
330
2
100
AcDbSymbolTableRecord
100
AcDbLayerTableRecord
  2
치수_보조선
 70
     0
 62
     4
  6
Continuous
370
    -3
390
F
  0
LAYER
  5
7B
330
2
100
AcDbSymbolTableRecord
100
AcDbLayerTableRecord
  2
치수문자_일반주서
 70
     0
 62
     7
  6
Continuous
370
    25
390
F
  0
LAYER
  5
7C
330
2
100
AcDbSymbolTableRecord
100
AcDbLayerTableRecord
  2
개별주서
 70
     0
 62
   100
  6
Continuous
370
    35
390
F
  0
LAYER
  5
7D
330
2
100
AcDbSymbolTableRecord
100
AcDbLayerTableRecord
  2
중간선
 70
     0
 62
     2
  6
Continuous
370
    25
390
F
  0
LAYER
  5
7E
330
2
100
AcDbSymbolTableRecord
100
AcDbLayerTableRecord
  2
윤곽선
 70
     0
 62
     3
  6
Continuous
370
    50
390
F
  0
LAYER
  5
7F
330
2
100
AcDbSymbolTableRecord
100
AcDbLayerTableRecord
  2
중심마크
 70
     0
 62
   100
  6
Continuous
370
    35
390
F
  0
LAYER
  5
80
330
2
100
AcDbSymbolTableRecord
100
AcDbLayerTableRecord
  2
가상선
 70
     0
 62
     4
  6
PHANTOM
370
    -3
390
F
  0
LAYER
  5
81
330
2
100
AcDbSymbolTableRecord
100
AcDbLayerTableRecord
  2
특수지정선
 70
     0
 62
     5
  6
CENTERX2
370
    70
390
F
  0
LAYER
  5
146
330
2
100
AcDbSymbolTableRecord
100
AcDbLayerTableRecord
  2
Defpoints
 70
     0
 62
     7
  6
Continuous
290
     0
370
    -3
390
F
  0
ENDTAB
  0
TABLE
  2
STYLE
  5
3
330
0
100
AcDbSymbolTable
 70
     2
  0
STYLE
  5
11
330
3
100
AcDbSymbolTableRecord
100
AcDbTextStyleTableRecord
  2
Standard
 70
     0
 40
0.0
 41
1.0
 50
0.0
 71
     0
 42
3.5
  3
txt
  4

  0
STYLE
  5
97
330
3
100
AcDbSymbolTableRecord
100
AcDbTextStyleTableRecord
  2
SLDTEXTSTYLE0
 70
     0
 40
0.0
 41
0.75
 50
0.0
 71
     0
 42
3.5
  3
TXT
  4

  0
ENDTAB
  0
TABLE
  2
VIEW
  5
6
330
0
100
AcDbSymbolTable
 70
     0
  0
ENDTAB
  0
TABLE
  2
UCS
  5
7
330
0
100
AcDbSymbolTable
 70
     0
  0
ENDTAB
  0
TABLE
  2
APPID
  5
9
330
0
100
AcDbSymbolTable
 70
     1
  0
APPID
  5
12
330
9
100
AcDbSymbolTableRecord
100
AcDbRegAppTableRecord
  2
ACAD
 70
     0
  0
ENDTAB
  0
TABLE
  2
DIMSTYLE
  5
A
330
0
100
AcDbSymbolTable
 70
     4
100
AcDbDimStyleTable
  0
DIMSTYLE
105
27
330
A
100
AcDbSymbolTableRecord
100
AcDbDimStyleTableRecord
  2
ISO-25
 70
     0
 41
2.5
 42
0.625
 43
3.75
 44
1.25
 73
     0
 74
     0
 77
     1
 78
     8
140
2.5
141
2.5
143
0.03937007874016
147
0.625
171
     3
172
     1
178
     0
271
     2
272
     2
274
     3
278
    44
283
     0
284
     8
340
11
  0
DIMSTYLE
105
E9
102
{ACAD_REACTORS
330
E8
102
}
330
A
100
AcDbSymbolTableRecord
100
AcDbDimStyleTableRecord
  2
SLDDIMSTYLE0
 70
     0
 41
3.302
 44
0.0
 45
0.000000001
 73
     0
 74
     0
 77
     1
 78
    12
 79
     3
140
3.5
147
0.875
172
     1
173
     1
178
     0
271
     1
272
     1
276
     2
284
    12
289
     0
340
97
  0
DIMSTYLE
105
F7
102
{ACAD_REACTORS
330
F6
102
}
330
A
100
AcDbSymbolTableRecord
100
AcDbDimStyleTableRecord
  2
SLDDIMSTYLE1
 70
     0
 41
3.302
 44
0.0
 45
0.000000001
 73
     0
 74
     0
 77
     1
 78
    12
 79
     3
140
3.5
147
0.875
173
     1
178
     0
271
     2
272
     2
276
     2
284
    12
340
97
  0
DIMSTYLE
105
102
102
{ACAD_REACTORS
330
101
330
10F
102
}
330
A
100
AcDbSymbolTableRecord
100
AcDbDimStyleTableRecord
  2
SLDDIMSTYLE2
 70
     0
 41
3.302
 44
0.0
 45
0.000000001
 73
     0
 74
     0
 77
     1
 78
    12
 79
     3
140
3.5
147
0.875
172
     1
173
     1
178
     0
271
     2
272
     2
276
     2
284
    12
289
     0
340
97
  0
ENDTAB
  0
TABLE
  2
BLOCK_RECORD
  5
1
330
0
100
AcDbSymbolTable
 70
     7
  0
BLOCK_RECORD
  5
1F
330
1
100
AcDbSymbolTableRecord
100
AcDbBlockTableRecord
  2
*Model_Space
340
22
  0
BLOCK_RECORD
  5
1B
330
1
100
AcDbSymbolTableRecord
100
AcDbBlockTableRecord
  2
*Paper_Space
340
1E
  0
BLOCK_RECORD
  5
23
330
1
100
AcDbSymbolTableRecord
100
AcDbBlockTableRecord
  2
*Paper_Space0
340
26
  0
BLOCK_RECORD
  5
82
330
1
100
AcDbSymbolTableRecord
100
AcDbBlockTableRecord
  2
블럭10
340
0
102
{BLKREFS
331
E1
102
}
  0
BLOCK_RECORD
  5
EA
330
1
100
AcDbSymbolTableRecord
100
AcDbBlockTableRecord
  2
_D
340
0
  0
BLOCK_RECORD
  5
F8
330
1
100
AcDbSymbolTableRecord
100
AcDbBlockTableRecord
  2
_D_1
340
0
  0
BLOCK_RECORD
  5
103
330
1
100
AcDbSymbolTableRecord
100
AcDbBlockTableRecord
  2
_D_2
340
0
  0
BLOCK_RECORD
  5
110
330
1
100
AcDbSymbolTableRecord
100
AcDbBlockTableRecord
  2
_D_3
340
0
  0
BLOCK_RECORD
  5
11B
330
1
100
AcDbSymbolTableRecord
100
AcDbBlockTableRecord
  2
SW_DOWELSYMBOL_0
340
0
102
{BLKREFS
331
121
102
}
  0
ENDTAB
  0
ENDSEC
  0
SECTION
  2
BLOCKS
  0
BLOCK
  5
20
330
1F
100
AcDbEntity
  8
0
100
AcDbBlockBegin
  2
*Model_Space
 70
     0
 10
0.0
 20
0.0
 30
0.0
  3
*Model_Space
  1

  0
ENDBLK
  5
21
330
1F
100
AcDbEntity
  8
0
100
AcDbBlockEnd
  0
BLOCK
  5
1C
330
1B
100
AcDbEntity
 67
     1
  8
0
100
AcDbBlockBegin
  2
*Paper_Space
 70
     0
 10
0.0
 20
0.0
 30
0.0
  3
*Paper_Space
  1

  0
ENDBLK
  5
1D
330
1B
100
AcDbEntity
 67
     1
  8
0
100
AcDbBlockEnd
  0
BLOCK
  5
24
330
23
100
AcDbEntity
  8
0
100
AcDbBlockBegin
  2
*Paper_Space0
 70
     0
 10
0.0
 20
0.0
 30
0.0
  3
*Paper_Space0
  1

  0
ENDBLK
  5
25
330
23
100
AcDbEntity
  8
0
100
AcDbBlockEnd
  0
BLOCK
  5
83
330
82
100
AcDbEntity
  8
0
100
AcDbBlockBegin
  2
블럭10
 70
     2
 10
0.0
 20
0.0
 30
0.0
  3
블럭10
  1

  0
ELLIPSE
  5
85
330
82
100
AcDbEntity
  8
중심선
100
AcDbEllipse
 10
20.54032771741204
 20
12.0471743016438
 30
0.0
 11
6.600054785286829
 21
-1.261213355974178E-13
 31
0.0
210
0.0
220
0.0
230
1.0
 40
0.636358354079598
 41
0.9219305317359503
 42
6.513795318482858
  0
ELLIPSE
  5
86
330
82
100
AcDbEntity
  8
중심선
100
AcDbEllipse
 10
20.54032771746488
 20
12.04717430159265
 30
0.0
 11
3.960054785062283
 21
1.540847449632565E-10
 31
0.0
210
0.0
220
0.0
230
1.0
 40
0.3939339440162632
 41
1.131841032648279
 42
5.62031148352944
  0
LINE
  5
87
330
82
100
AcDbEntity
  8
중심선
100
AcDbLine
 10
2.268634060543552
 20
16.24717430164393
 30
0.0
 11
5.714909304380834
 21
16.24717430164393
 31
0.0
  0
LINE
  5
88
330
82
100
AcDbEntity
  8
중심선
100
AcDbLine
 10
5.245725140726316
 20
7.84717430164391
 30
0.0
 11
8.692000384563599
 21
7.84717430164391
 31
0.0
  0
LINE
  5
89
330
82
100
AcDbEntity
  8
중심선
100
AcDbLine
 10
15.74043728645272
 20
16.24717430164393
 30
0.0
 11
8.692000384563599
 21
7.84717430164391
 31
0.0
  0
LINE
  5
8A
330
82
100
AcDbEntity
  8
중심선
100
AcDbLine
 10
0.1404042013395286
 20
13.71084872107135
 30
0.0
 11
3.58671253028996
 21
13.71088815037384
 31
0.0
  0
LINE
  5
8B
330
82
100
AcDbEntity
  8
중심선
100
AcDbLine
 10
2.750260043222114
 20
10.84717430164391
 30
0.0
 11
6.196535287059397
 21
10.84717430164391
 31
0.0
  0
LINE
  5
8C
330
82
100
AcDbEntity
  8
중심선
100
AcDbLine
 10
12.29416204261559
 20
16.24717430164393
 30
0.0
 11
5.245725140726316
 21
7.84717430164391
 31
0.0
  0
LINE
  5
8D
330
82
100
AcDbEntity
  8
중심선
100
AcDbLine
 10
10.72767329541681
 20
16.24717430164393
 30
0.0
 11
6.196535287059397
 21
10.84717430164391
 31
0.0
  0
LINE
  5
8E
330
82
100
AcDbEntity
  8
중심선
100
AcDbLine
 10
7.28139805157953
 20
16.24717430164393
 30
0.0
 11
2.750260043222114
 21
10.84717430164391
 31
0.0
  0
LINE
  5
8F
330
82
100
AcDbEntity
  8
중심선
100
AcDbLine
 10
5.714909304380834
 20
16.24717430164393
 30
0.0
 11
3.58671253028996
 21
13.71088815037384
 31
0.0
  0
LINE
  5
90
330
82
100
AcDbEntity
  8
중심선
100
AcDbLine
 10
2.268634060543552
 20
16.24717430164393
 30
0.0
 11
0.1404042013395286
 21
13.71084872107135
 31
0.0
  0
LINE
  5
91
330
82
100
AcDbEntity
  8
중심선
100
AcDbLine
 10
7.28139805157953
 20
16.24717430164393
 30
0.0
 11
10.72767329541681
 21
16.24717430164393
 31
0.0
  0
LINE
  5
92
330
82
100
AcDbEntity
  8
중심선
100
AcDbLine
 10
12.29416204261559
 20
16.24717430164393
 30
0.0
 11
15.74043728645272
 21
16.24717430164393
 31
0.0
  0
LINE
  5
93
330
82
100
AcDbEntity
  8
중심선
100
AcDbLine
 10
19.22036997980202
 20
11.08717430171403
 30
0.0
 11
23.66174974927406
 21
11.08717430171406
 31
0.0
  0
LINE
  5
94
330
82
100
AcDbEntity
  8
중심선
100
AcDbLine
 10
19.22039502424796
 20
13.00717430171391
 30
0.0
 11
19.22036997980202
 21
11.08717430171403
 31
0.0
  0
LINE
  5
95
330
82
100
AcDbEntity
  8
중심선
100
AcDbLine
 10
19.22039502424796
 20
13.00717430171391
 30
0.0
 11
26.96566020931264
 21
13.00717430171391
 31
0.0
  0
LINE
  5
96
330
82
100
AcDbEntity
  8
중심선
100
AcDbLine
 10
22.22332737316547
 20
13.45928029700563
 30
0.0
 11
24.52862924686651
 21
15.39360700705356
 31
0.0
  0
ATTDEF
  5
98
330
82
100
AcDbEntity
  8
FORMAT
 62
     2
100
AcDbText
 10
-19.16490937584608
 20
2.075366912832191
 30
0.0
 40
4.233333333333333
  1
SEME72030163SE [ 4 FLUTE ]
 41
0.75
  7
SLDTEXTSTYLE0
 11
-19.16490937584608
 21
-0.0412997538344756
 31
0.0
100
AcDbAttributeDefinition
  3

  2
AUTOATTR0
 70
     0
 74
     1
  0
ENDBLK
  5
84
330
82
100
AcDbEntity
  8
0
100
AcDbBlockEnd
  0
BLOCK
  5
EB
330
EA
100
AcDbEntity
  8
0
100
AcDbBlockBegin
  2
_D
 70
     0
 10
0.0
 20
0.0
 30
0.0
  3
_D
  1

  0
LINE
  5
ED
330
EA
100
AcDbEntity
  8
치수문자_일반주서
 62
     0
370
    -2
100
AcDbLine
 10
26.06250000000002
 20
-1.50000000000001
 30
0.0
 11
38.46609211721592
 21
-1.499999999999964
 31
0.0
  0
LINE
  5
EE
330
EA
100
AcDbEntity
  8
치수문자_일반주서
 62
     0
370
    -2
100
AcDbLine
 10
26.06250000000002
 20
1.499999999999998
 30
0.0
 11
38.46609211721591
 21
1.500000000000043
 31
0.0
  0
LINE
  5
EF
330
EA
100
AcDbEntity
  8
치수문자_일반주서
 62
     0
370
    -2
100
AcDbLine
 10
38.46609211721592
 20
-1.499999999999964
 30
0.0
 11
38.46609211721589
 21
14.22900000000004
 31
0.0
  0
LINE
  5
F0
330
EA
100
AcDbEntity
  8
치수문자_일반주서
 62
     0
370
    -2
100
AcDbLine
 10
38.46609211721592
 20
-1.499999999999964
 30
0.0
 11
38.46609211721591
 21
1.500000000000043
 31
0.0
  0
LINE
  5
F1
330
EA
100
AcDbEntity
  8
치수문자_일반주서
 62
     0
370
    -2
100
AcDbLine
 10
38.46609211721593
 20
-4.801999999999964
 30
0.0
 11
38.46609211721594
 21
-8.103999999999964
 31
0.0
  0
LINE
  5
F2
330
EA
100
AcDbEntity
  8
치수문자_일반주서
 62
     0
370
    -2
100
AcDbLine
 10
38.46609211721591
 20
4.802000000000042
 30
0.0
 11
38.4660921172159
 21
8.104000000000042
 31
0.0
  0
SOLID
  5
F3
330
EA
100
AcDbEntity
  8
치수문자_일반주서
 62
     0
100
AcDbTrace
 10
39.01642545054926
 20
-4.801999999999963
 30
0.0
 11
37.91575878388259
 21
-4.801999999999965
 31
0.0
 12
38.46609211721592
 22
-1.499999999999964
 32
0.0
 13
38.46609211721592
 23
-1.499999999999964
 33
0.0
  0
SOLID
  5
F4
330
EA
100
AcDbEntity
  8
치수문자_일반주서
 62
     0
100
AcDbTrace
 10
37.91575878388257
 20
4.802000000000041
 30
0.0
 11
39.01642545054924
 21
4.802000000000043
 31
0.0
 12
38.46609211721591
 22
1.500000000000043
 32
0.0
 13
38.46609211721591
 23
1.500000000000043
 33
0.0
  0
MTEXT
  5
F5
330
EA
100
AcDbEntity
  8
치수문자_일반주서
 62
     0
100
AcDbMText
 10
34.09109211721589
 20
11.16650000000003
 30
0.0
 40
3.5
 41
0.0
 71
     2
 72
     1
  1
\A1;%%c3
  7
SLDTEXTSTYLE0
 11
-2.368475785866994E-15
 21
1.0
 31
0.0
 73
     1
 44
1.0
  0
POINT
  5
14E
330
EA
100
AcDbEntity
  8
Defpoints
 62
     0
100
AcDbPoint
 10
26.00000000000002
 20
-1.500000000000011
 30
0.0
  0
POINT
  5
14F
330
EA
100
AcDbEntity
  8
Defpoints
 62
     0
100
AcDbPoint
 10
26.00000000000002
 20
1.499999999999997
 30
0.0
  0
POINT
  5
150
330
EA
100
AcDbEntity
  8
Defpoints
 62
     0
100
AcDbPoint
 10
38.46609211721591
 20
1.500000000000044
 30
0.0
  0
ENDBLK
  5
EC
330
EA
100
AcDbEntity
  8
0
100
AcDbBlockEnd
  0
BLOCK
  5
F9
330
F8
100
AcDbEntity
  8
0
100
AcDbBlockBegin
  2
_D_1
 70
     0
 10
0.0
 20
0.0
 30
0.0
  3
_D_1
  1

  0
LINE
  5
FB
330
F8
100
AcDbEntity
  8
치수문자_일반주서
 62
     0
370
    -2
100
AcDbLine
 10
-74.00000000000001
 20
1.062499999999983
 30
0.0
 11
-74.00000000000001
 21
18.88913260158164
 31
0.0
  0
LINE
  5
FC
330
F8
100
AcDbEntity
  8
치수문자_일반주서
 62
     0
370
    -2
100
AcDbLine
 10
26.0
 20
1.562499999999996
 30
0.0
 11
26.0
 21
18.88913260158164
 31
0.0
  0
LINE
  5
FD
330
F8
100
AcDbEntity
  8
치수문자_일반주서
 62
     0
370
    -2
100
AcDbLine
 10
-70.69800000000001
 20
18.88913260158164
 30
0.0
 11
22.698
 21
18.88913260158164
 31
0.0
  0
SOLID
  5
FE
330
F8
100
AcDbEntity
  8
치수문자_일반주서
 62
     0
100
AcDbTrace
 10
-70.69800000000001
 20
19.43946593491497
 30
0.0
 11
-70.69800000000001
 21
18.3387992682483
 31
0.0
 12
-74.00000000000001
 22
18.88913260158164
 32
0.0
 13
-74.00000000000001
 23
18.88913260158164
 33
0.0
  0
SOLID
  5
FF
330
F8
100
AcDbEntity
  8
치수문자_일반주서
 62
     0
100
AcDbTrace
 10
22.698
 20
18.3387992682483
 30
0.0
 11
22.698
 21
19.43946593491497
 31
0.0
 12
26.0
 22
18.88913260158164
 32
0.0
 13
26.0
 23
18.88913260158164
 33
0.0
  0
MTEXT
  5
100
330
F8
100
AcDbEntity
  8
치수문자_일반주서
 62
     0
100
AcDbMText
 10
-24.0
 20
23.26413260158164
 30
0.0
 40
3.5
 41
0.0
 71
     2
 72
     1
  1
\A1;100
  7
SLDTEXTSTYLE0
 73
     1
 44
1.0
  0
POINT
  5
147
330
F8
100
AcDbEntity
  8
Defpoints
 62
     0
100
AcDbPoint
 10
-74.00000000000001
 20
0.9999999999999832
 30
0.0
  0
POINT
  5
148
330
F8
100
AcDbEntity
  8
Defpoints
 62
     0
100
AcDbPoint
 10
26.0
 20
1.499999999999996
 30
0.0
  0
POINT
  5
149
330
F8
100
AcDbEntity
  8
Defpoints
 62
     0
100
AcDbPoint
 10
26.0
 20
18.88913260158164
 30
0.0
  0
ENDBLK
  5
FA
330
F8
100
AcDbEntity
  8
0
100
AcDbBlockEnd
  0
BLOCK
  5
104
330
103
100
AcDbEntity
  8
0
100
AcDbBlockBegin
  2
_D_2
 70
     0
 10
0.0
 20
0.0
 30
0.0
  3
_D_2
  1

  0
LINE
  5
106
330
103
100
AcDbEntity
  8
치수문자_일반주서
 62
     0
370
    -2
100
AcDbLine
 10
-73.56250000000001
 20
1.499999999999995
 30
0.0
 11
-84.17197841256701
 21
1.499999999999954
 31
0.0
  0
LINE
  5
107
330
103
100
AcDbEntity
  8
치수문자_일반주서
 62
     0
370
    -2
100
AcDbLine
 10
-73.56250000000001
 20
-1.500000000000007
 30
0.0
 11
-84.171978412567
 21
-1.500000000000048
 31
0.0
  0
LINE
  5
108
330
103
100
AcDbEntity
  8
치수문자_일반주서
 62
     0
370
    -2
100
AcDbLine
 10
-84.17197841256701
 20
1.499999999999954
 30
0.0
 11
-84.17197841256707
 21
14.22899999999995
 31
0.0
  0
LINE
  5
109
330
103
100
AcDbEntity
  8
치수문자_일반주서
 62
     0
370
    -2
100
AcDbLine
 10
-84.17197841256701
 20
1.499999999999954
 30
0.0
 11
-84.171978412567
 21
-1.500000000000048
 31
0.0
  0
LINE
  5
10A
330
103
100
AcDbEntity
  8
치수문자_일반주서
 62
     0
370
    -2
100
AcDbLine
 10
-84.17197841256703
 20
4.801999999999953
 30
0.0
 11
-84.17197841256704
 21
8.103999999999953
 31
0.0
  0
LINE
  5
10B
330
103
100
AcDbEntity
  8
치수문자_일반주서
 62
     0
370
    -2
100
AcDbLine
 10
-84.17197841256699
 20
-4.802000000000048
 30
0.0
 11
-84.17197841256697
 21
-8.104000000000047
 31
0.0
  0
SOLID
  5
10C
330
103
100
AcDbEntity
  8
치수문자_일반주서
 62
     0
100
AcDbTrace
 10
-84.72231174590036
 20
4.801999999999951
 30
0.0
 11
-83.6216450792337
 21
4.801999999999956
 31
0.0
 12
-84.17197841256701
 22
1.499999999999954
 32
0.0
 13
-84.17197841256701
 23
1.499999999999954
 33
0.0
  0
SOLID
  5
10D
330
103
100
AcDbEntity
  8
치수문자_일반주서
 62
     0
100
AcDbTrace
 10
-83.62164507923366
 20
-4.802000000000045
 30
0.0
 11
-84.72231174590031
 21
-4.80200000000005
 31
0.0
 12
-84.171978412567
 22
-1.500000000000048
 32
0.0
 13
-84.171978412567
 23
-1.500000000000048
 33
0.0
  0
MTEXT
  5
10E
330
103
100
AcDbEntity
  8
치수문자_일반주서
 62
     0
100
AcDbMText
 10
-88.54697841256706
 20
11.16649999999993
 30
0.0
 40
3.5
 41
0.0
 71
     2
 72
     1
  1
\A1;%%c3
  7
SLDTEXTSTYLE0
 11
-4.736951571733997E-15
 21
1.0
 31
0.0
 73
     1
 44
1.0
  0
POINT
  5
14B
330
103
100
AcDbEntity
  8
Defpoints
 62
     0
100
AcDbPoint
 10
-73.50000000000001
 20
1.499999999999996
 30
0.0
  0
POINT
  5
14C
330
103
100
AcDbEntity
  8
Defpoints
 62
     0
100
AcDbPoint
 10
-73.50000000000001
 20
-1.500000000000007
 30
0.0
  0
POINT
  5
14D
330
103
100
AcDbEntity
  8
Defpoints
 62
     0
100
AcDbPoint
 10
-84.171978412567
 20
-1.500000000000047
 30
0.0
  0
ENDBLK
  5
105
330
103
100
AcDbEntity
  8
0
100
AcDbBlockEnd
  0
BLOCK
  5
111
330
110
100
AcDbEntity
  8
0
100
AcDbBlockBegin
  2
_D_3
 70
     0
 10
0.0
 20
0.0
 30
0.0
  3
_D_3
  1

  0
LINE
  5
113
330
110
100
AcDbEntity
  8
치수문자_일반주서
 62
     0
370
    -2
100
AcDbLine
 10
10.0
 20
1.555256610706032
 30
0.0
 11
10.0
 21
12.33867491329368
 31
0.0
  0
LINE
  5
114
330
110
100
AcDbEntity
  8
치수문자_일반주서
 62
     0
370
    -2
100
AcDbLine
 10
26.0
 20
1.562499999999996
 30
0.0
 11
26.0
 21
12.33867491329368
 31
0.0
  0
LINE
  5
115
330
110
100
AcDbEntity
  8
치수문자_일반주서
 62
     0
370
    -2
100
AcDbLine
 10
13.302
 20
12.33867491329368
 30
0.0
 11
22.698
 21
12.33867491329368
 31
0.0
  0
SOLID
  5
116
330
110
100
AcDbEntity
  8
치수문자_일반주서
 62
     0
100
AcDbTrace
 10
13.302
 20
12.88900824662701
 30
0.0
 11
13.302
 21
11.78834157996035
 31
0.0
 12
10.0
 22
12.33867491329368
 32
0.0
 13
10.0
 23
12.33867491329368
 33
0.0
  0
SOLID
  5
117
330
110
100
AcDbEntity
  8
치수문자_일반주서
 62
     0
100
AcDbTrace
 10
22.698
 20
11.78834157996035
 30
0.0
 11
22.698
 21
12.88900824662701
 31
0.0
 12
26.0
 22
12.33867491329368
 32
0.0
 13
26.0
 23
12.33867491329368
 33
0.0
  0
MTEXT
  5
118
330
110
100
AcDbEntity
  8
치수문자_일반주서
 62
     0
100
AcDbMText
 10
18.0
 20
16.71367491329368
 30
0.0
 40
3.5
 41
0.0
 71
     2
 72
     1
  1
\A1;16
  7
SLDTEXTSTYLE0
 73
     1
 44
1.0
  0
POINT
  5
119
330
110
100
AcDbEntity
  8
Defpoints
 62
     0
100
AcDbPoint
 10
10.0
 20
1.492756610706032
 30
0.0
  0
POINT
  5
11A
330
110
100
AcDbEntity
  8
Defpoints
 62
     0
100
AcDbPoint
 10
26.0
 20
1.499999999999996
 30
0.0
  0
POINT
  5
14A
330
110
100
AcDbEntity
  8
Defpoints
 62
     0
100
AcDbPoint
 10
26.0
 20
12.33867491329368
 30
0.0
  0
ENDBLK
  5
112
330
110
100
AcDbEntity
  8
0
100
AcDbBlockEnd
  0
BLOCK
  5
11C
330
11B
100
AcDbEntity
  8
0
100
AcDbBlockBegin
  2
SW_DOWELSYMBOL_0
 70
     0
 10
0.0
 20
0.0
 30
0.0
  3
SW_DOWELSYMBOL_0
  1

  0
CIRCLE
  5
11E
330
11B
100
AcDbEntity
  8
해칭선
 62
     0
100
AcDbCircle
 10
0.0
 20
0.0
 30
0.0
 40
3.000000000000003
  0
HATCH
  5
11F
330
11B
100
AcDbEntity
  8
0
  6
Continuous
 62
     0
370
    18
100
AcDbHatch
 10
0.0
 20
0.0
 30
0.0
210
0.0
220
0.0
230
1.0
  2
SOLID
 70
     1
 71
     0
 91
        1
 92
        0
 93
        3
 72
     2
 10
0.0
 20
0.0
 40
3.000000000000003
 50
0.0
 51
90.0
 73
     1
 72
     1
 10
0.0
 20
3.000000000000003
 11
0.0
 21
0.0
 72
     1
 10
0.0
 20
0.0
 11
3.000000000000003
 21
0.0
 97
        0
 75
     0
 76
     1
 98
        1
 10
0.0
 20
0.0
  0
HATCH
  5
120
330
11B
100
AcDbEntity
  8
0
  6
Continuous
 62
     0
370
    18
100
AcDbHatch
 10
0.0
 20
0.0
 30
0.0
210
0.0
220
0.0
230
1.0
  2
SOLID
 70
     1
 71
     0
 91
        1
 92
        0
 93
        3
 72
     2
 10
0.0
 20
0.0
 40
3.000000000000003
 50
180.0
 51
270.0000000000008
 73
     1
 72
     1
 10
0.0
 20
-3.000000000000003
 11
0.0
 21
0.0
 72
     1
 10
0.0
 20
0.0
 11
-3.000000000000003
 21
0.0
 97
        0
 75
     0
 76
     1
 98
        1
 10
0.0
 20
0.0
  0
ENDBLK
  5
11D
330
11B
100
AcDbEntity
  8
0
100
AcDbBlockEnd
  0
ENDSEC
  0
SECTION
  2
ENTITIES
  0
LINE
  5
99
330
1F
100
AcDbEntity
  8
0
  6
Continuous
 62
     4
370
    25
100
AcDbLine
 10
9.656022336396534
 20
-0.3169211156920841
 30
0.0
 11
9.487006303281332
 21
-0.2246278836585902
 31
0.0
  0
LINE
  5
9A
330
1F
100
AcDbEntity
  8
0
  6
Continuous
 62
     4
370
    25
100
AcDbLine
 10
8.561247257026753
 20
1.499999999999994
 30
0.0
 11
-73.50000000000001
 21
1.499999999999989
 31
0.0
  0
LINE
  5
9B
330
1F
100
AcDbEntity
  8
0
  6
Continuous
 62
     4
370
    25
100
AcDbLine
 10
10.0
 20
1.499999999999994
 30
0.0
 11
9.093493882264085
 21
1.499999999999994
 31
0.0
  0
LINE
  5
9C
330
1F
100
AcDbEntity
  8
0
  6
Continuous
 62
     4
370
    25
100
AcDbLine
 10
9.093493882264067
 20
-1.500000000000006
 30
0.0
 11
10.0
 21
-1.500000000000006
 31
0.0
  0
LINE
  5
9D
330
1F
100
AcDbEntity
  8
0
  6
Continuous
 62
     4
370
    25
100
AcDbLine
 10
-73.50000000000001
 20
-1.500000000000011
 30
0.0
 11
8.561247257026789
 21
-1.500000000000006
 31
0.0
  0
LINE
  5
9E
330
1F
100
AcDbEntity
  8
0
  6
Continuous
 62
     4
370
    25
100
AcDbLine
 10
-73.50000000000001
 20
1.499999999999984
 30
0.0
 11
-74.00000000000001
 21
0.999999999999983
 31
0.0
  0
LINE
  5
9F
330
1F
100
AcDbEntity
  8
0
  6
Continuous
 62
     4
370
    25
100
AcDbLine
 10
-74.00000000000001
 20
-1.000000000000005
 30
0.0
 11
-73.50000000000001
 21
-1.500000000000005
 31
0.0
  0
LINE
  5
A1
330
1F
100
AcDbEntity
  8
0
  6
Continuous
 62
     1
370
    25
100
AcDbLine
 10
13.93356186580466
 20
0.23072034349909
 30
0.0
 11
13.96659714848553
 21
0.2136522862396536
 31
0.0
  0
LINE
  5
A2
330
1F
100
AcDbEntity
  8
0
  6
Continuous
 62
     1
370
    25
100
AcDbLine
 10
17.90849491359781
 20
-0.3580779356470255
 30
0.0
 11
17.63181173315015
 21
-0.2147546684250495
 31
0.0
  0
LINE
  5
A3
330
1F
100
AcDbEntity
  8
0
  6
Continuous
 62
     1
370
    25
100
AcDbLine
 10
25.69169508430443
 20
-0.1568722422506785
 30
0.0
 11
25.65675290224647
 21
-0.1363266323706898
 31
0.0
  0
SPLINE
  5
A4
330
1F
100
AcDbEntity
  8
0
  6
Continuous
 62
     1
370
    25
100
AcDbSpline
210
0.0
220
0.0
230
1.0
 70
     8
 71
     3
 72
     9
 73
     5
 74
     0
 42
0.000000001
 43
0.00000001
 40
0.0
 40
0.0
 40
0.0
 40
0.0
 40
0.5564154025912068
 40
0.9999999999999999
 40
0.9999999999999999
 40
0.9999999999999999
 40
0.9999999999999999
 10
26.0
 20
-0.3339678349114155
 30
0.0
 10
25.94327826875662
 20
-0.3023988662970193
 30
0.0
 10
25.84133692964338
 20
-0.2456625350103932
 30
0.0
 10
25.73767702248757
 20
-0.1841557186318508
 30
0.0
 10
25.69169508430443
 20
-0.1568722422506786
 30
0.0
  0
LINE
  5
A5
330
1F
100
AcDbEntity
  8
0
  6
Continuous
 62
     1
370
    25
100
AcDbLine
 10
22.06267503795296
 20
0.2468045591356509
 30
0.0
 11
22.12869428753954
 21
0.2136522862396505
 31
0.0
  0
LINE
  5
A6
330
1F
100
AcDbEntity
  8
0
  6
Continuous
 62
     1
370
    25
100
AcDbLine
 10
21.76104171407434
 20
-0.2405684480831974
 30
0.0
 11
21.70920857340641
 21
-0.2136522862396127
 31
0.0
  0
LINE
  5
A7
330
1F
100
AcDbEntity
  8
0
  6
Continuous
 62
     1
370
    25
100
AcDbLine
 10
18.01246932027267
 20
0.2306144465058178
 30
0.0
 11
18.04399398874221
 21
0.2147546684248542
 31
0.0
  0
LINE
  5
A8
330
1F
100
AcDbEntity
  8
0
  6
Continuous
 62
     1
370
    25
100
AcDbLine
 10
13.66673574594106
 20
-0.2753061865074251
 30
0.0
 11
13.54711143435243
 21
-0.2136522862396141
 31
0.0
  0
LINE
  5
A9
330
1F
100
AcDbEntity
  8
0
  6
Continuous
 62
     1
370
    25
100
AcDbLine
 10
21.33848690102712
 20
-1.500000000000007
 30
0.0
 11
22.49837706673819
 21
-1.500000000000007
 31
0.0
  0
LINE
  5
AA
330
1F
100
AcDbEntity
  8
0
  6
Continuous
 62
     1
370
    25
100
AcDbLine
 10
14.33755989573251
 20
1.499999999999996
 30
0.0
 11
13.17611834055745
 21
1.499999999999996
 31
0.0
  0
LINE
  5
AB
330
1F
100
AcDbEntity
  8
0
  6
Continuous
 62
     1
370
    25
100
AcDbLine
 10
13.17611834055747
 20
-1.500000000000007
 30
0.0
 11
14.3375598957325
 21
-1.500000000000007
 31
0.0
  0
LINE
  5
AC
330
1F
100
AcDbEntity
  8
0
  6
Continuous
 62
     1
370
    25
100
AcDbLine
 10
22.49837706673816
 20
1.499999999999996
 30
0.0
 11
21.33848690102715
 21
1.499999999999996
 31
0.0
  0
LINE
  5
AD
330
1F
100
AcDbEntity
  8
0
  6
Continuous
 62
     1
370
    25
100
AcDbLine
 10
17.25697188852055
 20
-1.500000000000007
 30
0.0
 11
18.41675605712149
 21
-1.500000000000007
 31
0.0
  0
LINE
  5
AE
330
1F
100
AcDbEntity
  8
0
  6
Continuous
 62
     1
370
    25
100
AcDbLine
 10
10.25449139231876
 20
1.499999999999996
 30
0.0
 11
10.0
 21
1.499999999999996
 31
0.0
  0
LINE
  5
AF
330
1F
100
AcDbEntity
  8
0
  6
Continuous
 62
     1
370
    25
100
AcDbLine
 10
26.0
 20
1.499999999999996
 30
0.0
 11
25.41897906721388
 21
1.499999999999996
 31
0.0
  0
LINE
  5
B0
330
1F
100
AcDbEntity
  8
0
  6
Continuous
 62
     1
370
    25
100
AcDbLine
 10
25.41897906721387
 20
-1.500000000000007
 30
0.0
 11
26.0
 21
-1.500000000000007
 31
0.0
  0
LINE
  5
B1
330
1F
100
AcDbEntity
  8
0
  6
Continuous
 62
     1
370
    25
100
AcDbLine
 10
10.0
 20
-1.500000000000007
 30
0.0
 11
10.25449139231878
 21
-1.500000000000007
 31
0.0
  0
LINE
  5
B2
330
1F
100
AcDbEntity
  8
0
  6
Continuous
 62
     1
370
    25
100
AcDbLine
 10
18.41675605712152
 20
1.499999999999996
 30
0.0
 11
17.25697188852058
 21
1.499999999999996
 31
0.0
  0
SPLINE
  5
B3
330
1F
100
AcDbEntity
  8
0
  6
Continuous
 62
     4
370
    25
100
AcDbSpline
210
0.0
220
0.0
230
1.0
 70
     8
 71
     3
 72
    10
 73
     6
 74
     0
 42
0.000000001
 43
0.00000001
 40
0.0
 40
0.0
 40
0.0
 40
0.0
 40
0.5
 40
0.5
 40
1.0
 40
1.0
 40
1.0
 40
1.0
 10
8.650973712616963
 20
-1.222484596053969
 30
0.0
 10
8.603738517520515
 20
-1.206630273612676
 30
0.0
 10
8.565049463595923
 20
-1.182773262020333
 30
0.0
 10
8.51317141715058
 20
-1.12234888189325
 30
0.0
 10
8.500179212353585
 20
-1.085735894763214
 30
0.0
 10
8.500179212353585
 20
-1.04667659669426
 30
0.0
  0
SPLINE
  5
B4
330
1F
100
AcDbEntity
  8
0
  6
Continuous
 62
     4
370
    25
100
AcDbSpline
210
0.0
220
0.0
230
1.0
 70
     8
 71
     3
 72
    12
 73
     8
 74
     0
 42
0.000000001
 43
0.00000001
 40
0.0
 40
0.0
 40
0.0
 40
0.0
 40
0.2499999999999999
 40
0.2499999999999999
 40
0.4999999999999999
 40
0.4999999999999999
 40
1.0
 40
1.0
 40
1.0
 40
1.0
 10
8.500179212353585
 20
-0.1862548948242924
 30
0.0
 10
8.500179212353585
 20
-0.1331628116800114
 30
0.0
 10
8.512621089752303
 20
-0.0801900697679052
 30
0.0
 10
8.562361243220288
 20
0.0127606208215514
 30
0.0
 10
8.599712542677484
 20
0.052783870159344
 30
0.0
 10
8.736912963275516
 20
0.1361529793267992
 30
0.0
 10
8.856266552734938
 20
0.1375513150384616
 30
0.0
 10
8.949068519944396
 20
0.0840335095247088
 30
0.0
  0
SPLINE
  5
B5
330
1F
100
AcDbEntity
  8
0
  6
Continuous
 62
     4
370
    25
100
AcDbSpline
210
0.0
220
0.0
230
1.0
 70
     8
 71
     3
 72
    12
 73
     8
 74
     0
 42
0.000000001
 43
0.00000001
 40
0.0
 40
0.0
 40
0.0
 40
0.0
 40
0.5
 40
0.5
 40
0.75
 40
0.75
 40
1.0
 40
1.0
 40
1.0
 40
1.0
 10
10.00000000000839
 20
-1.492756610706516
 30
0.0
 10
9.773511365756413
 20
-1.4799708467374
 30
0.0
 10
9.552741399757396
 20
-1.450503953756024
 30
0.0
 10
9.21278588709695
 20
-1.382001931878209
 30
0.0
 10
9.099028123899455
 20
-1.355147464310305
 30
0.0
 10
8.873514392682516
 20
-1.294116186061304
 30
0.0
 10
8.763019882813943
 20
-1.260092487944489
 30
0.0
 10
8.65097371261696
 20
-1.222484596053968
 30
0.0
  0
SPLINE
  5
B6
330
1F
100
AcDbEntity
  8
0
  6
Continuous
 62
     4
370
    25
100
AcDbSpline
210
0.0
220
0.0
230
1.0
 70
     8
 71
     3
 72
    10
 73
     6
 74
     0
 42
0.000000001
 43
0.00000001
 40
0.0
 40
0.0
 40
0.0
 40
0.0
 40
0.5
 40
0.5
 40
1.0
 40
1.0
 40
1.0
 40
1.0
 10
10.00000000000839
 20
-0.5120108542107574
 30
0.0
 10
9.823899873877457
 20
-0.4168135674766705
 30
0.0
 10
9.652146413335625
 20
-0.3189225663392324
 30
0.0
 10
9.301815789775864
 20
-0.1188856202626226
 30
0.0
 10
9.124042330802828
 20
-0.0168718339836459
 30
0.0
 10
8.949068519947721
 20
0.0840335095227907
 30
0.0
  0
SPLINE
  5
B7
330
1F
100
AcDbEntity
  8
0
  6
Continuous
 62
     4
370
    25
100
AcDbSpline
210
0.0
220
0.0
230
1.0
 70
    24
 71
     3
 72
    12
 73
     8
 74
     0
 42
0.000000001
 43
0.00000001
 40
0.0
 40
0.0
 40
0.0
 40
0.0
 40
0.1588542093182961
 40
0.4003207969914586
 40
0.641787384664621
 40
0.8832539723376898
 40
0.9999999999999999
 40
0.9999999999999999
 40
0.9999999999999999
 40
0.9999999999999999
 10
9.999999999999998
 20
-0.5120108542066102
 30
0.0
 10
9.999999999999998
 20
-0.5217503221845764
 30
0.0
 10
9.999999999999998
 20
-0.5462942835938708
 30
0.0
 10
10.0
 20
-0.7166228495129199
 30
0.0
 10
10.0
 20
-0.9844538135955954
 30
0.0
 10
10.0
 20
-1.262311662291848
 30
0.0
 10
10.0
 20
-1.436112663451178
 30
0.0
 10
10.0
 20
-1.492756610706042
 30
0.0
  0
SPLINE
  5
B8
330
1F
100
AcDbEntity
  8
0
  6
Continuous
 62
     4
370
    25
100
AcDbSpline
210
0.0
220
0.0
230
1.0
 70
     8
 71
     3
 72
    10
 73
     6
 74
     0
 42
0.000000001
 43
0.00000001
 40
0.0
 40
0.0
 40
0.0
 40
0.0
 40
0.5
 40
0.5
 40
1.0
 40
1.0
 40
1.0
 40
1.0
 10
10.00000000000839
 20
1.409909530845987
 30
0.0
 10
9.823899873877457
 20
1.44448057461361
 30
0.0
 10
9.652146413335625
 20
1.469186775002487
 30
0.0
 10
9.301815789775864
 20
1.498695296735589
 30
0.0
 10
9.124042330802828
 20
1.503306118546056
 30
0.0
 10
8.949068519947721
 20
1.497644273276284
 30
0.0
  0
SPLINE
  5
B9
330
1F
100
AcDbEntity
  8
0
  6
Continuous
 62
     4
370
    25
100
AcDbSpline
210
0.0
220
0.0
230
1.0
 70
     8
 71
     3
 72
    12
 73
     8
 74
     0
 42
0.000000001
 43
0.00000001
 40
0.0
 40
0.0
 40
0.0
 40
0.0
 40
0.2500000000000001
 40
0.2500000000000001
 40
0.5
 40
0.5
 40
1.0
 40
1.0
 40
1.0
 40
1.0
 10
8.500179212353585
 20
1.488391451921832
 30
0.0
 10
8.500179212353585
 20
1.495035309187521
 30
0.0
 10
8.512621089752303
 20
1.498576191648723
 30
0.0
 10
8.562361243220288
 20
1.500665924188997
 30
0.0
 10
8.599712542677484
 20
1.499329305182474
 30
0.0
 10
8.736912963275516
 20
1.494844599124714
 30
0.0
 10
8.856266552734938
 20
1.494641364575076
 30
0.0
 10
8.949068519944396
 20
1.497644273276181
 30
0.0
  0
LINE
  5
BA
330
1F
100
AcDbEntity
  8
0
  6
Continuous
 62
     4
370
    25
100
AcDbLine
 10
8.500179212353585
 20
1.488391451921832
 30
0.0
 11
8.500179212353585
 21
1.074461773136917
 31
0.0
  0
SPLINE
  5
BB
330
1F
100
AcDbEntity
  8
0
  6
Continuous
 62
     4
370
    25
100
AcDbSpline
210
0.0
220
0.0
230
1.0
 70
     8
 71
     3
 72
    10
 73
     6
 74
     0
 42
0.000000001
 43
0.00000001
 40
0.0
 40
0.0
 40
0.0
 40
0.0
 40
0.5
 40
0.5
 40
1.0
 40
1.0
 40
1.0
 40
1.0
 10
8.650973712616963
 20
0.8692130995387186
 30
0.0
 10
8.603738517520515
 20
0.8915110434786322
 30
0.0
 10
8.565049463595923
 20
0.9237293226554064
 30
0.0
 10
8.51317141715058
 20
0.9962737767283684
 30
0.0
 10
8.500179212353585
 20
1.036412533792904
 30
0.0
 10
8.500179212353585
 20
1.074461773136917
 30
0.0
  0
SPLINE
  5
BC
330
1F
100
AcDbEntity
  8
0
  6
Continuous
 62
     4
370
    25
100
AcDbSpline
210
0.0
220
0.0
230
1.0
 70
     8
 71
     3
 72
    12
 73
     8
 74
     0
 42
0.000000001
 43
0.00000001
 40
0.0
 40
0.0
 40
0.0
 40
0.0
 40
0.5
 40
0.5
 40
0.75
 40
0.75
 40
1.0
 40
1.0
 40
1.0
 40
1.0
 10
10.00000000000839
 20
0.1472334920829654
 30
0.0
 10
9.773511365756413
 20
0.2768645523656039
 30
0.0
 10
9.552741399757396
 20
0.4037491483783519
 30
0.0
 10
9.21278588709695
 20
0.5867831234396855
 30
0.0
 10
9.099028123899455
 20
0.6463784504724944
 30
0.0
 10
8.873514392682516
 20
0.7612444076878427
 30
0.0
 10
8.76301988281394
 20
0.8163203525810179
 30
0.0
 10
8.650973712616956
 20
0.8692130995387222
 30
0.0
  0
LINE
  5
BD
330
1F
100
AcDbEntity
  8
0
  6
Continuous
 62
     4
370
    25
100
AcDbLine
 10
8.500179212353585
 20
-0.1862548948242924
 30
0.0
 11
8.500179212353585
 21
-1.046676596694261
 31
0.0
  0
LINE
  5
BE
330
1F
100
AcDbEntity
  8
0
  6
Continuous
 62
     4
370
    25
100
AcDbLine
 10
8.949068519947721
 20
-1.497644273276296
 30
0.0
 11
9.09349388226407
 21
-1.485587234160391
 31
0.0
  0
SPLINE
  5
BF
330
1F
100
AcDbEntity
  8
0
  6
Continuous
 62
     4
370
    25
100
AcDbSpline
210
0.0
220
0.0
230
1.0
 70
     8
 71
     3
 72
    13
 73
     9
 74
     0
 42
0.000000001
 43
0.00000001
 40
0.0
 40
0.0
 40
0.0
 40
0.0
 40
0.0335223879050556
 40
0.2662531955419388
 40
0.4951110512681479
 40
0.7247665857759402
 40
0.9550694742453879
 40
1.0
 40
1.0
 40
1.0
 40
1.0
 10
8.561247257026764
 20
-1.499653465853746
 30
0.0
 10
8.563490025848433
 20
-1.499764035932352
 30
0.0
 10
8.581303326241077
 20
-1.500642244156766
 30
0.0
 10
8.642341983064366
 20
-1.497608927929179
 30
0.0
 10
8.734677357564296
 20
-1.495115391516552
 30
0.0
 10
8.836710973555164
 20
-1.494558516640538
 30
0.0
 10
8.908431553752724
 20
-1.496343244637931
 30
0.0
 10
8.943365690777343
 20
-1.497461692125067
 30
0.0
 10
8.949068519947721
 20
-1.497644273276296
 30
0.0
  0
LINE
  5
C1
330
1F
100
AcDbEntity
  8
0
  6
Continuous
 62
     4
370
    25
100
AcDbLine
 10
-73.50000000000001
 20
1.499999999999984
 30
0.0
 11
-73.50000000000001
 21
-1.500000000000005
 31
0.0
  0
LINE
  5
C2
330
1F
100
AcDbEntity
  8
0
  6
Continuous
 62
     4
370
    25
100
AcDbLine
 10
10.0
 20
-1.492756610706042
 30
0.0
 11
10.0
 21
-1.500000000000006
 31
0.0
  0
LINE
  5
C3
330
1F
100
AcDbEntity
  8
0
  6
Continuous
 62
     4
370
    25
100
AcDbLine
 10
10.0
 20
0.1472334920877657
 30
0.0
 11
9.999999999999998
 21
-0.512010854206235
 31
0.0
  0
LINE
  5
C4
330
1F
100
AcDbEntity
  8
0
  6
Continuous
 62
     4
370
    25
100
AcDbLine
 10
10.0
 20
1.499999999999994
 30
0.0
 11
9.999999999999998
 21
1.40990953084769
 31
0.0
  0
LINE
  5
C5
330
1F
100
AcDbEntity
  8
0
  6
Continuous
 62
     4
370
    25
100
AcDbLine
 10
-74.00000000000001
 20
0.9999999999999832
 30
0.0
 11
-74.00000000000001
 21
-1.000000000000005
 31
0.0
  0
SPLINE
  5
C6
330
1F
100
AcDbEntity
  8
0
  6
Continuous
 62
     1
370
    25
100
AcDbSpline
210
0.0
220
0.0
230
1.0
 70
     8
 71
     3
 72
    19
 73
    15
 74
     0
 42
0.000000001
 43
0.00000001
 40
0.0
 40
0.0
 40
0.0
 40
0.0
 40
0.000445743329081
 40
0.0913756802901168
 40
0.1823017083270821
 40
0.2732244496291774
 40
0.3641445287531324
 40
0.4550625721758171
 40
0.5459792078438941
 40
0.6368950647212006
 40
0.7278107723345584
 40
0.8273558968130192
 40
0.9268996801771171
 40
1.0
 40
1.0
 40
1.0
 40
1.0
 10
19.87763543838896
 20
-1.268882884107861
 30
0.0
 10
19.87620570657954
 20
-1.269430563094866
 30
0.0
 10
19.58311614540208
 20
-1.381702663995046
 30
0.0
 10
18.9983874512203
 20
-1.480383236179408
 30
0.0
 10
18.12345917437684
 20
-1.521577947847922
 30
0.0
 10
17.24856977471376
 20
-1.375770640477679
 30
0.0
 10
16.37371150007849
 20
-1.079679664395342
 30
0.0
 10
15.49887422764414
 20
-0.6611659233249441
 30
0.0
 10
14.62406281704262
 20
-0.1685621757371721
 30
0.0
 10
13.74922446349356
 20
0.3426197164823751
 30
0.0
 10
12.84684894853005
 20
0.8319368495131348
 30
0.0
 10
11.91624511470475
 20
1.227203119243994
 30
0.0
 10
11.04295781797843
 20
1.471119111171885
 30
0.0
 10
10.48903241334943
 20
1.477502705392319
 30
0.0
 10
10.25449139231876
 20
1.480205622958104
 30
0.0
  0
SPLINE
  5
C7
330
1F
100
AcDbEntity
  8
0
  6
Continuous
 62
     1
370
    25
100
AcDbSpline
210
0.0
220
0.0
230
1.0
 70
     8
 71
     3
 72
    19
 73
    15
 74
     0
 42
0.000000001
 43
0.00000001
 40
0.0
 40
0.0
 40
0.0
 40
0.0
 40
0.0210059068116
 40
0.1205331130166899
 40
0.2114324556648018
 40
0.3023319475499941
 40
0.3932322180857732
 40
0.4841338961227626
 40
0.5750376094945924
 40
0.6659439845653665
 40
0.7568536457793936
 40
0.8477672152138788
 40
0.938685312135263
 40
1.0
 40
1.0
 40
1.0
 40
1.0
 10
11.71403962137249
 20
1.254947455130936
 30
0.0
 10
11.78144839440246
 20
1.279895404865966
 30
0.0
 10
12.16824384821505
 20
1.423048189076479
 30
0.0
 10
12.84685314470596
 20
1.511175221973803
 30
0.0
 10
13.74922338223523
 20
1.49368996445985
 30
0.0
 10
14.62406310774809
 20
1.296861560001742
 30
0.0
 10
15.49887414608945
 20
0.9575524380385617
 30
0.0
 10
16.37371153558701
 20
0.5098245439330492
 30
0.0
 10
17.24856971423463
 20
0.0049206301574877
 30
0.0
 10
18.12345938079317
 20
-0.5001452638726711
 30
0.0
 10
18.99838668599305
 20
-0.9507196231746966
 30
0.0
 10
19.87335957269688
 20
-1.288083948847257
 30
0.0
 10
20.65339614627693
 20
-1.481086002211947
 30
0.0
 10
21.14178063583426
 20
-1.481292830266137
 30
0.0
 10
21.33848690102712
 20
-1.481376134250902
 30
0.0
  0
SPLINE
  5
C8
330
1F
100
AcDbEntity
  8
0
  6
Continuous
 62
     1
370
    25
100
AcDbSpline
210
0.0
220
0.0
230
1.0
 70
     8
 71
     3
 72
    16
 73
    12
 74
     0
 42
0.000000001
 43
0.00000001
 40
0.0
 40
0.0
 40
0.0
 40
0.0
 40
0.115443206722314
 40
0.2308760570428416
 40
0.3462993040647023
 40
0.4617137076931241
 40
0.5771200341174707
 40
0.6925190552837738
 40
0.8079115483585245
 40
0.9232982951845276
 40
1.0
 40
1.0
 40
1.0
 40
1.0
 10
26.0
 20
-1.462748547532539
 30
0.0
 10
25.70817080445364
 20
-1.409325770976509
 30
0.0
 10
25.1245385933371
 20
-1.302485010417899
 30
0.0
 10
24.24914774294475
 20
-0.9517576965084326
 30
0.0
 10
23.37384299941135
 20
-0.5059067051268791
 30
0.0
 10
22.49861898020271
 20
0.0000750361268569
 30
0.0
 10
21.62346834359127
 20
0.5047188333775475
 30
0.0
 10
20.74838409553013
 20
0.9546035975360402
 30
0.0
 10
19.87335948235608
 20
1.290636152266172
 30
0.0
 10
19.09615578778083
 20
1.481896927009057
 30
0.0
 10
18.61062892166255
 20
1.481327970460641
 30
0.0
 10
18.41675605712152
 20
1.481100783782543
 30
0.0
  0
SPLINE
  5
C9
330
1F
100
AcDbEntity
  8
0
  6
Continuous
 62
     1
370
    25
100
AcDbSpline
210
0.0
220
0.0
230
1.0
 70
     8
 71
     3
 72
     9
 73
     5
 74
     0
 42
0.000000001
 43
0.00000001
 40
0.0
 40
0.0
 40
0.0
 40
0.0
 40
0.4410195025489177
 40
1.0
 40
1.0
 40
1.0
 40
1.0
 10
11.71403962137251
 20
-1.254947455130948
 30
0.0
 10
11.46206311493838
 20
-1.329732810311866
 30
0.0
 10
10.89071308398102
 20
-1.499306615435424
 30
0.0
 10
10.31936976991839
 20
-1.495105148682235
 30
0.0
 10
10.00000000000832
 20
-1.492756610706514
 30
0.0
  0
SPLINE
  5
CA
330
1F
100
AcDbEntity
  8
0
  6
Continuous
 62
     4
370
    25
100
AcDbSpline
210
0.0
220
0.0
230
1.0
 70
    24
 71
     3
 72
    12
 73
     8
 74
     0
 42
0.000000001
 43
0.00000001
 40
0.0
 40
0.0
 40
0.0
 40
0.0
 40
0.1962984066839363
 40
0.4270159391207488
 40
0.657733471557561
 40
0.8884510039942844
 40
1.0
 40
1.0
 40
1.0
 40
1.0
 10
10.0
 20
-0.4996684461487489
 30
0.0
 10
10.0
 20
-0.5114439668805482
 30
0.0
 10
10.0
 20
-0.5370597379347748
 30
0.0
 10
10.0
 20
-0.7157264341150632
 30
0.0
 10
10.0
 20
-0.9846985381613922
 30
0.0
 10
10.0
 20
-1.26228551502444
 30
0.0
 10
10.0
 20
-1.436106236386488
 30
0.0
 10
10.0
 20
-1.492756610704895
 30
0.0
  0
SPLINE
  5
CB
330
1F
100
AcDbEntity
  8
0
  6
Continuous
 62
     1
370
    25
100
AcDbSpline
210
0.0
220
0.0
230
1.0
 70
     8
 71
     3
 72
    11
 73
     7
 74
     0
 42
0.000000001
 43
0.00000001
 40
0.0
 40
0.0
 40
0.0
 40
0.0
 40
0.3016531654382394
 40
0.603318166771557
 40
0.9049872323191573
 40
1.0
 40
1.0
 40
1.0
 40
1.0
 10
10.00000000000838
 20
-0.5120108542107564
 30
0.0
 10
10.31937298091655
 20
-0.6791675937926249
 30
0.0
 10
10.95813147389625
 20
-1.013487631646467
 30
0.0
 10
11.91623457419825
 20
-1.348458392075337
 30
0.0
 10
12.65574336758643
 20
-1.507456709923904
 30
0.0
 10
13.07556351176255
 20
-1.485983267505294
 30
0.0
 10
13.17611834055747
 20
-1.480839973749634
 30
0.0
  0
SPLINE
  5
CC
330
1F
100
AcDbEntity
  8
0
  6
Continuous
 62
     1
370
    25
100
AcDbSpline
210
0.0
220
0.0
230
1.0
 70
     8
 71
     3
 72
    14
 73
    10
 74
     0
 42
0.000000001
 43
0.00000001
 40
0.0
 40
0.0
 40
0.0
 40
0.0
 40
0.1422275865117745
 40
0.2851638655134213
 40
0.4281091930008475
 40
0.5710645251268183
 40
0.7140308109137394
 40
0.857008991600322
 40
0.9999999999999999
 40
0.9999999999999999
 40
0.9999999999999999
 40
0.9999999999999999
 10
19.87763543838897
 20
1.268882884107849
 30
0.0
 10
20.16787938054819
 20
1.34448578240978
 30
0.0
 10
20.7498134941607
 20
1.496068293598719
 30
0.0
 10
21.62346843732374
 20
1.517631790743249
 30
0.0
 10
22.49861895508522
 20
1.379108206286758
 30
0.0
 10
23.37384300614
 20
1.082618215481934
 30
0.0
 10
24.24914774115022
 20
0.6659058712488539
 30
0.0
 10
25.12453859378579
 20
0.1714512244275079
 30
0.0
 10
25.70817080460321
 20
-0.1643211180098497
 30
0.0
 10
26.0
 20
-0.3322148200945074
 30
0.0
  0
LINE
  5
CD
330
1F
100
AcDbEntity
  8
0
  6
Continuous
 62
     1
370
    25
100
AcDbLine
 10
26.0
 20
-0.5000000000000078
 30
0.0
 11
26.0
 21
-0.333385690053037
 31
0.0
  0
SPLINE
  5
CE
330
1F
100
AcDbEntity
  8
0
  6
Continuous
 62
     1
370
    25
100
AcDbSpline
210
0.0
220
0.0
230
1.0
 70
    24
 71
     3
 72
    10
 73
     6
 74
     0
 42
0.000000001
 43
0.00000001
 40
0.0
 40
0.0
 40
0.0
 40
0.0
 40
0.5
 40
0.5
 40
1.0
 40
1.0
 40
1.0
 40
1.0
 10
26.0
 20
-0.5000000000000077
 30
0.0
 10
25.92467106000672
 20
-0.552745891628652
 30
0.0
 10
25.82244173706417
 20
-0.6243276341791019
 30
0.0
 10
25.60354991192592
 20
-0.777597340193386
 30
0.0
 10
25.49001289829408
 20
-0.8570968130042188
 30
0.0
 10
25.38210198269385
 20
-0.9326568495626122
 30
0.0
  0
SPLINE
  5
CF
330
1F
100
AcDbEntity
  8
0
  6
Continuous
 62
     1
370
    25
100
AcDbSpline
210
0.0
220
0.0
230
1.0
 70
     8
 71
     3
 72
     8
 73
     4
 74
     0
 42
0.000000001
 43
0.00000001
 40
0.0
 40
0.0
 40
0.0
 40
0.0
 40
1.0
 40
1.0
 40
1.0
 40
1.0
 10
26.0
 20
-1.404383063753674
 30
0.0
 10
25.77973370474783
 20
-1.277322519792206
 30
0.0
 10
25.57767959371998
 20
-1.11182418487109
 30
0.0
 10
25.38210198269386
 20
-0.9326568495626045
 30
0.0
  0
LINE
  5
D0
330
1F
100
AcDbEntity
  8
0
  6
Continuous
 62
     1
370
    25
100
AcDbLine
 10
26.0
 20
-1.462748547532899
 30
0.0
 11
26.0
 21
-1.404383063753674
 31
0.0
  0
SPLINE
  5
D1
330
1F
100
AcDbEntity
  8
0
  6
Continuous
 62
     1
370
    25
100
AcDbSpline
210
0.0
220
0.0
230
1.0
 70
     8
 71
     3
 72
    19
 73
    15
 74
     0
 42
0.000000001
 43
0.00000001
 40
0.0
 40
0.0
 40
0.0
 40
0.0
 40
0.0606860447962714
 40
0.1516605265039931
 40
0.2426286414201247
 40
0.3335909980249592
 40
0.4245482089137754
 40
0.5155008903679182
 40
0.6064496619202434
 40
0.6973951459155806
 40
0.7883379670668814
 40
0.8792787520077181
 40
0.9702181288418221
 40
1.0
 40
1.0
 40
1.0
 40
1.0
 10
23.95766348806037
 20
-1.253288810997546
 30
0.0
 10
23.76304944809623
 20
-1.313375842255707
 30
0.0
 10
23.27668939834976
 20
-1.463539373711206
 30
0.0
 10
22.49861930971339
 20
-1.525104618830544
 30
0.0
 10
21.62346824425423
 20
-1.443730293981634
 30
0.0
 10
20.74838416339379
 20
-1.194558592451656
 30
0.0
 10
19.87335931024376
 20
-0.8126348975770059
 30
0.0
 10
18.99838676457131
 20
-0.3390679888962853
 30
0.0
 10
18.12345932891859
 20
0.1727070746408794
 30
0.0
 10
17.24856984315269
 20
0.6642568861488917
 30
0.0
 10
16.37371107180566
 20
1.084299698393231
 30
0.0
 10
15.49887587224952
 20
1.370799954579591
 30
0.0
 10
14.82016150639456
 20
1.507509995931557
 30
0.0
 10
14.43305810912899
 20
1.486506725062242
 30
0.0
 10
14.33755989573251
 20
1.481325228703207
 30
0.0
  0
SPLINE
  5
D2
330
1F
100
AcDbEntity
  8
0
  6
Continuous
 62
     1
370
    25
100
AcDbSpline
210
0.0
220
0.0
230
1.0
 70
     8
 71
     3
 72
    19
 73
    15
 74
     0
 42
0.000000001
 43
0.00000001
 40
0.0
 40
0.0
 40
0.0
 40
0.0
 40
0.0598255517494597
 40
0.1507631258954504
 40
0.2417033627318433
 40
0.3326468869355465
 40
0.4235943208154829
 40
0.5145462838687642
 40
0.605503392341178
 40
0.6964662587926599
 40
0.7874354916683952
 40
0.8784116948761845
 40
0.9693954673706963
 40
1.0
 40
1.0
 40
1.0
 40
1.0
 10
15.79816131700036
 20
1.25308036821169
 30
0.0
 10
15.99000914363515
 20
1.312579498536356
 30
0.0
 10
16.47347443887953
 20
1.462520027515905
 30
0.0
 10
17.24856991896098
 20
1.525031752690216
 30
0.0
 10
18.12345930897741
 20
1.445350150149456
 30
0.0
 10
18.99838676852413
 20
1.197616137953722
 30
0.0
 10
19.8733593143751
 20
0.8168092026811551
 30
0.0
 10
20.74838414291367
 20
0.343864780938562
 30
0.0
 10
21.62346832204987
 20
-0.1678448894765108
 30
0.0
 10
22.49861901898424
 20
-0.6599063285736324
 30
0.0
 10
23.37384286581432
 20
-1.080904389649035
 30
0.0
 10
24.24914823860556
 20
-1.368888980768965
 30
0.0
 10
24.93086732431987
 20
-1.506905828000174
 30
0.0
 10
25.320824436663
 20
-1.48625870936292
 30
0.0
 10
25.41897906721387
 20
-1.481061701185272
 30
0.0
  0
SPLINE
  5
D3
330
1F
100
AcDbEntity
  8
0
  6
Continuous
 62
     1
370
    25
100
AcDbSpline
210
0.0
220
0.0
230
1.0
 70
     8
 71
     3
 72
    12
 73
     8
 74
     0
 42
0.000000001
 43
0.00000001
 40
0.0
 40
0.0
 40
0.0
 40
0.0
 40
0.2500160497341335
 40
0.5000096705463963
 40
0.7499824934367604
 40
0.999936164136566
 40
1.0
 40
1.0
 40
1.0
 40
1.0
 10
26.0
 20
0.3322148200944683
 30
0.0
 10
25.70817082466785
 20
0.4924983929006865
 30
0.0
 10
25.12453865397793
 20
0.8130511594853147
 30
0.0
 10
24.24914750041522
 20
1.197610909019409
 30
0.0
 10
23.37384390878591
 20
1.429787291882001
 30
0.0
 10
22.79026278876009
 20
1.52808172981594
 30
0.0
 10
22.49845157360424
 20
1.499985652084136
 30
0.0
 10
22.49837706673816
 20
1.499978478436956
 30
0.0
  0
SPLINE
  5
D4
330
1F
100
AcDbEntity
  8
0
  6
Continuous
 62
     1
370
    25
100
AcDbSpline
210
0.0
220
0.0
230
1.0
 70
     8
 71
     3
 72
    14
 73
    10
 74
     0
 42
0.000000001
 43
0.00000001
 40
0.0
 40
0.0
 40
0.0
 40
0.0
 40
0.0516265274482086
 40
0.2025302698683442
 40
0.3534327196488989
 40
0.5043349216806415
 40
0.6695602593000416
 40
0.834783370933241
 40
1.0
 40
1.0
 40
1.0
 40
1.0
 10
15.79816131700036
 20
-1.253080368211701
 30
0.0
 10
15.69839800573156
 20
-1.28807599683731
 30
0.0
 10
15.30702768987022
 20
-1.425363443041538
 30
0.0
 10
14.62406313904594
 20
-1.513280006968631
 30
0.0
 10
13.74922439000095
 20
-1.491286843983469
 30
0.0
 10
12.84684892193735
 20
-1.2859215569711
 30
0.0
 10
11.91624532376486
 20
-0.9155709166912039
 30
0.0
 10
10.95812878664264
 20
-0.4088962509512752
 30
0.0
 10
10.31937208517702
 20
-0.0381406644342039
 30
0.0
 10
10.00000000000832
 20
0.147233492083004
 30
0.0
  0
SPLINE
  5
D5
330
1F
100
AcDbEntity
  8
0
  6
Continuous
 62
     4
370
    25
100
AcDbSpline
210
0.0
220
0.0
230
1.0
 70
    24
 71
     3
 72
    16
 73
    12
 74
     0
 42
0.000000001
 43
0.00000001
 40
0.0
 40
0.0
 40
0.0
 40
0.0
 40
0.1250000000000001
 40
0.1250000000000001
 40
0.2500000000000002
 40
0.2500000000000002
 40
0.5000000000000001
 40
0.5000000000000001
 40
0.75
 40
0.75
 40
1.0
 40
1.0
 40
1.0
 40
1.0
 10
10.0
 20
1.409909530847692
 30
0.0
 10
10.0
 20
1.358243364013159
 30
0.0
 10
10.0
 20
1.31141248801844
 30
0.0
 10
10.0
 20
1.207551129898048
 30
0.0
 10
10.0
 20
1.151717126102498
 30
0.0
 10
10.0
 20
0.973414631103411
 30
0.0
 10
10.0
 20
0.8387806400758167
 30
0.0
 10
10.0
 20
0.5668014874847974
 30
0.0
 10
10.0
 20
0.4299787894907705
 30
0.0
 10
10.0
 20
0.2228272359881823
 30
0.0
 10
10.0
 20
0.1560190532040415
 30
0.0
 10
10.0
 20
0.1472334920878165
 30
0.0
  0
SPLINE
  5
D6
330
1F
100
AcDbEntity
  8
0
  6
Continuous
 62
     1
370
    25
100
AcDbSpline
210
0.0
220
0.0
230
1.0
 70
     8
 71
     3
 72
    16
 73
    12
 74
     0
 42
0.000000001
 43
0.00000001
 40
0.0
 40
0.0
 40
0.0
 40
0.0
 40
0.1320001562606231
 40
0.2640054917806698
 40
0.3960126057568445
 40
0.5165762219060034
 40
0.6371400359945704
 40
0.757704882840116
 40
0.8782715965136352
 40
0.9988410097372422
 40
1.0
 40
1.0
 40
1.0
 40
1.0
 10
10.00000000000839
 20
1.409909530845987
 30
0.0
 10
10.31937208464337
 20
1.328341087722174
 30
0.0
 10
10.95812878504153
 20
1.16520100099252
 30
0.0
 10
11.91624533016982
 20
0.7130648463810735
 30
0.0
 10
12.84684889879767
 20
0.1943195751734464
 30
0.0
 10
13.74922446809455
 20
-0.3346070959556947
 30
0.0
 10
14.62406284670495
 20
-0.8073836964139135
 30
0.0
 10
15.49887410439181
 20
-1.195104795288797
 30
0.0
 10
16.37371196343729
 20
-1.428278191636754
 30
0.0
 10
16.95974470071947
 20
-1.527525215027952
 30
0.0
 10
17.25416864397302
 20
-1.499464722632943
 30
0.0
 10
17.25697188852056
 20
-1.499197555426913
 30
0.0
  0
SPLINE
  5
D7
330
1F
100
AcDbEntity
  8
0
  6
Continuous
 62
     1
370
    25
100
AcDbSpline
210
0.0
220
0.0
230
1.0
 70
     8
 71
     3
 72
    10
 73
     6
 74
     0
 42
0.000000001
 43
0.00000001
 40
0.0
 40
0.0
 40
0.0
 40
0.0
 40
0.1427132896032763
 40
0.5713374171568759
 40
1.0
 40
1.0
 40
1.0
 40
1.0
 10
23.95766348806037
 20
1.253288810997536
 30
0.0
 10
24.05481739128937
 20
1.287347071245925
 30
0.0
 10
24.44376266955931
 20
1.423695679685012
 30
0.0
 10
25.12453913527041
 20
1.520849311937444
 30
0.0
 10
25.70817098510349
 20
1.482116048153432
 30
0.0
 10
26.0
 20
1.46274854753288
 30
0.0
  0
LINE
  5
D8
330
1F
100
AcDbEntity
  8
0
  6
Continuous
 62
     1
370
    25
100
AcDbLine
 10
26.0
 20
0.8043077700777088
 30
0.0
 11
26.0
 21
1.462748547532888
 31
0.0
  0
SPLINE
  5
D9
330
1F
100
AcDbEntity
  8
0
  6
Continuous
 62
     1
370
    25
100
AcDbSpline
210
0.0
220
0.0
230
1.0
 70
     8
 71
     3
 72
    10
 73
     6
 74
     0
 42
0.000000001
 43
0.00000001
 40
0.0
 40
0.0
 40
0.0
 40
0.0
 40
0.3154082355538419
 40
0.6295726553169676
 40
1.0
 40
1.0
 40
1.0
 40
1.0
 10
26.0
 20
0.8043077700777088
 30
0.0
 10
25.95614964121395
 20
0.7566816493011714
 30
0.0
 10
25.86862184800634
 20
0.6616172218708584
 30
0.0
 10
25.68752929498506
 20
0.5886063861680789
 30
0.0
 10
25.56057345694591
 20
0.5972868166428955
 30
0.0
 10
25.49187862826228
 20
0.601983730889437
 30
0.0
  0
LINE
  5
DA
330
1F
100
AcDbEntity
  8
0
  6
Continuous
 62
     1
370
    25
100
AcDbLine
 10
26.0
 20
-0.3322148200945079
 30
0.0
 11
26.0
 21
0.332214820094497
 31
0.0
  0
LINE
  5
DB
330
1F
100
AcDbEntity
  8
0
  6
Continuous
 62
     1
370
    25
100
AcDbLine
 10
26.0
 20
1.462748547532888
 30
0.0
 11
26.0
 21
1.499999999999998
 31
0.0
  0
LINE
  5
DC
330
1F
100
AcDbEntity
  8
0
  6
Continuous
 62
     1
370
    25
100
AcDbLine
 10
26.0
 20
-1.500000000000006
 30
0.0
 11
26.0
 21
-1.462748547532899
 31
0.0
  0
LINE
  5
DD
330
1F
100
AcDbEntity
  8
0
  6
Continuous
 62
     1
370
    25
100
AcDbLine
 10
26.0
 20
0.332214820094497
 30
0.0
 11
26.0
 21
0.8043077700777088
 31
0.0
  0
LINE
  5
DE
330
1F
100
AcDbEntity
  8
0
  6
Continuous
 62
     1
370
    25
100
AcDbLine
 10
26.0
 20
-0.5000000000000048
 30
0.0
 11
26.0
 21
-1.404383063753674
 31
0.0
  0
LINE
  5
DF
330
1F
100
AcDbEntity
  8
중심선
100
AcDbLine
 10
-77.0
 20
-0.0000000000000106
 30
0.0
 11
29.00000000000001
 21
0.0000000000000023
 31
0.0
  0
CIRCLE
  5
E0
330
1F
100
AcDbEntity
  8
해칭선
100
AcDbCircle
 10
0.0003528955370129
 20
-0.0000000000000041
 30
0.0
 40
3.000000000000003
  0
INSERT
  5
E1
330
1F
100
AcDbEntity
  8
0
  6
Continuous
 62
     7
100
AcDbBlockReference
 66
     1
  2
블럭10
 10
-36.44009924894178
 20
-52.04717430164393
 30
0.0
  0
ATTRIB
  5
E2
330
E1
100
AcDbEntity
  8
FORMAT
 62
     2
100
AcDbText
 10
-55.60500862478786
 20
-49.97180738881174
 30
0.0
 40
4.233333333333333
  1
SEME72030163SE [ 4 FLUTE ]
 41
0.75
  7
SLDTEXTSTYLE0
 11
-55.60500862478786
 21
-52.08847405547841
 31
0.0
100
AcDbAttribute
  2
AUTOATTR0
 70
     0
 74
     1
  0
SEQEND
  5
E3
330
E1
100
AcDbEntity
  8
0
  6
Continuous
 62
     7
  0
HATCH
  5
E4
330
1F
100
AcDbEntity
  8
중심선
100
AcDbHatch
 10
0.0
 20
0.0
 30
0.0
210
0.0
220
0.0
230
1.0
  2
SOLID
 70
     1
 71
     0
 91
        1
 92
        0
 93
        4
 72
     1
 10
-30.72518994456094
 20
-35.8
 11
-34.17146518839822
 21
-35.8
 72
     1
 10
-34.17146518839822
 20
-35.8
 11
-36.29969504760225
 21
-38.33632558057259
 72
     1
 10
-36.29969504760225
 20
-38.33632558057259
 11
-32.85338671865182
 21
-38.3362861512701
 72
     1
 10
-32.85338671865182
 20
-38.3362861512701
 11
-30.72518994456094
 21
-35.8
 97
        0
 75
     0
 76
     1
 98
        1
 10
0.0
 20
0.0
  0
HATCH
  5
E5
330
1F
100
AcDbEntity
  8
중심선
100
AcDbHatch
 10
0.0
 20
0.0
 30
0.0
210
0.0
220
0.0
230
1.0
  2
SOLID
 70
     1
 71
     0
 91
        1
 92
        0
 93
        4
 72
     1
 10
-25.71242595352494
 20
-35.8
 11
-29.15870119736227
 21
-35.8
 72
     1
 10
-29.15870119736227
 20
-35.8
 11
-33.68983920571966
 21
-41.20000000000002
 72
     1
 10
-33.68983920571966
 20
-41.20000000000002
 11
-30.24356396188238
 21
-41.20000000000002
 72
     1
 10
-30.24356396188238
 20
-41.20000000000002
 11
-25.71242595352494
 21
-35.8
 97
        0
 75
     0
 76
     1
 98
        1
 10
0.0
 20
0.0
  0
HATCH
  5
E6
330
1F
100
AcDbEntity
  8
중심선
100
AcDbHatch
 10
0.0
 20
0.0
 30
0.0
210
0.0
220
0.0
230
1.0
  2
SOLID
 70
     1
 71
     0
 91
        1
 92
        0
 93
        4
 72
     1
 10
-20.69966196248907
 20
-35.80000000000003
 11
-24.14593720632621
 21
-35.80000000000003
 72
     1
 10
-24.14593720632621
 20
-35.80000000000003
 11
-31.19437410821546
 21
-44.20000000000002
 72
     1
 10
-31.19437410821546
 20
-44.20000000000002
 11
-27.74809886437818
 21
-44.20000000000002
 72
     1
 10
-27.74809886437818
 20
-44.20000000000002
 11
-20.69966196248907
 21
-35.80000000000003
 97
        0
 75
     0
 76
     1
 98
        1
 10
0.0
 20
0.0
  0
HATCH
  5
E7
330
1F
100
AcDbEntity
  8
중심선
100
AcDbHatch
 10
0.0
 20
0.0
 30
0.0
210
0.0
220
0.0
230
1.0
  2
SOLID
 70
     1
 71
     0
 91
        1
 92
        0
 93
        6
 72
     3
 10
-15.8997715314769
 20
-40.00000000005127
 11
3.960054785062284
 21
1.540850780301639E-10
 40
0.3939339440162633
 50
17.09539180608434
 51
320.0019657685079
 73
     0
 72
     1
 10
-14.2167718757763
 20
-38.5878940046383
 11
-11.91147000207526
 21
-36.65356729459038
 72
     3
 10
-15.89977153152974
 20
-40.00000000000015
 11
6.600054785286829
 21
-1.249000902703301E-13
 40
0.6363583540795982
 50
39.99873849337408
 51
368.4976242363725
 73
     1
 72
     1
 10
-9.474439039629134
 20
-39.03999999993002
 11
-17.21970422469382
 21
-39.03999999993002
 72
     1
 10
-17.21970422469382
 20
-39.03999999993002
 11
-17.21972926913975
 21
-40.95999999992991
 72
     1
 10
-17.21972926913975
 20
-40.95999999992991
 11
-12.77834949966772
 21
-40.95999999992988
 97
        0
 75
     0
 76
     1
 98
        1
 10
0.0
 20
0.0
  0
DIMENSION
  5
E8
330
1F
100
AcDbEntity
  8
치수문자_일반주서
100
AcDbDimension
  2
_D
 10
38.46609211721591
 20
1.500000000000043
 30
0.0
 11
38.46609211721589
 21
11.16650000000004
 31
0.0
 70
   160
  1
%%c<>
 71
     2
 42
3.000000000000008
 52
-270.0
  3
SLDDIMSTYLE0
100
AcDbAlignedDimension
 13
26.00000000000002
 23
-1.500000000000011
 33
0.0
 14
26.00000000000002
 24
1.499999999999997
 34
0.0
 50
90.0000000000002
100
AcDbRotatedDimension
  0
DIMENSION
  5
F6
330
1F
100
AcDbEntity
  8
치수문자_일반주서
100
AcDbDimension
  2
_D_1
 10
26.0
 20
18.88913260158164
 30
0.0
 11
-24.0
 21
18.88913260158164
 31
0.0
 70
   160
  1
<>
 71
     2
 42
100.0
  3
SLDDIMSTYLE1
100
AcDbAlignedDimension
 13
-74.00000000000001
 23
0.9999999999999832
 33
0.0
 14
26.0
 24
1.499999999999996
 34
0.0
 50
-0.0000000000000041
100
AcDbRotatedDimension
  0
DIMENSION
  5
101
330
1F
100
AcDbEntity
  8
치수문자_일반주서
100
AcDbDimension
  2
_D_2
 10
-84.171978412567
 20
-1.500000000000048
 30
0.0
 11
-84.17197841256706
 21
11.16649999999995
 31
0.0
 70
   160
  1
%%c<>
 71
     2
 42
3.000000000000003
 52
-270.0
  3
SLDDIMSTYLE2
100
AcDbAlignedDimension
 13
-73.50000000000001
 23
1.499999999999996
 33
0.0
 14
-73.50000000000001
 24
-1.500000000000007
 34
0.0
 50
90.0000000000002
100
AcDbRotatedDimension
  0
DIMENSION
  5
10F
330
1F
100
AcDbEntity
  8
치수문자_일반주서
100
AcDbDimension
  2
_D_3
 10
26.0
 20
12.33867491329368
 30
0.0
 11
18.0
 21
12.33867491329368
 31
0.0
 70
   160
  1
<>
 71
     2
 42
16.0
  3
SLDDIMSTYLE2
100
AcDbAlignedDimension
 13
10.0
 23
1.492756610706032
 33
0.0
 14
26.0
 24
1.499999999999996
 34
0.0
100
AcDbRotatedDimension
  0
INSERT
  5
121
330
1F
100
AcDbEntity
  8
해칭선
100
AcDbBlockReference
  2
SW_DOWELSYMBOL_0
 10
0.0003528955370129
 20
-0.0000000000000041
 30
0.0
  0
ENDSEC
  0
SECTION
  2
OBJECTS
  0
DICTIONARY
  5
C
330
0
100
AcDbDictionary
281
     1
  3
ACAD_GROUP
350
D
  3
ACAD_IMAGE_VARS
350
145
  3
ACAD_LAYOUT
350
1A
  3
ACAD_MLINESTYLE
350
17
  3
ACAD_PLOTSETTINGS
350
19
  3
ACAD_PLOTSTYLENAME
350
E
  3
ACAD_SCALELIST
350
47
  3
APPDATA
350
143
  3
DWGPROPS
350
152
  0
DICTIONARY
  5
D
102
{ACAD_REACTORS
330
C
102
}
330
C
100
AcDbDictionary
281
     1
  0
RASTERVARIABLES
  5
145
102
{ACAD_REACTORS
330
C
102
}
330
C
100
AcDbRasterVariables
 90
        0
 70
     1
 71
     1
 72
     1
  0
DICTIONARY
  5
1A
102
{ACAD_REACTORS
330
C
102
}
330
C
100
AcDbDictionary
281
     1
  3
Layout1
350
1E
  3
Layout2
350
26
  3
Model
350
22
  0
DICTIONARY
  5
17
102
{ACAD_REACTORS
330
C
102
}
330
C
100
AcDbDictionary
281
     1
  3
Standard
350
18
  0
DICTIONARY
  5
19
102
{ACAD_REACTORS
330
C
102
}
330
C
100
AcDbDictionary
281
     1
  0
ACDBDICTIONARYWDFLT
  5
E
102
{ACAD_REACTORS
330
C
102
}
330
C
100
AcDbDictionary
281
     1
  3
Normal
350
F
100
AcDbDictionaryWithDefault
340
F
  0
DICTIONARY
  5
47
102
{ACAD_REACTORS
330
C
102
}
330
C
100
AcDbDictionary
281
     1
  3
A0
350
48
  3
A1
350
49
  3
A2
350
4A
  3
A3
350
4B
  3
A4
350
4C
  3
A5
350
4D
  3
A6
350
4E
  3
A7
350
4F
  3
A8
350
50
  3
A9
350
51
  3
B0
350
52
  3
B1
350
53
  3
B2
350
54
  3
B3
350
55
  3
B4
350
56
  3
B5
350
57
  3
B6
350
58
  3
B7
350
59
  3
B8
350
5A
  3
B9
350
5B
  3
C0
350
5C
  3
C1
350
5D
  3
C2
350
5E
  3
C3
350
5F
  3
C4
350
60
  3
C5
350
61
  3
C6
350
62
  3
C7
350
63
  3
C8
350
64
  3
C9
350
65
  3
D0
350
66
  3
D1
350
67
  3
D2
350
68
  0
DICTIONARY
  5
143
102
{ACAD_REACTORS
330
C
102
}
330
C
100
AcDbDictionary
281
     1
  0
XRECORD
  5
152
102
{ACAD_REACTORS
330
C
102
}
330
C
100
AcDbXrecord
280
     1
  1
DWGPROPS COOKIE
  2

  3

  4

  6

  7

  8
12014102
  9

300
=
301
=
302
=
303
=
304
=
305
=
306
=
307
=
308
=
309
=
 40
0.0
 41
2458260.195218715
 42
2458268.23328794
  1

 90
        0
  0
LAYOUT
  5
1E
102
{ACAD_REACTORS
330
1A
102
}
330
1A
100
AcDbPlotSettings
  1

  2
none_device
  4

  6

 40
0.0
 41
0.0
 42
0.0
 43
0.0
 44
0.0
 45
0.0
 46
0.0
 47
0.0
 48
0.0
 49
0.0
140
0.0
141
0.0
142
1.0
143
1.0
 70
   688
 72
     1
 73
     0
 74
     5
  7

 75
    16
147
1.0
148
0.0
149
0.0
100
AcDbLayout
  1
Layout1
 70
     1
 71
     1
 10
0.0
 20
0.0
 11
420.0
 21
297.0
 12
0.0
 22
0.0
 32
0.0
 14
1.000000000000000E+20
 24
1.000000000000000E+20
 34
1.000000000000000E+20
 15
-1.000000000000000E+20
 25
-1.000000000000000E+20
 35
-1.000000000000000E+20
146
0.0
 13
0.0
 23
0.0
 33
0.0
 16
1.0
 26
0.0
 36
0.0
 17
0.0
 27
1.0
 37
0.0
 76
     0
330
1B
  0
LAYOUT
  5
26
102
{ACAD_REACTORS
330
1A
102
}
330
1A
100
AcDbPlotSettings
  1

  2
none_device
  4

  6

 40
0.0
 41
0.0
 42
0.0
 43
0.0
 44
0.0
 45
0.0
 46
0.0
 47
0.0
 48
0.0
 49
0.0
140
0.0
141
0.0
142
1.0
143
1.0
 70
   688
 72
     1
 73
     0
 74
     5
  7

 75
    16
147
1.0
148
0.0
149
0.0
100
AcDbLayout
  1
Layout2
 70
     1
 71
     2
 10
0.0
 20
0.0
 11
0.0
 21
0.0
 12
0.0
 22
0.0
 32
0.0
 14
0.0
 24
0.0
 34
0.0
 15
0.0
 25
0.0
 35
0.0
146
0.0
 13
0.0
 23
0.0
 33
0.0
 16
1.0
 26
0.0
 36
0.0
 17
0.0
 27
1.0
 37
0.0
 76
     0
330
23
  0
LAYOUT
  5
22
102
{ACAD_REACTORS
330
1A
102
}
330
1A
100
AcDbPlotSettings
  1

  2
none_device
  4
ANSI_A_(11.00_x_8.50_Inches)
  6

 40
6.35
 41
19.05
 42
6.35000508
 43
19.05000254
 44
279.4
 45
215.9
 46
180.7825228043594
 47
116.9116938389313
 48
0.0
 49
0.0
140
0.0
141
0.0
142
0.0807487851913163
143
1.0
 70
  1696
 72
     0
 73
     0
 74
     0
  7

 75
     0
147
0.0235690232323232
148
0.0
149
0.0
100
AcDbLayout
  1
Model
 70
     1
 71
     0
 10
0.0
 20
0.0
 11
420.0
 21
297.0
 12
0.0
 22
0.0
 32
0.0
 14
-88.54697841256706
 24
-49.97180738881174
 34
0.0
 15
39.01642545054926
 25
23.26413260158164
 35
0.0
146
0.0
 13
0.0
 23
0.0
 33
0.0
 16
1.0
 26
0.0
 36
0.0
 17
0.0
 27
1.0
 37
0.0
 76
     0
330
1F
331
29
  0
MLINESTYLE
  5
18
102
{ACAD_REACTORS
330
17
102
}
330
17
100
AcDbMlineStyle
  2
Standard
 70
     0
  3

 62
   256
 51
90.0
 52
90.0
 71
     2
 49
0.5
 62
   256
  6
BYLAYER
 49
-0.5
 62
   256
  6
BYLAYER
  0
ACDBPLACEHOLDER
  5
F
102
{ACAD_REACTORS
330
E
102
}
330
E
  0
SCALE
  5
48
102
{ACAD_REACTORS
330
47
102
}
330
47
100
AcDbScale
 70
     0
300
1:1
140
1.0
141
1.0
290
     1
  0
SCALE
  5
49
102
{ACAD_REACTORS
330
47
102
}
330
47
100
AcDbScale
 70
     0
300
1:2
140
1.0
141
2.0
290
     0
  0
SCALE
  5
4A
102
{ACAD_REACTORS
330
47
102
}
330
47
100
AcDbScale
 70
     0
300
1:4
140
1.0
141
4.0
290
     0
  0
SCALE
  5
4B
102
{ACAD_REACTORS
330
47
102
}
330
47
100
AcDbScale
 70
     0
300
1:5
140
1.0
141
5.0
290
     0
  0
SCALE
  5
4C
102
{ACAD_REACTORS
330
47
102
}
330
47
100
AcDbScale
 70
     0
300
1:8
140
1.0
141
8.0
290
     0
  0
SCALE
  5
4D
102
{ACAD_REACTORS
330
47
102
}
330
47
100
AcDbScale
 70
     0
300
1:10
140
1.0
141
10.0
290
     0
  0
SCALE
  5
4E
102
{ACAD_REACTORS
330
47
102
}
330
47
100
AcDbScale
 70
     0
300
1:16
140
1.0
141
16.0
290
     0
  0
SCALE
  5
4F
102
{ACAD_REACTORS
330
47
102
}
330
47
100
AcDbScale
 70
     0
300
1:20
140
1.0
141
20.0
290
     0
  0
SCALE
  5
50
102
{ACAD_REACTORS
330
47
102
}
330
47
100
AcDbScale
 70
     0
300
1:30
140
1.0
141
30.0
290
     0
  0
SCALE
  5
51
102
{ACAD_REACTORS
330
47
102
}
330
47
100
AcDbScale
 70
     0
300
1:40
140
1.0
141
40.0
290
     0
  0
SCALE
  5
52
102
{ACAD_REACTORS
330
47
102
}
330
47
100
AcDbScale
 70
     0
300
1:50
140
1.0
141
50.0
290
     0
  0
SCALE
  5
53
102
{ACAD_REACTORS
330
47
102
}
330
47
100
AcDbScale
 70
     0
300
1:100
140
1.0
141
100.0
290
     0
  0
SCALE
  5
54
102
{ACAD_REACTORS
330
47
102
}
330
47
100
AcDbScale
 70
     0
300
2:1
140
2.0
141
1.0
290
     0
  0
SCALE
  5
55
102
{ACAD_REACTORS
330
47
102
}
330
47
100
AcDbScale
 70
     0
300
4:1
140
4.0
141
1.0
290
     0
  0
SCALE
  5
56
102
{ACAD_REACTORS
330
47
102
}
330
47
100
AcDbScale
 70
     0
300
8:1
140
8.0
141
1.0
290
     0
  0
SCALE
  5
57
102
{ACAD_REACTORS
330
47
102
}
330
47
100
AcDbScale
 70
     0
300
10:1
140
10.0
141
1.0
290
     0
  0
SCALE
  5
58
102
{ACAD_REACTORS
330
47
102
}
330
47
100
AcDbScale
 70
     0
300
100:1
140
100.0
141
1.0
290
     0
  0
SCALE
  5
59
102
{ACAD_REACTORS
330
47
102
}
330
47
100
AcDbScale
 70
     0
300
1/128" = 1'-0"
140
0.0078125
141
12.0
290
     0
  0
SCALE
  5
5A
102
{ACAD_REACTORS
330
47
102
}
330
47
100
AcDbScale
 70
     0
300
1/64" = 1'-0"
140
0.015625
141
12.0
290
     0
  0
SCALE
  5
5B
102
{ACAD_REACTORS
330
47
102
}
330
47
100
AcDbScale
 70
     0
300
1/32" = 1'-0"
140
0.03125
141
12.0
290
     0
  0
SCALE
  5
5C
102
{ACAD_REACTORS
330
47
102
}
330
47
100
AcDbScale
 70
     0
300
1/16" = 1'-0"
140
0.0625
141
12.0
290
     0
  0
SCALE
  5
5D
102
{ACAD_REACTORS
330
47
102
}
330
47
100
AcDbScale
 70
     0
300
3/32" = 1'-0"
140
0.09375
141
12.0
290
     0
  0
SCALE
  5
5E
102
{ACAD_REACTORS
330
47
102
}
330
47
100
AcDbScale
 70
     0
300
1/8" = 1'-0"
140
0.125
141
12.0
290
     0
  0
SCALE
  5
5F
102
{ACAD_REACTORS
330
47
102
}
330
47
100
AcDbScale
 70
     0
300
3/16" = 1'-0"
140
0.1875
141
12.0
290
     0
  0
SCALE
  5
60
102
{ACAD_REACTORS
330
47
102
}
330
47
100
AcDbScale
 70
     0
300
1/4" = 1'-0"
140
0.25
141
12.0
290
     0
  0
SCALE
  5
61
102
{ACAD_REACTORS
330
47
102
}
330
47
100
AcDbScale
 70
     0
300
3/8" = 1'-0"
140
0.375
141
12.0
290
     0
  0
SCALE
  5
62
102
{ACAD_REACTORS
330
47
102
}
330
47
100
AcDbScale
 70
     0
300
1/2" = 1'-0"
140
0.5
141
12.0
290
     0
  0
SCALE
  5
63
102
{ACAD_REACTORS
330
47
102
}
330
47
100
AcDbScale
 70
     0
300
3/4" = 1'-0"
140
0.75
141
12.0
290
     0
  0
SCALE
  5
64
102
{ACAD_REACTORS
330
47
102
}
330
47
100
AcDbScale
 70
     0
300
1" = 1'-0"
140
1.0
141
12.0
290
     0
  0
SCALE
  5
65
102
{ACAD_REACTORS
330
47
102
}
330
47
100
AcDbScale
 70
     0
300
1-1/2" = 1'-0"
140
1.5
141
12.0
290
     0
  0
SCALE
  5
66
102
{ACAD_REACTORS
330
47
102
}
330
47
100
AcDbScale
 70
     0
300
3" = 1'-0"
140
3.0
141
12.0
290
     0
  0
SCALE
  5
67
102
{ACAD_REACTORS
330
47
102
}
330
47
100
AcDbScale
 70
     0
300
6" = 1'-0"
140
6.0
141
12.0
290
     0
  0
SCALE
  5
68
102
{ACAD_REACTORS
330
47
102
}
330
47
100
AcDbScale
 70
     0
300
1'-0" = 1'-0"
140
12.0
141
12.0
290
     0
  0
ENDSEC
  0
EOF
