  0
SECTION
  2
HEADER
  9
$ACADVER
  1
AC1015
  9
$ACADMAINTVER
 70
     6
  9
$DWGCODEPAGE
  3
ANSI_949
  9
$INSBASE
 10
0.0
 20
0.0
 30
0.0
  9
$EXTMIN
 10
-63.63291155261162
 20
-49.97180738881174
 30
0.0
  9
$EXTMAX
 10
32.31680441558974
 20
24.76413260158164
 30
0.0
  9
$LIMMIN
 10
0.0
 20
0.0
  9
$LIMMAX
 10
420.0
 20
297.0
  9
$ORTHOMODE
 70
     0
  9
$REGENMODE
 70
     1
  9
$FILLMODE
 70
     1
  9
$QTEXTMODE
 70
     0
  9
$MIRRTEXT
 70
     1
  9
$LTSCALE
 40
1.0
  9
$ATTMODE
 70
     1
  9
$TEXTSIZE
 40
3.5
  9
$TRACEWID
 40
1.0
  9
$TEXTSTYLE
  7
Standard
  9
$CLAYER
  8
0
  9
$CELTYPE
  6
ByLayer
  9
$CECOLOR
 62
   256
  9
$CELTSCALE
 40
1.0
  9
$DISPSILH
 70
     0
  9
$DIMSCALE
 40
1.0
  9
$DIMASZ
 40
3.302
  9
$DIMEXO
 40
1.0
  9
$DIMDLI
 40
3.75
  9
$DIMRND
 40
0.0
  9
$DIMDLE
 40
0.0
  9
$DIMEXE
 40
1.0
  9
$DIMTP
 40
0.0
  9
$DIMTM
 40
0.0
  9
$DIMTXT
 40
3.5
  9
$DIMCEN
 40
2.5
  9
$DIMTSZ
 40
0.0
  9
$DIMTOL
 70
     0
  9
$DIMLIM
 70
     0
  9
$DIMTIH
 70
     1
  9
$DIMTOH
 70
     1
  9
$DIMSE1
 70
     0
  9
$DIMSE2
 70
     0
  9
$DIMTAD
 70
     1
  9
$DIMZIN
 70
     0
  9
$DIMBLK
  1

  9
$DIMASO
 70
     1
  9
$DIMSHO
 70
     1
  9
$DIMPOST
  1

  9
$DIMAPOST
  1

  9
$DIMALT
 70
     0
  9
$DIMALTD
 70
     3
  9
$DIMALTF
 40
0.0393700787401575
  9
$DIMLFAC
 40
1.0
  9
$DIMTOFL
 70
     1
  9
$DIMTVP
 40
0.0
  9
$DIMTIX
 70
     0
  9
$DIMSOXD
 70
     0
  9
$DIMSAH
 70
     0
  9
$DIMBLK1
  1

  9
$DIMBLK2
  1

  9
$DIMSTYLE
  2
ISO-25
  9
$DIMCLRD
 70
     0
  9
$DIMCLRE
 70
     0
  9
$DIMCLRT
 70
     0
  9
$DIMTFAC
 40
1.0
  9
$DIMGAP
 40
1.524
  9
$DIMJUST
 70
     0
  9
$DIMSD1
 70
     0
  9
$DIMSD2
 70
     0
  9
$DIMTOLJ
 70
     0
  9
$DIMTZIN
 70
     0
  9
$DIMALTZ
 70
     0
  9
$DIMALTTZ
 70
     0
  9
$DIMUPT
 70
     0
  9
$DIMDEC
 70
     2
  9
$DIMTDEC
 70
     2
  9
$DIMALTU
 70
     2
  9
$DIMALTTD
 70
     3
  9
$DIMTXSTY
  7
Standard
  9
$DIMAUNIT
 70
     0
  9
$DIMADEC
 70
     2
  9
$DIMALTRND
 40
0.0
  9
$DIMAZIN
 70
     0
  9
$DIMDSEP
 70
    44
  9
$DIMATFIT
 70
     3
  9
$DIMFRAC
 70
     0
  9
$DIMLDRBLK
  1

  9
$DIMLUNIT
 70
     2
  9
$DIMLWD
 70
    -2
  9
$DIMLWE
 70
    -2
  9
$DIMTMOVE
 70
     0
  9
$LUNITS
 70
     2
  9
$LUPREC
 70
     2
  9
$SKETCHINC
 40
1.0
  9
$FILLETRAD
 40
10.0
  9
$AUNITS
 70
     0
  9
$AUPREC
 70
     2
  9
$MENU
  1
.
  9
$ELEVATION
 40
0.0
  9
$PELEVATION
 40
0.0
  9
$THICKNESS
 40
0.0
  9
$LIMCHECK
 70
     0
  9
$CHAMFERA
 40
0.0
  9
$CHAMFERB
 40
0.0
  9
$CHAMFERC
 40
0.0
  9
$CHAMFERD
 40
0.0
  9
$SKPOLY
 70
     0
  9
$TDCREATE
 40
2458260.569840637
  9
$TDUCREATE
 40
2458260.194840637
  9
$TDUPDATE
 40
2458268.485898264
  9
$TDUUPDATE
 40
2458268.110898264
  9
$TDINDWG
 40
0.0011825
  9
$TDUSRTIMER
 40
2458268.10971581
  9
$USRTIMER
 70
     1
  9
$ANGBASE
 50
0.0
  9
$ANGDIR
 70
     0
  9
$PDMODE
 70
     0
  9
$PDSIZE
 40
-1.0
  9
$PLINEWID
 40
0.0
  9
$SPLFRAME
 70
     0
  9
$SPLINETYPE
 70
     6
  9
$SPLINESEGS
 70
     8
  9
$HANDSEED
  5
155
  9
$SURFTAB1
 70
     6
  9
$SURFTAB2
 70
     6
  9
$SURFTYPE
 70
     6
  9
$SURFU
 70
     6
  9
$SURFV
 70
     6
  9
$UCSBASE
  2

  9
$UCSNAME
  2

  9
$UCSORG
 10
0.0
 20
0.0
 30
0.0
  9
$UCSXDIR
 10
1.0
 20
0.0
 30
0.0
  9
$UCSYDIR
 10
0.0
 20
1.0
 30
0.0
  9
$UCSORTHOREF
  2

  9
$UCSORTHOVIEW
 70
     0
  9
$UCSORGTOP
 10
0.0
 20
0.0
 30
0.0
  9
$UCSORGBOTTOM
 10
0.0
 20
0.0
 30
0.0
  9
$UCSORGLEFT
 10
0.0
 20
0.0
 30
0.0
  9
$UCSORGRIGHT
 10
0.0
 20
0.0
 30
0.0
  9
$UCSORGFRONT
 10
0.0
 20
0.0
 30
0.0
  9
$UCSORGBACK
 10
0.0
 20
0.0
 30
0.0
  9
$PUCSBASE
  2

  9
$PUCSNAME
  2

  9
$PUCSORG
 10
0.0
 20
0.0
 30
0.0
  9
$PUCSXDIR
 10
1.0
 20
0.0
 30
0.0
  9
$PUCSYDIR
 10
0.0
 20
1.0
 30
0.0
  9
$PUCSORTHOREF
  2

  9
$PUCSORTHOVIEW
 70
     0
  9
$PUCSORGTOP
 10
0.0
 20
0.0
 30
0.0
  9
$PUCSORGBOTTOM
 10
0.0
 20
0.0
 30
0.0
  9
$PUCSORGLEFT
 10
0.0
 20
0.0
 30
0.0
  9
$PUCSORGRIGHT
 10
0.0
 20
0.0
 30
0.0
  9
$PUCSORGFRONT
 10
0.0
 20
0.0
 30
0.0
  9
$PUCSORGBACK
 10
0.0
 20
0.0
 30
0.0
  9
$USERI1
 70
     0
  9
$USERI2
 70
     0
  9
$USERI3
 70
     0
  9
$USERI4
 70
     0
  9
$USERI5
 70
     0
  9
$USERR1
 40
0.0
  9
$USERR2
 40
0.0
  9
$USERR3
 40
0.0
  9
$USERR4
 40
0.0
  9
$USERR5
 40
0.0
  9
$WORLDVIEW
 70
     1
  9
$SHADEDGE
 70
     3
  9
$SHADEDIF
 70
    70
  9
$TILEMODE
 70
     1
  9
$MAXACTVP
 70
    64
  9
$PINSBASE
 10
0.0
 20
0.0
 30
0.0
  9
$PLIMCHECK
 70
     0
  9
$PEXTMIN
 10
1.000000000000000E+20
 20
1.000000000000000E+20
 30
1.000000000000000E+20
  9
$PEXTMAX
 10
-1.000000000000000E+20
 20
-1.000000000000000E+20
 30
-1.000000000000000E+20
  9
$PLIMMIN
 10
0.0
 20
0.0
  9
$PLIMMAX
 10
0.0
 20
0.0
  9
$UNITMODE
 70
     0
  9
$VISRETAIN
 70
     1
  9
$PLINEGEN
 70
     0
  9
$PSLTSCALE
 70
     1
  9
$TREEDEPTH
 70
  3020
  9
$CMLSTYLE
  2
Standard
  9
$CMLJUST
 70
     0
  9
$CMLSCALE
 40
20.0
  9
$PROXYGRAPHICS
 70
     1
  9
$MEASUREMENT
 70
     1
  9
$CELWEIGHT
370
    -1
  9
$ENDCAPS
280
     0
  9
$JOINSTYLE
280
     0
  9
$LWDISPLAY
290
     1
  9
$INSUNITS
 70
     4
  9
$HYPERLINKBASE
  1

  9
$STYLESHEET
  1

  9
$XEDIT
290
     1
  9
$CEPSNTYPE
380
     0
  9
$PSTYLEMODE
290
     1
  9
$FINGERPRINTGUID
  2
{EFD3AF1E-F76F-4A27-A7B2-7B72A2B87AF2}
  9
$VERSIONGUID
  2
{FAEB1C32-E019-11D5-929B-00C0DF256EC4}
  9
$EXTNAMES
290
     1
  9
$PSVPSCALE
 40
0.0
  9
$OLESTARTUP
290
     0
  0
ENDSEC
  0
SECTION
  2
CLASSES
  0
CLASS
  1
ACDBDICTIONARYWDFLT
  2
AcDbDictionaryWithDefault
  3
ObjectDBX Classes
 90
        0
280
     0
281
     0
  0
CLASS
  1
VISUALSTYLE
  2
AcDbVisualStyle
  3
ObjectDBX Classes
 90
     4095
280
     0
281
     0
  0
CLASS
  1
MATERIAL
  2
AcDbMaterial
  3
ObjectDBX Classes
 90
     1153
280
     0
281
     0
  0
CLASS
  1
SCALE
  2
AcDbScale
  3
ObjectDBX Classes
 90
     1153
280
     0
281
     0
  0
CLASS
  1
TABLESTYLE
  2
AcDbTableStyle
  3
ObjectDBX Classes
 90
     4095
280
     0
281
     0
  0
CLASS
  1
MLEADERSTYLE
  2
AcDbMLeaderStyle
  3
ACDB_MLEADERSTYLE_CLASS
 90
     4095
280
     0
281
     0
  0
CLASS
  1
SUN
  2
AcDbSun
  3
SCENEOE
 90
     1153
280
     0
281
     0
  0
CLASS
  1
ACDBPLACEHOLDER
  2
AcDbPlaceHolder
  3
ObjectDBX Classes
 90
        0
280
     0
281
     0
  0
CLASS
  1
LAYOUT
  2
AcDbLayout
  3
ObjectDBX Classes
 90
        0
280
     0
281
     0
  0
CLASS
  1
RASTERVARIABLES
  2
AcDbRasterVariables
  3
ISM
 90
        0
280
     0
281
     0
  0
ENDSEC
  0
SECTION
  2
TABLES
  0
TABLE
  2
VPORT
  5
8
330
0
100
AcDbSymbolTable
 70
     1
  0
VPORT
  5
29
330
8
100
AcDbSymbolTableRecord
100
AcDbViewportTableRecord
  2
*Active
 70
     0
 10
0.0
 20
0.0
 11
1.0
 21
1.0
 12
-15.65805356851094
 22
-12.60383739361505
 13
0.0
 23
0.0
 14
10.0
 24
10.0
 15
10.0
 25
10.0
 16
0.0
 26
0.0
 36
1.0
 17
0.0
 27
0.0
 37
0.0
 40
76.23065879020125
 41
1.737726098191214
 42
50.0
 43
0.0
 44
0.0
 50
0.0
 51
0.0
 71
    16
 72
  2000
 73
     1
 74
     3
 75
     0
 76
     0
 77
     0
 78
     0
281
     0
 65
     1
110
0.0
120
0.0
130
0.0
111
1.0
121
0.0
131
0.0
112
0.0
122
1.0
132
0.0
 79
     0
146
0.0
  0
ENDTAB
  0
TABLE
  2
LTYPE
  5
5
330
0
100
AcDbSymbolTable
 70
     6
  0
LTYPE
  5
14
330
5
100
AcDbSymbolTableRecord
100
AcDbLinetypeTableRecord
  2
ByBlock
 70
     0
  3

 72
    65
 73
     0
 40
0.0
  0
LTYPE
  5
15
330
5
100
AcDbSymbolTableRecord
100
AcDbLinetypeTableRecord
  2
ByLayer
 70
     0
  3

 72
    65
 73
     0
 40
0.0
  0
LTYPE
  5
16
330
5
100
AcDbSymbolTableRecord
100
AcDbLinetypeTableRecord
  2
Continuous
 70
     0
  3
Solid line
 72
    65
 73
     0
 40
0.0
  0
LTYPE
  5
6E
330
5
100
AcDbSymbolTableRecord
100
AcDbLinetypeTableRecord
  2
HIDDEN
 70
     0
  3
Hidden __ __ __ __ __ __ __ __ __ __ __ __ __ __
 72
    65
 73
     2
 40
1.905
 49
1.27
 74
     0
 49
-0.635
 74
     0
  0
LTYPE
  5
6F
330
5
100
AcDbSymbolTableRecord
100
AcDbLinetypeTableRecord
  2
PHANTOM
 70
     0
  3
Phantom ______  __  __  ______  __  __  ______
 72
    65
 73
     6
 40
12.7
 49
6.35
 74
     0
 49
-1.27
 74
     0
 49
1.27
 74
     0
 49
-1.27
 74
     0
 49
1.27
 74
     0
 49
-1.27
 74
     0
  0
LTYPE
  5
70
330
5
100
AcDbSymbolTableRecord
100
AcDbLinetypeTableRecord
  2
CENTER
 70
     0
  3
Center ____ _ ____ _ ____ _ ____ _ ____ _ ____
 72
    65
 73
     4
 40
10.16
 49
6.35
 74
     0
 49
-1.27
 74
     0
 49
1.27
 74
     0
 49
-1.27
 74
     0
  0
LTYPE
  5
71
330
5
100
AcDbSymbolTableRecord
100
AcDbLinetypeTableRecord
  2
CENTERX2
 70
     0
  3
Center (2x) ________  __  ________  __  _____
 72
    65
 73
     4
 40
20.32
 49
12.7
 74
     0
 49
-2.54
 74
     0
 49
2.54
 74
     0
 49
-2.54
 74
     0
  0
LTYPE
  5
72
330
5
100
AcDbSymbolTableRecord
100
AcDbLinetypeTableRecord
  2
DOT2
 70
     0
  3
Dot (.5x) ........................................
 72
    65
 73
     2
 40
0.635
 49
0.0
 74
     0
 49
-0.635
 74
     0
  0
ENDTAB
  0
TABLE
  2
LAYER
  5
2
330
0
100
AcDbSymbolTable
 70
    17
  0
LAYER
  5
10
330
2
100
AcDbSymbolTableRecord
100
AcDbLayerTableRecord
  2
0
 70
     0
 62
     7
  6
Continuous
370
    -3
390
F
  0
LAYER
  5
73
330
2
100
AcDbSymbolTableRecord
100
AcDbLayerTableRecord
  2
FORMAT
 70
     0
 62
     2
  6
Continuous
370
    -3
390
F
  0
LAYER
  5
74
330
2
100
AcDbSymbolTableRecord
100
AcDbLayerTableRecord
  2
외형선
 70
     0
 62
   100
  6
Continuous
370
    35
390
F
  0
LAYER
  5
75
330
2
100
AcDbSymbolTableRecord
100
AcDbLayerTableRecord
  2
숨은선
 70
     0
 62
     2
  6
HIDDEN
370
    25
390
F
  0
LAYER
  5
76
330
2
100
AcDbSymbolTableRecord
100
AcDbLayerTableRecord
  2
중심선
 70
     0
 62
     1
  6
CENTERX2
370
    -3
390
F
  0
LAYER
  5
77
330
2
100
AcDbSymbolTableRecord
100
AcDbLayerTableRecord
  2
파단선
 70
     0
 62
     4
  6
Continuous
370
    -3
390
F
  0
LAYER
  5
78
330
2
100
AcDbSymbolTableRecord
100
AcDbLayerTableRecord
  2
해칭선
 70
     0
 62
   100
  6
Continuous
370
    -3
390
F
  0
LAYER
  5
79
330
2
100
AcDbSymbolTableRecord
100
AcDbLayerTableRecord
  2
가는실선
 70
     0
 62
     4
  6
Continuous
370
    -3
390
F
  0
LAYER
  5
7A
330
2
100
AcDbSymbolTableRecord
100
AcDbLayerTableRecord
  2
치수_보조선
 70
     0
 62
     4
  6
Continuous
370
    -3
390
F
  0
LAYER
  5
7B
330
2
100
AcDbSymbolTableRecord
100
AcDbLayerTableRecord
  2
치수문자_일반주서
 70
     0
 62
     7
  6
Continuous
370
    25
390
F
  0
LAYER
  5
7C
330
2
100
AcDbSymbolTableRecord
100
AcDbLayerTableRecord
  2
개별주서
 70
     0
 62
   100
  6
Continuous
370
    35
390
F
  0
LAYER
  5
7D
330
2
100
AcDbSymbolTableRecord
100
AcDbLayerTableRecord
  2
중간선
 70
     0
 62
     2
  6
Continuous
370
    25
390
F
  0
LAYER
  5
7E
330
2
100
AcDbSymbolTableRecord
100
AcDbLayerTableRecord
  2
윤곽선
 70
     0
 62
     3
  6
Continuous
370
    50
390
F
  0
LAYER
  5
7F
330
2
100
AcDbSymbolTableRecord
100
AcDbLayerTableRecord
  2
중심마크
 70
     0
 62
   100
  6
Continuous
370
    35
390
F
  0
LAYER
  5
80
330
2
100
AcDbSymbolTableRecord
100
AcDbLayerTableRecord
  2
가상선
 70
     0
 62
     4
  6
PHANTOM
370
    -3
390
F
  0
LAYER
  5
81
330
2
100
AcDbSymbolTableRecord
100
AcDbLayerTableRecord
  2
특수지정선
 70
     0
 62
     5
  6
CENTERX2
370
    70
390
F
  0
LAYER
  5
148
330
2
100
AcDbSymbolTableRecord
100
AcDbLayerTableRecord
  2
Defpoints
 70
     0
 62
     7
  6
Continuous
290
     0
370
    -3
390
F
  0
ENDTAB
  0
TABLE
  2
STYLE
  5
3
330
0
100
AcDbSymbolTable
 70
     2
  0
STYLE
  5
11
330
3
100
AcDbSymbolTableRecord
100
AcDbTextStyleTableRecord
  2
Standard
 70
     0
 40
0.0
 41
1.0
 50
0.0
 71
     0
 42
3.5
  3
txt
  4

  0
STYLE
  5
97
330
3
100
AcDbSymbolTableRecord
100
AcDbTextStyleTableRecord
  2
SLDTEXTSTYLE0
 70
     0
 40
0.0
 41
0.75
 50
0.0
 71
     0
 42
3.5
  3
TXT
  4

  0
ENDTAB
  0
TABLE
  2
VIEW
  5
6
330
0
100
AcDbSymbolTable
 70
     0
  0
ENDTAB
  0
TABLE
  2
UCS
  5
7
330
0
100
AcDbSymbolTable
 70
     0
  0
ENDTAB
  0
TABLE
  2
APPID
  5
9
330
0
100
AcDbSymbolTable
 70
     1
  0
APPID
  5
12
330
9
100
AcDbSymbolTableRecord
100
AcDbRegAppTableRecord
  2
ACAD
 70
     0
  0
ENDTAB
  0
TABLE
  2
DIMSTYLE
  5
A
330
0
100
AcDbSymbolTable
 70
     4
100
AcDbDimStyleTable
  0
DIMSTYLE
105
27
330
A
100
AcDbSymbolTableRecord
100
AcDbDimStyleTableRecord
  2
ISO-25
 70
     0
 41
2.5
 42
0.625
 43
3.75
 44
1.25
 73
     0
 74
     0
 77
     1
 78
     8
140
2.5
141
2.5
143
0.03937007874016
147
0.625
171
     3
172
     1
178
     0
271
     2
272
     2
274
     3
278
    44
283
     0
284
     8
340
11
  0
DIMSTYLE
105
EB
102
{ACAD_REACTORS
330
EA
102
}
330
A
100
AcDbSymbolTableRecord
100
AcDbDimStyleTableRecord
  2
SLDDIMSTYLE0
 70
     0
 41
3.302
 44
0.0
 45
0.000000001
 73
     0
 74
     0
 77
     1
 78
    12
 79
     3
140
3.5
147
0.875
172
     1
173
     1
178
     0
271
     1
272
     1
276
     2
284
    12
289
     0
340
97
  0
DIMSTYLE
105
F9
102
{ACAD_REACTORS
330
F8
102
}
330
A
100
AcDbSymbolTableRecord
100
AcDbDimStyleTableRecord
  2
SLDDIMSTYLE1
 70
     0
 41
3.302
 44
0.0
 45
0.000000001
 73
     0
 74
     0
 77
     1
 78
    12
 79
     3
140
3.5
147
0.875
173
     1
178
     0
271
     2
272
     2
276
     2
284
    12
340
97
  0
DIMSTYLE
105
104
102
{ACAD_REACTORS
330
103
330
111
102
}
330
A
100
AcDbSymbolTableRecord
100
AcDbDimStyleTableRecord
  2
SLDDIMSTYLE2
 70
     0
 41
3.302
 44
0.0
 45
0.000000001
 73
     0
 74
     0
 77
     1
 78
    12
 79
     3
140
3.5
147
0.875
172
     1
173
     1
178
     0
271
     2
272
     2
276
     2
284
    12
289
     0
340
97
  0
ENDTAB
  0
TABLE
  2
BLOCK_RECORD
  5
1
330
0
100
AcDbSymbolTable
 70
     7
  0
BLOCK_RECORD
  5
1F
330
1
100
AcDbSymbolTableRecord
100
AcDbBlockTableRecord
  2
*Model_Space
340
22
  0
BLOCK_RECORD
  5
1B
330
1
100
AcDbSymbolTableRecord
100
AcDbBlockTableRecord
  2
*Paper_Space
340
1E
  0
BLOCK_RECORD
  5
23
330
1
100
AcDbSymbolTableRecord
100
AcDbBlockTableRecord
  2
*Paper_Space0
340
26
  0
BLOCK_RECORD
  5
82
330
1
100
AcDbSymbolTableRecord
100
AcDbBlockTableRecord
  2
블럭10
340
0
102
{BLKREFS
331
E3
102
}
  0
BLOCK_RECORD
  5
EC
330
1
100
AcDbSymbolTableRecord
100
AcDbBlockTableRecord
  2
_D
340
0
  0
BLOCK_RECORD
  5
FA
330
1
100
AcDbSymbolTableRecord
100
AcDbBlockTableRecord
  2
_D_1
340
0
  0
BLOCK_RECORD
  5
105
330
1
100
AcDbSymbolTableRecord
100
AcDbBlockTableRecord
  2
_D_2
340
0
  0
BLOCK_RECORD
  5
112
330
1
100
AcDbSymbolTableRecord
100
AcDbBlockTableRecord
  2
_D_3
340
0
  0
BLOCK_RECORD
  5
11D
330
1
100
AcDbSymbolTableRecord
100
AcDbBlockTableRecord
  2
SW_DOWELSYMBOL_0
340
0
102
{BLKREFS
331
123
102
}
  0
ENDTAB
  0
ENDSEC
  0
SECTION
  2
BLOCKS
  0
BLOCK
  5
20
330
1F
100
AcDbEntity
  8
0
100
AcDbBlockBegin
  2
*Model_Space
 70
     0
 10
0.0
 20
0.0
 30
0.0
  3
*Model_Space
  1

  0
ENDBLK
  5
21
330
1F
100
AcDbEntity
  8
0
100
AcDbBlockEnd
  0
BLOCK
  5
1C
330
1B
100
AcDbEntity
 67
     1
  8
0
100
AcDbBlockBegin
  2
*Paper_Space
 70
     0
 10
0.0
 20
0.0
 30
0.0
  3
*Paper_Space
  1

  0
ENDBLK
  5
1D
330
1B
100
AcDbEntity
 67
     1
  8
0
100
AcDbBlockEnd
  0
BLOCK
  5
24
330
23
100
AcDbEntity
  8
0
100
AcDbBlockBegin
  2
*Paper_Space0
 70
     0
 10
0.0
 20
0.0
 30
0.0
  3
*Paper_Space0
  1

  0
ENDBLK
  5
25
330
23
100
AcDbEntity
  8
0
100
AcDbBlockEnd
  0
BLOCK
  5
83
330
82
100
AcDbEntity
  8
0
100
AcDbBlockBegin
  2
블럭10
 70
     2
 10
0.0
 20
0.0
 30
0.0
  3
블럭10
  1

  0
ELLIPSE
  5
85
330
82
100
AcDbEntity
  8
중심선
100
AcDbEllipse
 10
20.54032771741204
 20
12.0471743016438
 30
0.0
 11
6.600054785286829
 21
-1.261213355974178E-13
 31
0.0
210
0.0
220
0.0
230
1.0
 40
0.636358354079598
 41
0.9219305317359503
 42
6.513795318482858
  0
ELLIPSE
  5
86
330
82
100
AcDbEntity
  8
중심선
100
AcDbEllipse
 10
20.54032771746488
 20
12.04717430159265
 30
0.0
 11
3.960054785062283
 21
1.540847449632565E-10
 31
0.0
210
0.0
220
0.0
230
1.0
 40
0.3939339440162632
 41
1.131841032648279
 42
5.62031148352944
  0
LINE
  5
87
330
82
100
AcDbEntity
  8
중심선
100
AcDbLine
 10
2.268634060543552
 20
16.24717430164393
 30
0.0
 11
5.714909304380834
 21
16.24717430164393
 31
0.0
  0
LINE
  5
88
330
82
100
AcDbEntity
  8
중심선
100
AcDbLine
 10
5.245725140726316
 20
7.84717430164391
 30
0.0
 11
8.692000384563599
 21
7.84717430164391
 31
0.0
  0
LINE
  5
89
330
82
100
AcDbEntity
  8
중심선
100
AcDbLine
 10
15.74043728645272
 20
16.24717430164393
 30
0.0
 11
8.692000384563599
 21
7.84717430164391
 31
0.0
  0
LINE
  5
8A
330
82
100
AcDbEntity
  8
중심선
100
AcDbLine
 10
0.1404042013395286
 20
13.71084872107135
 30
0.0
 11
3.58671253028996
 21
13.71088815037384
 31
0.0
  0
LINE
  5
8B
330
82
100
AcDbEntity
  8
중심선
100
AcDbLine
 10
2.750260043222114
 20
10.84717430164391
 30
0.0
 11
6.196535287059397
 21
10.84717430164391
 31
0.0
  0
LINE
  5
8C
330
82
100
AcDbEntity
  8
중심선
100
AcDbLine
 10
12.29416204261559
 20
16.24717430164393
 30
0.0
 11
5.245725140726316
 21
7.84717430164391
 31
0.0
  0
LINE
  5
8D
330
82
100
AcDbEntity
  8
중심선
100
AcDbLine
 10
10.72767329541681
 20
16.24717430164393
 30
0.0
 11
6.196535287059397
 21
10.84717430164391
 31
0.0
  0
LINE
  5
8E
330
82
100
AcDbEntity
  8
중심선
100
AcDbLine
 10
7.28139805157953
 20
16.24717430164393
 30
0.0
 11
2.750260043222114
 21
10.84717430164391
 31
0.0
  0
LINE
  5
8F
330
82
100
AcDbEntity
  8
중심선
100
AcDbLine
 10
5.714909304380834
 20
16.24717430164393
 30
0.0
 11
3.58671253028996
 21
13.71088815037384
 31
0.0
  0
LINE
  5
90
330
82
100
AcDbEntity
  8
중심선
100
AcDbLine
 10
2.268634060543552
 20
16.24717430164393
 30
0.0
 11
0.1404042013395286
 21
13.71084872107135
 31
0.0
  0
LINE
  5
91
330
82
100
AcDbEntity
  8
중심선
100
AcDbLine
 10
7.28139805157953
 20
16.24717430164393
 30
0.0
 11
10.72767329541681
 21
16.24717430164393
 31
0.0
  0
LINE
  5
92
330
82
100
AcDbEntity
  8
중심선
100
AcDbLine
 10
12.29416204261559
 20
16.24717430164393
 30
0.0
 11
15.74043728645272
 21
16.24717430164393
 31
0.0
  0
LINE
  5
93
330
82
100
AcDbEntity
  8
중심선
100
AcDbLine
 10
19.22036997980202
 20
11.08717430171403
 30
0.0
 11
23.66174974927406
 21
11.08717430171406
 31
0.0
  0
LINE
  5
94
330
82
100
AcDbEntity
  8
중심선
100
AcDbLine
 10
19.22039502424796
 20
13.00717430171391
 30
0.0
 11
19.22036997980202
 21
11.08717430171403
 31
0.0
  0
LINE
  5
95
330
82
100
AcDbEntity
  8
중심선
100
AcDbLine
 10
19.22039502424796
 20
13.00717430171391
 30
0.0
 11
26.96566020931264
 21
13.00717430171391
 31
0.0
  0
LINE
  5
96
330
82
100
AcDbEntity
  8
중심선
100
AcDbLine
 10
22.22332737316547
 20
13.45928029700563
 30
0.0
 11
24.52862924686651
 21
15.39360700705356
 31
0.0
  0
ATTDEF
  5
98
330
82
100
AcDbEntity
  8
FORMAT
 62
     2
100
AcDbText
 10
-16.11926103943555
 20
2.075366912832191
 30
0.0
 40
4.233333333333333
  1
SEME7203012E [ 4 FLUTE ]
 41
0.75
  7
SLDTEXTSTYLE0
 11
-16.11926103943555
 21
-0.0412997538344756
 31
0.0
100
AcDbAttributeDefinition
  3

  2
AUTOATTR0
 70
     0
 74
     1
  0
ENDBLK
  5
84
330
82
100
AcDbEntity
  8
0
100
AcDbBlockEnd
  0
BLOCK
  5
ED
330
EC
100
AcDbEntity
  8
0
100
AcDbBlockBegin
  2
_D
 70
     0
 10
0.0
 20
0.0
 30
0.0
  3
_D
  1

  0
LINE
  5
EF
330
EC
100
AcDbEntity
  8
치수문자_일반주서
 62
     0
370
    -2
100
AcDbLine
 10
20.66057621135332
 20
-1.500000000000004
 30
0.0
 11
31.76647108225638
 21
-1.499999999999963
 31
0.0
  0
LINE
  5
F0
330
EC
100
AcDbEntity
  8
치수문자_일반주서
 62
     0
370
    -2
100
AcDbLine
 10
20.66057621135332
 20
1.500000000000004
 30
0.0
 11
31.76647108225637
 21
1.500000000000044
 31
0.0
  0
LINE
  5
F1
330
EC
100
AcDbEntity
  8
치수문자_일반주서
 62
     0
370
    -2
100
AcDbLine
 10
31.76647108225638
 20
-1.499999999999963
 30
0.0
 11
31.76647108225633
 21
14.22900000000005
 31
0.0
  0
LINE
  5
F2
330
EC
100
AcDbEntity
  8
치수문자_일반주서
 62
     0
370
    -2
100
AcDbLine
 10
31.76647108225638
 20
-1.499999999999963
 30
0.0
 11
31.76647108225637
 21
1.500000000000044
 31
0.0
  0
LINE
  5
F3
330
EC
100
AcDbEntity
  8
치수문자_일반주서
 62
     0
370
    -2
100
AcDbLine
 10
31.76647108225639
 20
-4.801999999999962
 30
0.0
 11
31.76647108225641
 21
-8.103999999999962
 31
0.0
  0
LINE
  5
F4
330
EC
100
AcDbEntity
  8
치수문자_일반주서
 62
     0
370
    -2
100
AcDbLine
 10
31.76647108225636
 20
4.802000000000044
 30
0.0
 11
31.76647108225635
 21
8.104000000000044
 31
0.0
  0
SOLID
  5
F5
330
EC
100
AcDbEntity
  8
치수문자_일반주서
 62
     0
100
AcDbTrace
 10
32.31680441558973
 20
-4.801999999999961
 30
0.0
 11
31.21613774892306
 21
-4.801999999999964
 31
0.0
 12
31.76647108225638
 22
-1.499999999999963
 32
0.0
 13
31.76647108225638
 23
-1.499999999999963
 33
0.0
  0
SOLID
  5
F6
330
EC
100
AcDbEntity
  8
치수문자_일반주서
 62
     0
100
AcDbTrace
 10
31.21613774892303
 20
4.802000000000042
 30
0.0
 11
32.31680441558969
 21
4.802000000000046
 31
0.0
 12
31.76647108225637
 22
1.500000000000044
 32
0.0
 13
31.76647108225637
 23
1.500000000000044
 33
0.0
  0
MTEXT
  5
F7
330
EC
100
AcDbEntity
  8
치수문자_일반주서
 62
     0
100
AcDbMText
 10
27.39147108225634
 20
11.16650000000003
 30
0.0
 40
3.5
 41
0.0
 71
     2
 72
     1
  1
\A1;%%c3
  7
SLDTEXTSTYLE0
 11
-3.552713678800491E-15
 21
1.0
 31
0.0
 73
     1
 44
1.0
  0
POINT
  5
150
330
EC
100
AcDbEntity
  8
Defpoints
 62
     0
100
AcDbPoint
 10
20.59807621135332
 20
-1.500000000000004
 30
0.0
  0
POINT
  5
151
330
EC
100
AcDbEntity
  8
Defpoints
 62
     0
100
AcDbPoint
 10
20.59807621135332
 20
1.500000000000004
 30
0.0
  0
POINT
  5
152
330
EC
100
AcDbEntity
  8
Defpoints
 62
     0
100
AcDbPoint
 10
31.76647108225636
 20
1.500000000000046
 30
0.0
  0
ENDBLK
  5
EE
330
EC
100
AcDbEntity
  8
0
100
AcDbBlockEnd
  0
BLOCK
  5
FB
330
FA
100
AcDbEntity
  8
0
100
AcDbBlockBegin
  2
_D_1
 70
     0
 10
0.0
 20
0.0
 30
0.0
  3
_D_1
  1

  0
LINE
  5
FD
330
FA
100
AcDbEntity
  8
치수문자_일반주서
 62
     0
370
    -2
100
AcDbLine
 10
-49.40192378864671
 20
2.562499999999994
 30
0.0
 11
-49.40192378864671
 21
20.38913260158164
 31
0.0
  0
LINE
  5
FE
330
FA
100
AcDbEntity
  8
치수문자_일반주서
 62
     0
370
    -2
100
AcDbLine
 10
20.59807621135331
 20
1.562500000000002
 30
0.0
 11
20.59807621135331
 21
20.38913260158164
 31
0.0
  0
LINE
  5
FF
330
FA
100
AcDbEntity
  8
치수문자_일반주서
 62
     0
370
    -2
100
AcDbLine
 10
-46.09992378864671
 20
20.38913260158164
 30
0.0
 11
17.29607621135331
 21
20.38913260158164
 31
0.0
  0
SOLID
  5
100
330
FA
100
AcDbEntity
  8
치수문자_일반주서
 62
     0
100
AcDbTrace
 10
-46.09992378864671
 20
20.93946593491498
 30
0.0
 11
-46.09992378864671
 21
19.83879926824831
 31
0.0
 12
-49.40192378864671
 22
20.38913260158164
 32
0.0
 13
-49.40192378864671
 23
20.38913260158164
 33
0.0
  0
SOLID
  5
101
330
FA
100
AcDbEntity
  8
치수문자_일반주서
 62
     0
100
AcDbTrace
 10
17.29607621135331
 20
19.83879926824831
 30
0.0
 11
17.29607621135331
 21
20.93946593491498
 31
0.0
 12
20.59807621135331
 22
20.38913260158164
 32
0.0
 13
20.59807621135331
 23
20.38913260158164
 33
0.0
  0
MTEXT
  5
102
330
FA
100
AcDbEntity
  8
치수문자_일반주서
 62
     0
100
AcDbMText
 10
-14.40192378864671
 20
24.76413260158164
 30
0.0
 40
3.5
 41
0.0
 71
     2
 72
     1
  1
\A1;70
  7
SLDTEXTSTYLE0
 73
     1
 44
1.0
  0
POINT
  5
149
330
FA
100
AcDbEntity
  8
Defpoints
 62
     0
100
AcDbPoint
 10
-49.40192378864671
 20
2.499999999999994
 30
0.0
  0
POINT
  5
14A
330
FA
100
AcDbEntity
  8
Defpoints
 62
     0
100
AcDbPoint
 10
20.59807621135331
 20
1.500000000000002
 30
0.0
  0
POINT
  5
14B
330
FA
100
AcDbEntity
  8
Defpoints
 62
     0
100
AcDbPoint
 10
20.59807621135331
 20
20.38913260158164
 30
0.0
  0
ENDBLK
  5
FC
330
FA
100
AcDbEntity
  8
0
100
AcDbBlockEnd
  0
BLOCK
  5
106
330
105
100
AcDbEntity
  8
0
100
AcDbBlockBegin
  2
_D_2
 70
     0
 10
0.0
 20
0.0
 30
0.0
  3
_D_2
  1

  0
LINE
  5
108
330
105
100
AcDbEntity
  8
치수문자_일반주서
 62
     0
370
    -2
100
AcDbLine
 10
-48.9644237886467
 20
3.000000000000003
 30
0.0
 11
-59.25791155261158
 21
2.999999999999964
 31
0.0
  0
LINE
  5
109
330
105
100
AcDbEntity
  8
치수문자_일반주서
 62
     0
370
    -2
100
AcDbLine
 10
-48.9644237886467
 20
-3.000000000000002
 30
0.0
 11
-59.25791155261156
 21
-3.000000000000041
 31
0.0
  0
LINE
  5
10A
330
105
100
AcDbEntity
  8
치수문자_일반주서
 62
     0
370
    -2
100
AcDbLine
 10
-59.25791155261158
 20
2.999999999999964
 30
0.0
 11
-59.25791155261163
 21
15.72899999999996
 31
0.0
  0
LINE
  5
10B
330
105
100
AcDbEntity
  8
치수문자_일반주서
 62
     0
370
    -2
100
AcDbLine
 10
-59.25791155261158
 20
2.999999999999964
 30
0.0
 11
-59.25791155261156
 21
-3.000000000000041
 31
0.0
  0
LINE
  5
10C
330
105
100
AcDbEntity
  8
치수문자_일반주서
 62
     0
370
    -2
100
AcDbLine
 10
-59.2579115526116
 20
6.301999999999964
 30
0.0
 11
-59.25791155261161
 21
9.603999999999964
 31
0.0
  0
LINE
  5
10D
330
105
100
AcDbEntity
  8
치수문자_일반주서
 62
     0
370
    -2
100
AcDbLine
 10
-59.25791155261155
 20
-6.30200000000004
 30
0.0
 11
-59.25791155261153
 21
-9.60400000000004
 31
0.0
  0
SOLID
  5
10E
330
105
100
AcDbEntity
  8
치수문자_일반주서
 62
     0
100
AcDbTrace
 10
-59.80824488594493
 20
6.301999999999962
 30
0.0
 11
-58.70757821927826
 21
6.301999999999966
 31
0.0
 12
-59.25791155261158
 22
2.999999999999964
 32
0.0
 13
-59.25791155261158
 23
2.999999999999964
 33
0.0
  0
SOLID
  5
10F
330
105
100
AcDbEntity
  8
치수문자_일반주서
 62
     0
100
AcDbTrace
 10
-58.70757821927821
 20
-6.302000000000039
 30
0.0
 11
-59.80824488594488
 21
-6.302000000000042
 31
0.0
 12
-59.25791155261156
 22
-3.000000000000041
 32
0.0
 13
-59.25791155261156
 23
-3.000000000000041
 33
0.0
  0
MTEXT
  5
110
330
105
100
AcDbEntity
  8
치수문자_일반주서
 62
     0
100
AcDbMText
 10
-63.63291155261162
 20
12.66649999999995
 30
0.0
 40
3.5
 41
0.0
 71
     2
 72
     1
  1
\A1;%%c6
  7
SLDTEXTSTYLE0
 11
-3.552713678800498E-15
 21
1.0
 31
0.0
 73
     1
 44
1.0
  0
POINT
  5
14D
330
105
100
AcDbEntity
  8
Defpoints
 62
     0
100
AcDbPoint
 10
-48.9019237886467
 20
3.000000000000004
 30
0.0
  0
POINT
  5
14E
330
105
100
AcDbEntity
  8
Defpoints
 62
     0
100
AcDbPoint
 10
-48.9019237886467
 20
-3.000000000000002
 30
0.0
  0
POINT
  5
14F
330
105
100
AcDbEntity
  8
Defpoints
 62
     0
100
AcDbPoint
 10
-59.25791155261156
 20
-3.00000000000004
 30
0.0
  0
ENDBLK
  5
107
330
105
100
AcDbEntity
  8
0
100
AcDbBlockEnd
  0
BLOCK
  5
113
330
112
100
AcDbEntity
  8
0
100
AcDbBlockBegin
  2
_D_3
 70
     0
 10
0.0
 20
0.0
 30
0.0
  3
_D_3
  1

  0
LINE
  5
115
330
112
100
AcDbEntity
  8
치수문자_일반주서
 62
     0
370
    -2
100
AcDbLine
 10
8.5980762113533
 20
1.562500000000002
 30
0.0
 11
8.5980762113533
 21
12.27137876493633
 31
0.0
  0
LINE
  5
116
330
112
100
AcDbEntity
  8
치수문자_일반주서
 62
     0
370
    -2
100
AcDbLine
 10
20.59807621135331
 20
1.562500000000002
 30
0.0
 11
20.59807621135331
 21
12.27137876493633
 31
0.0
  0
LINE
  5
117
330
112
100
AcDbEntity
  8
치수문자_일반주서
 62
     0
370
    -2
100
AcDbLine
 10
11.9000762113533
 20
12.27137876493633
 30
0.0
 11
17.29607621135331
 21
12.27137876493633
 31
0.0
  0
SOLID
  5
118
330
112
100
AcDbEntity
  8
치수문자_일반주서
 62
     0
100
AcDbTrace
 10
11.9000762113533
 20
12.82171209826967
 30
0.0
 11
11.9000762113533
 21
11.721045431603
 31
0.0
 12
8.5980762113533
 22
12.27137876493633
 32
0.0
 13
8.5980762113533
 23
12.27137876493633
 33
0.0
  0
SOLID
  5
119
330
112
100
AcDbEntity
  8
치수문자_일반주서
 62
     0
100
AcDbTrace
 10
17.29607621135331
 20
11.721045431603
 30
0.0
 11
17.29607621135331
 21
12.82171209826967
 31
0.0
 12
20.59807621135331
 22
12.27137876493633
 32
0.0
 13
20.59807621135331
 23
12.27137876493633
 33
0.0
  0
MTEXT
  5
11A
330
112
100
AcDbEntity
  8
치수문자_일반주서
 62
     0
100
AcDbMText
 10
14.5980762113533
 20
16.64637876493633
 30
0.0
 40
3.5
 41
0.0
 71
     2
 72
     1
  1
\A1;12
  7
SLDTEXTSTYLE0
 73
     1
 44
1.0
  0
POINT
  5
11B
330
112
100
AcDbEntity
  8
Defpoints
 62
     0
100
AcDbPoint
 10
8.5980762113533
 20
1.500000000000002
 30
0.0
  0
POINT
  5
11C
330
112
100
AcDbEntity
  8
Defpoints
 62
     0
100
AcDbPoint
 10
20.59807621135331
 20
1.500000000000002
 30
0.0
  0
POINT
  5
14C
330
112
100
AcDbEntity
  8
Defpoints
 62
     0
100
AcDbPoint
 10
20.59807621135331
 20
12.27137876493633
 30
0.0
  0
ENDBLK
  5
114
330
112
100
AcDbEntity
  8
0
100
AcDbBlockEnd
  0
BLOCK
  5
11E
330
11D
100
AcDbEntity
  8
0
100
AcDbBlockBegin
  2
SW_DOWELSYMBOL_0
 70
     0
 10
0.0
 20
0.0
 30
0.0
  3
SW_DOWELSYMBOL_0
  1

  0
CIRCLE
  5
120
330
11D
100
AcDbEntity
  8
해칭선
 62
     0
100
AcDbCircle
 10
0.0
 20
0.0
 30
0.0
 40
3.000000000000003
  0
HATCH
  5
121
330
11D
100
AcDbEntity
  8
0
  6
Continuous
 62
     0
370
    18
100
AcDbHatch
 10
0.0
 20
0.0
 30
0.0
210
0.0
220
0.0
230
1.0
  2
SOLID
 70
     1
 71
     0
 91
        1
 92
        0
 93
        3
 72
     2
 10
0.0000074085160628
 20
-0.0000000000000042
 40
3.000000000000003
 50
0.0
 51
90.0
 73
     1
 72
     1
 10
0.0000074085160628
 20
2.999999999999998
 11
0.0000074085160628
 21
-0.0000000000000044
 72
     1
 10
0.0000074085160628
 20
-0.0000000000000042
 11
3.000007408516066
 21
-0.0000000000000042
 97
        0
 75
     0
 76
     1
 98
        1
 10
0.0
 20
0.0
  0
HATCH
  5
122
330
11D
100
AcDbEntity
  8
0
  6
Continuous
 62
     0
370
    18
100
AcDbHatch
 10
0.0
 20
0.0
 30
0.0
210
0.0
220
0.0
230
1.0
  2
SOLID
 70
     1
 71
     0
 91
        1
 92
        0
 93
        3
 72
     2
 10
0.0000074085160628
 20
-0.0000000000000042
 40
3.000000000000003
 50
180.0
 51
270.0000000000008
 73
     1
 72
     1
 10
0.0000074085160628
 20
-3.000000000000007
 11
0.0000074085160628
 21
-0.0000000000000044
 72
     1
 10
0.0000074085160628
 20
-0.0000000000000042
 11
-2.99999259148394
 21
-0.0000000000000042
 97
        0
 75
     0
 76
     1
 98
        1
 10
0.0
 20
0.0
  0
ENDBLK
  5
11F
330
11D
100
AcDbEntity
  8
0
100
AcDbBlockEnd
  0
ENDSEC
  0
SECTION
  2
ENTITIES
  0
LINE
  5
99
330
1F
100
AcDbEntity
  8
0
  6
Continuous
 62
     4
370
    25
100
AcDbLine
 10
2.0
 20
2.999999999999998
 30
0.0
 11
-48.90192378864671
 21
2.999999999999995
 31
0.0
  0
LINE
  5
9A
330
1F
100
AcDbEntity
  8
0
  6
Continuous
 62
     4
370
    25
100
AcDbLine
 10
-48.90192378864671
 20
-3.0
 30
0.0
 11
1.999999999999996
 21
-2.999999999999997
 31
0.0
  0
LINE
  5
9B
330
1F
100
AcDbEntity
  8
0
  6
Continuous
 62
     4
370
    25
100
AcDbLine
 10
2.0
 20
-2.999999999999999
 30
0.0
 11
7.120366546179193
 21
-1.628001918999944
 31
0.0
  0
LINE
  5
9C
330
1F
100
AcDbEntity
  8
0
  6
Continuous
 62
     4
370
    25
100
AcDbLine
 10
7.120366546179197
 20
1.628001918999944
 30
0.0
 11
2.0
 21
3.0
 31
0.0
  0
LINE
  5
9D
330
1F
100
AcDbEntity
  8
0
  6
Continuous
 62
     4
370
    25
100
AcDbLine
 10
-48.90192378864671
 20
2.999999999999993
 30
0.0
 11
-49.40192378864671
 21
2.499999999999993
 31
0.0
  0
LINE
  5
9E
330
1F
100
AcDbEntity
  8
0
  6
Continuous
 62
     4
370
    25
100
AcDbLine
 10
-49.40192378864671
 20
-2.5
 30
0.0
 11
-48.90192378864671
 21
-2.999999999999999
 31
0.0
  0
LINE
  5
9F
330
1F
100
AcDbEntity
  8
0
  6
Continuous
 62
     4
370
    25
100
AcDbLine
 10
7.774726517199239
 20
-1.499999999999999
 30
0.0
 11
8.5980762113533
 21
-1.499999999999999
 31
0.0
  0
LINE
  5
A0
330
1F
100
AcDbEntity
  8
0
  6
Continuous
 62
     4
370
    25
100
AcDbLine
 10
8.5980762113533
 20
1.500000000000001
 30
0.0
 11
7.774726517199221
 21
1.500000000000001
 31
0.0
  0
LINE
  5
A1
330
1F
100
AcDbEntity
  8
0
  6
Continuous
 62
     1
370
    25
100
AcDbLine
 10
12.2666371061756
 20
-0.233785591524529
 30
0.0
 11
12.22948376438123
 21
-0.2145238508555811
 31
0.0
  0
LINE
  5
A2
330
1F
100
AcDbEntity
  8
0
  6
Continuous
 62
     1
370
    25
100
AcDbLine
 10
20.32498067492804
 20
-0.176822956710082
 30
0.0
 11
20.2975103329721
 21
-0.1607542293701744
 31
0.0
  0
SPLINE
  5
A3
330
1F
100
AcDbEntity
  8
0
  6
Continuous
 62
     1
370
    25
100
AcDbSpline
210
0.0
220
0.0
230
1.0
 70
     8
 71
     3
 72
     9
 73
     5
 74
     0
 42
0.000000001
 43
0.00000001
 40
0.0
 40
0.0
 40
0.0
 40
0.0
 40
0.5508914128505613
 40
1.0
 40
1.0
 40
1.0
 40
1.0
 10
20.59807621135331
 20
-0.3339678349114085
 30
0.0
 10
20.54842645588472
 20
-0.3060314793129417
 30
0.0
 10
20.45830024532776
 20
-0.2553202956807419
 30
0.0
 10
20.3662991547387
 20
-0.2011508982547884
 30
0.0
 10
20.32498067492804
 20
-0.176822956710082
 30
0.0
  0
LINE
  5
A4
330
1F
100
AcDbEntity
  8
0
  6
Continuous
 62
     1
370
    25
100
AcDbLine
 10
16.68736857152385
 20
0.2345641462707343
 30
0.0
 11
16.72562666344074
 21
0.2143047089939548
 31
0.0
  0
LINE
  5
A5
330
1F
100
AcDbEntity
  8
0
  6
Continuous
 62
     1
370
    25
100
AcDbLine
 10
16.35038961013935
 20
-0.2359721094676412
 30
0.0
 11
16.30803780189884
 21
-0.2140818006374783
 31
0.0
  0
LINE
  5
A6
330
1F
100
AcDbEntity
  8
0
  6
Continuous
 62
     1
370
    25
100
AcDbLine
 10
12.59960488179843
 20
0.2372293622608233
 30
0.0
 11
12.64287837163995
 21
0.2142931392726423
 31
0.0
  0
LINE
  5
A7
330
1F
100
AcDbEntity
  8
0
  6
Continuous
 62
     1
370
    25
100
AcDbLine
 10
8.5980762113533
 20
-1.5
 30
0.0
 11
8.93551246486818
 21
-1.5
 31
0.0
  0
LINE
  5
A8
330
1F
100
AcDbEntity
  8
0
  6
Continuous
 62
     1
370
    25
100
AcDbLine
 10
17.09711780222317
 20
1.500000000000002
 30
0.0
 11
15.93621624668194
 21
1.500000000000002
 31
0.0
  0
LINE
  5
A9
330
1F
100
AcDbEntity
  8
0
  6
Continuous
 62
     1
370
    25
100
AcDbLine
 10
15.93621624668193
 20
-1.5
 30
0.0
 11
17.09711780222318
 21
-1.5
 31
0.0
  0
LINE
  5
AA
330
1F
100
AcDbEntity
  8
0
  6
Continuous
 62
     1
370
    25
100
AcDbLine
 10
8.935512464868195
 20
1.500000000000002
 30
0.0
 11
8.5980762113533
 21
1.500000000000002
 31
0.0
  0
LINE
  5
AB
330
1F
100
AcDbEntity
  8
0
  6
Continuous
 62
     1
370
    25
100
AcDbLine
 10
11.85703782447319
 20
-1.5
 30
0.0
 11
13.01665668191013
 21
-1.5
 31
0.0
  0
LINE
  5
AC
330
1F
100
AcDbEntity
  8
0
  6
Continuous
 62
     1
370
    25
100
AcDbLine
 10
20.59807621135331
 20
1.500000000000002
 30
0.0
 11
20.01689907249932
 21
1.500000000000002
 31
0.0
  0
LINE
  5
AD
330
1F
100
AcDbEntity
  8
0
  6
Continuous
 62
     1
370
    25
100
AcDbLine
 10
20.01689907249932
 20
-1.5
 30
0.0
 11
20.59807621135331
 21
-1.5
 31
0.0
  0
LINE
  5
AE
330
1F
100
AcDbEntity
  8
0
  6
Continuous
 62
     1
370
    25
100
AcDbLine
 10
13.01665668191016
 20
1.500000000000002
 30
0.0
 11
11.85703782447319
 21
1.500000000000002
 31
0.0
  0
LINE
  5
AF
330
1F
100
AcDbEntity
  8
0
  6
Continuous
 62
     4
370
    25
100
AcDbLine
 10
2.0
 20
3.0
 30
0.0
 11
2.0
 21
-3.0
 31
0.0
  0
LINE
  5
B0
330
1F
100
AcDbEntity
  8
0
  6
Continuous
 62
     4
370
    25
100
AcDbLine
 10
-48.90192378864671
 20
2.999999999999993
 30
0.0
 11
-48.90192378864671
 21
-2.999999999999999
 31
0.0
  0
SPLINE
  5
B1
330
1F
100
AcDbEntity
  8
0
  6
Continuous
 62
     4
370
    25
100
AcDbSpline
210
0.0
220
0.0
230
1.0
 70
     8
 71
     3
 72
     8
 73
     4
 74
     0
 42
0.000000001
 43
0.00000001
 40
0.0
 40
0.0
 40
0.0
 40
0.0
 40
1.0
 40
1.0
 40
1.0
 40
1.0
 10
7.547492129370942
 20
0.1343364890955458
 30
0.0
 10
7.564345538992262
 20
0.1236148181396192
 30
0.0
 10
7.58120683018765
 20
0.1129324456788117
 30
0.0
 10
7.5980762113533
 20
0.1022896851403994
 30
0.0
  0
SPLINE
  5
B2
330
1F
100
AcDbEntity
  8
0
  6
Continuous
 62
     4
370
    25
100
AcDbSpline
210
0.0
220
0.0
230
1.0
 70
     8
 71
     3
 72
    12
 73
     8
 74
     0
 42
0.000000001
 43
0.00000001
 40
0.0
 40
0.0
 40
0.0
 40
0.0
 40
0.2499999999999999
 40
0.2499999999999999
 40
0.4999999999999999
 40
0.4999999999999999
 40
1.0
 40
1.0
 40
1.0
 40
1.0
 10
7.097909936685936
 20
-0.1079167894310516
 30
0.0
 10
7.097909936685936
 20
-0.0541269023267498
 30
0.0
 10
7.112308884668074
 20
-0.0009702638156402
 30
0.0
 10
7.166237206772024
 20
0.089436582208893
 30
0.0
 10
7.20582658746347
 20
0.1264595422412659
 30
0.0
 10
7.342008489612359
 20
0.1974624488934167
 30
0.0
 10
7.458042125582377
 20
0.1912420962798762
 30
0.0
 10
7.547492129370942
 20
0.1343364890955459
 30
0.0
  0
LINE
  5
B3
330
1F
100
AcDbEntity
  8
0
  6
Continuous
 62
     4
370
    25
100
AcDbLine
 10
7.097909936685936
 20
-0.1079167894310516
 30
0.0
 11
7.097909936685936
 21
-1.135282825471374
 31
0.0
  0
SPLINE
  5
B4
330
1F
100
AcDbEntity
  8
0
  6
Continuous
 62
     4
370
    25
100
AcDbSpline
210
0.0
220
0.0
230
1.0
 70
     8
 71
     3
 72
    10
 73
     6
 74
     0
 42
0.000000001
 43
0.00000001
 40
0.0
 40
0.0
 40
0.0
 40
0.0
 40
0.5
 40
0.5
 40
1.0
 40
1.0
 40
1.0
 40
1.0
 10
7.241250809569051
 20
-1.274286318092677
 30
0.0
 10
7.197890137300092
 20
-1.267890924731282
 30
0.0
 10
7.161512038414878
 20
-1.252627501334744
 30
0.0
 10
7.111405956948269
 20
-1.20514794064254
 30
0.0
 10
7.097909936685518
 20
-1.172638749328988
 30
0.0
 10
7.097909936685936
 20
-1.135282825471377
 30
0.0
  0
SPLINE
  5
B5
330
1F
100
AcDbEntity
  8
0
  6
Continuous
 62
     4
370
    25
100
AcDbSpline
210
0.0
220
0.0
230
1.0
 70
     8
 71
     3
 72
     8
 73
     4
 74
     0
 42
0.000000001
 43
0.00000001
 40
0.0
 40
0.0
 40
0.0
 40
0.0
 40
1.0
 40
1.0
 40
1.0
 40
1.0
 10
7.5980762113533
 20
-1.305510882785031
 30
0.0
 10
7.4773953123873
 20
-1.301758850762613
 30
0.0
 10
7.358583056646209
 20
-1.291591997058616
 30
0.0
 10
7.241250809569044
 20
-1.274286318092654
 30
0.0
  0
LINE
  5
B6
330
1F
100
AcDbEntity
  8
0
  6
Continuous
 62
     4
370
    25
100
AcDbLine
 10
7.5980762113533
 20
-1.305510882786328
 30
0.0
 11
7.5980762113533
 21
-1.496508209237043
 31
0.0
  0
SPLINE
  5
B7
330
1F
100
AcDbEntity
  8
0
  6
Continuous
 62
     4
370
    25
100
AcDbSpline
210
0.0
220
0.0
230
1.0
 70
     8
 71
     3
 72
     8
 73
     4
 74
     0
 42
0.000000001
 43
0.00000001
 40
0.0
 40
0.0
 40
0.0
 40
0.0
 40
1.0
 40
1.0
 40
1.0
 40
1.0
 10
7.547492129370942
 20
-1.507580614556473
 30
0.0
 10
7.564345538992262
 20
-1.50400224380094
 30
0.0
 10
7.58120683018765
 20
-1.500311436596973
 30
0.0
 10
7.5980762113533
 20
-1.496508209237047
 30
0.0
  0
SPLINE
  5
B8
330
1F
100
AcDbEntity
  8
0
  6
Continuous
 62
     4
370
    25
100
AcDbSpline
210
0.0
220
0.0
230
1.0
 70
     8
 71
     3
 72
    13
 73
     9
 74
     0
 42
0.000000001
 43
0.00000001
 40
0.0
 40
0.0
 40
0.0
 40
0.0
 40
0.1398994519844585
 40
0.3156046414810734
 40
0.4998862411003661
 40
0.6932914678125064
 40
0.8921728971357382
 40
1.0
 40
1.0
 40
1.0
 40
1.0
 10
7.120283168798517
 20
-1.627690750379062
 30
0.0
 10
7.130034103922005
 20
-1.624912083295173
 30
0.0
 10
7.152031619566996
 20
-1.618643579620807
 30
0.0
 10
7.215919311770419
 20
-1.597012003261981
 30
0.0
 10
7.300704111261632
 20
-1.569964090252054
 30
0.0
 10
7.399241609015469
 20
-1.541862528481253
 30
0.0
 10
7.484955776909432
 20
-1.521048832675216
 30
0.0
 10
7.531225460984807
 20
-1.511083905510715
 30
0.0
 10
7.547492129370942
 20
-1.507580614556473
 30
0.0
  0
SPLINE
  5
B9
330
1F
100
AcDbEntity
  8
0
  6
Continuous
 62
     4
370
    25
100
AcDbSpline
210
0.0
220
0.0
230
1.0
 70
     8
 71
     3
 72
     8
 73
     4
 74
     0
 42
0.000000001
 43
0.00000001
 40
0.0
 40
0.0
 40
0.0
 40
0.0
 40
1.0
 40
1.0
 40
1.0
 40
1.0
 10
7.547492129370942
 20
1.507580614556475
 30
0.0
 10
7.564345538992262
 20
1.504002243800942
 30
0.0
 10
7.58120683018765
 20
1.500311436596976
 30
0.0
 10
7.5980762113533
 20
1.496508209237049
 30
0.0
  0
SPLINE
  5
BA
330
1F
100
AcDbEntity
  8
0
  6
Continuous
 62
     4
370
    25
100
AcDbSpline
210
0.0
220
0.0
230
1.0
 70
     8
 71
     3
 72
    12
 73
     8
 74
     0
 42
0.000000001
 43
0.00000001
 40
0.0
 40
0.0
 40
0.0
 40
0.0
 40
0.25
 40
0.25
 40
0.5
 40
0.5
 40
1.0
 40
1.0
 40
1.0
 40
1.0
 10
7.097909936685936
 20
1.630451638992772
 30
0.0
 10
7.097909936685936
 20
1.634011899095758
 30
0.0
 10
7.112308884668074
 20
1.630793226250916
 30
0.0
 10
7.166237206772024
 20
1.61387284936219
 30
0.0
 10
7.20582658746347
 20
1.600307713974267
 30
0.0
 10
7.342008489612359
 20
1.556933128366689
 30
0.0
 10
7.458042125582377
 20
1.526572930344874
 30
0.0
 10
7.547492129370942
 20
1.507580614556475
 30
0.0
  0
LINE
  5
BB
330
1F
100
AcDbEntity
  8
0
  6
Continuous
 62
     4
370
    25
100
AcDbLine
 10
7.097909936685936
 20
1.630451638992771
 30
0.0
 11
7.097909936685936
 21
1.175224015549792
 31
0.0
  0
SPLINE
  5
BC
330
1F
100
AcDbEntity
  8
0
  6
Continuous
 62
     4
370
    25
100
AcDbSpline
210
0.0
220
0.0
230
1.0
 70
     8
 71
     3
 72
    10
 73
     6
 74
     0
 42
0.000000001
 43
0.00000001
 40
0.0
 40
0.0
 40
0.0
 40
0.0
 40
0.5
 40
0.5
 40
1.0
 40
1.0
 40
1.0
 40
1.0
 10
7.241250809569051
 20
0.960296356624574
 30
0.0
 10
7.197890137300096
 20
0.9880878826095869
 30
0.0
 10
7.161512038414886
 20
1.02346638559298
 30
0.0
 10
7.111405956948277
 20
1.098988847538542
 30
0.0
 10
7.097909936685518
 20
1.139137670968809
 30
0.0
 10
7.097909936685936
 20
1.175224015549792
 30
0.0
  0
SPLINE
  5
BD
330
1F
100
AcDbEntity
  8
0
  6
Continuous
 62
     4
370
    25
100
AcDbSpline
210
0.0
220
0.0
230
1.0
 70
     8
 71
     3
 72
     8
 73
     4
 74
     0
 42
0.000000001
 43
0.00000001
 40
0.0
 40
0.0
 40
0.0
 40
0.0
 40
1.0
 40
1.0
 40
1.0
 40
1.0
 10
7.5980762113533
 20
0.7386753921222311
 30
0.0
 10
7.4773953123873
 20
0.8109708054215248
 30
0.0
 10
7.358583056646209
 20
0.8850935974676285
 30
0.0
 10
7.241250809569044
 20
0.9602963566245617
 30
0.0
  0
LINE
  5
BE
330
1F
100
AcDbEntity
  8
0
  6
Continuous
 62
     4
370
    25
100
AcDbLine
 10
7.5980762113533
 20
0.7386753921217695
 30
0.0
 11
7.5980762113533
 21
0.1022896851403984
 31
0.0
  0
LINE
  5
BF
330
1F
100
AcDbEntity
  8
0
  6
Continuous
 62
     4
370
    25
100
AcDbLine
 10
-49.40192378864671
 20
2.499999999999994
 30
0.0
 11
-49.40192378864671
 21
-2.5
 31
0.0
  0
SPLINE
  5
C0
330
1F
100
AcDbEntity
  8
0
  6
Continuous
 62
     4
370
    25
100
AcDbSpline
210
0.0
220
0.0
230
1.0
 70
     8
 71
     3
 72
    10
 73
     6
 74
     0
 42
0.000000001
 43
0.00000001
 40
0.0
 40
0.0
 40
0.0
 40
0.0
 40
0.5
 40
0.5
 40
1.0
 40
1.0
 40
1.0
 40
1.0
 10
8.598076211353295
 20
1.425460462348605
 30
0.0
 10
8.431277554365032
 20
1.455418602457466
 30
0.0
 10
8.262222851119805
 20
1.476627961616936
 30
0.0
 10
7.928926834239181
 20
1.500395296134395
 30
0.0
 10
7.765551513531406
 20
1.503079364245628
 30
0.0
 10
7.5980762113533
 20
1.496508209237046
 30
0.0
  0
SPLINE
  5
C1
330
1F
100
AcDbEntity
  8
0
  6
Continuous
 62
     4
370
    25
100
AcDbSpline
210
0.0
220
0.0
230
1.0
 70
    24
 71
     3
 72
    13
 73
     9
 74
     0
 42
0.000000001
 43
0.00000001
 40
0.0
 40
0.0
 40
0.0
 40
0.0
 40
0.1427093867455422
 40
0.3471029445544554
 40
0.5514965023633688
 40
0.7558900601722822
 40
0.9602836179811604
 40
0.9999999999999999
 40
0.9999999999999999
 40
0.9999999999999999
 40
0.9999999999999999
 10
8.5980762113533
 20
1.425460462348681
 30
0.0
 10
8.5980762113533
 20
1.343494004603935
 30
0.0
 10
8.5980762113533
 20
1.144132214278056
 30
0.0
 10
8.5980762113533
 20
0.8285142833728407
 30
0.0
 10
8.5980762113533
 20
0.5251583050905668
 30
0.0
 10
8.5980762113533
 20
0.3060758360488656
 30
0.0
 10
8.5980762113533
 20
0.213436801809696
 30
0.0
 10
8.5980762113533
 20
0.203519243682398
 30
0.0
 10
8.5980762113533
 20
0.2019056693742162
 30
0.0
  0
SPLINE
  5
C2
330
1F
100
AcDbEntity
  8
0
  6
Continuous
 62
     4
370
    25
100
AcDbSpline
210
0.0
220
0.0
230
1.0
 70
     8
 71
     3
 72
    10
 73
     6
 74
     0
 42
0.000000001
 43
0.00000001
 40
0.0
 40
0.0
 40
0.0
 40
0.0
 40
0.5
 40
0.5
 40
1.0
 40
1.0
 40
1.0
 40
1.0
 10
8.5980762113533
 20
0.1945714988689346
 30
0.0
 10
8.431277554365032
 20
0.2899896237595657
 30
0.0
 10
8.262222851119802
 20
0.3846193094427731
 30
0.0
 10
7.928926834239169
 20
0.5670854567886299
 30
0.0
 10
7.765551513531388
 20
0.6548085353180578
 30
0.0
 10
7.598076211353279
 20
0.7386753921219115
 30
0.0
  0
SPLINE
  5
C3
330
1F
100
AcDbEntity
  8
0
  6
Continuous
 62
     4
370
    25
100
AcDbSpline
210
0.0
220
0.0
230
1.0
 70
     8
 71
     3
 72
    10
 73
     6
 74
     0
 42
0.000000001
 43
0.00000001
 40
0.0
 40
0.0
 40
0.0
 40
0.0
 40
0.5
 40
0.5
 40
1.0
 40
1.0
 40
1.0
 40
1.0
 10
8.598076211353295
 20
-0.4669715947259276
 30
0.0
 10
8.431277554365032
 20
-0.3755224686270584
 30
0.0
 10
8.262222851119805
 20
-0.2807574179695256
 30
0.0
 10
7.928926834239181
 20
-0.0898266113781899
 30
0.0
 10
7.765551513531406
 20
0.0061530375300753
 30
0.0
 10
7.5980762113533
 20
0.1022896851403985
 30
0.0
  0
SPLINE
  5
C4
330
1F
100
AcDbEntity
  8
0
  6
Continuous
 62
     4
370
    25
100
AcDbSpline
210
0.0
220
0.0
230
1.0
 70
    24
 71
     3
 72
    13
 73
     9
 74
     0
 42
0.000000001
 43
0.00000001
 40
0.0
 40
0.0
 40
0.0
 40
0.0
 40
0.0093758582013519
 40
0.2327241434489684
 40
0.4560724286965852
 40
0.679420713944202
 40
0.9027689991917803
 40
1.0
 40
1.0
 40
1.0
 40
1.0
 10
8.5980762113533
 20
-0.4540824932097702
 30
0.0
 10
8.5980762113533
 20
-0.4537829924782902
 30
0.0
 10
8.5980762113533
 20
-0.4463488942123846
 30
0.0
 10
8.5980762113533
 20
-0.5211212623463195
 30
0.0
 10
8.5980762113533
 20
-0.7069447784209881
 30
0.0
 10
8.5980762113533
 20
-0.9914001753971815
 30
0.0
 10
8.5980762113533
 20
-1.267528895328
 30
0.0
 10
8.5980762113533
 20
-1.436176621144007
 30
0.0
 10
8.5980762113533
 20
-1.487327109894757
 30
0.0
  0
SPLINE
  5
C5
330
1F
100
AcDbEntity
  8
0
  6
Continuous
 62
     4
370
    25
100
AcDbSpline
210
0.0
220
0.0
230
1.0
 70
     8
 71
     3
 72
    10
 73
     6
 74
     0
 42
0.000000001
 43
0.00000001
 40
0.0
 40
0.0
 40
0.0
 40
0.0
 40
0.5000000000000001
 40
0.5000000000000001
 40
1.0
 40
1.0
 40
1.0
 40
1.0
 10
8.5980762113533
 20
-1.487327109894757
 30
0.0
 10
8.431277554365035
 20
-1.474844551447646
 30
0.0
 10
8.262222851119809
 20
-1.453039177578388
 30
0.0
 10
7.928926834239185
 20
-1.392001777826718
 30
0.0
 10
7.765551513531406
 20
-1.352963863954434
 30
0.0
 10
7.5980762113533
 20
-1.305510882786328
 30
0.0
  0
LINE
  5
C6
330
1F
100
AcDbEntity
  8
0
  6
Continuous
 62
     4
370
    25
100
AcDbLine
 10
8.5980762113533
 20
0.1945714988689346
 30
0.0
 11
8.5980762113533
 21
-0.4669715947259441
 31
0.0
  0
LINE
  5
C7
330
1F
100
AcDbEntity
  8
0
  6
Continuous
 62
     4
370
    25
100
AcDbLine
 10
7.5980762113533
 20
-1.496508209237043
 30
0.0
 11
7.774726517199239
 21
-1.493668807723931
 31
0.0
  0
LINE
  5
C8
330
1F
100
AcDbEntity
  8
0
  6
Continuous
 62
     4
370
    25
100
AcDbLine
 10
8.5980762113533
 20
-1.487327109894757
 30
0.0
 11
8.5980762113533
 21
-1.499999999999999
 31
0.0
  0
LINE
  5
C9
330
1F
100
AcDbEntity
  8
0
  6
Continuous
 62
     4
370
    25
100
AcDbLine
 10
8.5980762113533
 20
1.500000000000001
 30
0.0
 11
8.5980762113533
 21
1.425460462348681
 31
0.0
  0
SPLINE
  5
CA
330
1F
100
AcDbEntity
  8
0
  6
Continuous
 62
     1
370
    25
100
AcDbSpline
210
0.0
220
0.0
230
1.0
 70
     8
 71
     3
 72
    15
 73
    11
 74
     0
 42
0.000000001
 43
0.00000001
 40
0.0
 40
0.0
 40
0.0
 40
0.0
 40
0.1065418711187006
 40
0.2500095726925591
 40
0.39349195782916
 40
0.5369970182031082
 40
0.6805326814698204
 40
0.7873782114207448
 40
0.8937385848653113
 40
0.9999999999999999
 40
0.9999999999999999
 40
0.9999999999999999
 40
0.9999999999999999
 10
14.47514535023681
 20
-1.25649333118311
 30
0.0
 10
14.26640700685821
 20
-1.318809060021661
 30
0.0
 10
13.77658470990893
 20
-1.465038223967862
 30
0.0
 10
13.00564025213699
 20
-1.523733395937655
 30
0.0
 10
12.16227044294425
 20
-1.445448490046007
 30
0.0
 10
11.31869831786133
 20
-1.211798224534662
 30
0.0
 10
10.54702486415895
 20
-0.8825398203713208
 30
0.0
 10
9.847662961548343
 20
-0.5220267935411639
 30
0.0
 10
9.222329337889688
 20
-0.166656181760659
 30
0.0
 10
8.806096012507455
 20
0.0741996383179683
 30
0.0
 10
8.598076211353131
 20
0.1945714988690369
 30
0.0
  0
SPLINE
  5
CB
330
1F
100
AcDbEntity
  8
0
  6
Continuous
 62
     4
370
    25
100
AcDbSpline
210
0.0
220
0.0
230
1.0
 70
    24
 71
     3
 72
    16
 73
    12
 74
     0
 42
0.000000001
 43
0.00000001
 40
0.0
 40
0.0
 40
0.0
 40
0.0
 40
0.125
 40
0.125
 40
0.2500000000000001
 40
0.2500000000000001
 40
0.5
 40
0.5
 40
0.75
 40
0.75
 40
1.0
 40
1.0
 40
1.0
 40
1.0
 10
8.5980762113533
 20
1.425460462348684
 30
0.0
 10
8.5980762113533
 20
1.373479172929272
 30
0.0
 10
8.5980762113533
 20
1.326475156706785
 30
0.0
 10
8.5980762113533
 20
1.222466925875054
 30
0.0
 10
8.5980762113533
 20
1.166675986094685
 30
0.0
 10
8.5980762113533
 20
0.9890265203346762
 30
0.0
 10
8.5980762113533
 20
0.855533244653737
 30
0.0
 10
8.5980762113533
 20
0.5882896503480775
 30
0.0
 10
8.5980762113533
 20
0.4551282867188513
 30
0.0
 10
8.5980762113533
 20
0.2578098377283762
 30
0.0
 10
8.5980762113533
 20
0.1971604843982071
 30
0.0
 10
8.5980762113533
 20
0.1945714988689546
 30
0.0
  0
SPLINE
  5
CC
330
1F
100
AcDbEntity
  8
0
  6
Continuous
 62
     1
370
    25
100
AcDbSpline
210
0.0
220
0.0
230
1.0
 70
     8
 71
     3
 72
    17
 73
    13
 74
     0
 42
0.000000001
 43
0.00000001
 40
0.0
 40
0.0
 40
0.0
 40
0.0
 40
0.0851058556578369
 40
0.1702909680395366
 40
0.2558646472359091
 40
0.3708238299669631
 40
0.4857585025277831
 40
0.6006750142587833
 40
0.7155797657740017
 40
0.8304791909728609
 40
0.9453797388514412
 40
1.0
 40
1.0
 40
1.0
 40
1.0
 10
8.598076211353197
 20
1.425460462348623
 30
0.0
 10
8.806096012485476
 20
1.380039024250909
 30
0.0
 10
9.222329337823599
 20
1.289153848329462
 30
0.0
 10
9.8476629618137
 20
1.055875087851128
 30
0.0
 10
10.54702486301385
 20
0.7355266839284949
 30
0.0
 10
11.31869832379824
 20
0.3136566129458811
 30
0.0
 10
12.16227042100789
 20
-0.1792724004411711
 30
0.0
 10
13.00564033392999
 20
-0.6531421318336827
 30
0.0
 10
13.84891787109157
 20
-1.060925322223844
 30
0.0
 10
14.69214633890246
 20
-1.349376989867363
 30
0.0
 10
15.38790422088403
 20
-1.497153742570826
 30
0.0
 10
15.80259974339452
 20
-1.484426121132441
 30
0.0
 10
15.93621624668193
 20
-1.480325232216477
 30
0.0
  0
SPLINE
  5
CD
330
1F
100
AcDbEntity
  8
0
  6
Continuous
 62
     1
370
    25
100
AcDbSpline
210
0.0
220
0.0
230
1.0
 70
     8
 71
     3
 72
    16
 73
    12
 74
     0
 42
0.000000001
 43
0.00000001
 40
0.0
 40
0.0
 40
0.0
 40
0.0
 40
0.1113669683702502
 40
0.2226960686306981
 40
0.3339932642220758
 40
0.4452646077611446
 40
0.55651622448555
 40
0.6677542952656599
 40
0.7789850392829207
 40
0.8902146964776818
 40
1.0
 40
1.0
 40
1.0
 40
1.0
 10
20.59807621135331
 20
-1.462748547532531
 30
0.0
 10
20.31658439398729
 20
-1.411801109780159
 30
0.0
 10
19.7536964749168
 20
-1.309923557932465
 30
0.0
 10
18.90956788329479
 20
-0.9791222319184806
 30
0.0
 10
18.065724491053
 20
-0.5569840550539646
 30
0.0
 10
17.22211734345947
 20
-0.0736638736825592
 30
0.0
 10
16.37868916200423
 20
0.4163091082768552
 30
0.0
 10
15.53538431822637
 20
0.8637960726716298
 30
0.0
 10
14.69214572937563
 20
1.217837792884478
 30
0.0
 10
13.85258111631906
 20
1.455209983918563
 30
0.0
 10
13.29408154420376
 20
1.484461509772749
 30
0.0
 10
13.01665668191016
 20
1.498991691955771
 30
0.0
  0
SPLINE
  5
CE
330
1F
100
AcDbEntity
  8
0
  6
Continuous
 62
     1
370
    25
100
AcDbSpline
210
0.0
220
0.0
230
1.0
 70
     8
 71
     3
 72
    15
 73
    11
 74
     0
 42
0.000000001
 43
0.00000001
 40
0.0
 40
0.0
 40
0.0
 40
0.0
 40
0.0354435465643069
 40
0.1731719066122285
 40
0.3109093388194761
 40
0.4486635439136591
 40
0.5864421751847643
 40
0.7242528170371156
 40
0.8621029639542541
 40
1.0
 40
1.0
 40
1.0
 40
1.0
 10
14.47514535023683
 20
1.256493331183113
 30
0.0
 10
14.5474780595096
 20
1.282425664586371
 30
0.0
 10
14.90088493860017
 20
1.409127195715553
 30
0.0
 10
15.53538415499881
 20
1.502058223789933
 30
0.0
 10
16.37868920574772
 20
1.506199117320162
 30
0.0
 10
17.22211733173592
 20
1.34289572237929
 30
0.0
 10
18.06572449419426
 20
1.041738194525955
 30
0.0
 10
18.90956788245679
 20
0.6315930580670991
 30
0.0
 10
19.7536964751264
 20
0.1530492724314846
 30
0.0
 10
20.31658439405717
 20
-0.1704417866912085
 30
0.0
 10
20.59807621135331
 20
-0.332214820094501
 30
0.0
  0
LINE
  5
CF
330
1F
100
AcDbEntity
  8
0
  6
Continuous
 62
     1
370
    25
100
AcDbLine
 10
20.59807621135331
 20
-0.5000000000000008
 30
0.0
 11
20.59807621135331
 21
-0.3333379550583316
 31
0.0
  0
SPLINE
  5
D0
330
1F
100
AcDbEntity
  8
0
  6
Continuous
 62
     1
370
    25
100
AcDbSpline
210
0.0
220
0.0
230
1.0
 70
    24
 71
     3
 72
    10
 73
     6
 74
     0
 42
0.000000001
 43
0.00000001
 40
0.0
 40
0.0
 40
0.0
 40
0.0
 40
0.5
 40
0.5
 40
1.0
 40
1.0
 40
1.0
 40
1.0
 10
20.59807621135331
 20
-0.500000000000001
 30
0.0
 10
20.52274727136001
 20
-0.5527458916286455
 30
0.0
 10
20.42051794841747
 20
-0.6243276341790972
 30
0.0
 10
20.20162612327922
 20
-0.7775973401933832
 30
0.0
 10
20.08808910964737
 20
-0.8570968130042131
 30
0.0
 10
19.98017819404713
 20
-0.9326568495626071
 30
0.0
  0
SPLINE
  5
D1
330
1F
100
AcDbEntity
  8
0
  6
Continuous
 62
     1
370
    25
100
AcDbSpline
210
0.0
220
0.0
230
1.0
 70
     8
 71
     3
 72
     8
 73
     4
 74
     0
 42
0.000000001
 43
0.00000001
 40
0.0
 40
0.0
 40
0.0
 40
0.0
 40
1.0
 40
1.0
 40
1.0
 40
1.0
 10
20.59807621135331
 20
-1.404383063753671
 30
0.0
 10
20.37780991610114
 20
-1.277322519792198
 30
0.0
 10
20.17575580507328
 20
-1.11182418487108
 30
0.0
 10
19.98017819404716
 20
-0.9326568495625949
 30
0.0
  0
LINE
  5
D2
330
1F
100
AcDbEntity
  8
0
  6
Continuous
 62
     1
370
    25
100
AcDbLine
 10
20.59807621135331
 20
-1.462748547532892
 30
0.0
 11
20.59807621135331
 21
-1.404383063753671
 31
0.0
  0
SPLINE
  5
D3
330
1F
100
AcDbEntity
  8
0
  6
Continuous
 62
     1
370
    25
100
AcDbSpline
210
0.0
220
0.0
230
1.0
 70
     8
 71
     3
 72
    20
 73
    16
 74
     0
 42
0.000000001
 43
0.00000001
 40
0.0
 40
0.0
 40
0.0
 40
0.0
 40
0.0509730064173428
 40
0.1386512852559289
 40
0.2263140199921285
 40
0.3139660809551597
 40
0.4016123686621518
 40
0.4892577999875893
 40
0.5769072942340884
 40
0.6645657591885169
 40
0.7522380772476065
 40
0.8399290916965025
 40
0.9052048057419844
 40
0.9701841205146947
 40
1.0
 40
1.0
 40
1.0
 40
1.0
 10
18.55612363207876
 20
-1.252978471416309
 30
0.0
 10
18.39263645935554
 20
-1.305311589346531
 30
0.0
 10
17.94793625008517
 20
-1.447662503535628
 30
0.0
 10
17.2221185352688
 20
-1.521002038401222
 30
0.0
 10
16.37868884766516
 20
-1.469697032783322
 30
0.0
 10
15.53538438401395
 20
-1.258795060278965
 30
0.0
 10
14.69214578052095
 20
-0.9179697169654487
 30
0.0
 10
13.84891802299247
 20
-0.4807784753564699
 30
0.0
 10
13.00564028472622
 20
0.0065034209570361
 30
0.0
 10
12.16227046591113
 20
0.4933175691328482
 30
0.0
 10
11.31869819336483
 20
0.927995405797433
 30
0.0
 10
10.54702528818814
 20
1.238946681373182
 30
0.0
 10
9.847661822492334
 20
1.418753246328844
 30
0.0
 10
9.334801945968763
 20
1.499068366860577
 30
0.0
 10
9.031051061002652
 20
1.491584068404665
 30
0.0
 10
8.935512464868188
 20
1.489230036193009
 30
0.0
  0
SPLINE
  5
D4
330
1F
100
AcDbEntity
  8
0
  6
Continuous
 62
     1
370
    25
100
AcDbSpline
210
0.0
220
0.0
230
1.0
 70
     8
 71
     3
 72
    20
 73
    16
 74
     0
 42
0.000000001
 43
0.00000001
 40
0.0
 40
0.0
 40
0.0
 40
0.0
 40
0.0082556609892514
 40
0.0959472125651471
 40
0.1836200676367171
 40
0.2712790695187727
 40
0.3589291006379516
 40
0.446575068811182
 40
0.5342218933712127
 40
0.621874491222645
 40
0.7095377629126252
 40
0.7972165788002027
 40
0.8849157654073443
 40
0.9726400920327176
 40
1.0
 40
1.0
 40
1.0
 40
1.0
 10
10.39559217174088
 20
1.265167128063817
 30
0.0
 10
10.42207437303016
 20
1.274535284973178
 30
0.0
 10
10.72985026155122
 20
1.383411914415255
 30
0.0
 10
11.31870909205014
 20
1.487992647422198
 30
0.0
 10
12.16226754602194
 20
1.517641020597269
 30
0.0
 10
13.00564106831801
 20
1.379204143912886
 30
0.0
 10
13.84891780801194
 20
1.099185004404341
 30
0.0
 10
14.69214585692456
 20
0.7036143676906058
 30
0.0
 10
15.53538429337327
 20
0.2347565667094804
 30
0.0
 10
16.37868913385513
 20
-0.2589103620342665
 30
0.0
 10
17.2221174809418
 20
-0.724726417129518
 30
0.0
 10
18.06572396912632
 20
-1.117829530733099
 30
0.0
 10
18.90956983420783
 20
-1.382907794881926
 30
0.0
 10
19.55997989783843
 20
-1.507986885965622
 30
0.0
 10
19.92913648470497
 20
-1.487857390477031
 30
0.0
 10
20.01689907249932
 20
-1.483071842344004
 30
0.0
  0
SPLINE
  5
D5
330
1F
100
AcDbEntity
  8
0
  6
Continuous
 62
     1
370
    25
100
AcDbSpline
210
0.0
220
0.0
230
1.0
 70
     8
 71
     3
 72
    12
 73
     8
 74
     0
 42
0.000000001
 43
0.00000001
 40
0.0
 40
0.0
 40
0.0
 40
0.0
 40
0.2411861704432974
 40
0.4822903303540394
 40
0.7233253946876554
 40
0.9643044715270825
 40
1.0
 40
1.0
 40
1.0
 40
1.0
 10
20.59807621135331
 20
0.332214820094475
 30
0.0
 10
20.31658442880349
 20
0.4869728672199686
 30
0.0
 10
19.75369657935353
 20
0.796436339092821
 30
0.0
 10
18.90956746576341
 20
1.171766025741029
 30
0.0
 10
18.06572605615886
 20
1.41232180648154
 30
0.0
 10
17.46160805017397
 20
1.51784342782813
 30
0.0
 10
17.13876926187511
 20
1.493247945843071
 30
0.0
 10
17.09711780222317
 20
1.490074728241435
 30
0.0
  0
SPLINE
  5
D6
330
1F
100
AcDbEntity
  8
0
  6
Continuous
 62
     1
370
    25
100
AcDbSpline
210
0.0
220
0.0
230
1.0
 70
     8
 71
     3
 72
    10
 73
     6
 74
     0
 42
0.000000001
 43
0.00000001
 40
0.0
 40
0.0
 40
0.0
 40
0.0
 40
0.3050536567780613
 40
0.6526885491516125
 40
1.0
 40
1.0
 40
1.0
 40
1.0
 10
10.39559217174088
 20
-1.265167128063815
 30
0.0
 10
10.21264604123719
 20
-1.317264366117614
 30
0.0
 10
9.821217052145505
 20
-1.428730890004851
 30
0.0
 10
9.222328043669881
 20
-1.508082935808054
 30
0.0
 10
8.806095581234729
 20
-1.494243571495963
 30
0.0
 10
8.598076211353131
 20
-1.487327109894385
 30
0.0
  0
LINE
  5
D7
330
1F
100
AcDbEntity
  8
0
  6
Continuous
 62
     1
370
    25
100
AcDbLine
 10
20.59807621135331
 20
-0.3322148200945014
 30
0.0
 11
20.59807621135331
 21
0.3322148200945039
 31
0.0
  0
SPLINE
  5
D8
330
1F
100
AcDbEntity
  8
0
  6
Continuous
 62
     1
370
    25
100
AcDbSpline
210
0.0
220
0.0
230
1.0
 70
     8
 71
     3
 72
    12
 73
     8
 74
     0
 42
0.000000001
 43
0.00000001
 40
0.0
 40
0.0
 40
0.0
 40
0.0
 40
0.191608877930859
 40
0.3833961958974878
 40
0.5760583402880467
 40
0.8348795440781231
 40
1.0
 40
1.0
 40
1.0
 40
1.0
 10
8.598076211353197
 20
-0.4669715947258728
 30
0.0
 10
8.806096016548784
 20
-0.5786254757739886
 30
0.0
 10
9.222329350017313
 20
-0.8020372180341
 30
0.0
 10
9.847662912893023
 20
-1.085199791844932
 30
0.0
 10
10.54702507414069
 20
-1.327829732675937
 30
0.0
 10
11.21695314007578
 20
-1.485360185473258
 30
0.0
 10
11.67761519295226
 20
-1.482788876848399
 30
0.0
 10
11.85703782447319
 20
-1.481787381376731
 30
0.0
  0
SPLINE
  5
D9
330
1F
100
AcDbEntity
  8
0
  6
Continuous
 62
     1
370
    25
100
AcDbSpline
210
0.0
220
0.0
230
1.0
 70
     8
 71
     3
 72
    10
 73
     6
 74
     0
 42
0.000000001
 43
0.00000001
 40
0.0
 40
0.0
 40
0.0
 40
0.0
 40
0.1730683946473807
 40
0.5864638899827843
 40
1.0
 40
1.0
 40
1.0
 40
1.0
 10
18.55612363207876
 20
1.252978471416312
 30
0.0
 10
18.6739131562083
 20
1.292914809176677
 30
0.0
 10
19.07305768320859
 20
1.428244081990064
 30
0.0
 10
19.75369794168048
 20
1.521264414820445
 30
0.0
 10
20.31658488296394
 20
1.482256047673804
 30
0.0
 10
20.5980762113533
 20
1.462748547532887
 30
0.0
  0
LINE
  5
DA
330
1F
100
AcDbEntity
  8
0
  6
Continuous
 62
     1
370
    25
100
AcDbLine
 10
20.59807621135331
 20
1.462748547532894
 30
0.0
 11
20.59807621135331
 21
1.500000000000004
 31
0.0
  0
LINE
  5
DB
330
1F
100
AcDbEntity
  8
0
  6
Continuous
 62
     1
370
    25
100
AcDbLine
 10
20.59807621135331
 20
-1.5
 30
0.0
 11
20.59807621135331
 21
-1.462748547532892
 31
0.0
  0
SPLINE
  5
DC
330
1F
100
AcDbEntity
  8
0
  6
Continuous
 62
     1
370
    25
100
AcDbSpline
210
0.0
220
0.0
230
1.0
 70
     8
 71
     3
 72
    10
 73
     6
 74
     0
 42
0.000000001
 43
0.00000001
 40
0.0
 40
0.0
 40
0.0
 40
0.0
 40
0.3201070021912007
 40
0.6389516589545873
 40
1.0
 40
1.0
 40
1.0
 40
1.0
 10
20.59807621135331
 20
0.8043077700777157
 30
0.0
 10
20.55422462764028
 20
0.7567057516454747
 30
0.0
 10
20.46669438940922
 20
0.6616894338558996
 30
0.0
 10
20.28827913424115
 20
0.5893747225725368
 30
0.0
 10
20.16405452203524
 20
0.5976901605474508
 30
0.0
 10
20.09808665606441
 20
0.602105965822082
 30
0.0
  0
SPLINE
  5
DD
330
1F
100
AcDbEntity
  8
0
  6
Continuous
 62
     4
370
    25
100
AcDbSpline
210
0.0
220
0.0
230
1.0
 70
    24
 71
     3
 72
    13
 73
     9
 74
     0
 42
0.000000001
 43
0.00000001
 40
0.0
 40
0.0
 40
0.0
 40
0.0
 40
0.0225068628298747
 40
0.2428946030600594
 40
0.4632823432902436
 40
0.6836700835204285
 40
0.904057823750576
 40
1.0
 40
1.0
 40
1.0
 40
1.0
 10
8.5980762113533
 20
-0.4552638145678866
 30
0.0
 10
8.5980762113533
 20
-0.4544582996127063
 30
0.0
 10
8.5980762113533
 20
-0.445765162911409
 30
0.0
 10
8.5980762113533
 20
-0.5204222110807312
 30
0.0
 10
8.5980762113533
 20
-0.7071323852154703
 30
0.0
 10
8.5980762113533
 20
-0.991348799484839
 30
0.0
 10
8.5980762113533
 20
-1.267533753513106
 30
0.0
 10
8.5980762113533
 20
-1.436177751718923
 30
0.0
 10
8.5980762113533
 20
-1.487327109893254
 30
0.0
  0
LINE
  5
DE
330
1F
100
AcDbEntity
  8
0
  6
Continuous
 62
     1
370
    25
100
AcDbLine
 10
20.59807621135331
 20
0.8043077700777156
 30
0.0
 11
20.59807621135331
 21
1.462748547532894
 31
0.0
  0
LINE
  5
DF
330
1F
100
AcDbEntity
  8
0
  6
Continuous
 62
     1
370
    25
100
AcDbLine
 10
20.59807621135331
 20
0.3322148200944749
 30
0.0
 11
20.59807621135331
 21
0.8043077700777156
 31
0.0
  0
LINE
  5
E0
330
1F
100
AcDbEntity
  8
0
  6
Continuous
 62
     1
370
    25
100
AcDbLine
 10
20.59807621135331
 20
-0.4999999999999984
 30
0.0
 11
20.59807621135331
 21
-1.404383063753669
 31
0.0
  0
LINE
  5
E1
330
1F
100
AcDbEntity
  8
중심선
100
AcDbLine
 10
-52.4019237886467
 20
-0.0000000000000039
 30
0.0
 11
23.5980762113533
 21
0.0000000000000054
 31
0.0
  0
CIRCLE
  5
E2
330
1F
100
AcDbEntity
  8
해칭선
100
AcDbCircle
 10
0.0000074085160628
 20
-0.0000000000000042
 30
0.0
 40
3.000000000000003
  0
INSERT
  5
E3
330
1F
100
AcDbEntity
  8
0
  6
Continuous
 62
     7
100
AcDbBlockReference
 66
     1
  2
블럭10
 10
-25.44009924894178
 20
-52.04717430164393
 30
0.0
  0
ATTRIB
  5
E4
330
E3
100
AcDbEntity
  8
FORMAT
 62
     2
100
AcDbText
 10
-41.55936028837734
 20
-49.97180738881174
 30
0.0
 40
4.233333333333333
  1
SEME7203012E [ 4 FLUTE ]
 41
0.75
  7
SLDTEXTSTYLE0
 11
-41.55936028837734
 21
-52.08847405547841
 31
0.0
100
AcDbAttribute
  2
AUTOATTR0
 70
     0
 74
     1
  0
SEQEND
  5
E5
330
E3
100
AcDbEntity
  8
0
  6
Continuous
 62
     7
  0
HATCH
  5
E6
330
1F
100
AcDbEntity
  8
중심선
100
AcDbHatch
 10
0.0
 20
0.0
 30
0.0
210
0.0
220
0.0
230
1.0
  2
SOLID
 70
     1
 71
     0
 91
        1
 92
        0
 93
        4
 72
     1
 10
-19.72518994456093
 20
-35.8
 11
-23.17146518839822
 21
-35.8
 72
     1
 10
-23.17146518839822
 20
-35.8
 11
-25.29969504760224
 21
-38.33632558057259
 72
     1
 10
-25.29969504760224
 20
-38.33632558057259
 11
-21.85338671865181
 21
-38.3362861512701
 72
     1
 10
-21.85338671865181
 20
-38.3362861512701
 11
-19.72518994456093
 21
-35.8
 97
        0
 75
     0
 76
     1
 98
        1
 10
0.0
 20
0.0
  0
HATCH
  5
E7
330
1F
100
AcDbEntity
  8
중심선
100
AcDbHatch
 10
0.0
 20
0.0
 30
0.0
210
0.0
220
0.0
230
1.0
  2
SOLID
 70
     1
 71
     0
 91
        1
 92
        0
 93
        4
 72
     1
 10
-14.71242595352495
 20
-35.80000000000003
 11
-18.15870119736227
 21
-35.80000000000003
 72
     1
 10
-18.15870119736227
 20
-35.80000000000003
 11
-22.68983920571965
 21
-41.20000000000002
 72
     1
 10
-22.68983920571965
 20
-41.20000000000002
 11
-19.24356396188237
 21
-41.20000000000002
 72
     1
 10
-19.24356396188237
 20
-41.20000000000002
 11
-14.71242595352495
 21
-35.80000000000003
 97
        0
 75
     0
 76
     1
 98
        1
 10
0.0
 20
0.0
  0
HATCH
  5
E8
330
1F
100
AcDbEntity
  8
중심선
100
AcDbHatch
 10
0.0
 20
0.0
 30
0.0
210
0.0
220
0.0
230
1.0
  2
SOLID
 70
     1
 71
     0
 91
        1
 92
        0
 93
        4
 72
     1
 10
-9.699661962489087
 20
-35.79999999999997
 11
-13.1459372063262
 21
-35.80000000000003
 72
     1
 10
-13.1459372063262
 20
-35.80000000000003
 11
-20.19437410821545
 21
-44.20000000000002
 72
     1
 10
-20.19437410821545
 20
-44.20000000000002
 11
-16.74809886437817
 21
-44.20000000000002
 72
     1
 10
-16.74809886437817
 20
-44.20000000000002
 11
-9.699661962489087
 21
-35.79999999999997
 97
        0
 75
     0
 76
     1
 98
        1
 10
0.0
 20
0.0
  0
HATCH
  5
E9
330
1F
100
AcDbEntity
  8
중심선
100
AcDbHatch
 10
0.0
 20
0.0
 30
0.0
210
0.0
220
0.0
230
1.0
  2
SOLID
 70
     1
 71
     0
 91
        1
 92
        0
 93
        6
 72
     3
 10
-4.899771531476888
 20
-40.00000000005127
 11
3.960054785062284
 21
1.540850780301639E-10
 40
0.3939339440162633
 50
17.09539180608433
 51
320.0019657685081
 73
     0
 72
     1
 10
-3.21677187577632
 20
-38.58789400463833
 11
-0.9114700020752542
 21
-36.65356729459038
 72
     3
 10
-4.899771531529734
 20
-40.00000000000015
 11
6.600054785286829
 21
-1.249000902703301E-13
 40
0.6363583540795982
 50
39.99873849337408
 51
368.4976242363725
 73
     1
 72
     1
 10
1.525560960370875
 20
-39.03999999993002
 11
-6.219704224693812
 21
-39.03999999993002
 72
     1
 10
-6.219704224693812
 20
-39.03999999993002
 11
-6.219729269139745
 21
-40.95999999992991
 72
     1
 10
-6.219729269139745
 20
-40.95999999992991
 11
-1.778349499667708
 21
-40.95999999992988
 97
        0
 75
     0
 76
     1
 98
        1
 10
0.0
 20
0.0
  0
DIMENSION
  5
EA
330
1F
100
AcDbEntity
  8
치수문자_일반주서
100
AcDbDimension
  2
_D
 10
31.76647108225637
 20
1.500000000000044
 30
0.0
 11
31.76647108225634
 21
11.16650000000005
 31
0.0
 70
   160
  1
%%c<>
 71
     2
 42
3.000000000000008
 52
-270.0
  3
SLDDIMSTYLE0
100
AcDbAlignedDimension
 13
20.59807621135332
 23
-1.500000000000004
 33
0.0
 14
20.59807621135332
 24
1.500000000000004
 34
0.0
 50
90.0000000000002
100
AcDbRotatedDimension
  0
DIMENSION
  5
F8
330
1F
100
AcDbEntity
  8
치수문자_일반주서
100
AcDbDimension
  2
_D_1
 10
20.59807621135331
 20
20.38913260158164
 30
0.0
 11
-14.40192378864671
 21
20.38913260158164
 31
0.0
 70
   160
  1
<>
 71
     2
 42
70.00000000000001
  3
SLDDIMSTYLE1
100
AcDbAlignedDimension
 13
-49.40192378864671
 23
2.499999999999994
 33
0.0
 14
20.59807621135331
 24
1.500000000000002
 34
0.0
 50
-0.0000000000000058
100
AcDbRotatedDimension
  0
DIMENSION
  5
103
330
1F
100
AcDbEntity
  8
치수문자_일반주서
100
AcDbDimension
  2
_D_2
 10
-59.25791155261156
 20
-3.000000000000041
 30
0.0
 11
-59.25791155261162
 21
12.66649999999996
 31
0.0
 70
   160
  1
%%c<>
 71
     2
 42
6.000000000000005
 52
-270.0
  3
SLDDIMSTYLE2
100
AcDbAlignedDimension
 13
-48.9019237886467
 23
3.000000000000004
 33
0.0
 14
-48.9019237886467
 24
-3.000000000000002
 34
0.0
 50
90.0000000000002
100
AcDbRotatedDimension
  0
DIMENSION
  5
111
330
1F
100
AcDbEntity
  8
치수문자_일반주서
100
AcDbDimension
  2
_D_3
 10
20.59807621135331
 20
12.27137876493633
 30
0.0
 11
14.5980762113533
 21
12.27137876493633
 31
0.0
 70
   160
  1
<>
 71
     2
 42
12.00000000000001
  3
SLDDIMSTYLE2
100
AcDbAlignedDimension
 13
8.5980762113533
 23
1.500000000000002
 33
0.0
 14
20.59807621135331
 24
1.500000000000002
 34
0.0
100
AcDbRotatedDimension
  0
INSERT
  5
123
330
1F
100
AcDbEntity
  8
해칭선
100
AcDbBlockReference
  2
SW_DOWELSYMBOL_0
 10
0.0000074085160628
 20
-0.0000000000000042
 30
0.0
  0
ENDSEC
  0
SECTION
  2
OBJECTS
  0
DICTIONARY
  5
C
330
0
100
AcDbDictionary
281
     1
  3
ACAD_GROUP
350
D
  3
ACAD_IMAGE_VARS
350
147
  3
ACAD_LAYOUT
350
1A
  3
ACAD_MLINESTYLE
350
17
  3
ACAD_PLOTSETTINGS
350
19
  3
ACAD_PLOTSTYLENAME
350
E
  3
ACAD_SCALELIST
350
47
  3
APPDATA
350
145
  3
DWGPROPS
350
154
  0
DICTIONARY
  5
D
102
{ACAD_REACTORS
330
C
102
}
330
C
100
AcDbDictionary
281
     1
  0
RASTERVARIABLES
  5
147
102
{ACAD_REACTORS
330
C
102
}
330
C
100
AcDbRasterVariables
 90
        0
 70
     1
 71
     1
 72
     1
  0
DICTIONARY
  5
1A
102
{ACAD_REACTORS
330
C
102
}
330
C
100
AcDbDictionary
281
     1
  3
Layout1
350
1E
  3
Layout2
350
26
  3
Model
350
22
  0
DICTIONARY
  5
17
102
{ACAD_REACTORS
330
C
102
}
330
C
100
AcDbDictionary
281
     1
  3
Standard
350
18
  0
DICTIONARY
  5
19
102
{ACAD_REACTORS
330
C
102
}
330
C
100
AcDbDictionary
281
     1
  0
ACDBDICTIONARYWDFLT
  5
E
102
{ACAD_REACTORS
330
C
102
}
330
C
100
AcDbDictionary
281
     1
  3
Normal
350
F
100
AcDbDictionaryWithDefault
340
F
  0
DICTIONARY
  5
47
102
{ACAD_REACTORS
330
C
102
}
330
C
100
AcDbDictionary
281
     1
  3
A0
350
48
  3
A1
350
49
  3
A2
350
4A
  3
A3
350
4B
  3
A4
350
4C
  3
A5
350
4D
  3
A6
350
4E
  3
A7
350
4F
  3
A8
350
50
  3
A9
350
51
  3
B0
350
52
  3
B1
350
53
  3
B2
350
54
  3
B3
350
55
  3
B4
350
56
  3
B5
350
57
  3
B6
350
58
  3
B7
350
59
  3
B8
350
5A
  3
B9
350
5B
  3
C0
350
5C
  3
C1
350
5D
  3
C2
350
5E
  3
C3
350
5F
  3
C4
350
60
  3
C5
350
61
  3
C6
350
62
  3
C7
350
63
  3
C8
350
64
  3
C9
350
65
  3
D0
350
66
  3
D1
350
67
  3
D2
350
68
  0
DICTIONARY
  5
145
102
{ACAD_REACTORS
330
C
102
}
330
C
100
AcDbDictionary
281
     1
  0
XRECORD
  5
154
102
{ACAD_REACTORS
330
C
102
}
330
C
100
AcDbXrecord
280
     1
  1
DWGPROPS COOKIE
  2

  3

  4

  6

  7

  8
12014102
  9

300
=
301
=
302
=
303
=
304
=
305
=
306
=
307
=
308
=
309
=
 40
0.0
 41
2458260.194840637
 42
2458268.110898264
  1

 90
        0
  0
LAYOUT
  5
1E
102
{ACAD_REACTORS
330
1A
102
}
330
1A
100
AcDbPlotSettings
  1

  2
none_device
  4

  6

 40
0.0
 41
0.0
 42
0.0
 43
0.0
 44
0.0
 45
0.0
 46
0.0
 47
0.0
 48
0.0
 49
0.0
140
0.0
141
0.0
142
1.0
143
1.0
 70
   688
 72
     1
 73
     0
 74
     5
  7

 75
    16
147
1.0
148
0.0
149
0.0
100
AcDbLayout
  1
Layout1
 70
     1
 71
     1
 10
0.0
 20
0.0
 11
420.0
 21
297.0
 12
0.0
 22
0.0
 32
0.0
 14
1.000000000000000E+20
 24
1.000000000000000E+20
 34
1.000000000000000E+20
 15
-1.000000000000000E+20
 25
-1.000000000000000E+20
 35
-1.000000000000000E+20
146
0.0
 13
0.0
 23
0.0
 33
0.0
 16
1.0
 26
0.0
 36
0.0
 17
0.0
 27
1.0
 37
0.0
 76
     0
330
1B
  0
LAYOUT
  5
26
102
{ACAD_REACTORS
330
1A
102
}
330
1A
100
AcDbPlotSettings
  1

  2
none_device
  4

  6

 40
0.0
 41
0.0
 42
0.0
 43
0.0
 44
0.0
 45
0.0
 46
0.0
 47
0.0
 48
0.0
 49
0.0
140
0.0
141
0.0
142
1.0
143
1.0
 70
   688
 72
     1
 73
     0
 74
     5
  7

 75
    16
147
1.0
148
0.0
149
0.0
100
AcDbLayout
  1
Layout2
 70
     1
 71
     2
 10
0.0
 20
0.0
 11
0.0
 21
0.0
 12
0.0
 22
0.0
 32
0.0
 14
0.0
 24
0.0
 34
0.0
 15
0.0
 25
0.0
 35
0.0
146
0.0
 13
0.0
 23
0.0
 33
0.0
 16
1.0
 26
0.0
 36
0.0
 17
0.0
 27
1.0
 37
0.0
 76
     0
330
23
  0
LAYOUT
  5
22
102
{ACAD_REACTORS
330
1A
102
}
330
1A
100
AcDbPlotSettings
  1

  2
none_device
  4
ANSI_A_(11.00_x_8.50_Inches)
  6

 40
6.35
 41
19.05
 42
6.35000508
 43
19.05000254
 44
279.4
 45
215.9
 46
165.3367057003571
 47
122.9471696842158
 48
0.0
 49
0.0
140
0.0
141
0.0
142
0.103850072157585
143
1.0
 70
  1696
 72
     0
 73
     0
 74
     0
  7

 75
     0
147
0.0235690232323232
148
0.0
149
0.0
100
AcDbLayout
  1
Model
 70
     1
 71
     0
 10
0.0
 20
0.0
 11
420.0
 21
297.0
 12
0.0
 22
0.0
 32
0.0
 14
-63.63291155261162
 24
-49.97180738881174
 34
0.0
 15
32.31680441558974
 25
24.76413260158164
 35
0.0
146
0.0
 13
0.0
 23
0.0
 33
0.0
 16
1.0
 26
0.0
 36
0.0
 17
0.0
 27
1.0
 37
0.0
 76
     0
330
1F
331
29
  0
MLINESTYLE
  5
18
102
{ACAD_REACTORS
330
17
102
}
330
17
100
AcDbMlineStyle
  2
Standard
 70
     0
  3

 62
   256
 51
90.0
 52
90.0
 71
     2
 49
0.5
 62
   256
  6
BYLAYER
 49
-0.5
 62
   256
  6
BYLAYER
  0
ACDBPLACEHOLDER
  5
F
102
{ACAD_REACTORS
330
E
102
}
330
E
  0
SCALE
  5
48
102
{ACAD_REACTORS
330
47
102
}
330
47
100
AcDbScale
 70
     0
300
1:1
140
1.0
141
1.0
290
     1
  0
SCALE
  5
49
102
{ACAD_REACTORS
330
47
102
}
330
47
100
AcDbScale
 70
     0
300
1:2
140
1.0
141
2.0
290
     0
  0
SCALE
  5
4A
102
{ACAD_REACTORS
330
47
102
}
330
47
100
AcDbScale
 70
     0
300
1:4
140
1.0
141
4.0
290
     0
  0
SCALE
  5
4B
102
{ACAD_REACTORS
330
47
102
}
330
47
100
AcDbScale
 70
     0
300
1:5
140
1.0
141
5.0
290
     0
  0
SCALE
  5
4C
102
{ACAD_REACTORS
330
47
102
}
330
47
100
AcDbScale
 70
     0
300
1:8
140
1.0
141
8.0
290
     0
  0
SCALE
  5
4D
102
{ACAD_REACTORS
330
47
102
}
330
47
100
AcDbScale
 70
     0
300
1:10
140
1.0
141
10.0
290
     0
  0
SCALE
  5
4E
102
{ACAD_REACTORS
330
47
102
}
330
47
100
AcDbScale
 70
     0
300
1:16
140
1.0
141
16.0
290
     0
  0
SCALE
  5
4F
102
{ACAD_REACTORS
330
47
102
}
330
47
100
AcDbScale
 70
     0
300
1:20
140
1.0
141
20.0
290
     0
  0
SCALE
  5
50
102
{ACAD_REACTORS
330
47
102
}
330
47
100
AcDbScale
 70
     0
300
1:30
140
1.0
141
30.0
290
     0
  0
SCALE
  5
51
102
{ACAD_REACTORS
330
47
102
}
330
47
100
AcDbScale
 70
     0
300
1:40
140
1.0
141
40.0
290
     0
  0
SCALE
  5
52
102
{ACAD_REACTORS
330
47
102
}
330
47
100
AcDbScale
 70
     0
300
1:50
140
1.0
141
50.0
290
     0
  0
SCALE
  5
53
102
{ACAD_REACTORS
330
47
102
}
330
47
100
AcDbScale
 70
     0
300
1:100
140
1.0
141
100.0
290
     0
  0
SCALE
  5
54
102
{ACAD_REACTORS
330
47
102
}
330
47
100
AcDbScale
 70
     0
300
2:1
140
2.0
141
1.0
290
     0
  0
SCALE
  5
55
102
{ACAD_REACTORS
330
47
102
}
330
47
100
AcDbScale
 70
     0
300
4:1
140
4.0
141
1.0
290
     0
  0
SCALE
  5
56
102
{ACAD_REACTORS
330
47
102
}
330
47
100
AcDbScale
 70
     0
300
8:1
140
8.0
141
1.0
290
     0
  0
SCALE
  5
57
102
{ACAD_REACTORS
330
47
102
}
330
47
100
AcDbScale
 70
     0
300
10:1
140
10.0
141
1.0
290
     0
  0
SCALE
  5
58
102
{ACAD_REACTORS
330
47
102
}
330
47
100
AcDbScale
 70
     0
300
100:1
140
100.0
141
1.0
290
     0
  0
SCALE
  5
59
102
{ACAD_REACTORS
330
47
102
}
330
47
100
AcDbScale
 70
     0
300
1/128" = 1'-0"
140
0.0078125
141
12.0
290
     0
  0
SCALE
  5
5A
102
{ACAD_REACTORS
330
47
102
}
330
47
100
AcDbScale
 70
     0
300
1/64" = 1'-0"
140
0.015625
141
12.0
290
     0
  0
SCALE
  5
5B
102
{ACAD_REACTORS
330
47
102
}
330
47
100
AcDbScale
 70
     0
300
1/32" = 1'-0"
140
0.03125
141
12.0
290
     0
  0
SCALE
  5
5C
102
{ACAD_REACTORS
330
47
102
}
330
47
100
AcDbScale
 70
     0
300
1/16" = 1'-0"
140
0.0625
141
12.0
290
     0
  0
SCALE
  5
5D
102
{ACAD_REACTORS
330
47
102
}
330
47
100
AcDbScale
 70
     0
300
3/32" = 1'-0"
140
0.09375
141
12.0
290
     0
  0
SCALE
  5
5E
102
{ACAD_REACTORS
330
47
102
}
330
47
100
AcDbScale
 70
     0
300
1/8" = 1'-0"
140
0.125
141
12.0
290
     0
  0
SCALE
  5
5F
102
{ACAD_REACTORS
330
47
102
}
330
47
100
AcDbScale
 70
     0
300
3/16" = 1'-0"
140
0.1875
141
12.0
290
     0
  0
SCALE
  5
60
102
{ACAD_REACTORS
330
47
102
}
330
47
100
AcDbScale
 70
     0
300
1/4" = 1'-0"
140
0.25
141
12.0
290
     0
  0
SCALE
  5
61
102
{ACAD_REACTORS
330
47
102
}
330
47
100
AcDbScale
 70
     0
300
3/8" = 1'-0"
140
0.375
141
12.0
290
     0
  0
SCALE
  5
62
102
{ACAD_REACTORS
330
47
102
}
330
47
100
AcDbScale
 70
     0
300
1/2" = 1'-0"
140
0.5
141
12.0
290
     0
  0
SCALE
  5
63
102
{ACAD_REACTORS
330
47
102
}
330
47
100
AcDbScale
 70
     0
300
3/4" = 1'-0"
140
0.75
141
12.0
290
     0
  0
SCALE
  5
64
102
{ACAD_REACTORS
330
47
102
}
330
47
100
AcDbScale
 70
     0
300
1" = 1'-0"
140
1.0
141
12.0
290
     0
  0
SCALE
  5
65
102
{ACAD_REACTORS
330
47
102
}
330
47
100
AcDbScale
 70
     0
300
1-1/2" = 1'-0"
140
1.5
141
12.0
290
     0
  0
SCALE
  5
66
102
{ACAD_REACTORS
330
47
102
}
330
47
100
AcDbScale
 70
     0
300
3" = 1'-0"
140
3.0
141
12.0
290
     0
  0
SCALE
  5
67
102
{ACAD_REACTORS
330
47
102
}
330
47
100
AcDbScale
 70
     0
300
6" = 1'-0"
140
6.0
141
12.0
290
     0
  0
SCALE
  5
68
102
{ACAD_REACTORS
330
47
102
}
330
47
100
AcDbScale
 70
     0
300
1'-0" = 1'-0"
140
12.0
141
12.0
290
     0
  0
ENDSEC
  0
EOF
