  0
SECTION
  2
HEADER
  9
$ACADVER
  1
AC1015
  9
$ACADMAINTVER
 70
     6
  9
$DWGCODEPAGE
  3
ANSI_949
  9
$INSBASE
 10
0.0
 20
0.0
 30
0.0
  9
$EXTMIN
 10
-37.3993843937516
 20
-49.97180738881174
 30
0.0
  9
$EXTMAX
 10
49.93647304495597
 20
24.76413260158165
 30
0.0
  9
$LIMMIN
 10
0.0
 20
0.0
  9
$LIMMAX
 10
420.0
 20
297.0
  9
$ORTHOMODE
 70
     0
  9
$REGENMODE
 70
     1
  9
$FILLMODE
 70
     1
  9
$QTEXTMODE
 70
     0
  9
$MIRRTEXT
 70
     1
  9
$LTSCALE
 40
1.0
  9
$ATTMODE
 70
     1
  9
$TEXTSIZE
 40
3.5
  9
$TRACEWID
 40
1.0
  9
$TEXTSTYLE
  7
Standard
  9
$CLAYER
  8
0
  9
$CELTYPE
  6
ByLayer
  9
$CECOLOR
 62
   256
  9
$CELTSCALE
 40
1.0
  9
$DISPSILH
 70
     0
  9
$DIMSCALE
 40
1.0
  9
$DIMASZ
 40
3.302
  9
$DIMEXO
 40
1.0
  9
$DIMDLI
 40
3.75
  9
$DIMRND
 40
0.0
  9
$DIMDLE
 40
0.0
  9
$DIMEXE
 40
1.0
  9
$DIMTP
 40
0.0
  9
$DIMTM
 40
0.0
  9
$DIMTXT
 40
3.5
  9
$DIMCEN
 40
2.5
  9
$DIMTSZ
 40
0.0
  9
$DIMTOL
 70
     0
  9
$DIMLIM
 70
     0
  9
$DIMTIH
 70
     1
  9
$DIMTOH
 70
     1
  9
$DIMSE1
 70
     0
  9
$DIMSE2
 70
     0
  9
$DIMTAD
 70
     1
  9
$DIMZIN
 70
     0
  9
$DIMBLK
  1

  9
$DIMASO
 70
     1
  9
$DIMSHO
 70
     1
  9
$DIMPOST
  1

  9
$DIMAPOST
  1

  9
$DIMALT
 70
     0
  9
$DIMALTD
 70
     3
  9
$DIMALTF
 40
0.0393700787401575
  9
$DIMLFAC
 40
1.0
  9
$DIMTOFL
 70
     1
  9
$DIMTVP
 40
0.0
  9
$DIMTIX
 70
     0
  9
$DIMSOXD
 70
     0
  9
$DIMSAH
 70
     0
  9
$DIMBLK1
  1

  9
$DIMBLK2
  1

  9
$DIMSTYLE
  2
ISO-25
  9
$DIMCLRD
 70
     0
  9
$DIMCLRE
 70
     0
  9
$DIMCLRT
 70
     0
  9
$DIMTFAC
 40
1.0
  9
$DIMGAP
 40
1.524
  9
$DIMJUST
 70
     0
  9
$DIMSD1
 70
     0
  9
$DIMSD2
 70
     0
  9
$DIMTOLJ
 70
     0
  9
$DIMTZIN
 70
     0
  9
$DIMALTZ
 70
     0
  9
$DIMALTTZ
 70
     0
  9
$DIMUPT
 70
     0
  9
$DIMDEC
 70
     2
  9
$DIMTDEC
 70
     2
  9
$DIMALTU
 70
     2
  9
$DIMALTTD
 70
     3
  9
$DIMTXSTY
  7
Standard
  9
$DIMAUNIT
 70
     0
  9
$DIMADEC
 70
     2
  9
$DIMALTRND
 40
0.0
  9
$DIMAZIN
 70
     0
  9
$DIMDSEP
 70
    44
  9
$DIMATFIT
 70
     3
  9
$DIMFRAC
 70
     0
  9
$DIMLDRBLK
  1

  9
$DIMLUNIT
 70
     2
  9
$DIMLWD
 70
    -2
  9
$DIMLWE
 70
    -2
  9
$DIMTMOVE
 70
     0
  9
$LUNITS
 70
     2
  9
$LUPREC
 70
     2
  9
$SKETCHINC
 40
1.0
  9
$FILLETRAD
 40
10.0
  9
$AUNITS
 70
     0
  9
$AUPREC
 70
     2
  9
$MENU
  1
.
  9
$ELEVATION
 40
0.0
  9
$PELEVATION
 40
0.0
  9
$THICKNESS
 40
0.0
  9
$LIMCHECK
 70
     0
  9
$CHAMFERA
 40
0.0
  9
$CHAMFERB
 40
0.0
  9
$CHAMFERC
 40
0.0
  9
$CHAMFERD
 40
0.0
  9
$SKPOLY
 70
     0
  9
$TDCREATE
 40
2458260.569462731
  9
$TDUCREATE
 40
2458260.194462731
  9
$TDUPDATE
 40
2458268.483780069
  9
$TDUUPDATE
 40
2458268.108780069
  9
$TDINDWG
 40
0.0007865162
  9
$TDUSRTIMER
 40
2458268.107993588
  9
$USRTIMER
 70
     1
  9
$ANGBASE
 50
0.0
  9
$ANGDIR
 70
     0
  9
$PDMODE
 70
     0
  9
$PDSIZE
 40
-1.0
  9
$PLINEWID
 40
0.0
  9
$SPLFRAME
 70
     0
  9
$SPLINETYPE
 70
     6
  9
$SPLINESEGS
 70
     8
  9
$HANDSEED
  5
161
  9
$SURFTAB1
 70
     6
  9
$SURFTAB2
 70
     6
  9
$SURFTYPE
 70
     6
  9
$SURFU
 70
     6
  9
$SURFV
 70
     6
  9
$UCSBASE
  2

  9
$UCSNAME
  2

  9
$UCSORG
 10
0.0
 20
0.0
 30
0.0
  9
$UCSXDIR
 10
1.0
 20
0.0
 30
0.0
  9
$UCSYDIR
 10
0.0
 20
1.0
 30
0.0
  9
$UCSORTHOREF
  2

  9
$UCSORTHOVIEW
 70
     0
  9
$UCSORGTOP
 10
0.0
 20
0.0
 30
0.0
  9
$UCSORGBOTTOM
 10
0.0
 20
0.0
 30
0.0
  9
$UCSORGLEFT
 10
0.0
 20
0.0
 30
0.0
  9
$UCSORGRIGHT
 10
0.0
 20
0.0
 30
0.0
  9
$UCSORGFRONT
 10
0.0
 20
0.0
 30
0.0
  9
$UCSORGBACK
 10
0.0
 20
0.0
 30
0.0
  9
$PUCSBASE
  2

  9
$PUCSNAME
  2

  9
$PUCSORG
 10
0.0
 20
0.0
 30
0.0
  9
$PUCSXDIR
 10
1.0
 20
0.0
 30
0.0
  9
$PUCSYDIR
 10
0.0
 20
1.0
 30
0.0
  9
$PUCSORTHOREF
  2

  9
$PUCSORTHOVIEW
 70
     0
  9
$PUCSORGTOP
 10
0.0
 20
0.0
 30
0.0
  9
$PUCSORGBOTTOM
 10
0.0
 20
0.0
 30
0.0
  9
$PUCSORGLEFT
 10
0.0
 20
0.0
 30
0.0
  9
$PUCSORGRIGHT
 10
0.0
 20
0.0
 30
0.0
  9
$PUCSORGFRONT
 10
0.0
 20
0.0
 30
0.0
  9
$PUCSORGBACK
 10
0.0
 20
0.0
 30
0.0
  9
$USERI1
 70
     0
  9
$USERI2
 70
     0
  9
$USERI3
 70
     0
  9
$USERI4
 70
     0
  9
$USERI5
 70
     0
  9
$USERR1
 40
0.0
  9
$USERR2
 40
0.0
  9
$USERR3
 40
0.0
  9
$USERR4
 40
0.0
  9
$USERR5
 40
0.0
  9
$WORLDVIEW
 70
     1
  9
$SHADEDGE
 70
     3
  9
$SHADEDIF
 70
    70
  9
$TILEMODE
 70
     1
  9
$MAXACTVP
 70
    64
  9
$PINSBASE
 10
0.0
 20
0.0
 30
0.0
  9
$PLIMCHECK
 70
     0
  9
$PEXTMIN
 10
1.000000000000000E+20
 20
1.000000000000000E+20
 30
1.000000000000000E+20
  9
$PEXTMAX
 10
-1.000000000000000E+20
 20
-1.000000000000000E+20
 30
-1.000000000000000E+20
  9
$PLIMMIN
 10
0.0
 20
0.0
  9
$PLIMMAX
 10
0.0
 20
0.0
  9
$UNITMODE
 70
     0
  9
$VISRETAIN
 70
     1
  9
$PLINEGEN
 70
     0
  9
$PSLTSCALE
 70
     1
  9
$TREEDEPTH
 70
  3020
  9
$CMLSTYLE
  2
Standard
  9
$CMLJUST
 70
     0
  9
$CMLSCALE
 40
20.0
  9
$PROXYGRAPHICS
 70
     1
  9
$MEASUREMENT
 70
     1
  9
$CELWEIGHT
370
    -1
  9
$ENDCAPS
280
     0
  9
$JOINSTYLE
280
     0
  9
$LWDISPLAY
290
     1
  9
$INSUNITS
 70
     4
  9
$HYPERLINKBASE
  1

  9
$STYLESHEET
  1

  9
$XEDIT
290
     1
  9
$CEPSNTYPE
380
     0
  9
$PSTYLEMODE
290
     1
  9
$FINGERPRINTGUID
  2
{C106B8C9-F452-41BC-926E-695E4FCF1189}
  9
$VERSIONGUID
  2
{FAEB1C32-E019-11D5-929B-00C0DF256EC4}
  9
$EXTNAMES
290
     1
  9
$PSVPSCALE
 40
0.0
  9
$OLESTARTUP
290
     0
  0
ENDSEC
  0
SECTION
  2
CLASSES
  0
CLASS
  1
ACDBDICTIONARYWDFLT
  2
AcDbDictionaryWithDefault
  3
ObjectDBX Classes
 90
        0
280
     0
281
     0
  0
CLASS
  1
VISUALSTYLE
  2
AcDbVisualStyle
  3
ObjectDBX Classes
 90
     4095
280
     0
281
     0
  0
CLASS
  1
MATERIAL
  2
AcDbMaterial
  3
ObjectDBX Classes
 90
     1153
280
     0
281
     0
  0
CLASS
  1
SCALE
  2
AcDbScale
  3
ObjectDBX Classes
 90
     1153
280
     0
281
     0
  0
CLASS
  1
TABLESTYLE
  2
AcDbTableStyle
  3
ObjectDBX Classes
 90
     4095
280
     0
281
     0
  0
CLASS
  1
MLEADERSTYLE
  2
AcDbMLeaderStyle
  3
ACDB_MLEADERSTYLE_CLASS
 90
     4095
280
     0
281
     0
  0
CLASS
  1
SUN
  2
AcDbSun
  3
SCENEOE
 90
     1153
280
     0
281
     0
  0
CLASS
  1
ACDBPLACEHOLDER
  2
AcDbPlaceHolder
  3
ObjectDBX Classes
 90
        0
280
     0
281
     0
  0
CLASS
  1
LAYOUT
  2
AcDbLayout
  3
ObjectDBX Classes
 90
        0
280
     0
281
     0
  0
CLASS
  1
RASTERVARIABLES
  2
AcDbRasterVariables
  3
ISM
 90
        0
280
     0
281
     0
  0
ENDSEC
  0
SECTION
  2
TABLES
  0
TABLE
  2
VPORT
  5
8
330
0
100
AcDbSymbolTable
 70
     1
  0
VPORT
  5
29
330
8
100
AcDbSymbolTableRecord
100
AcDbViewportTableRecord
  2
*Active
 70
     0
 10
0.0
 20
0.0
 11
1.0
 21
1.0
 12
6.268544325602193
 22
-12.60383739361504
 13
0.0
 23
0.0
 14
10.0
 24
10.0
 15
10.0
 25
10.0
 16
0.0
 26
0.0
 36
1.0
 17
0.0
 27
0.0
 37
0.0
 40
76.23065879020126
 41
1.737726098191214
 42
50.0
 43
0.0
 44
0.0
 50
0.0
 51
0.0
 71
    16
 72
  2000
 73
     1
 74
     3
 75
     0
 76
     0
 77
     0
 78
     0
281
     0
 65
     1
110
0.0
120
0.0
130
0.0
111
1.0
121
0.0
131
0.0
112
0.0
122
1.0
132
0.0
 79
     0
146
0.0
  0
ENDTAB
  0
TABLE
  2
LTYPE
  5
5
330
0
100
AcDbSymbolTable
 70
     6
  0
LTYPE
  5
14
330
5
100
AcDbSymbolTableRecord
100
AcDbLinetypeTableRecord
  2
ByBlock
 70
     0
  3

 72
    65
 73
     0
 40
0.0
  0
LTYPE
  5
15
330
5
100
AcDbSymbolTableRecord
100
AcDbLinetypeTableRecord
  2
ByLayer
 70
     0
  3

 72
    65
 73
     0
 40
0.0
  0
LTYPE
  5
16
330
5
100
AcDbSymbolTableRecord
100
AcDbLinetypeTableRecord
  2
Continuous
 70
     0
  3
Solid line
 72
    65
 73
     0
 40
0.0
  0
LTYPE
  5
6E
330
5
100
AcDbSymbolTableRecord
100
AcDbLinetypeTableRecord
  2
HIDDEN
 70
     0
  3
Hidden __ __ __ __ __ __ __ __ __ __ __ __ __ __
 72
    65
 73
     2
 40
1.905
 49
1.27
 74
     0
 49
-0.635
 74
     0
  0
LTYPE
  5
6F
330
5
100
AcDbSymbolTableRecord
100
AcDbLinetypeTableRecord
  2
PHANTOM
 70
     0
  3
Phantom ______  __  __  ______  __  __  ______
 72
    65
 73
     6
 40
12.7
 49
6.35
 74
     0
 49
-1.27
 74
     0
 49
1.27
 74
     0
 49
-1.27
 74
     0
 49
1.27
 74
     0
 49
-1.27
 74
     0
  0
LTYPE
  5
70
330
5
100
AcDbSymbolTableRecord
100
AcDbLinetypeTableRecord
  2
CENTER
 70
     0
  3
Center ____ _ ____ _ ____ _ ____ _ ____ _ ____
 72
    65
 73
     4
 40
10.16
 49
6.35
 74
     0
 49
-1.27
 74
     0
 49
1.27
 74
     0
 49
-1.27
 74
     0
  0
LTYPE
  5
71
330
5
100
AcDbSymbolTableRecord
100
AcDbLinetypeTableRecord
  2
CENTERX2
 70
     0
  3
Center (2x) ________  __  ________  __  _____
 72
    65
 73
     4
 40
20.32
 49
12.7
 74
     0
 49
-2.54
 74
     0
 49
2.54
 74
     0
 49
-2.54
 74
     0
  0
LTYPE
  5
72
330
5
100
AcDbSymbolTableRecord
100
AcDbLinetypeTableRecord
  2
DOT2
 70
     0
  3
Dot (.5x) ........................................
 72
    65
 73
     2
 40
0.635
 49
0.0
 74
     0
 49
-0.635
 74
     0
  0
ENDTAB
  0
TABLE
  2
LAYER
  5
2
330
0
100
AcDbSymbolTable
 70
    17
  0
LAYER
  5
10
330
2
100
AcDbSymbolTableRecord
100
AcDbLayerTableRecord
  2
0
 70
     0
 62
     7
  6
Continuous
370
    -3
390
F
  0
LAYER
  5
73
330
2
100
AcDbSymbolTableRecord
100
AcDbLayerTableRecord
  2
FORMAT
 70
     0
 62
     2
  6
Continuous
370
    -3
390
F
  0
LAYER
  5
74
330
2
100
AcDbSymbolTableRecord
100
AcDbLayerTableRecord
  2
외형선
 70
     0
 62
   100
  6
Continuous
370
    35
390
F
  0
LAYER
  5
75
330
2
100
AcDbSymbolTableRecord
100
AcDbLayerTableRecord
  2
숨은선
 70
     0
 62
     2
  6
HIDDEN
370
    25
390
F
  0
LAYER
  5
76
330
2
100
AcDbSymbolTableRecord
100
AcDbLayerTableRecord
  2
중심선
 70
     0
 62
     1
  6
CENTERX2
370
    -3
390
F
  0
LAYER
  5
77
330
2
100
AcDbSymbolTableRecord
100
AcDbLayerTableRecord
  2
파단선
 70
     0
 62
     4
  6
Continuous
370
    -3
390
F
  0
LAYER
  5
78
330
2
100
AcDbSymbolTableRecord
100
AcDbLayerTableRecord
  2
해칭선
 70
     0
 62
   100
  6
Continuous
370
    -3
390
F
  0
LAYER
  5
79
330
2
100
AcDbSymbolTableRecord
100
AcDbLayerTableRecord
  2
가는실선
 70
     0
 62
     4
  6
Continuous
370
    -3
390
F
  0
LAYER
  5
7A
330
2
100
AcDbSymbolTableRecord
100
AcDbLayerTableRecord
  2
치수_보조선
 70
     0
 62
     4
  6
Continuous
370
    -3
390
F
  0
LAYER
  5
7B
330
2
100
AcDbSymbolTableRecord
100
AcDbLayerTableRecord
  2
치수문자_일반주서
 70
     0
 62
     7
  6
Continuous
370
    25
390
F
  0
LAYER
  5
7C
330
2
100
AcDbSymbolTableRecord
100
AcDbLayerTableRecord
  2
개별주서
 70
     0
 62
   100
  6
Continuous
370
    35
390
F
  0
LAYER
  5
7D
330
2
100
AcDbSymbolTableRecord
100
AcDbLayerTableRecord
  2
중간선
 70
     0
 62
     2
  6
Continuous
370
    25
390
F
  0
LAYER
  5
7E
330
2
100
AcDbSymbolTableRecord
100
AcDbLayerTableRecord
  2
윤곽선
 70
     0
 62
     3
  6
Continuous
370
    50
390
F
  0
LAYER
  5
7F
330
2
100
AcDbSymbolTableRecord
100
AcDbLayerTableRecord
  2
중심마크
 70
     0
 62
   100
  6
Continuous
370
    35
390
F
  0
LAYER
  5
80
330
2
100
AcDbSymbolTableRecord
100
AcDbLayerTableRecord
  2
가상선
 70
     0
 62
     4
  6
PHANTOM
370
    -3
390
F
  0
LAYER
  5
81
330
2
100
AcDbSymbolTableRecord
100
AcDbLayerTableRecord
  2
특수지정선
 70
     0
 62
     5
  6
CENTERX2
370
    70
390
F
  0
LAYER
  5
151
330
2
100
AcDbSymbolTableRecord
100
AcDbLayerTableRecord
  2
Defpoints
 70
     0
 62
     7
  6
Continuous
290
     0
370
    -3
390
F
  0
ENDTAB
  0
TABLE
  2
STYLE
  5
3
330
0
100
AcDbSymbolTable
 70
     2
  0
STYLE
  5
11
330
3
100
AcDbSymbolTableRecord
100
AcDbTextStyleTableRecord
  2
Standard
 70
     0
 40
0.0
 41
1.0
 50
0.0
 71
     0
 42
3.5
  3
txt
  4

  0
STYLE
  5
97
330
3
100
AcDbSymbolTableRecord
100
AcDbTextStyleTableRecord
  2
SLDTEXTSTYLE0
 70
     0
 40
0.0
 41
0.75
 50
0.0
 71
     0
 42
3.5
  3
TXT
  4

  0
ENDTAB
  0
TABLE
  2
VIEW
  5
6
330
0
100
AcDbSymbolTable
 70
     0
  0
ENDTAB
  0
TABLE
  2
UCS
  5
7
330
0
100
AcDbSymbolTable
 70
     0
  0
ENDTAB
  0
TABLE
  2
APPID
  5
9
330
0
100
AcDbSymbolTable
 70
     1
  0
APPID
  5
12
330
9
100
AcDbSymbolTableRecord
100
AcDbRegAppTableRecord
  2
ACAD
 70
     0
  0
ENDTAB
  0
TABLE
  2
DIMSTYLE
  5
A
330
0
100
AcDbSymbolTable
 70
     4
100
AcDbDimStyleTable
  0
DIMSTYLE
105
27
330
A
100
AcDbSymbolTableRecord
100
AcDbDimStyleTableRecord
  2
ISO-25
 70
     0
 41
2.5
 42
0.625
 43
3.75
 44
1.25
 73
     0
 74
     0
 77
     1
 78
     8
140
2.5
141
2.5
143
0.03937007874016
147
0.625
171
     3
172
     1
178
     0
271
     2
272
     2
274
     3
278
    44
283
     0
284
     8
340
11
  0
DIMSTYLE
105
F6
102
{ACAD_REACTORS
330
F5
102
}
330
A
100
AcDbSymbolTableRecord
100
AcDbDimStyleTableRecord
  2
SLDDIMSTYLE0
 70
     0
 41
3.302
 44
0.0
 45
0.000000001
 73
     0
 74
     0
 77
     1
 78
    12
 79
     3
140
3.5
147
0.875
172
     1
173
     1
178
     0
271
     1
272
     1
276
     2
284
    12
289
     0
340
97
  0
DIMSTYLE
105
104
102
{ACAD_REACTORS
330
103
330
11C
102
}
330
A
100
AcDbSymbolTableRecord
100
AcDbDimStyleTableRecord
  2
SLDDIMSTYLE1
 70
     0
 41
3.302
 44
0.0
 45
0.000000001
 73
     0
 74
     0
 77
     1
 78
    12
 79
     3
140
3.5
147
0.875
173
     1
178
     0
271
     2
272
     2
276
     2
284
    12
340
97
  0
DIMSTYLE
105
10F
102
{ACAD_REACTORS
330
10E
102
}
330
A
100
AcDbSymbolTableRecord
100
AcDbDimStyleTableRecord
  2
SLDDIMSTYLE2
 70
     0
 41
3.302
 44
0.0
 45
0.000000001
 73
     0
 74
     0
 77
     1
 78
    12
 79
     3
140
3.5
147
0.875
172
     1
173
     1
178
     0
271
     2
272
     2
276
     2
284
    12
289
     0
340
97
  0
ENDTAB
  0
TABLE
  2
BLOCK_RECORD
  5
1
330
0
100
AcDbSymbolTable
 70
     7
  0
BLOCK_RECORD
  5
1F
330
1
100
AcDbSymbolTableRecord
100
AcDbBlockTableRecord
  2
*Model_Space
340
22
  0
BLOCK_RECORD
  5
1B
330
1
100
AcDbSymbolTableRecord
100
AcDbBlockTableRecord
  2
*Paper_Space
340
1E
  0
BLOCK_RECORD
  5
23
330
1
100
AcDbSymbolTableRecord
100
AcDbBlockTableRecord
  2
*Paper_Space0
340
26
  0
BLOCK_RECORD
  5
82
330
1
100
AcDbSymbolTableRecord
100
AcDbBlockTableRecord
  2
블럭10
340
0
102
{BLKREFS
331
EE
102
}
  0
BLOCK_RECORD
  5
F7
330
1
100
AcDbSymbolTableRecord
100
AcDbBlockTableRecord
  2
_D
340
0
  0
BLOCK_RECORD
  5
105
330
1
100
AcDbSymbolTableRecord
100
AcDbBlockTableRecord
  2
_D_1
340
0
  0
BLOCK_RECORD
  5
110
330
1
100
AcDbSymbolTableRecord
100
AcDbBlockTableRecord
  2
_D_2
340
0
  0
BLOCK_RECORD
  5
11D
330
1
100
AcDbSymbolTableRecord
100
AcDbBlockTableRecord
  2
_D_3
340
0
  0
BLOCK_RECORD
  5
126
330
1
100
AcDbSymbolTableRecord
100
AcDbBlockTableRecord
  2
SW_DOWELSYMBOL_0
340
0
102
{BLKREFS
331
12C
102
}
  0
ENDTAB
  0
ENDSEC
  0
SECTION
  2
BLOCKS
  0
BLOCK
  5
20
330
1F
100
AcDbEntity
  8
0
100
AcDbBlockBegin
  2
*Model_Space
 70
     0
 10
0.0
 20
0.0
 30
0.0
  3
*Model_Space
  1

  0
ENDBLK
  5
21
330
1F
100
AcDbEntity
  8
0
100
AcDbBlockEnd
  0
BLOCK
  5
1C
330
1B
100
AcDbEntity
 67
     1
  8
0
100
AcDbBlockBegin
  2
*Paper_Space
 70
     0
 10
0.0
 20
0.0
 30
0.0
  3
*Paper_Space
  1

  0
ENDBLK
  5
1D
330
1B
100
AcDbEntity
 67
     1
  8
0
100
AcDbBlockEnd
  0
BLOCK
  5
24
330
23
100
AcDbEntity
  8
0
100
AcDbBlockBegin
  2
*Paper_Space0
 70
     0
 10
0.0
 20
0.0
 30
0.0
  3
*Paper_Space0
  1

  0
ENDBLK
  5
25
330
23
100
AcDbEntity
  8
0
100
AcDbBlockEnd
  0
BLOCK
  5
83
330
82
100
AcDbEntity
  8
0
100
AcDbBlockBegin
  2
블럭10
 70
     2
 10
0.0
 20
0.0
 30
0.0
  3
블럭10
  1

  0
ELLIPSE
  5
85
330
82
100
AcDbEntity
  8
중심선
100
AcDbEllipse
 10
20.54032771741204
 20
12.0471743016438
 30
0.0
 11
6.600054785286829
 21
-1.261213355974178E-13
 31
0.0
210
0.0
220
0.0
230
1.0
 40
0.636358354079598
 41
0.9219305317359503
 42
6.513795318482858
  0
ELLIPSE
  5
86
330
82
100
AcDbEntity
  8
중심선
100
AcDbEllipse
 10
20.54032771746488
 20
12.04717430159265
 30
0.0
 11
3.960054785062283
 21
1.540847449632565E-10
 31
0.0
210
0.0
220
0.0
230
1.0
 40
0.3939339440162632
 41
1.131841032648279
 42
5.62031148352944
  0
LINE
  5
87
330
82
100
AcDbEntity
  8
중심선
100
AcDbLine
 10
2.268634060543552
 20
16.24717430164393
 30
0.0
 11
5.714909304380834
 21
16.24717430164393
 31
0.0
  0
LINE
  5
88
330
82
100
AcDbEntity
  8
중심선
100
AcDbLine
 10
5.245725140726316
 20
7.84717430164391
 30
0.0
 11
8.692000384563599
 21
7.84717430164391
 31
0.0
  0
LINE
  5
89
330
82
100
AcDbEntity
  8
중심선
100
AcDbLine
 10
15.74043728645272
 20
16.24717430164393
 30
0.0
 11
8.692000384563599
 21
7.84717430164391
 31
0.0
  0
LINE
  5
8A
330
82
100
AcDbEntity
  8
중심선
100
AcDbLine
 10
0.1404042013395286
 20
13.71084872107135
 30
0.0
 11
3.58671253028996
 21
13.71088815037384
 31
0.0
  0
LINE
  5
8B
330
82
100
AcDbEntity
  8
중심선
100
AcDbLine
 10
2.750260043222114
 20
10.84717430164391
 30
0.0
 11
6.196535287059397
 21
10.84717430164391
 31
0.0
  0
LINE
  5
8C
330
82
100
AcDbEntity
  8
중심선
100
AcDbLine
 10
12.29416204261559
 20
16.24717430164393
 30
0.0
 11
5.245725140726316
 21
7.84717430164391
 31
0.0
  0
LINE
  5
8D
330
82
100
AcDbEntity
  8
중심선
100
AcDbLine
 10
10.72767329541681
 20
16.24717430164393
 30
0.0
 11
6.196535287059397
 21
10.84717430164391
 31
0.0
  0
LINE
  5
8E
330
82
100
AcDbEntity
  8
중심선
100
AcDbLine
 10
7.28139805157953
 20
16.24717430164393
 30
0.0
 11
2.750260043222114
 21
10.84717430164391
 31
0.0
  0
LINE
  5
8F
330
82
100
AcDbEntity
  8
중심선
100
AcDbLine
 10
5.714909304380834
 20
16.24717430164393
 30
0.0
 11
3.58671253028996
 21
13.71088815037384
 31
0.0
  0
LINE
  5
90
330
82
100
AcDbEntity
  8
중심선
100
AcDbLine
 10
2.268634060543552
 20
16.24717430164393
 30
0.0
 11
0.1404042013395286
 21
13.71084872107135
 31
0.0
  0
LINE
  5
91
330
82
100
AcDbEntity
  8
중심선
100
AcDbLine
 10
7.28139805157953
 20
16.24717430164393
 30
0.0
 11
10.72767329541681
 21
16.24717430164393
 31
0.0
  0
LINE
  5
92
330
82
100
AcDbEntity
  8
중심선
100
AcDbLine
 10
12.29416204261559
 20
16.24717430164393
 30
0.0
 11
15.74043728645272
 21
16.24717430164393
 31
0.0
  0
LINE
  5
93
330
82
100
AcDbEntity
  8
중심선
100
AcDbLine
 10
19.22036997980202
 20
11.08717430171403
 30
0.0
 11
23.66174974927406
 21
11.08717430171406
 31
0.0
  0
LINE
  5
94
330
82
100
AcDbEntity
  8
중심선
100
AcDbLine
 10
19.22039502424796
 20
13.00717430171391
 30
0.0
 11
19.22036997980202
 21
11.08717430171403
 31
0.0
  0
LINE
  5
95
330
82
100
AcDbEntity
  8
중심선
100
AcDbLine
 10
19.22039502424796
 20
13.00717430171391
 30
0.0
 11
26.96566020931264
 21
13.00717430171391
 31
0.0
  0
LINE
  5
96
330
82
100
AcDbEntity
  8
중심선
100
AcDbLine
 10
22.22332737316547
 20
13.45928029700563
 30
0.0
 11
24.52862924686651
 21
15.39360700705356
 31
0.0
  0
ATTDEF
  5
98
330
82
100
AcDbEntity
  8
FORMAT
 62
     2
100
AcDbText
 10
-16.11926103943555
 20
2.075366912832191
 30
0.0
 40
4.233333333333333
  1
SEME7202526E [ 4 FLUTE ]
 41
0.75
  7
SLDTEXTSTYLE0
 11
-16.11926103943555
 21
-0.0412997538344756
 31
0.0
100
AcDbAttributeDefinition
  3

  2
AUTOATTR0
 70
     0
 74
     1
  0
ENDBLK
  5
84
330
82
100
AcDbEntity
  8
0
100
AcDbBlockEnd
  0
BLOCK
  5
F8
330
F7
100
AcDbEntity
  8
0
100
AcDbBlockBegin
  2
_D
 70
     0
 10
0.0
 20
0.0
 30
0.0
  3
_D
  1

  0
LINE
  5
FA
330
F7
100
AcDbEntity
  8
치수문자_일반주서
 62
     0
370
    -2
100
AcDbLine
 10
35.59358891324555
 20
-1.250000000000005
 30
0.0
 11
46.27489558093855
 21
-1.249999999999966
 31
0.0
  0
LINE
  5
FB
330
F7
100
AcDbEntity
  8
치수문자_일반주서
 62
     0
370
    -2
100
AcDbLine
 10
35.59358891324555
 20
1.250000000000005
 30
0.0
 11
46.27489558093855
 21
1.250000000000044
 31
0.0
  0
LINE
  5
FC
330
F7
100
AcDbEntity
  8
치수문자_일반주서
 62
     0
370
    -2
100
AcDbLine
 10
46.27489558093855
 20
-1.249999999999966
 30
0.0
 11
46.2748955809385
 21
17.47900000000004
 31
0.0
  0
LINE
  5
FD
330
F7
100
AcDbEntity
  8
치수문자_일반주서
 62
     0
370
    -2
100
AcDbLine
 10
46.27489558093855
 20
-1.249999999999966
 30
0.0
 11
46.27489558093855
 21
1.250000000000044
 31
0.0
  0
LINE
  5
FE
330
F7
100
AcDbEntity
  8
치수문자_일반주서
 62
     0
370
    -2
100
AcDbLine
 10
46.27489558093856
 20
-4.551999999999966
 30
0.0
 11
46.27489558093857
 21
-7.853999999999965
 31
0.0
  0
LINE
  5
FF
330
F7
100
AcDbEntity
  8
치수문자_일반주서
 62
     0
370
    -2
100
AcDbLine
 10
46.27489558093854
 20
4.552000000000044
 30
0.0
 11
46.27489558093853
 21
7.854000000000044
 31
0.0
  0
SOLID
  5
100
330
F7
100
AcDbEntity
  8
치수문자_일반주서
 62
     0
100
AcDbTrace
 10
46.8252289142719
 20
-4.551999999999964
 30
0.0
 11
45.72456224760523
 21
-4.551999999999968
 31
0.0
 12
46.27489558093855
 22
-1.249999999999966
 32
0.0
 13
46.27489558093855
 23
-1.249999999999966
 33
0.0
  0
SOLID
  5
101
330
F7
100
AcDbEntity
  8
치수문자_일반주서
 62
     0
100
AcDbTrace
 10
45.72456224760521
 20
4.552000000000042
 30
0.0
 11
46.82522891427188
 21
4.552000000000046
 31
0.0
 12
46.27489558093855
 22
1.250000000000044
 32
0.0
 13
46.27489558093855
 23
1.250000000000044
 33
0.0
  0
MTEXT
  5
102
330
F7
100
AcDbEntity
  8
치수문자_일반주서
 62
     0
100
AcDbMText
 10
41.89989558093851
 20
12.66650000000003
 30
0.0
 40
3.5
 41
0.0
 71
     2
 72
     1
  1
\A1;%%c2.5
  7
SLDTEXTSTYLE0
 11
-2.842170943040389E-15
 21
1.0
 31
0.0
 73
     1
 44
1.0
  0
POINT
  5
15B
330
F7
100
AcDbEntity
  8
Defpoints
 62
     0
100
AcDbPoint
 10
35.53108891324555
 20
-1.250000000000006
 30
0.0
  0
POINT
  5
15C
330
F7
100
AcDbEntity
  8
Defpoints
 62
     0
100
AcDbPoint
 10
35.53108891324555
 20
1.250000000000005
 30
0.0
  0
POINT
  5
15D
330
F7
100
AcDbEntity
  8
Defpoints
 62
     0
100
AcDbPoint
 10
46.27489558093854
 20
1.250000000000045
 30
0.0
  0
ENDBLK
  5
F9
330
F7
100
AcDbEntity
  8
0
100
AcDbBlockEnd
  0
BLOCK
  5
106
330
105
100
AcDbEntity
  8
0
100
AcDbBlockBegin
  2
_D_1
 70
     0
 10
0.0
 20
0.0
 30
0.0
  3
_D_1
  1

  0
LINE
  5
108
330
105
100
AcDbEntity
  8
치수문자_일반주서
 62
     0
370
    -2
100
AcDbLine
 10
-24.46891108675448
 20
2.562499999999996
 30
0.0
 11
-24.46891108675448
 21
20.38913260158165
 31
0.0
  0
LINE
  5
109
330
105
100
AcDbEntity
  8
치수문자_일반주서
 62
     0
370
    -2
100
AcDbLine
 10
35.53108891324552
 20
1.312500000000003
 30
0.0
 11
35.53108891324552
 21
20.38913260158165
 31
0.0
  0
LINE
  5
10A
330
105
100
AcDbEntity
  8
치수문자_일반주서
 62
     0
370
    -2
100
AcDbLine
 10
-21.16691108675448
 20
20.38913260158165
 30
0.0
 11
32.22908891324552
 21
20.38913260158165
 31
0.0
  0
SOLID
  5
10B
330
105
100
AcDbEntity
  8
치수문자_일반주서
 62
     0
100
AcDbTrace
 10
-21.16691108675448
 20
20.93946593491498
 30
0.0
 11
-21.16691108675448
 21
19.83879926824831
 31
0.0
 12
-24.46891108675448
 22
20.38913260158165
 32
0.0
 13
-24.46891108675448
 23
20.38913260158165
 33
0.0
  0
SOLID
  5
10C
330
105
100
AcDbEntity
  8
치수문자_일반주서
 62
     0
100
AcDbTrace
 10
32.22908891324552
 20
19.83879926824831
 30
0.0
 11
32.22908891324552
 21
20.93946593491498
 31
0.0
 12
35.53108891324552
 22
20.38913260158165
 32
0.0
 13
35.53108891324552
 23
20.38913260158165
 33
0.0
  0
MTEXT
  5
10D
330
105
100
AcDbEntity
  8
치수문자_일반주서
 62
     0
100
AcDbMText
 10
5.531088913245517
 20
24.76413260158165
 30
0.0
 40
3.5
 41
0.0
 71
     2
 72
     1
  1
\A1;60
  7
SLDTEXTSTYLE0
 73
     1
 44
1.0
  0
POINT
  5
152
330
105
100
AcDbEntity
  8
Defpoints
 62
     0
100
AcDbPoint
 10
-24.46891108675448
 20
2.499999999999996
 30
0.0
  0
POINT
  5
153
330
105
100
AcDbEntity
  8
Defpoints
 62
     0
100
AcDbPoint
 10
35.53108891324552
 20
1.250000000000003
 30
0.0
  0
POINT
  5
154
330
105
100
AcDbEntity
  8
Defpoints
 62
     0
100
AcDbPoint
 10
35.53108891324552
 20
20.38913260158165
 30
0.0
  0
ENDBLK
  5
107
330
105
100
AcDbEntity
  8
0
100
AcDbBlockEnd
  0
BLOCK
  5
111
330
110
100
AcDbEntity
  8
0
100
AcDbBlockBegin
  2
_D_2
 70
     0
 10
0.0
 20
0.0
 30
0.0
  3
_D_2
  1

  0
LINE
  5
113
330
110
100
AcDbEntity
  8
치수문자_일반주서
 62
     0
370
    -2
100
AcDbLine
 10
-24.03141108675448
 20
3.000000000000003
 30
0.0
 11
-33.02438439375155
 21
2.99999999999997
 31
0.0
  0
LINE
  5
114
330
110
100
AcDbEntity
  8
치수문자_일반주서
 62
     0
370
    -2
100
AcDbLine
 10
-24.03141108675448
 20
-3.000000000000003
 30
0.0
 11
-33.02438439375153
 21
-3.000000000000036
 31
0.0
  0
LINE
  5
115
330
110
100
AcDbEntity
  8
치수문자_일반주서
 62
     0
370
    -2
100
AcDbLine
 10
-33.02438439375155
 20
2.99999999999997
 30
0.0
 11
-33.0243843937516
 21
15.72899999999997
 31
0.0
  0
LINE
  5
116
330
110
100
AcDbEntity
  8
치수문자_일반주서
 62
     0
370
    -2
100
AcDbLine
 10
-33.02438439375155
 20
2.99999999999997
 30
0.0
 11
-33.02438439375153
 21
-3.000000000000036
 31
0.0
  0
LINE
  5
117
330
110
100
AcDbEntity
  8
치수문자_일반주서
 62
     0
370
    -2
100
AcDbLine
 10
-33.02438439375157
 20
6.301999999999969
 30
0.0
 11
-33.02438439375158
 21
9.603999999999969
 31
0.0
  0
LINE
  5
118
330
110
100
AcDbEntity
  8
치수문자_일반주서
 62
     0
370
    -2
100
AcDbLine
 10
-33.02438439375152
 20
-6.302000000000035
 30
0.0
 11
-33.0243843937515
 21
-9.604000000000035
 31
0.0
  0
SOLID
  5
119
330
110
100
AcDbEntity
  8
치수문자_일반주서
 62
     0
100
AcDbTrace
 10
-33.5747177270849
 20
6.301999999999968
 30
0.0
 11
-32.47405106041823
 21
6.301999999999971
 31
0.0
 12
-33.02438439375155
 22
2.99999999999997
 32
0.0
 13
-33.02438439375155
 23
2.99999999999997
 33
0.0
  0
SOLID
  5
11A
330
110
100
AcDbEntity
  8
치수문자_일반주서
 62
     0
100
AcDbTrace
 10
-32.47405106041818
 20
-6.302000000000033
 30
0.0
 11
-33.57471772708485
 21
-6.302000000000037
 31
0.0
 12
-33.02438439375153
 22
-3.000000000000036
 32
0.0
 13
-33.02438439375153
 23
-3.000000000000036
 33
0.0
  0
MTEXT
  5
11B
330
110
100
AcDbEntity
  8
치수문자_일반주서
 62
     0
100
AcDbMText
 10
-37.39938439375159
 20
12.66649999999995
 30
0.0
 40
3.5
 41
0.0
 71
     2
 72
     1
  1
\A1;%%c6
  7
SLDTEXTSTYLE0
 11
-3.552713678800498E-15
 21
1.0
 31
0.0
 73
     1
 44
1.0
  0
POINT
  5
158
330
110
100
AcDbEntity
  8
Defpoints
 62
     0
100
AcDbPoint
 10
-23.96891108675448
 20
3.000000000000003
 30
0.0
  0
POINT
  5
159
330
110
100
AcDbEntity
  8
Defpoints
 62
     0
100
AcDbPoint
 10
-23.96891108675448
 20
-3.000000000000002
 30
0.0
  0
POINT
  5
15A
330
110
100
AcDbEntity
  8
Defpoints
 62
     0
100
AcDbPoint
 10
-33.02438439375154
 20
-3.000000000000036
 30
0.0
  0
ENDBLK
  5
112
330
110
100
AcDbEntity
  8
0
100
AcDbBlockEnd
  0
BLOCK
  5
11E
330
11D
100
AcDbEntity
  8
0
100
AcDbBlockBegin
  2
_D_3
 70
     0
 10
0.0
 20
0.0
 30
0.0
  3
_D_3
  1

  0
LINE
  5
120
330
11D
100
AcDbEntity
  8
치수문자_일반주서
 62
     0
370
    -2
100
AcDbLine
 10
9.531088913245519
 20
1.24342683635528
 30
0.0
 11
9.531088913245519
 21
12.02684513894293
 31
0.0
  0
LINE
  5
121
330
11D
100
AcDbEntity
  8
치수문자_일반주서
 62
     0
370
    -2
100
AcDbLine
 10
35.53108891324552
 20
1.312500000000003
 30
0.0
 11
35.53108891324552
 21
12.02684513894293
 31
0.0
  0
LINE
  5
122
330
11D
100
AcDbEntity
  8
치수문자_일반주서
 62
     0
370
    -2
100
AcDbLine
 10
12.83308891324552
 20
12.02684513894293
 30
0.0
 11
32.22908891324552
 21
12.02684513894293
 31
0.0
  0
SOLID
  5
123
330
11D
100
AcDbEntity
  8
치수문자_일반주서
 62
     0
100
AcDbTrace
 10
12.83308891324552
 20
12.57717847227626
 30
0.0
 11
12.83308891324552
 21
11.4765118056096
 31
0.0
 12
9.531088913245519
 22
12.02684513894293
 32
0.0
 13
9.531088913245519
 23
12.02684513894293
 33
0.0
  0
SOLID
  5
124
330
11D
100
AcDbEntity
  8
치수문자_일반주서
 62
     0
100
AcDbTrace
 10
32.22908891324552
 20
11.4765118056096
 30
0.0
 11
32.22908891324552
 21
12.57717847227626
 31
0.0
 12
35.53108891324552
 22
12.02684513894293
 32
0.0
 13
35.53108891324552
 23
12.02684513894293
 33
0.0
  0
MTEXT
  5
125
330
11D
100
AcDbEntity
  8
치수문자_일반주서
 62
     0
100
AcDbMText
 10
22.53108891324552
 20
16.40184513894293
 30
0.0
 40
3.5
 41
0.0
 71
     2
 72
     1
  1
\A1;26
  7
SLDTEXTSTYLE0
 73
     1
 44
1.0
  0
POINT
  5
155
330
11D
100
AcDbEntity
  8
Defpoints
 62
     0
100
AcDbPoint
 10
9.531088913245519
 20
1.18092683635528
 30
0.0
  0
POINT
  5
156
330
11D
100
AcDbEntity
  8
Defpoints
 62
     0
100
AcDbPoint
 10
35.53108891324552
 20
1.250000000000003
 30
0.0
  0
POINT
  5
157
330
11D
100
AcDbEntity
  8
Defpoints
 62
     0
100
AcDbPoint
 10
35.53108891324552
 20
12.02684513894293
 30
0.0
  0
ENDBLK
  5
11F
330
11D
100
AcDbEntity
  8
0
100
AcDbBlockEnd
  0
BLOCK
  5
127
330
126
100
AcDbEntity
  8
0
100
AcDbBlockBegin
  2
SW_DOWELSYMBOL_0
 70
     0
 10
0.0
 20
0.0
 30
0.0
  3
SW_DOWELSYMBOL_0
  1

  0
CIRCLE
  5
129
330
126
100
AcDbEntity
  8
해칭선
 62
     0
100
AcDbCircle
 10
0.0
 20
0.0
 30
0.0
 40
3.0
  0
HATCH
  5
12A
330
126
100
AcDbEntity
  8
0
  6
Continuous
 62
     0
370
    18
100
AcDbHatch
 10
0.0
 20
0.0
 30
0.0
210
0.0
220
0.0
230
1.0
  2
SOLID
 70
     1
 71
     0
 91
        1
 92
        0
 93
        3
 72
     2
 10
0.0
 20
0.0
 40
3.0
 50
0.0
 51
90.0
 73
     1
 72
     1
 10
0.0
 20
3.0
 11
0.0
 21
0.0
 72
     1
 10
0.0
 20
0.0
 11
3.0
 21
0.0
 97
        0
 75
     0
 76
     1
 98
        1
 10
0.0
 20
0.0
  0
HATCH
  5
12B
330
126
100
AcDbEntity
  8
0
  6
Continuous
 62
     0
370
    18
100
AcDbHatch
 10
0.0
 20
0.0
 30
0.0
210
0.0
220
0.0
230
1.0
  2
SOLID
 70
     1
 71
     0
 91
        1
 92
        0
 93
        3
 72
     2
 10
0.0
 20
0.0
 40
3.0
 50
180.0
 51
270.0000000000008
 73
     1
 72
     1
 10
0.0
 20
-3.0
 11
0.0
 21
0.0
 72
     1
 10
0.0
 20
0.0
 11
-3.0
 21
0.0
 97
        0
 75
     0
 76
     1
 98
        1
 10
0.0
 20
0.0
  0
ENDBLK
  5
128
330
126
100
AcDbEntity
  8
0
100
AcDbBlockEnd
  0
ENDSEC
  0
SECTION
  2
ENTITIES
  0
LINE
  5
99
330
1F
100
AcDbEntity
  8
0
  6
Continuous
 62
     4
370
    25
100
AcDbLine
 10
2.0
 20
2.999999999999999
 30
0.0
 11
-23.96891108675448
 21
2.999999999999997
 31
0.0
  0
LINE
  5
9A
330
1F
100
AcDbEntity
  8
0
  6
Continuous
 62
     4
370
    25
100
AcDbLine
 10
-23.96891108675448
 20
-3.0
 30
0.0
 11
2.0
 21
-2.999999999999999
 31
0.0
  0
LINE
  5
9B
330
1F
100
AcDbEntity
  8
0
  6
Continuous
 62
     4
370
    25
100
AcDbLine
 10
2.0
 20
-2.999999999999999
 30
0.0
 11
8.531088913245519
 21
-1.25
 31
0.0
  0
LINE
  5
9C
330
1F
100
AcDbEntity
  8
0
  6
Continuous
 62
     4
370
    25
100
AcDbLine
 10
8.531088913245519
 20
1.25
 30
0.0
 11
2.0
 21
2.999999999999999
 31
0.0
  0
LINE
  5
9D
330
1F
100
AcDbEntity
  8
0
  6
Continuous
 62
     4
370
    25
100
AcDbLine
 10
-23.96891108675448
 20
2.999999999999996
 30
0.0
 11
-24.46891108675448
 21
2.499999999999996
 31
0.0
  0
LINE
  5
9E
330
1F
100
AcDbEntity
  8
0
  6
Continuous
 62
     4
370
    25
100
AcDbLine
 10
-24.46891108675448
 20
-2.5
 30
0.0
 11
-23.96891108675448
 21
-3.0
 31
0.0
  0
LINE
  5
9F
330
1F
100
AcDbEntity
  8
0
  6
Continuous
 62
     4
370
    25
100
AcDbLine
 10
8.807587702663813
 20
1.25
 30
0.0
 11
8.531088913245519
 21
1.25
 31
0.0
  0
LINE
  5
A0
330
1F
100
AcDbEntity
  8
0
  6
Continuous
 62
     4
370
    25
100
AcDbLine
 10
8.531088913245519
 20
-1.25
 30
0.0
 11
8.807587702663827
 21
-1.25
 31
0.0
  0
LINE
  5
A1
330
1F
100
AcDbEntity
  8
0
  6
Continuous
 62
     1
370
    25
100
AcDbLine
 10
31.64624168349407
 20
-1.250000000000002
 30
0.0
 11
32.61374173574362
 21
-1.250000000000002
 31
0.0
  0
LINE
  5
A2
330
1F
100
AcDbEntity
  8
0
  6
Continuous
 62
     1
370
    25
100
AcDbLine
 10
18.04274645173741
 20
-1.250000000000002
 30
0.0
 11
19.010246503987
 21
-1.250000000000002
 31
0.0
  0
LINE
  5
A3
330
1F
100
AcDbEntity
  8
0
  6
Continuous
 62
     1
370
    25
100
AcDbLine
 10
12.20830714605805
 20
1.250000000000003
 30
0.0
 11
11.24109949108492
 21
1.250000000000003
 31
0.0
  0
LINE
  5
A4
330
1F
100
AcDbEntity
  8
0
  6
Continuous
 62
     1
370
    25
100
AcDbLine
 10
25.81180237781466
 20
1.250000000000003
 30
0.0
 11
24.84459472284155
 21
1.250000000000003
 31
0.0
  0
LINE
  5
A5
330
1F
100
AcDbEntity
  8
0
  6
Continuous
 62
     1
370
    25
100
AcDbLine
 10
28.24683303748547
 20
-1.250000000000002
 30
0.0
 11
29.21411077928928
 21
-1.250000000000002
 31
0.0
  0
LINE
  5
A6
330
1F
100
AcDbEntity
  8
0
  6
Continuous
 62
     1
370
    25
100
AcDbLine
 10
14.64333780572886
 20
-1.250000000000002
 30
0.0
 11
15.61061554753264
 21
-1.250000000000002
 31
0.0
  0
LINE
  5
A7
330
1F
100
AcDbEntity
  8
0
  6
Continuous
 62
     1
370
    25
100
AcDbLine
 10
22.41227855862782
 20
1.250000000000003
 30
0.0
 11
21.44475469819748
 21
1.250000000000003
 31
0.0
  0
LINE
  5
A8
330
1F
100
AcDbEntity
  8
0
  6
Continuous
 62
     1
370
    25
100
AcDbLine
 10
35.53108891324552
 20
1.250000000000003
 30
0.0
 11
35.04824992995412
 21
1.250000000000003
 31
0.0
  0
LINE
  5
A9
330
1F
100
AcDbEntity
  8
0
  6
Continuous
 62
     1
370
    25
100
AcDbLine
 10
35.0482499299541
 20
-1.250000000000002
 30
0.0
 11
35.53108891324552
 21
-1.250000000000002
 31
0.0
  0
LINE
  5
AA
330
1F
100
AcDbEntity
  8
0
  6
Continuous
 62
     1
370
    25
100
AcDbLine
 10
21.44475469819748
 20
-1.250000000000002
 30
0.0
 11
22.41227855862786
 21
-1.250000000000002
 31
0.0
  0
LINE
  5
AB
330
1F
100
AcDbEntity
  8
0
  6
Continuous
 62
     1
370
    25
100
AcDbLine
 10
15.61061554753267
 20
1.250000000000003
 30
0.0
 11
14.64333780572886
 21
1.250000000000003
 31
0.0
  0
LINE
  5
AC
330
1F
100
AcDbEntity
  8
0
  6
Continuous
 62
     1
370
    25
100
AcDbLine
 10
29.21411077928929
 20
1.250000000000003
 30
0.0
 11
28.2468330374855
 21
1.250000000000003
 31
0.0
  0
LINE
  5
AD
330
1F
100
AcDbEntity
  8
0
  6
Continuous
 62
     1
370
    25
100
AcDbLine
 10
24.84459472284156
 20
-1.250000000000002
 30
0.0
 11
25.81180237781465
 21
-1.250000000000002
 31
0.0
  0
LINE
  5
AE
330
1F
100
AcDbEntity
  8
0
  6
Continuous
 62
     1
370
    25
100
AcDbLine
 10
11.24109949108494
 20
-1.250000000000002
 30
0.0
 11
12.20830714605803
 21
-1.250000000000002
 31
0.0
  0
LINE
  5
AF
330
1F
100
AcDbEntity
  8
0
  6
Continuous
 62
     1
370
    25
100
AcDbLine
 10
19.010246503987
 20
1.250000000000003
 30
0.0
 11
18.04274645173744
 21
1.250000000000003
 31
0.0
  0
LINE
  5
B0
330
1F
100
AcDbEntity
  8
0
  6
Continuous
 62
     1
370
    25
100
AcDbLine
 10
32.61374173574365
 20
1.250000000000003
 30
0.0
 11
31.64624168349406
 21
1.250000000000003
 31
0.0
  0
LINE
  5
B1
330
1F
100
AcDbEntity
  8
0
  6
Continuous
 62
     4
370
    25
100
AcDbLine
 10
2.0
 20
3.0
 30
0.0
 11
2.0
 21
-3.0
 31
0.0
  0
LINE
  5
B2
330
1F
100
AcDbEntity
  8
0
  6
Continuous
 62
     4
370
    25
100
AcDbLine
 10
-23.96891108675448
 20
2.999999999999996
 30
0.0
 11
-23.96891108675448
 21
-3.0
 31
0.0
  0
SPLINE
  5
B3
330
1F
100
AcDbEntity
  8
0
  6
Continuous
 62
     4
370
    25
100
AcDbSpline
210
0.0
220
0.0
230
1.0
 70
     8
 71
     3
 72
     8
 73
     4
 74
     0
 42
0.000000001
 43
0.00000001
 40
0.0
 40
0.0
 40
0.0
 40
0.0
 40
1.0
 40
1.0
 40
1.0
 40
1.0
 10
8.408513154470345
 20
1.239928266622738
 30
0.0
 10
8.449267006089016
 20
1.222866970342382
 30
0.0
 10
8.490124242780206
 20
1.205165255467835
 30
0.0
 10
8.531088913245519
 20
1.186837930457369
 30
0.0
  0
SPLINE
  5
B4
330
1F
100
AcDbEntity
  8
0
  6
Continuous
 62
     4
370
    25
100
AcDbSpline
210
0.0
220
0.0
230
1.0
 70
     8
 71
     3
 72
    12
 73
     8
 74
     0
 42
0.000000001
 43
0.00000001
 40
0.0
 40
0.0
 40
0.0
 40
0.0
 40
0.25
 40
0.25
 40
0.5
 40
0.5
 40
1.0
 40
1.0
 40
1.0
 40
1.0
 10
8.031182468361811
 20
1.26800722451757
 30
0.0
 10
8.031182468361811
 20
1.286120097330738
 30
0.0
 10
8.043457226365845
 20
1.298654940400201
 30
0.0
 10
8.088923755838794
 20
1.311003845335907
 30
0.0
 10
8.122156018353833
 20
1.310858106189912
 30
0.0
 10
8.236366139821964
 20
1.296940852296201
 30
0.0
 10
8.333749825961574
 20
1.271227376962742
 30
0.0
 10
8.408513154470317
 20
1.239928266622731
 30
0.0
  0
LINE
  5
B5
330
1F
100
AcDbEntity
  8
0
  6
Continuous
 62
     4
370
    25
100
AcDbLine
 10
8.031182468361811
 20
1.26800722451757
 30
0.0
 11
8.031182468361811
 21
0.6043889484780416
 31
0.0
  0
SPLINE
  5
B6
330
1F
100
AcDbEntity
  8
0
  6
Continuous
 62
     4
370
    25
100
AcDbSpline
210
0.0
220
0.0
230
1.0
 70
     8
 71
     3
 72
     8
 73
     4
 74
     0
 42
0.000000001
 43
0.00000001
 40
0.0
 40
0.0
 40
0.0
 40
0.0
 40
1.0
 40
1.0
 40
1.0
 40
1.0
 10
8.14882203230227
 20
0.3973490780765224
 30
0.0
 10
8.077676486186627
 20
0.4450456135460981
 30
0.0
 10
8.031182468361811
 20
0.5271164340781671
 30
0.0
 10
8.031182468361811
 20
0.6043889484780413
 30
0.0
  0
SPLINE
  5
B7
330
1F
100
AcDbEntity
  8
0
  6
Continuous
 62
     4
370
    25
100
AcDbSpline
210
0.0
220
0.0
230
1.0
 70
     8
 71
     3
 72
     8
 73
     4
 74
     0
 42
0.000000001
 43
0.00000001
 40
0.0
 40
0.0
 40
0.0
 40
0.0
 40
1.0
 40
1.0
 40
1.0
 40
1.0
 10
8.531088913245519
 20
0.1588250006266994
 30
0.0
 10
8.40097992189074
 20
0.2326250012976477
 30
0.0
 10
8.27428851942019
 20
0.3132353551551211
 30
0.0
 10
8.14882203230227
 20
0.3973490780765207
 30
0.0
  0
LINE
  5
B8
330
1F
100
AcDbEntity
  8
0
  6
Continuous
 62
     4
370
    25
100
AcDbLine
 10
8.531088913245519
 20
0.1588250006266995
 30
0.0
 11
8.531088913245519
 21
-0.3923209487494563
 31
0.0
  0
SPLINE
  5
B9
330
1F
100
AcDbEntity
  8
0
  6
Continuous
 62
     4
370
    25
100
AcDbSpline
210
0.0
220
0.0
230
1.0
 70
     8
 71
     3
 72
     8
 73
     4
 74
     0
 42
0.000000001
 43
0.00000001
 40
0.0
 40
0.0
 40
0.0
 40
0.0
 40
1.0
 40
1.0
 40
1.0
 40
1.0
 10
8.408513154470345
 20
-0.3290392315043767
 30
0.0
 10
8.449267006089016
 20
-0.3507575397085975
 30
0.0
 10
8.490124242780206
 20
-0.3718504601097173
 30
0.0
 10
8.531088913245519
 20
-0.3923209487494568
 30
0.0
  0
SPLINE
  5
BA
330
1F
100
AcDbEntity
  8
0
  6
Continuous
 62
     4
370
    25
100
AcDbSpline
210
0.0
220
0.0
230
1.0
 70
     8
 71
     3
 72
    12
 73
     8
 74
     0
 42
0.000000001
 43
0.00000001
 40
0.0
 40
0.0
 40
0.0
 40
0.0
 40
0.2499999999999999
 40
0.2499999999999999
 40
0.4999999999999998
 40
0.4999999999999998
 40
1.0
 40
1.0
 40
1.0
 40
1.0
 10
8.031182468361811
 20
-0.5545033590249032
 30
0.0
 10
8.031182468361811
 20
-0.5130838559505622
 30
0.0
 10
8.043457226365845
 20
-0.4702811816485188
 30
0.0
 10
8.088923755838794
 20
-0.3942663815703883
 30
0.0
 10
8.122156018353833
 20
-0.3612837355361618
 30
0.0
 10
8.236366139821964
 20
-0.2930012027487693
 30
0.0
 10
8.333749825961574
 20
-0.2891967884852484
 30
0.0
 10
8.408513154470317
 20
-0.3290392315043588
 30
0.0
  0
LINE
  5
BB
330
1F
100
AcDbEntity
  8
0
  6
Continuous
 62
     4
370
    25
100
AcDbLine
 10
8.031182468361811
 20
-0.5545033590249032
 30
0.0
 11
8.031182468361811
 21
-1.245002126727604
 31
0.0
  0
SPLINE
  5
BC
330
1F
100
AcDbEntity
  8
0
  6
Continuous
 62
     4
370
    25
100
AcDbSpline
210
0.0
220
0.0
230
1.0
 70
     8
 71
     3
 72
     8
 73
     4
 74
     0
 42
0.000000001
 43
0.00000001
 40
0.0
 40
0.0
 40
0.0
 40
0.0
 40
1.0
 40
1.0
 40
1.0
 40
1.0
 10
8.14882203230227
 20
-1.292739525714455
 30
0.0
 10
8.077670903493027
 20
-1.298023055722402
 30
0.0
 10
8.031182468361811
 20
-1.282517371018278
 30
0.0
 10
8.031182468361811
 20
-1.245002126727605
 30
0.0
  0
SPLINE
  5
BD
330
1F
100
AcDbEntity
  8
0
  6
Continuous
 62
     4
370
    25
100
AcDbSpline
210
0.0
220
0.0
230
1.0
 70
     8
 71
     3
 72
     8
 73
     4
 74
     0
 42
0.000000001
 43
0.00000001
 40
0.0
 40
0.0
 40
0.0
 40
0.0
 40
1.0
 40
1.0
 40
1.0
 40
1.0
 10
8.531088913245519
 20
-1.239868791112967
 30
0.0
 10
8.40097992189074
 20
-1.265562609706882
 30
0.0
 10
8.27428851942019
 20
-1.283422653856287
 30
0.0
 10
8.14882203230227
 20
-1.292739525714449
 30
0.0
  0
LINE
  5
BE
330
1F
100
AcDbEntity
  8
0
  6
Continuous
 62
     4
370
    25
100
AcDbLine
 10
8.531088913245519
 20
-1.239868791112967
 30
0.0
 11
8.531088913245519
 21
-1.25
 31
0.0
  0
LINE
  5
BF
330
1F
100
AcDbEntity
  8
0
  6
Continuous
 62
     4
370
    25
100
AcDbLine
 10
8.531088913245519
 20
1.25
 30
0.0
 11
8.531088913245519
 21
1.186837930457366
 31
0.0
  0
LINE
  5
C0
330
1F
100
AcDbEntity
  8
0
  6
Continuous
 62
     4
370
    25
100
AcDbLine
 10
-24.46891108675448
 20
2.499999999999996
 30
0.0
 11
-24.46891108675448
 21
-2.500000000000001
 31
0.0
  0
SPLINE
  5
C1
330
1F
100
AcDbEntity
  8
0
  6
Continuous
 62
     4
370
    25
100
AcDbSpline
210
0.0
220
0.0
230
1.0
 70
     8
 71
     3
 72
    10
 73
     6
 74
     0
 42
0.000000001
 43
0.00000001
 40
0.0
 40
0.0
 40
0.0
 40
0.0
 40
0.4999999999999999
 40
0.4999999999999999
 40
1.0
 40
1.0
 40
1.0
 40
1.0
 10
9.531088913244334
 20
0.8880720895563565
 30
0.0
 10
9.363553567142446
 20
0.9558359037783543
 30
0.0
 10
9.196721938219627
 20
1.015542581390017
 30
0.0
 10
8.86715955806742
 20
1.11566247867909
 30
0.0
 10
8.697991308613426
 20
1.156654436757405
 30
0.0
 10
8.531088913245519
 20
1.186837930457366
 30
0.0
  0
SPLINE
  5
C2
330
1F
100
AcDbEntity
  8
0
  6
Continuous
 62
     4
370
    25
100
AcDbSpline
210
0.0
220
0.0
230
1.0
 70
    24
 71
     3
 72
    16
 73
    12
 74
     0
 42
0.000000001
 43
0.00000001
 40
0.0
 40
0.0
 40
0.0
 40
0.0
 40
0.125
 40
0.125
 40
0.25
 40
0.25
 40
0.5
 40
0.5
 40
0.75
 40
0.75
 40
1.0
 40
1.0
 40
1.0
 40
1.0
 10
9.531088913245519
 20
0.8880720895714338
 30
0.0
 10
9.531088913245519
 20
0.852728431835857
 30
0.0
 10
9.531088913245519
 20
0.8194559360954804
 30
0.0
 10
9.531088913245519
 20
0.7430578090592934
 30
0.0
 10
9.531088913245519
 20
0.7006462450029513
 30
0.0
 10
9.531088913245519
 20
0.5595408089227686
 30
0.0
 10
9.531088913245519
 20
0.4458749083403993
 30
0.0
 10
9.531088913245519
 20
0.1895298018975896
 30
0.0
 10
9.531088913245519
 20
0.0465121263415825
 30
0.0
 10
9.531088913245519
 20
-0.2171740424723698
 30
0.0
 10
9.531088913245519
 20
-0.3350558287339276
 30
0.0
 10
9.531088913245519
 20
-0.4097704322860573
 30
0.0
  0
SPLINE
  5
C3
330
1F
100
AcDbEntity
  8
0
  6
Continuous
 62
     4
370
    25
100
AcDbSpline
210
0.0
220
0.0
230
1.0
 70
     8
 71
     3
 72
    10
 73
     6
 74
     0
 42
0.000000001
 43
0.00000001
 40
0.0
 40
0.0
 40
0.0
 40
0.0
 40
0.5
 40
0.5
 40
1.0
 40
1.0
 40
1.0
 40
1.0
 10
9.531088913245519
 20
-0.4097704322860574
 30
0.0
 10
9.36355356714344
 20
-0.318800342099939
 30
0.0
 10
9.196721938220398
 20
-0.2243001606546477
 30
0.0
 10
8.867159558067819
 20
-0.0338005807824674
 30
0.0
 10
8.697991308613625
 20
0.0634348055207031
 30
0.0
 10
8.531088913245519
 20
0.1588250006266996
 30
0.0
  0
SPLINE
  5
C4
330
1F
100
AcDbEntity
  8
0
  6
Continuous
 62
     4
370
    25
100
AcDbSpline
210
0.0
220
0.0
230
1.0
 70
     8
 71
     3
 72
    10
 73
     6
 74
     0
 42
0.000000001
 43
0.00000001
 40
0.0
 40
0.0
 40
0.0
 40
0.0
 40
0.5000000000000001
 40
0.5000000000000001
 40
1.0
 40
1.0
 40
1.0
 40
1.0
 10
9.531088913244334
 20
-0.8796749193599903
 30
0.0
 10
9.363553567142446
 20
-0.8112642476811595
 30
0.0
 10
9.196721938219627
 20
-0.7350806280048275
 30
0.0
 10
8.86715955806742
 20
-0.5718107186402664
 30
0.0
 10
8.697991308613426
 20
-0.4836311765387745
 30
0.0
 10
8.531088913245519
 20
-0.3923209487494564
 30
0.0
  0
SPLINE
  5
C5
330
1F
100
AcDbEntity
  8
0
  6
Continuous
 62
     4
370
    25
100
AcDbSpline
210
0.0
220
0.0
230
1.0
 70
    24
 71
     3
 72
    10
 73
     6
 74
     0
 42
0.000000001
 43
0.00000001
 40
0.0
 40
0.0
 40
0.0
 40
0.0
 40
0.2710161529770783
 40
0.6319174545912398
 40
1.0
 40
1.0
 40
1.0
 40
1.0
 10
9.531088913245519
 20
-0.9210324258832971
 30
0.0
 10
9.531088913245519
 20
-0.9406185106238468
 30
0.0
 10
9.531088913245519
 20
-0.9862865960080534
 30
0.0
 10
9.531088913245519
 20
-1.074322223923745
 30
0.0
 10
9.531088913245519
 20
-1.145159359230093
 30
0.0
 10
9.531088913245519
 20
-1.180926836355282
 30
0.0
  0
SPLINE
  5
C6
330
1F
100
AcDbEntity
  8
0
  6
Continuous
 62
     4
370
    25
100
AcDbSpline
210
0.0
220
0.0
230
1.0
 70
     8
 71
     3
 72
    10
 73
     6
 74
     0
 42
0.000000001
 43
0.00000001
 40
0.0
 40
0.0
 40
0.0
 40
0.0
 40
0.5
 40
0.5
 40
1.0
 40
1.0
 40
1.0
 40
1.0
 10
9.531088913245519
 20
-1.180926836355282
 30
0.0
 10
9.36355356714344
 20
-1.212492596428714
 30
0.0
 10
9.196721938220398
 20
-1.233434109393198
 30
0.0
 10
8.867159558067819
 20
-1.253207000069446
 30
0.0
 10
8.697991308613625
 20
-1.252088106500276
 30
0.0
 10
8.531088913245519
 20
-1.239868791112968
 30
0.0
  0
LINE
  5
C7
330
1F
100
AcDbEntity
  8
0
  6
Continuous
 62
     4
370
    25
100
AcDbLine
 10
9.531088913245519
 20
-0.4097704322860574
 30
0.0
 11
9.531088913245519
 21
-0.879674919371921
 31
0.0
  0
SPLINE
  5
C8
330
1F
100
AcDbEntity
  8
0
  6
Continuous
 62
     4
370
    25
100
AcDbSpline
210
0.0
220
0.0
230
1.0
 70
     8
 71
     3
 72
     9
 73
     5
 74
     0
 42
0.000000001
 43
0.00000001
 40
0.0
 40
0.0
 40
0.0
 40
0.0
 40
0.6900275614654907
 40
1.0
 40
1.0
 40
1.0
 40
1.0
 10
9.531088913245503
 20
1.180926836355284
 30
0.0
 10
9.36473869657121
 20
1.209296149087371
 30
0.0
 10
9.123661055670906
 20
1.250409452839813
 30
0.0
 10
8.88237861055268
 20
1.243817641430661
 30
0.0
 10
8.807587702663813
 20
1.241774361573807
 30
0.0
  0
LINE
  5
C9
330
1F
100
AcDbEntity
  8
0
  6
Continuous
 62
     4
370
    25
100
AcDbLine
 10
9.531088913245519
 20
1.18092683635528
 30
0.0
 11
9.531088913245519
 21
0.8880720895713377
 31
0.0
  0
SPLINE
  5
CA
330
1F
100
AcDbEntity
  8
0
  6
Continuous
 62
     1
370
    25
100
AcDbSpline
210
0.0
220
0.0
230
1.0
 70
     8
 71
     3
 72
    20
 73
    16
 74
     0
 42
0.000000001
 43
0.00000001
 40
0.0
 40
0.0
 40
0.0
 40
0.0
 40
0.0196272348388006
 40
0.1000545271450237
 40
0.1805412579777315
 40
0.2662619393799863
 40
0.3520296754669451
 40
0.4377764878120823
 40
0.5234778910271203
 40
0.6091442068649048
 40
0.6947859219491883
 40
0.7804136390792931
 40
0.8660380273723889
 40
0.9516697717393893
 40
1.0
 40
1.0
 40
1.0
 40
1.0
 10
10.01868820483467
 20
1.047551928214013
 30
0.0
 10
10.07116940644862
 20
1.06628737557588
 30
0.0
 10
10.33870489245122
 20
1.161795802618099
 30
0.0
 10
10.82146419440831
 20
1.240372440044711
 30
0.0
 10
11.48104491005511
 20
1.263434143012875
 30
0.0
 10
12.15511851338842
 20
1.159193763621728
 30
0.0
 10
12.8433324099399
 20
0.9390118080233449
 30
0.0
 10
13.53144848660061
 20
0.6242942373119859
 30
0.0
 10
14.21920928723318
 20
0.2473205909947729
 30
0.0
 10
14.9066356972929
 20
-0.1544697921897016
 30
0.0
 10
15.59382481814951
 20
-0.540344066300769
 30
0.0
 10
16.28087902988711
 20
-0.8737357107063809
 30
0.0
 10
16.96790294413094
 20
-1.113995543070227
 30
0.0
 10
17.55518089825055
 20
-1.242667360242341
 30
0.0
 10
17.91348061163446
 20
-1.236696797244714
 30
0.0
 10
18.04274645173741
 20
-1.234542763029931
 30
0.0
  0
SPLINE
  5
CB
330
1F
100
AcDbEntity
  8
0
  6
Continuous
 62
     1
370
    25
100
AcDbSpline
210
0.0
220
0.0
230
1.0
 70
     8
 71
     3
 72
    20
 73
    16
 74
     0
 42
0.000000001
 43
0.00000001
 40
0.0
 40
0.0
 40
0.0
 40
0.0
 40
0.0196272348388006
 40
0.1000545271450233
 40
0.1805412579777313
 40
0.2662619393799857
 40
0.3520296754669444
 40
0.4377764878120811
 40
0.5234778910271191
 40
0.6091442068649031
 40
0.6947859219491865
 40
0.780413639079291
 40
0.8660380273723867
 40
0.9516697717393868
 40
1.0
 40
1.0
 40
1.0
 40
1.0
 10
23.62218343659131
 20
1.047551928214014
 30
0.0
 10
23.67466463820525
 20
1.066287375575881
 30
0.0
 10
23.94220012420785
 20
1.161795802618099
 30
0.0
 10
24.42495942616494
 20
1.240372440044713
 30
0.0
 10
25.08454014181174
 20
1.263434143012877
 30
0.0
 10
25.75861374514507
 20
1.159193763621729
 30
0.0
 10
26.44682764169653
 20
0.9390118080233465
 30
0.0
 10
27.13494371835724
 20
0.6242942373119856
 30
0.0
 10
27.82270451898981
 20
0.2473205909947751
 30
0.0
 10
28.51013092904954
 20
-0.1544697921897019
 30
0.0
 10
29.19732004990614
 20
-0.5403440663007676
 30
0.0
 10
29.88437426164374
 20
-0.8737357107063807
 30
0.0
 10
30.57139817588758
 20
-1.113995543070226
 30
0.0
 10
31.15867613000719
 20
-1.242667360242341
 30
0.0
 10
31.5169758433911
 20
-1.236696797244713
 30
0.0
 10
31.64624168349406
 20
-1.23454276302993
 30
0.0
  0
SPLINE
  5
CC
330
1F
100
AcDbEntity
  8
0
  6
Continuous
 62
     1
370
    25
100
AcDbSpline
210
0.0
220
0.0
230
1.0
 70
     8
 71
     3
 72
    20
 73
    16
 74
     0
 42
0.000000001
 43
0.00000001
 40
0.0
 40
0.0
 40
0.0
 40
0.0
 40
0.0507451880139321
 40
0.1335656198781806
 40
0.2163497519859562
 40
0.3020692219818459
 40
0.3877936376276914
 40
0.4735336731263558
 40
0.5592999287063366
 40
0.6451028808526742
 40
0.7309528337748943
 40
0.8168104272862415
 40
0.9026198128728536
 40
0.9883909356632302
 40
1.0
 40
1.0
 40
1.0
 40
1.0
 10
33.82716503115467
 20
-1.046614784800329
 30
0.0
 10
33.69157712190187
 20
-1.089320073817939
 30
0.0
 10
33.33469829543336
 20
-1.201724000632594
 30
0.0
 10
32.75673824710011
 20
-1.264275278047853
 30
0.0
 10
32.08542455443862
 20
-1.233601621844367
 30
0.0
 10
31.40623287535626
 20
-1.078294585876687
 30
0.0
 10
30.71917209712932
 20
-0.8145963008966878
 30
0.0
 10
30.03195197138623
 20
-0.4691101963346989
 30
0.0
 10
29.34448122291384
 20
-0.0768242953170774
 30
0.0
 10
28.65666221293424
 20
0.3234772353559873
 30
0.0
 10
27.96850599137557
 20
0.6905288115113543
 30
0.0
 10
27.2803097720594
 20
0.9917317187660135
 30
0.0
 10
26.59243553440683
 20
1.181706516069042
 30
0.0
 10
26.10298086952835
 20
1.264813234268585
 30
0.0
 10
25.84281745313984
 20
1.24502358406733
 30
0.0
 10
25.81180237781466
 20
1.242664384222206
 30
0.0
  0
SPLINE
  5
CD
330
1F
100
AcDbEntity
  8
0
  6
Continuous
 62
     1
370
    25
100
AcDbSpline
210
0.0
220
0.0
230
1.0
 70
     8
 71
     3
 72
    20
 73
    16
 74
     0
 42
0.000000001
 43
0.00000001
 40
0.0
 40
0.0
 40
0.0
 40
0.0
 40
0.0507451880139319
 40
0.1335656198781804
 40
0.2163497519859562
 40
0.3020692219818459
 40
0.3877936376276915
 40
0.4735336731263559
 40
0.5592999287063368
 40
0.6451028808526744
 40
0.7309528337748946
 40
0.8168104272862419
 40
0.9026198128728541
 40
0.9883909356632307
 40
1.0
 40
1.0
 40
1.0
 40
1.0
 10
20.22366979939803
 20
-1.046614784800331
 30
0.0
 10
20.08808189014523
 20
-1.08932007381794
 30
0.0
 10
19.73120306367671
 20
-1.201724000632595
 30
0.0
 10
19.15324301534348
 20
-1.264275278047854
 30
0.0
 10
18.48192932268198
 20
-1.233601621844369
 30
0.0
 10
17.80273764359963
 20
-1.078294585876689
 30
0.0
 10
17.11567686537268
 20
-0.8145963008966894
 30
0.0
 10
16.4284567396296
 20
-0.4691101963347005
 30
0.0
 10
15.74098599115721
 20
-0.0768242953170793
 30
0.0
 10
15.05316698117761
 20
0.3234772353559859
 30
0.0
 10
14.36501075961895
 20
0.6905288115113526
 30
0.0
 10
13.67681454030277
 20
0.9917317187660118
 30
0.0
 10
12.98894030265021
 20
1.18170651606904
 30
0.0
 10
12.49948563777171
 20
1.264813234268582
 30
0.0
 10
12.23932222138321
 20
1.245023584067329
 30
0.0
 10
12.20830714605804
 20
1.242664384222205
 30
0.0
  0
SPLINE
  5
CE
330
1F
100
AcDbEntity
  8
0
  6
Continuous
 62
     1
370
    25
100
AcDbSpline
210
0.0
220
0.0
230
1.0
 70
     8
 71
     3
 72
    20
 73
    16
 74
     0
 42
0.000000001
 43
0.00000001
 40
0.0
 40
0.0
 40
0.0
 40
0.0
 40
0.0487613804459442
 40
0.1345819506329076
 40
0.2204392406256657
 40
0.3063435611592606
 40
0.3922555271206639
 40
0.4781192546279071
 40
0.5639446951076046
 40
0.6497423087542045
 40
0.7347983998736757
 40
0.8198478364515698
 40
0.9049042775952382
 40
0.989981343363754
 40
1.0
 40
1.0
 40
1.0
 40
1.0
 10
30.42258266484047
 20
-1.046876442290502
 30
0.0
 10
30.29239468539855
 20
-1.088532069209242
 30
0.0
 10
29.93307441878566
 20
-1.203502061327807
 30
0.0
 10
29.34448012425271
 20
-1.265758687876537
 30
0.0
 10
28.65666255778851
 20
-1.230221893551317
 30
0.0
 10
27.9685057113303
 20
-1.0667082674492
 30
0.0
 10
27.28031054711934
 20
-0.7978455450882598
 30
0.0
 10
26.59243271644162
 20
-0.4487583803598382
 30
0.0
 10
25.90491592653738
 20
-0.0550199621745753
 30
0.0
 10
25.21959319896631
 20
0.3433045283812426
 30
0.0
 10
24.53640260189227
 20
0.7055077262403551
 30
0.0
 10
23.85519565696802
 20
1.00060420819066
 30
0.0
 10
23.17391726966667
 20
1.185146773652475
 30
0.0
 10
22.69294593551021
 20
1.265344083690052
 30
0.0
 10
22.43902951414537
 20
1.245675704728027
 30
0.0
 10
22.41227855862783
 20
1.243603574347931
 30
0.0
  0
SPLINE
  5
CF
330
1F
100
AcDbEntity
  8
0
  6
Continuous
 62
     1
370
    25
100
AcDbSpline
210
0.0
220
0.0
230
1.0
 70
     8
 71
     3
 72
    19
 73
    15
 74
     0
 42
0.000000001
 43
0.00000001
 40
0.0
 40
0.0
 40
0.0
 40
0.0
 40
0.0535944625600477
 40
0.1479213108506957
 40
0.2422885185044069
 40
0.3367074182254264
 40
0.4311347211661803
 40
0.5255090044015485
 40
0.6198412057137723
 40
0.7141428220804722
 40
0.807629418426119
 40
0.901108700651941
 40
0.9945956817151361
 40
1.0
 40
1.0
 40
1.0
 40
1.0
 10
16.81908743308384
 20
-1.046876442290503
 30
0.0
 10
16.68889945365298
 20
-1.088532067041827
 30
0.0
 10
16.3295791870706
 20
-1.203502053178299
 30
0.0
 10
15.74098489217363
 20
-1.265758751059711
 30
0.0
 10
15.05316732721973
 20
-1.230221660800159
 30
0.0
 10
14.36501047514214
 20
-1.066709135775313
 30
0.0
 10
13.67681533189761
 20
-0.7978423051927429
 30
0.0
 10
12.98893742302671
 20
-0.4487704618651044
 30
0.0
 10
12.30142092475104
 20
-0.0549749011276393
 30
0.0
 10
11.61609711237871
 20
0.3431370303118702
 30
0.0
 10
10.93291052966196
 20
0.7061268130293269
 30
0.0
 10
10.25168863089392
 20
0.9982931952775627
 30
0.0
 10
9.784457132210925
 20
1.132367645227905
 30
0.0
 10
9.544217772632264
 20
1.178410629725859
 30
0.0
 10
9.531088913245503
 20
1.180926836355284
 30
0.0
  0
SPLINE
  5
D0
330
1F
100
AcDbEntity
  8
0
  6
Continuous
 62
     4
370
    25
100
AcDbSpline
210
0.0
220
0.0
230
1.0
 70
    24
 71
     3
 72
     9
 73
     5
 74
     0
 42
0.000000001
 43
0.00000001
 40
0.0
 40
0.0
 40
0.0
 40
0.0
 40
0.4097476671210887
 40
0.9999999999999999
 40
0.9999999999999999
 40
0.9999999999999999
 40
0.9999999999999999
 10
9.531088913245519
 20
-0.8796749193605289
 30
0.0
 10
9.531088913245519
 20
-0.9111714714530268
 30
0.0
 10
9.531088913245519
 20
-0.9880396384246524
 30
0.0
 10
9.531088913245519
 20
-1.10933309226379
 30
0.0
 10
9.531088913245519
 20
-1.180926836355281
 30
0.0
  0
SPLINE
  5
D1
330
1F
100
AcDbEntity
  8
0
  6
Continuous
 62
     1
370
    25
100
AcDbSpline
210
0.0
220
0.0
230
1.0
 70
     8
 71
     3
 72
    10
 73
     6
 74
     0
 42
0.000000001
 43
0.00000001
 40
0.0
 40
0.0
 40
0.0
 40
0.0
 40
0.3772383641207371
 40
0.7545472916196321
 40
1.0
 40
1.0
 40
1.0
 40
1.0
 10
9.531088913244309
 20
-0.8796749193599811
 30
0.0
 10
9.746103711635124
 20
-0.9595137842662049
 30
0.0
 10
10.17617352747179
 20
-1.11920644813773
 30
0.0
 10
10.74613743673816
 20
-1.238415005022353
 30
0.0
 10
11.10116886498071
 20
-1.237671741226358
 30
0.0
 10
11.24109949108494
 20
-1.237378794292479
 30
0.0
  0
SPLINE
  5
D2
330
1F
100
AcDbEntity
  8
0
  6
Continuous
 62
     1
370
    25
100
AcDbSpline
210
0.0
220
0.0
230
1.0
 70
     8
 71
     3
 72
    20
 73
    16
 74
     0
 42
0.000000001
 43
0.00000001
 40
0.0
 40
0.0
 40
0.0
 40
0.0
 40
0.0185419053016071
 40
0.1041575395919604
 40
0.1897911765902425
 40
0.2754533791090472
 40
0.3611545752881059
 40
0.4469036962307934
 40
0.5326382131788645
 40
0.6183265593659582
 40
0.7026380327832255
 40
0.786879780749134
 40
0.8672769036203841
 40
0.947689064974258
 40
1.0
 40
1.0
 40
1.0
 40
1.0
 10
16.81908743308385
 20
1.046876442290506
 30
0.0
 10
16.86868628670324
 20
1.064869231203233
 30
0.0
 10
17.14730353102329
 20
1.165942157262497
 30
0.0
 10
17.65499550600639
 20
1.245446279882974
 30
0.0
 10
18.34226111758578
 20
1.260464793682021
 30
0.0
 10
19.02980438720977
 20
1.14089169585501
 30
0.0
 10
19.7177098755942
 20
0.9094564046563232
 30
0.0
 10
20.40592168000898
 20
0.5864830454178742
 30
0.0
 10
21.09405365957861
 20
0.204999613708441
 30
0.0
 10
21.77826836889849
 20
-0.1950299189302682
 30
0.0
 10
22.45837747697404
 20
-0.5731162666866013
 30
0.0
 10
23.12433499619187
 20
-0.8899842442115974
 30
0.0
 10
23.77966002143571
 20
-1.115460316492226
 30
0.0
 10
24.34963398936948
 20
-1.238981300266858
 30
0.0
 10
24.70466447016155
 20
-1.237831838444775
 30
0.0
 10
24.84459472284156
 20
-1.237378794292478
 30
0.0
  0
SPLINE
  5
D3
330
1F
100
AcDbEntity
  8
0
  6
Continuous
 62
     1
370
    25
100
AcDbSpline
210
0.0
220
0.0
230
1.0
 70
     8
 71
     3
 72
    16
 73
    12
 74
     0
 42
0.000000001
 43
0.00000001
 40
0.0
 40
0.0
 40
0.0
 40
0.0
 40
0.0291302802203974
 40
0.1636368143417244
 40
0.2981716316366604
 40
0.4327513268232663
 40
0.5673922830416556
 40
0.7021085315113695
 40
0.8368018363596704
 40
0.9714226045843949
 40
1.0
 40
1.0
 40
1.0
 40
1.0
 10
30.42258266484049
 20
1.046876442290506
 30
0.0
 10
30.47218151668983
 20
1.064869230909717
 30
0.0
 10
30.75079875106687
 20
1.165942155320179
 30
0.0
 10
31.25849101325658
 20
1.245446325566687
 30
0.0
 10
31.94575536022696
 20
1.260464629661984
 30
0.0
 10
32.63330330188009
 20
1.14089230657406
 30
0.0
 10
33.32119135530856
 20
0.9094541242243428
 30
0.0
 10
34.00946826175903
 20
0.586491560528932
 30
0.0
 10
34.69735733448722
 20
0.2049678488000918
 30
0.0
 10
35.20533282443779
 20
-0.0915210962022058
 30
0.0
 10
35.48254643679687
 20
-0.2492295782368371
 30
0.0
 10
35.53108891324552
 20
-0.276845683412084
 30
0.0
  0
LINE
  5
D4
330
1F
100
AcDbEntity
  8
0
  6
Continuous
 62
     1
370
    25
100
AcDbLine
 10
35.53108891324552
 20
-0.4999999999999991
 30
0.0
 11
35.53108891324552
 21
-0.2780751709915074
 31
0.0
  0
SPLINE
  5
D5
330
1F
100
AcDbEntity
  8
0
  6
Continuous
 62
     1
370
    25
100
AcDbSpline
210
0.0
220
0.0
230
1.0
 70
    24
 71
     3
 72
    10
 73
     6
 74
     0
 42
0.000000001
 43
0.00000001
 40
0.0
 40
0.0
 40
0.0
 40
0.0
 40
0.5
 40
0.5
 40
1.0
 40
1.0
 40
1.0
 40
1.0
 10
35.53108891324552
 20
-0.4999999999999988
 30
0.0
 10
35.45712426532603
 20
-0.5517906040342478
 30
0.0
 10
35.36953558604759
 20
-0.6131208575278548
 30
0.0
 10
35.19294578687742
 20
-0.7367703660777445
 30
0.0
 10
35.10451492148045
 20
-0.7986903246381005
 30
0.0
 10
35.02060181304913
 20
-0.8574469157163209
 30
0.0
  0
SPLINE
  5
D6
330
1F
100
AcDbEntity
  8
0
  6
Continuous
 62
     1
370
    25
100
AcDbSpline
210
0.0
220
0.0
230
1.0
 70
     8
 71
     3
 72
     8
 73
     4
 74
     0
 42
0.000000001
 43
0.00000001
 40
0.0
 40
0.0
 40
0.0
 40
0.0
 40
1.0
 40
1.0
 40
1.0
 40
1.0
 10
35.41456119791201
 20
-1.202188908513167
 30
0.0
 10
35.27496601649663
 20
-1.100234442373327
 30
0.0
 10
35.14641143312492
 20
-0.9809900311236966
 30
0.0
 10
35.02060181304913
 20
-0.8574469157163205
 30
0.0
  0
SPLINE
  5
D7
330
1F
100
AcDbEntity
  8
0
  6
Continuous
 62
     1
370
    25
100
AcDbSpline
210
0.0
220
0.0
230
1.0
 70
     8
 71
     3
 72
    17
 73
    13
 74
     0
 42
0.000000001
 43
0.00000001
 40
0.0
 40
0.0
 40
0.0
 40
0.0
 40
0.1071850414073265
 40
0.2144265836678046
 40
0.3215664165056704
 40
0.4286262399906627
 40
0.5356391397222633
 40
0.6464464745841398
 40
0.7572602025593989
 40
0.8680941219131378
 40
0.9789619352857116
 40
1.0
 40
1.0
 40
1.0
 40
1.0
 10
35.41456119791198
 20
-1.20218890851316
 30
0.0
 10
35.19300702638285
 20
-1.156188947316348
 30
0.0
 10
34.74978189464263
 20
-1.064164776790536
 30
0.0
 10
34.08493913564153
 20
-0.7968681330394423
 30
0.0
 10
33.42056485320513
 20
-0.4630988540265521
 30
0.0
 10
32.75673424153567
 20
-0.0841091176189999
 30
0.0
 10
32.08542573582135
 20
0.3068866904651822
 30
0.0
 10
31.40623229766696
 20
0.6723609400289844
 30
0.0
 10
30.71917320628962
 20
0.9777782977865251
 30
0.0
 10
30.0319481112627
 20
1.174501079388625
 30
0.0
 10
29.53025366579496
 20
1.262294852781697
 30
0.0
 10
29.25759752602444
 20
1.243372296128887
 30
0.0
 10
29.21411077928929
 20
1.240354280728849
 30
0.0
  0
SPLINE
  5
D8
330
1F
100
AcDbEntity
  8
0
  6
Continuous
 62
     1
370
    25
100
AcDbSpline
210
0.0
220
0.0
230
1.0
 70
     8
 71
     3
 72
    20
 73
    16
 74
     0
 42
0.000000001
 43
0.00000001
 40
0.0
 40
0.0
 40
0.0
 40
0.0
 40
0.0559509006943364
 40
0.1410116045637783
 40
0.2260687508119124
 40
0.3090226038025615
 40
0.3920201845690704
 40
0.4749390492350827
 40
0.557795992162679
 40
0.6406166193311963
 40
0.7263738784200512
 40
0.8121360853391323
 40
0.8979139189969834
 40
0.9837179842951712
 40
1.0
 40
1.0
 40
1.0
 40
1.0
 10
23.62218343659132
 20
-1.047551928214011
 30
0.0
 10
23.47278019695185
 20
-1.093698260627
 30
0.0
 10
23.09624308517807
 20
-1.2099996659223
 30
0.0
 10
22.49254954950394
 20
-1.267320537153448
 30
0.0
 10
21.81669413494662
 20
-1.223255097378477
 30
0.0
 10
21.14628383314988
 20
-1.058885887241229
 30
0.0
 10
20.48144466149374
 20
-0.7982814568450044
 30
0.0
 10
19.81706941871185
 20
-0.4627206476256905
 30
0.0
 10
19.15323906399553
 20
-0.0842102587942741
 30
0.0
 10
18.4819304889655
 20
0.3069148581146083
 30
0.0
 10
17.80273707001671
 20
0.6723532795613741
 30
0.0
 10
17.11567797342908
 20
0.9777803571381376
 30
0.0
 10
16.42845287981458
 20
1.174500503874367
 30
0.0
 10
15.926758434027
 20
1.262294873889164
 30
0.0
 10
15.65410229426625
 20
1.243372299032304
 30
0.0
 10
15.61061554753267
 20
1.240354280728849
 30
0.0
  0
SPLINE
  5
D9
330
1F
100
AcDbEntity
  8
0
  6
Continuous
 62
     1
370
    25
100
AcDbSpline
210
0.0
220
0.0
230
1.0
 70
     8
 71
     3
 72
     9
 73
     5
 74
     0
 42
0.000000001
 43
0.00000001
 40
0.0
 40
0.0
 40
0.0
 40
0.0
 40
0.9192333363342273
 40
1.0
 40
1.0
 40
1.0
 40
1.0
 10
10.01868820483469
 20
-1.047551928214013
 30
0.0
 10
9.869292750169306
 20
-1.095456495977887
 30
0.0
 10
9.706770952100984
 20
-1.14757010616843
 30
0.0
 10
9.544217789830416
 20
-1.17843405794292
 30
0.0
 10
9.531088913245503
 20
-1.180926836355286
 30
0.0
  0
SPLINE
  5
DA
330
1F
100
AcDbEntity
  8
0
  6
Continuous
 62
     1
370
    25
100
AcDbSpline
210
0.0
220
0.0
230
1.0
 70
     8
 71
     3
 72
    20
 73
    16
 74
     0
 42
0.000000001
 43
0.00000001
 40
0.0
 40
0.0
 40
0.0
 40
0.0
 40
0.0143747520412405
 40
0.100031212154322
 40
0.185652603290497
 40
0.2712494065741756
 40
0.3568322192444125
 40
0.4424117048233326
 40
0.5279985426185217
 40
0.613603377066497
 40
0.6992367674270898
 40
0.7849091383325665
 40
0.8706294178823587
 40
0.9563350983495328
 40
1.0
 40
1.0
 40
1.0
 40
1.0
 10
13.41612847254629
 20
1.047607309486894
 30
0.0
 10
13.45460457533666
 20
1.061749551888166
 30
0.0
 10
13.72235258170595
 20
1.160162772924665
 30
0.0
 10
14.21920526575691
 20
1.241075019932861
 30
0.0
 10
14.90663679458794
 20
1.263330052949257
 30
0.0
 10
15.59382444860355
 20
1.150075062720693
 30
0.0
 10
16.28087941104314
 20
0.9243365838591031
 30
0.0
 10
16.9679017890035
 20
0.6055420146968234
 30
0.0
 10
17.65499522019709
 20
0.2264178644130452
 30
0.0
 10
18.34226124727821
 20
-0.1755447318031043
 30
0.0
 10
19.02980415424406
 20
-0.5595364858428905
 30
0.0
 10
19.7177106782744
 20
-0.8893475639790949
 30
0.0
 10
20.40591870083516
 20
-1.123760912970258
 30
0.0
 10
20.98165688559145
 20
-1.245800474830226
 30
0.0
 10
21.32789357814486
 20
-1.237186718608737
 30
0.0
 10
21.44475469819748
 20
-1.234279420735481
 30
0.0
  0
SPLINE
  5
DB
330
1F
100
AcDbEntity
  8
0
  6
Continuous
 62
     1
370
    25
100
AcDbSpline
210
0.0
220
0.0
230
1.0
 70
     8
 71
     3
 72
    20
 73
    16
 74
     0
 42
0.000000001
 43
0.00000001
 40
0.0
 40
0.0
 40
0.0
 40
0.0
 40
0.0143747520412404
 40
0.100031212154322
 40
0.1856526032904971
 40
0.2712494065741757
 40
0.3568322192444126
 40
0.4424117048233328
 40
0.527998542618522
 40
0.6136033770664971
 40
0.6992367674270904
 40
0.7849091383325668
 40
0.870629417882359
 40
0.9563350983495332
 40
1.0
 40
1.0
 40
1.0
 40
1.0
 10
27.01962370430292
 20
1.047607309486896
 30
0.0
 10
27.0580998070933
 20
1.061749551888168
 30
0.0
 10
27.32584781346259
 20
1.160162772924665
 30
0.0
 10
27.82270049751355
 20
1.241075019932864
 30
0.0
 10
28.51013202634456
 20
1.263330052949258
 30
0.0
 10
29.19731968036018
 20
1.150075062720695
 30
0.0
 10
29.88437464279979
 20
0.9243365838591044
 30
0.0
 10
30.57139702076012
 20
0.6055420146968249
 30
0.0
 10
31.25849045195372
 20
0.2264178644130476
 30
0.0
 10
31.94575647903484
 20
-0.1755447318031046
 30
0.0
 10
32.63329938600068
 20
-0.5595364858428866
 30
0.0
 10
33.32120591003105
 20
-0.8893475639790944
 30
0.0
 10
34.00941393259178
 20
-1.123760912970255
 30
0.0
 10
34.58515211734809
 20
-1.245800474830224
 30
0.0
 10
34.93138880990148
 20
-1.237186718608735
 30
0.0
 10
35.04824992995411
 20
-1.23427942073548
 30
0.0
  0
SPLINE
  5
DC
330
1F
100
AcDbEntity
  8
0
  6
Continuous
 62
     4
370
    25
100
AcDbSpline
210
0.0
220
0.0
230
1.0
 70
    24
 71
     3
 72
    16
 73
    12
 74
     0
 42
0.000000001
 43
0.00000001
 40
0.0
 40
0.0
 40
0.0
 40
0.0
 40
0.125
 40
0.125
 40
0.25
 40
0.25
 40
0.5
 40
0.5
 40
0.75
 40
0.75
 40
1.0
 40
1.0
 40
1.0
 40
1.0
 10
9.531088913245519
 20
0.8880720895714317
 30
0.0
 10
9.531088913245519
 20
0.8527284318358551
 30
0.0
 10
9.531088913245519
 20
0.8194559360954787
 30
0.0
 10
9.531088913245519
 20
0.7430578090592919
 30
0.0
 10
9.531088913245519
 20
0.7006462450029501
 30
0.0
 10
9.531088913245519
 20
0.5595408089227675
 30
0.0
 10
9.531088913245519
 20
0.4458749083403984
 30
0.0
 10
9.531088913245519
 20
0.1895298018975896
 30
0.0
 10
9.531088913245519
 20
0.0465121263415821
 30
0.0
 10
9.531088913245519
 20
-0.2171740424723693
 30
0.0
 10
9.531088913245519
 20
-0.3350558287339265
 30
0.0
 10
9.531088913245519
 20
-0.4097704322860562
 30
0.0
  0
SPLINE
  5
DD
330
1F
100
AcDbEntity
  8
0
  6
Continuous
 62
     1
370
    25
100
AcDbSpline
210
0.0
220
0.0
230
1.0
 70
     8
 71
     3
 72
    15
 73
    11
 74
     0
 42
0.000000001
 43
0.00000001
 40
0.0
 40
0.0
 40
0.0
 40
0.0
 40
0.1262143288012432
 40
0.2524522663079077
 40
0.3787834979784899
 40
0.5133298902738481
 40
0.6479501391690834
 40
0.7825375463518014
 40
0.917053679781999
 40
1.0
 40
1.0
 40
1.0
 40
1.0
 10
9.531088913244309
 20
0.8880720895563662
 30
0.0
 10
9.74610253537915
 20
0.7929845453388981
 30
0.0
 10
10.17616999848384
 20
0.6027916705413361
 30
0.0
 10
10.82146377737757
 20
0.2432141523296796
 30
0.0
 10
11.48104505025636
 20
-0.1403426421013405
 30
0.0
 10
12.15511839295411
 20
-0.5207706357279066
 30
0.0
 10
12.84333274614687
 20
-0.8578308669325061
 30
0.0
 10
13.53144726288011
 20
-1.103982531847995
 30
0.0
 10
14.13142091754777
 20
-1.239527819343483
 30
0.0
 10
14.50199166065593
 20
-1.236353760330875
 30
0.0
 10
14.64333780572886
 20
-1.235143084598885
 30
0.0
  0
SPLINE
  5
DE
330
1F
100
AcDbEntity
  8
0
  6
Continuous
 62
     1
370
    25
100
AcDbSpline
210
0.0
220
0.0
230
1.0
 70
     8
 71
     3
 72
    20
 73
    16
 74
     0
 42
0.000000001
 43
0.00000001
 40
0.0
 40
0.0
 40
0.0
 40
0.0
 40
0.0227147558008173
 40
0.1084773799513108
 40
0.1941938182042053
 40
0.2785329322933305
 40
0.3628022980723065
 40
0.4432257783348052
 40
0.5236643020101437
 40
0.6041622725123343
 40
0.6898949244855985
 40
0.775674637714577
 40
0.8614334242798116
 40
0.9471467953737329
 40
1.0
 40
1.0
 40
1.0
 40
1.0
 10
20.22366979939802
 20
1.046614784800332
 30
0.0
 10
20.2844310253409
 20
1.068292782297878
 30
0.0
 10
20.57460445492609
 20
1.171818983140431
 30
0.0
 10
21.09405454704423
 20
1.249528507012828
 30
0.0
 10
21.77826820784371
 20
1.257134616495563
 30
0.0
 10
22.45837725478611
 20
1.133437433579872
 30
0.0
 10
23.12433602582838
 20
0.906253782158844
 30
0.0
 10
23.77965631985042
 20
0.5992105547019386
 30
0.0
 10
24.42496139380373
 20
0.2441725590599236
 30
0.0
 10
25.08453959642262
 20
-0.1406181831858741
 30
0.0
 10
25.75861381340811
 20
-0.5206947976181763
 30
0.0
 10
26.44682792730261
 20
-0.8578512036013096
 30
0.0
 10
27.13494250833762
 20
-1.103977025417041
 30
0.0
 10
27.73491614735972
 20
-1.239528600916592
 30
0.0
 10
28.10548689187561
 20
-1.236353976132206
 30
0.0
 10
28.24683303748548
 20
-1.235143084598885
 30
0.0
  0
SPLINE
  5
DF
330
1F
100
AcDbEntity
  8
0
  6
Continuous
 62
     1
370
    25
100
AcDbSpline
210
0.0
220
0.0
230
1.0
 70
     8
 71
     3
 72
    11
 73
     7
 74
     0
 42
0.000000001
 43
0.00000001
 40
0.0
 40
0.0
 40
0.0
 40
0.0
 40
0.1069484474985299
 40
0.5107467355684008
 40
0.9143275654323463
 40
1.0
 40
1.0
 40
1.0
 40
1.0
 10
33.82716503115466
 20
1.046614784800332
 30
0.0
 10
33.88792809822439
 20
1.068300284935755
 30
0.0
 10
34.17811032035912
 20
1.171862315637391
 30
0.0
 10
34.69735064395046
 20
1.24871702752329
 30
0.0
 10
35.20533310252952
 20
1.257110929458215
 30
0.0
 10
35.48254647823666
 20
1.224642604559842
 30
0.0
 10
35.53108891324552
 20
1.218957122944081
 30
0.0
  0
LINE
  5
E0
330
1F
100
AcDbEntity
  8
0
  6
Continuous
 62
     1
370
    25
100
AcDbLine
 10
35.53108891324552
 20
0.5622257016815468
 30
0.0
 11
35.53108891324552
 21
1.218957122944081
 31
0.0
  0
SPLINE
  5
E1
330
1F
100
AcDbEntity
  8
0
  6
Continuous
 62
     1
370
    25
100
AcDbSpline
210
0.0
220
0.0
230
1.0
 70
     8
 71
     3
 72
    12
 73
     8
 74
     0
 42
0.000000001
 43
0.00000001
 40
0.0
 40
0.0
 40
0.0
 40
0.0
 40
0.2081450143992196
 40
0.4233386779038752
 40
0.631131269648501
 40
0.8431054927935273
 40
1.0
 40
1.0
 40
1.0
 40
1.0
 10
35.53108891324552
 20
0.5622257016815468
 30
0.0
 10
35.50833767328263
 20
0.5455302277743924
 30
0.0
 10
35.46206474248792
 20
0.5115739023191151
 30
0.0
 10
35.38499440353837
 20
0.4812952955147811
 30
0.0
 10
35.30521230082199
 20
0.4653956767993529
 30
0.0
 10
35.23150331566035
 20
0.4615175344209957
 30
0.0
 10
35.1849601108486
 20
0.469315940322733
 30
0.0
 10
35.16516343907382
 20
0.4726329117824262
 30
0.0
  0
SPLINE
  5
E2
330
1F
100
AcDbEntity
  8
0
  6
Continuous
 62
     1
370
    25
100
AcDbSpline
210
0.0
220
0.0
230
1.0
 70
     8
 71
     3
 72
    12
 73
     8
 74
     0
 42
0.000000001
 43
0.00000001
 40
0.0
 40
0.0
 40
0.0
 40
0.0
 40
0.2373035233793873
 40
0.4747321374556672
 40
0.7119355708161552
 40
0.94896186657338
 40
1.0
 40
1.0
 40
1.0
 40
1.0
 10
35.41456119791199
 20
0.3424059407310748
 30
0.0
 10
35.19300704218445
 20
0.4620878939464845
 30
0.0
 10
34.74978194205573
 20
0.7015148887744755
 30
0.0
 10
34.08493894594751
 20
0.9887427100257857
 30
0.0
 10
33.42056556356793
 20
1.176334339391566
 30
0.0
 10
32.93024762332428
 20
1.260334266051847
 30
0.0
 10
32.66137885649053
 20
1.243152487141953
 30
0.0
 10
32.61374173574365
 20
1.240108286485196
 30
0.0
  0
SPLINE
  5
E3
330
1F
100
AcDbEntity
  8
0
  6
Continuous
 62
     1
370
    25
100
AcDbSpline
210
0.0
220
0.0
230
1.0
 70
     8
 71
     3
 72
    20
 73
    16
 74
     0
 42
0.000000001
 43
0.00000001
 40
0.0
 40
0.0
 40
0.0
 40
0.0
 40
0.0533416335048993
 40
0.1391749586524816
 40
0.2249804544105524
 40
0.3100443595188166
 40
0.3951016094741592
 40
0.4801658646387765
 40
0.565250746322998
 40
0.6503320693746857
 40
0.7333095013248517
 40
0.8163306734801407
 40
0.8992731071605219
 40
0.9821536015017343
 40
0.9999999999999999
 40
0.9999999999999999
 40
0.9999999999999999
 40
0.9999999999999999
 10
27.01962370430292
 20
-1.047607309486893
 30
0.0
 10
26.87719345597192
 20
-1.09216281849647
 30
0.0
 10
26.50557521671215
 20
-1.20841368515916
 30
0.0
 10
25.9049181796994
 20
-1.267157422569541
 30
0.0
 10
25.21959253341341
 20
-1.224551498633009
 30
0.0
 10
24.53640302957856
 20
-1.056422053067192
 30
0.0
 10
23.8551946086027
 20
-0.7861255521170991
 30
0.0
 10
23.17392103619013
 20
-0.4382127170702108
 30
0.0
 10
22.49255002050985
 20
-0.0473875902706028
 30
0.0
 10
21.81669399930744
 20
0.345010045642913
 30
0.0
 10
21.14628391586112
 20
0.7000188031156965
 30
0.0
 10
20.48144446450804
 20
0.9891444146842769
 30
0.0
 10
19.81707012298127
 20
1.176222536009364
 30
0.0
 10
19.32675240038686
 20
1.260338987668375
 30
0.0
 10
19.05788362606126
 20
1.243153197789765
 30
0.0
 10
19.01024650398701
 20
1.240108286485196
 30
0.0
  0
SPLINE
  5
E4
330
1F
100
AcDbEntity
  8
0
  6
Continuous
 62
     1
370
    25
100
AcDbSpline
210
0.0
220
0.0
230
1.0
 70
     8
 71
     3
 72
    14
 73
    10
 74
     0
 42
0.000000001
 43
0.00000001
 40
0.0
 40
0.0
 40
0.0
 40
0.0
 40
0.1099638674689942
 40
0.2869094120797515
 40
0.463797586357077
 40
0.6391569702586052
 40
0.8145026345511569
 40
0.989862740094448
 40
1.0
 40
1.0
 40
1.0
 40
1.0
 10
13.41612847254629
 20
-1.047607309486893
 30
0.0
 10
13.27369821576266
 20
-1.092162960399133
 30
0.0
 10
12.90207995444895
 20
-1.208414197303528
 30
0.0
 10
12.30142316083793
 20
-1.267153848485186
 30
0.0
 10
11.61609651888365
 20
-1.224564639829838
 30
0.0
 10
10.93291068875292
 20
-1.056373520111912
 30
0.0
 10
10.25168858578899
 20
-0.7863067124047176
 30
0.0
 10
9.78445713266928
 20
-0.5470949634779616
 30
0.0
 10
9.54421777265603
 20
-0.4168862200029736
 30
0.0
 10
9.531088913245519
 20
-0.4097704322860568
 30
0.0
  0
LINE
  5
E5
330
1F
100
AcDbEntity
  8
0
  6
Continuous
 62
     1
370
    25
100
AcDbLine
 10
35.53108891324552
 20
1.218957122944081
 30
0.0
 11
35.53108891324552
 21
1.250000000000005
 31
0.0
  0
ELLIPSE
  5
E6
330
1F
100
AcDbEntity
  8
0
  6
Continuous
 62
     1
370
    25
100
AcDbEllipse
 10
35.28686122026742
 20
0.0000000000000021
 30
0.0
 11
1.736654132074968
 21
-0.6879262575522028
 31
0.0
210
0.0
220
0.0
230
1.0
 40
0.6009688174887237
 41
5.017690069071286
 42
5.083334185035828
  0
LINE
  5
E7
330
1F
100
AcDbEntity
  8
0
  6
Continuous
 62
     1
370
    25
100
AcDbLine
 10
35.53108891324552
 20
-1.250000000000005
 30
0.0
 11
35.53108891324552
 21
-1.222060428378376
 31
0.0
  0
ELLIPSE
  5
E8
330
1F
100
AcDbEntity
  8
0
  6
Continuous
 62
     1
370
    25
100
AcDbEllipse
 10
35.28686122026742
 20
0.0000000000000004
 30
0.0
 11
1.773878207475988
 21
-1.21521758800926
 31
0.0
210
0.0
220
0.0
230
1.0
 40
0.1650759015746656
 41
1.546166782239612
 42
1.611810898204153
  0
LINE
  5
E9
330
1F
100
AcDbEntity
  8
0
  6
Continuous
 62
     1
370
    25
100
AcDbLine
 10
35.53108891324552
 20
-0.276845683412084
 30
0.0
 11
35.53108891324552
 21
0.26280850327123
 31
0.0
  0
LINE
  5
EA
330
1F
100
AcDbEntity
  8
0
  6
Continuous
 62
     1
370
    25
100
AcDbLine
 10
35.53108891324552
 20
0.2628085032712296
 30
0.0
 11
35.53108891324552
 21
0.5622257016815468
 31
0.0
  0
LINE
  5
EB
330
1F
100
AcDbEntity
  8
0
  6
Continuous
 62
     1
370
    25
100
AcDbLine
 10
35.53108891324552
 20
-0.4999999999999979
 30
0.0
 11
35.53108891324552
 21
-1.222060428378376
 31
0.0
  0
LINE
  5
EC
330
1F
100
AcDbEntity
  8
중심선
100
AcDbLine
 10
-27.46891108675448
 20
-0.0000000000000043
 30
0.0
 11
37.03108891324551
 21
0.0000000000000036
 31
0.0
  0
CIRCLE
  5
ED
330
1F
100
AcDbEntity
  8
해칭선
100
AcDbCircle
 10
0.0002672382997202
 20
-0.0000000000000042
 30
0.0
 40
2.999999999999999
  0
INSERT
  5
EE
330
1F
100
AcDbEntity
  8
0
  6
Continuous
 62
     7
100
AcDbBlockReference
 66
     1
  2
블럭10
 10
-6.440099248941778
 20
-52.04717430164393
 30
0.0
  0
ATTRIB
  5
EF
330
EE
100
AcDbEntity
  8
FORMAT
 62
     2
100
AcDbText
 10
-22.55936028837733
 20
-49.97180738881174
 30
0.0
 40
4.233333333333333
  1
SEME7202526E [ 4 FLUTE ]
 41
0.75
  7
SLDTEXTSTYLE0
 11
-22.55936028837733
 21
-52.08847405547841
 31
0.0
100
AcDbAttribute
  2
AUTOATTR0
 70
     0
 74
     1
  0
SEQEND
  5
F0
330
EE
100
AcDbEntity
  8
0
  6
Continuous
 62
     7
  0
HATCH
  5
F1
330
1F
100
AcDbEntity
  8
중심선
100
AcDbHatch
 10
0.0
 20
0.0
 30
0.0
210
0.0
220
0.0
230
1.0
  2
SOLID
 70
     1
 71
     0
 91
        1
 92
        0
 93
        4
 72
     1
 10
-0.7251899445609444
 20
-35.8
 11
-4.171465188398226
 21
-35.8
 72
     1
 10
-4.171465188398226
 20
-35.8
 11
-6.299695047602249
 21
-38.33632558057259
 72
     1
 10
-6.299695047602249
 20
-38.33632558057259
 11
-2.853386718651818
 21
-38.3362861512701
 72
     1
 10
-2.853386718651818
 20
-38.3362861512701
 11
-0.7251899445609444
 21
-35.8
 97
        0
 75
     0
 76
     1
 98
        1
 10
0.0
 20
0.0
  0
HATCH
  5
F2
330
1F
100
AcDbEntity
  8
중심선
100
AcDbHatch
 10
0.0
 20
0.0
 30
0.0
210
0.0
220
0.0
230
1.0
  2
SOLID
 70
     1
 71
     0
 91
        1
 92
        0
 93
        4
 72
     1
 10
4.28757404647509
 20
-35.79999999999997
 11
0.8412988026377519
 21
-35.80000000000003
 72
     1
 10
0.8412988026377521
 20
-35.80000000000003
 11
-3.689839205719664
 21
-41.20000000000002
 72
     1
 10
-3.689839205719664
 20
-41.20000000000002
 11
-0.2435639618823817
 21
-41.20000000000002
 72
     1
 10
-0.2435639618823815
 20
-41.20000000000002
 11
4.28757404647509
 21
-35.79999999999997
 97
        0
 75
     0
 76
     1
 98
        1
 10
0.0
 20
0.0
  0
HATCH
  5
F3
330
1F
100
AcDbEntity
  8
중심선
100
AcDbHatch
 10
0.0
 20
0.0
 30
0.0
210
0.0
220
0.0
230
1.0
  2
SOLID
 70
     1
 71
     0
 91
        1
 92
        0
 93
        4
 72
     1
 10
9.30033803751093
 20
-35.8
 11
5.854062793673842
 21
-35.8
 72
     1
 10
5.854062793673842
 20
-35.8
 11
-1.194374108215462
 21
-44.20000000000002
 72
     1
 10
-1.194374108215462
 20
-44.20000000000002
 11
2.25190113562182
 21
-44.20000000000002
 72
     1
 10
2.25190113562182
 20
-44.20000000000002
 11
9.30033803751093
 21
-35.8
 97
        0
 75
     0
 76
     1
 98
        1
 10
0.0
 20
0.0
  0
HATCH
  5
F4
330
1F
100
AcDbEntity
  8
중심선
100
AcDbHatch
 10
0.0
 20
0.0
 30
0.0
210
0.0
220
0.0
230
1.0
  2
SOLID
 70
     1
 71
     0
 91
        1
 92
        0
 93
        6
 72
     3
 10
14.1002284685231
 20
-40.00000000005127
 11
3.960054785062284
 21
1.540850780301639E-10
 40
0.3939339440162633
 50
17.09539180608434
 51
320.0019657685079
 73
     0
 72
     1
 10
15.7832281242237
 20
-38.5878940046383
 11
18.08852999792476
 21
-36.65356729459038
 72
     3
 10
14.10022846847026
 20
-40.00000000000015
 11
6.600054785286829
 21
-1.249000902703301E-13
 40
0.6363583540795982
 50
39.99873849337388
 51
368.4976242363725
 73
     1
 72
     1
 10
20.52556096037086
 20
-39.03999999993002
 11
12.78029577530618
 21
-39.03999999993002
 72
     1
 10
12.78029577530618
 20
-39.03999999993002
 11
12.78027073086024
 21
-40.95999999992991
 72
     1
 10
12.78027073086024
 20
-40.95999999992991
 11
17.22165050033228
 21
-40.95999999992988
 97
        0
 75
     0
 76
     1
 98
        1
 10
0.0
 20
0.0
  0
DIMENSION
  5
F5
330
1F
100
AcDbEntity
  8
치수문자_일반주서
100
AcDbDimension
  2
_D
 10
46.27489558093855
 20
1.250000000000044
 30
0.0
 11
46.27489558093851
 21
12.66650000000004
 31
0.0
 70
   160
  1
%%c<>
 71
     2
 42
2.50000000000001
 52
-270.0
  3
SLDDIMSTYLE0
100
AcDbAlignedDimension
 13
35.53108891324555
 23
-1.250000000000006
 33
0.0
 14
35.53108891324555
 24
1.250000000000005
 34
0.0
 50
90.0000000000002
100
AcDbRotatedDimension
  0
DIMENSION
  5
103
330
1F
100
AcDbEntity
  8
치수문자_일반주서
100
AcDbDimension
  2
_D_1
 10
35.53108891324552
 20
20.38913260158165
 30
0.0
 11
5.531088913245517
 21
20.38913260158165
 31
0.0
 70
   160
  1
<>
 71
     2
 42
60.0
  3
SLDDIMSTYLE1
100
AcDbAlignedDimension
 13
-24.46891108675448
 23
2.499999999999996
 33
0.0
 14
35.53108891324552
 24
1.250000000000003
 34
0.0
 50
-0.0000000000000068
100
AcDbRotatedDimension
  0
DIMENSION
  5
10E
330
1F
100
AcDbEntity
  8
치수문자_일반주서
100
AcDbDimension
  2
_D_2
 10
-33.02438439375153
 20
-3.000000000000036
 30
0.0
 11
-33.02438439375159
 21
12.66649999999997
 31
0.0
 70
   160
  1
%%c<>
 71
     2
 42
6.000000000000005
 52
-270.0
  3
SLDDIMSTYLE2
100
AcDbAlignedDimension
 13
-23.96891108675448
 23
3.000000000000003
 33
0.0
 14
-23.96891108675448
 24
-3.000000000000002
 34
0.0
 50
90.0000000000002
100
AcDbRotatedDimension
  0
DIMENSION
  5
11C
330
1F
100
AcDbEntity
  8
치수문자_일반주서
100
AcDbDimension
  2
_D_3
 10
35.53108891324552
 20
12.02684513894293
 30
0.0
 11
22.53108891324552
 21
12.02684513894293
 31
0.0
 70
   160
  1
<>
 71
     2
 42
26.0
  3
SLDDIMSTYLE1
100
AcDbAlignedDimension
 13
9.531088913245519
 23
1.18092683635528
 33
0.0
 14
35.53108891324552
 24
1.250000000000003
 34
0.0
100
AcDbRotatedDimension
  0
INSERT
  5
12C
330
1F
100
AcDbEntity
  8
해칭선
100
AcDbBlockReference
  2
SW_DOWELSYMBOL_0
 10
0.0002672382997202
 20
-0.0000000000000042
 30
0.0
  0
ENDSEC
  0
SECTION
  2
OBJECTS
  0
DICTIONARY
  5
C
330
0
100
AcDbDictionary
281
     1
  3
ACAD_GROUP
350
D
  3
ACAD_IMAGE_VARS
350
150
  3
ACAD_LAYOUT
350
1A
  3
ACAD_MLINESTYLE
350
17
  3
ACAD_PLOTSETTINGS
350
19
  3
ACAD_PLOTSTYLENAME
350
E
  3
ACAD_SCALELIST
350
47
  3
APPDATA
350
14E
  3
DWGPROPS
350
160
  0
DICTIONARY
  5
D
102
{ACAD_REACTORS
330
C
102
}
330
C
100
AcDbDictionary
281
     1
  0
RASTERVARIABLES
  5
150
102
{ACAD_REACTORS
330
C
102
}
330
C
100
AcDbRasterVariables
 90
        0
 70
     1
 71
     1
 72
     1
  0
DICTIONARY
  5
1A
102
{ACAD_REACTORS
330
C
102
}
330
C
100
AcDbDictionary
281
     1
  3
Layout1
350
1E
  3
Layout2
350
26
  3
Model
350
22
  0
DICTIONARY
  5
17
102
{ACAD_REACTORS
330
C
102
}
330
C
100
AcDbDictionary
281
     1
  3
Standard
350
18
  0
DICTIONARY
  5
19
102
{ACAD_REACTORS
330
C
102
}
330
C
100
AcDbDictionary
281
     1
  0
ACDBDICTIONARYWDFLT
  5
E
102
{ACAD_REACTORS
330
C
102
}
330
C
100
AcDbDictionary
281
     1
  3
Normal
350
F
100
AcDbDictionaryWithDefault
340
F
  0
DICTIONARY
  5
47
102
{ACAD_REACTORS
330
C
102
}
330
C
100
AcDbDictionary
281
     1
  3
A0
350
48
  3
A1
350
49
  3
A2
350
4A
  3
A3
350
4B
  3
A4
350
4C
  3
A5
350
4D
  3
A6
350
4E
  3
A7
350
4F
  3
A8
350
50
  3
A9
350
51
  3
B0
350
52
  3
B1
350
53
  3
B2
350
54
  3
B3
350
55
  3
B4
350
56
  3
B5
350
57
  3
B6
350
58
  3
B7
350
59
  3
B8
350
5A
  3
B9
350
5B
  3
C0
350
5C
  3
C1
350
5D
  3
C2
350
5E
  3
C3
350
5F
  3
C4
350
60
  3
C5
350
61
  3
C6
350
62
  3
C7
350
63
  3
C8
350
64
  3
C9
350
65
  3
D0
350
66
  3
D1
350
67
  3
D2
350
68
  0
DICTIONARY
  5
14E
102
{ACAD_REACTORS
330
C
102
}
330
C
100
AcDbDictionary
281
     1
  0
XRECORD
  5
160
102
{ACAD_REACTORS
330
C
102
}
330
C
100
AcDbXrecord
280
     1
  1
DWGPROPS COOKIE
  2

  3

  4

  6

  7

  8
12014102
  9

300
=
301
=
302
=
303
=
304
=
305
=
306
=
307
=
308
=
309
=
 40
0.0
 41
2458260.194462731
 42
2458268.108780069
  1

 90
        0
  0
LAYOUT
  5
1E
102
{ACAD_REACTORS
330
1A
102
}
330
1A
100
AcDbPlotSettings
  1

  2
none_device
  4

  6

 40
0.0
 41
0.0
 42
0.0
 43
0.0
 44
0.0
 45
0.0
 46
0.0
 47
0.0
 48
0.0
 49
0.0
140
0.0
141
0.0
142
1.0
143
1.0
 70
   688
 72
     1
 73
     0
 74
     5
  7

 75
    16
147
1.0
148
0.0
149
0.0
100
AcDbLayout
  1
Layout1
 70
     1
 71
     1
 10
0.0
 20
0.0
 11
420.0
 21
297.0
 12
0.0
 22
0.0
 32
0.0
 14
1.000000000000000E+20
 24
1.000000000000000E+20
 34
1.000000000000000E+20
 15
-1.000000000000000E+20
 25
-1.000000000000000E+20
 35
-1.000000000000000E+20
146
0.0
 13
0.0
 23
0.0
 33
0.0
 16
1.0
 26
0.0
 36
0.0
 17
0.0
 27
1.0
 37
0.0
 76
     0
330
1B
  0
LAYOUT
  5
26
102
{ACAD_REACTORS
330
1A
102
}
330
1A
100
AcDbPlotSettings
  1

  2
none_device
  4

  6

 40
0.0
 41
0.0
 42
0.0
 43
0.0
 44
0.0
 45
0.0
 46
0.0
 47
0.0
 48
0.0
 49
0.0
140
0.0
141
0.0
142
1.0
143
1.0
 70
   688
 72
     1
 73
     0
 74
     5
  7

 75
    16
147
1.0
148
0.0
149
0.0
100
AcDbLayout
  1
Layout2
 70
     1
 71
     2
 10
0.0
 20
0.0
 11
0.0
 21
0.0
 12
0.0
 22
0.0
 32
0.0
 14
0.0
 24
0.0
 34
0.0
 15
0.0
 25
0.0
 35
0.0
146
0.0
 13
0.0
 23
0.0
 33
0.0
 16
1.0
 26
0.0
 36
0.0
 17
0.0
 27
1.0
 37
0.0
 76
     0
330
23
  0
LAYOUT
  5
22
102
{ACAD_REACTORS
330
1A
102
}
330
1A
100
AcDbPlotSettings
  1

  2
none_device
  4
ANSI_A_(11.00_x_8.50_Inches)
  6

 40
6.35
 41
19.05
 42
6.35000508
 43
19.05000254
 44
279.4
 45
215.9
 46
113.92058146711
 47
125.3847137330092
 48
0.0
 49
0.0
140
0.0
141
0.0
142
0.1112850254374008
143
1.0
 70
  1696
 72
     0
 73
     0
 74
     0
  7

 75
     0
147
0.0235690232323232
148
0.0
149
0.0
100
AcDbLayout
  1
Model
 70
     1
 71
     0
 10
0.0
 20
0.0
 11
420.0
 21
297.0
 12
0.0
 22
0.0
 32
0.0
 14
-37.3993843937516
 24
-49.97180738881174
 34
0.0
 15
49.93647304495597
 25
24.76413260158165
 35
0.0
146
0.0
 13
0.0
 23
0.0
 33
0.0
 16
1.0
 26
0.0
 36
0.0
 17
0.0
 27
1.0
 37
0.0
 76
     0
330
1F
331
29
  0
MLINESTYLE
  5
18
102
{ACAD_REACTORS
330
17
102
}
330
17
100
AcDbMlineStyle
  2
Standard
 70
     0
  3

 62
   256
 51
90.0
 52
90.0
 71
     2
 49
0.5
 62
   256
  6
BYLAYER
 49
-0.5
 62
   256
  6
BYLAYER
  0
ACDBPLACEHOLDER
  5
F
102
{ACAD_REACTORS
330
E
102
}
330
E
  0
SCALE
  5
48
102
{ACAD_REACTORS
330
47
102
}
330
47
100
AcDbScale
 70
     0
300
1:1
140
1.0
141
1.0
290
     1
  0
SCALE
  5
49
102
{ACAD_REACTORS
330
47
102
}
330
47
100
AcDbScale
 70
     0
300
1:2
140
1.0
141
2.0
290
     0
  0
SCALE
  5
4A
102
{ACAD_REACTORS
330
47
102
}
330
47
100
AcDbScale
 70
     0
300
1:4
140
1.0
141
4.0
290
     0
  0
SCALE
  5
4B
102
{ACAD_REACTORS
330
47
102
}
330
47
100
AcDbScale
 70
     0
300
1:5
140
1.0
141
5.0
290
     0
  0
SCALE
  5
4C
102
{ACAD_REACTORS
330
47
102
}
330
47
100
AcDbScale
 70
     0
300
1:8
140
1.0
141
8.0
290
     0
  0
SCALE
  5
4D
102
{ACAD_REACTORS
330
47
102
}
330
47
100
AcDbScale
 70
     0
300
1:10
140
1.0
141
10.0
290
     0
  0
SCALE
  5
4E
102
{ACAD_REACTORS
330
47
102
}
330
47
100
AcDbScale
 70
     0
300
1:16
140
1.0
141
16.0
290
     0
  0
SCALE
  5
4F
102
{ACAD_REACTORS
330
47
102
}
330
47
100
AcDbScale
 70
     0
300
1:20
140
1.0
141
20.0
290
     0
  0
SCALE
  5
50
102
{ACAD_REACTORS
330
47
102
}
330
47
100
AcDbScale
 70
     0
300
1:30
140
1.0
141
30.0
290
     0
  0
SCALE
  5
51
102
{ACAD_REACTORS
330
47
102
}
330
47
100
AcDbScale
 70
     0
300
1:40
140
1.0
141
40.0
290
     0
  0
SCALE
  5
52
102
{ACAD_REACTORS
330
47
102
}
330
47
100
AcDbScale
 70
     0
300
1:50
140
1.0
141
50.0
290
     0
  0
SCALE
  5
53
102
{ACAD_REACTORS
330
47
102
}
330
47
100
AcDbScale
 70
     0
300
1:100
140
1.0
141
100.0
290
     0
  0
SCALE
  5
54
102
{ACAD_REACTORS
330
47
102
}
330
47
100
AcDbScale
 70
     0
300
2:1
140
2.0
141
1.0
290
     0
  0
SCALE
  5
55
102
{ACAD_REACTORS
330
47
102
}
330
47
100
AcDbScale
 70
     0
300
4:1
140
4.0
141
1.0
290
     0
  0
SCALE
  5
56
102
{ACAD_REACTORS
330
47
102
}
330
47
100
AcDbScale
 70
     0
300
8:1
140
8.0
141
1.0
290
     0
  0
SCALE
  5
57
102
{ACAD_REACTORS
330
47
102
}
330
47
100
AcDbScale
 70
     0
300
10:1
140
10.0
141
1.0
290
     0
  0
SCALE
  5
58
102
{ACAD_REACTORS
330
47
102
}
330
47
100
AcDbScale
 70
     0
300
100:1
140
100.0
141
1.0
290
     0
  0
SCALE
  5
59
102
{ACAD_REACTORS
330
47
102
}
330
47
100
AcDbScale
 70
     0
300
1/128" = 1'-0"
140
0.0078125
141
12.0
290
     0
  0
SCALE
  5
5A
102
{ACAD_REACTORS
330
47
102
}
330
47
100
AcDbScale
 70
     0
300
1/64" = 1'-0"
140
0.015625
141
12.0
290
     0
  0
SCALE
  5
5B
102
{ACAD_REACTORS
330
47
102
}
330
47
100
AcDbScale
 70
     0
300
1/32" = 1'-0"
140
0.03125
141
12.0
290
     0
  0
SCALE
  5
5C
102
{ACAD_REACTORS
330
47
102
}
330
47
100
AcDbScale
 70
     0
300
1/16" = 1'-0"
140
0.0625
141
12.0
290
     0
  0
SCALE
  5
5D
102
{ACAD_REACTORS
330
47
102
}
330
47
100
AcDbScale
 70
     0
300
3/32" = 1'-0"
140
0.09375
141
12.0
290
     0
  0
SCALE
  5
5E
102
{ACAD_REACTORS
330
47
102
}
330
47
100
AcDbScale
 70
     0
300
1/8" = 1'-0"
140
0.125
141
12.0
290
     0
  0
SCALE
  5
5F
102
{ACAD_REACTORS
330
47
102
}
330
47
100
AcDbScale
 70
     0
300
3/16" = 1'-0"
140
0.1875
141
12.0
290
     0
  0
SCALE
  5
60
102
{ACAD_REACTORS
330
47
102
}
330
47
100
AcDbScale
 70
     0
300
1/4" = 1'-0"
140
0.25
141
12.0
290
     0
  0
SCALE
  5
61
102
{ACAD_REACTORS
330
47
102
}
330
47
100
AcDbScale
 70
     0
300
3/8" = 1'-0"
140
0.375
141
12.0
290
     0
  0
SCALE
  5
62
102
{ACAD_REACTORS
330
47
102
}
330
47
100
AcDbScale
 70
     0
300
1/2" = 1'-0"
140
0.5
141
12.0
290
     0
  0
SCALE
  5
63
102
{ACAD_REACTORS
330
47
102
}
330
47
100
AcDbScale
 70
     0
300
3/4" = 1'-0"
140
0.75
141
12.0
290
     0
  0
SCALE
  5
64
102
{ACAD_REACTORS
330
47
102
}
330
47
100
AcDbScale
 70
     0
300
1" = 1'-0"
140
1.0
141
12.0
290
     0
  0
SCALE
  5
65
102
{ACAD_REACTORS
330
47
102
}
330
47
100
AcDbScale
 70
     0
300
1-1/2" = 1'-0"
140
1.5
141
12.0
290
     0
  0
SCALE
  5
66
102
{ACAD_REACTORS
330
47
102
}
330
47
100
AcDbScale
 70
     0
300
3" = 1'-0"
140
3.0
141
12.0
290
     0
  0
SCALE
  5
67
102
{ACAD_REACTORS
330
47
102
}
330
47
100
AcDbScale
 70
     0
300
6" = 1'-0"
140
6.0
141
12.0
290
     0
  0
SCALE
  5
68
102
{ACAD_REACTORS
330
47
102
}
330
47
100
AcDbScale
 70
     0
300
1'-0" = 1'-0"
140
12.0
141
12.0
290
     0
  0
ENDSEC
  0
EOF
