  0
SECTION
  2
HEADER
  9
$ACADVER
  1
AC1015
  9
$ACADMAINTVER
 70
     6
  9
$DWGCODEPAGE
  3
ANSI_949
  9
$INSBASE
 10
0.0
 20
0.0
 30
0.0
  9
$EXTMIN
 10
-42.67220780489896
 20
-49.97180738881174
 30
0.0
  9
$EXTMAX
 10
43.40730637828931
 20
24.76413260158165
 30
0.0
  9
$LIMMIN
 10
0.0
 20
0.0
  9
$LIMMAX
 10
420.0
 20
297.0
  9
$ORTHOMODE
 70
     0
  9
$REGENMODE
 70
     1
  9
$FILLMODE
 70
     1
  9
$QTEXTMODE
 70
     0
  9
$MIRRTEXT
 70
     1
  9
$LTSCALE
 40
1.0
  9
$ATTMODE
 70
     1
  9
$TEXTSIZE
 40
3.5
  9
$TRACEWID
 40
1.0
  9
$TEXTSTYLE
  7
Standard
  9
$CLAYER
  8
0
  9
$CELTYPE
  6
ByLayer
  9
$CECOLOR
 62
   256
  9
$CELTSCALE
 40
1.0
  9
$DISPSILH
 70
     0
  9
$DIMSCALE
 40
1.0
  9
$DIMASZ
 40
3.302
  9
$DIMEXO
 40
1.0
  9
$DIMDLI
 40
3.75
  9
$DIMRND
 40
0.0
  9
$DIMDLE
 40
0.0
  9
$DIMEXE
 40
1.0
  9
$DIMTP
 40
0.0
  9
$DIMTM
 40
0.0
  9
$DIMTXT
 40
3.5
  9
$DIMCEN
 40
2.5
  9
$DIMTSZ
 40
0.0
  9
$DIMTOL
 70
     0
  9
$DIMLIM
 70
     0
  9
$DIMTIH
 70
     1
  9
$DIMTOH
 70
     1
  9
$DIMSE1
 70
     0
  9
$DIMSE2
 70
     0
  9
$DIMTAD
 70
     1
  9
$DIMZIN
 70
     0
  9
$DIMBLK
  1

  9
$DIMASO
 70
     1
  9
$DIMSHO
 70
     1
  9
$DIMPOST
  1

  9
$DIMAPOST
  1

  9
$DIMALT
 70
     0
  9
$DIMALTD
 70
     3
  9
$DIMALTF
 40
0.0393700787401575
  9
$DIMLFAC
 40
1.0
  9
$DIMTOFL
 70
     1
  9
$DIMTVP
 40
0.0
  9
$DIMTIX
 70
     0
  9
$DIMSOXD
 70
     0
  9
$DIMSAH
 70
     0
  9
$DIMBLK1
  1

  9
$DIMBLK2
  1

  9
$DIMSTYLE
  2
ISO-25
  9
$DIMCLRD
 70
     0
  9
$DIMCLRE
 70
     0
  9
$DIMCLRT
 70
     0
  9
$DIMTFAC
 40
1.0
  9
$DIMGAP
 40
1.524
  9
$DIMJUST
 70
     0
  9
$DIMSD1
 70
     0
  9
$DIMSD2
 70
     0
  9
$DIMTOLJ
 70
     0
  9
$DIMTZIN
 70
     0
  9
$DIMALTZ
 70
     0
  9
$DIMALTTZ
 70
     0
  9
$DIMUPT
 70
     0
  9
$DIMDEC
 70
     2
  9
$DIMTDEC
 70
     2
  9
$DIMALTU
 70
     2
  9
$DIMALTTD
 70
     3
  9
$DIMTXSTY
  7
Standard
  9
$DIMAUNIT
 70
     0
  9
$DIMADEC
 70
     2
  9
$DIMALTRND
 40
0.0
  9
$DIMAZIN
 70
     0
  9
$DIMDSEP
 70
    44
  9
$DIMATFIT
 70
     3
  9
$DIMFRAC
 70
     0
  9
$DIMLDRBLK
  1

  9
$DIMLUNIT
 70
     2
  9
$DIMLWD
 70
    -2
  9
$DIMLWE
 70
    -2
  9
$DIMTMOVE
 70
     0
  9
$LUNITS
 70
     2
  9
$LUPREC
 70
     2
  9
$SKETCHINC
 40
1.0
  9
$FILLETRAD
 40
10.0
  9
$AUNITS
 70
     0
  9
$AUPREC
 70
     2
  9
$MENU
  1
.
  9
$ELEVATION
 40
0.0
  9
$PELEVATION
 40
0.0
  9
$THICKNESS
 40
0.0
  9
$LIMCHECK
 70
     0
  9
$CHAMFERA
 40
0.0
  9
$CHAMFERB
 40
0.0
  9
$CHAMFERC
 40
0.0
  9
$CHAMFERD
 40
0.0
  9
$SKPOLY
 70
     0
  9
$TDCREATE
 40
2458260.569273507
  9
$TDUCREATE
 40
2458260.194273507
  9
$TDUPDATE
 40
2458268.482891343
  9
$TDUUPDATE
 40
2458268.107891343
  9
$TDINDWG
 40
0.0009511227
  9
$TDUSRTIMER
 40
2458268.106940278
  9
$USRTIMER
 70
     1
  9
$ANGBASE
 50
0.0
  9
$ANGDIR
 70
     0
  9
$PDMODE
 70
     0
  9
$PDSIZE
 40
-1.0
  9
$PLINEWID
 40
0.0
  9
$SPLFRAME
 70
     0
  9
$SPLINETYPE
 70
     6
  9
$SPLINESEGS
 70
     8
  9
$HANDSEED
  5
161
  9
$SURFTAB1
 70
     6
  9
$SURFTAB2
 70
     6
  9
$SURFTYPE
 70
     6
  9
$SURFU
 70
     6
  9
$SURFV
 70
     6
  9
$UCSBASE
  2

  9
$UCSNAME
  2

  9
$UCSORG
 10
0.0
 20
0.0
 30
0.0
  9
$UCSXDIR
 10
1.0
 20
0.0
 30
0.0
  9
$UCSYDIR
 10
0.0
 20
1.0
 30
0.0
  9
$UCSORTHOREF
  2

  9
$UCSORTHOVIEW
 70
     0
  9
$UCSORGTOP
 10
0.0
 20
0.0
 30
0.0
  9
$UCSORGBOTTOM
 10
0.0
 20
0.0
 30
0.0
  9
$UCSORGLEFT
 10
0.0
 20
0.0
 30
0.0
  9
$UCSORGRIGHT
 10
0.0
 20
0.0
 30
0.0
  9
$UCSORGFRONT
 10
0.0
 20
0.0
 30
0.0
  9
$UCSORGBACK
 10
0.0
 20
0.0
 30
0.0
  9
$PUCSBASE
  2

  9
$PUCSNAME
  2

  9
$PUCSORG
 10
0.0
 20
0.0
 30
0.0
  9
$PUCSXDIR
 10
1.0
 20
0.0
 30
0.0
  9
$PUCSYDIR
 10
0.0
 20
1.0
 30
0.0
  9
$PUCSORTHOREF
  2

  9
$PUCSORTHOVIEW
 70
     0
  9
$PUCSORGTOP
 10
0.0
 20
0.0
 30
0.0
  9
$PUCSORGBOTTOM
 10
0.0
 20
0.0
 30
0.0
  9
$PUCSORGLEFT
 10
0.0
 20
0.0
 30
0.0
  9
$PUCSORGRIGHT
 10
0.0
 20
0.0
 30
0.0
  9
$PUCSORGFRONT
 10
0.0
 20
0.0
 30
0.0
  9
$PUCSORGBACK
 10
0.0
 20
0.0
 30
0.0
  9
$USERI1
 70
     0
  9
$USERI2
 70
     0
  9
$USERI3
 70
     0
  9
$USERI4
 70
     0
  9
$USERI5
 70
     0
  9
$USERR1
 40
0.0
  9
$USERR2
 40
0.0
  9
$USERR3
 40
0.0
  9
$USERR4
 40
0.0
  9
$USERR5
 40
0.0
  9
$WORLDVIEW
 70
     1
  9
$SHADEDGE
 70
     3
  9
$SHADEDIF
 70
    70
  9
$TILEMODE
 70
     1
  9
$MAXACTVP
 70
    64
  9
$PINSBASE
 10
0.0
 20
0.0
 30
0.0
  9
$PLIMCHECK
 70
     0
  9
$PEXTMIN
 10
1.000000000000000E+20
 20
1.000000000000000E+20
 30
1.000000000000000E+20
  9
$PEXTMAX
 10
-1.000000000000000E+20
 20
-1.000000000000000E+20
 30
-1.000000000000000E+20
  9
$PLIMMIN
 10
0.0
 20
0.0
  9
$PLIMMAX
 10
0.0
 20
0.0
  9
$UNITMODE
 70
     0
  9
$VISRETAIN
 70
     1
  9
$PLINEGEN
 70
     0
  9
$PSLTSCALE
 70
     1
  9
$TREEDEPTH
 70
  3020
  9
$CMLSTYLE
  2
Standard
  9
$CMLJUST
 70
     0
  9
$CMLSCALE
 40
20.0
  9
$PROXYGRAPHICS
 70
     1
  9
$MEASUREMENT
 70
     1
  9
$CELWEIGHT
370
    -1
  9
$ENDCAPS
280
     0
  9
$JOINSTYLE
280
     0
  9
$LWDISPLAY
290
     1
  9
$INSUNITS
 70
     4
  9
$HYPERLINKBASE
  1

  9
$STYLESHEET
  1

  9
$XEDIT
290
     1
  9
$CEPSNTYPE
380
     0
  9
$PSTYLEMODE
290
     1
  9
$FINGERPRINTGUID
  2
{69ACB2B8-F77B-4833-8DBD-E8F28E345106}
  9
$VERSIONGUID
  2
{FAEB1C32-E019-11D5-929B-00C0DF256EC4}
  9
$EXTNAMES
290
     1
  9
$PSVPSCALE
 40
0.0
  9
$OLESTARTUP
290
     0
  0
ENDSEC
  0
SECTION
  2
CLASSES
  0
CLASS
  1
ACDBDICTIONARYWDFLT
  2
AcDbDictionaryWithDefault
  3
ObjectDBX Classes
 90
        0
280
     0
281
     0
  0
CLASS
  1
VISUALSTYLE
  2
AcDbVisualStyle
  3
ObjectDBX Classes
 90
     4095
280
     0
281
     0
  0
CLASS
  1
MATERIAL
  2
AcDbMaterial
  3
ObjectDBX Classes
 90
     1153
280
     0
281
     0
  0
CLASS
  1
SCALE
  2
AcDbScale
  3
ObjectDBX Classes
 90
     1153
280
     0
281
     0
  0
CLASS
  1
TABLESTYLE
  2
AcDbTableStyle
  3
ObjectDBX Classes
 90
     4095
280
     0
281
     0
  0
CLASS
  1
MLEADERSTYLE
  2
AcDbMLeaderStyle
  3
ACDB_MLEADERSTYLE_CLASS
 90
     4095
280
     0
281
     0
  0
CLASS
  1
SUN
  2
AcDbSun
  3
SCENEOE
 90
     1153
280
     0
281
     0
  0
CLASS
  1
ACDBPLACEHOLDER
  2
AcDbPlaceHolder
  3
ObjectDBX Classes
 90
        0
280
     0
281
     0
  0
CLASS
  1
LAYOUT
  2
AcDbLayout
  3
ObjectDBX Classes
 90
        0
280
     0
281
     0
  0
CLASS
  1
RASTERVARIABLES
  2
AcDbRasterVariables
  3
ISM
 90
        0
280
     0
281
     0
  0
ENDSEC
  0
SECTION
  2
TABLES
  0
TABLE
  2
VPORT
  5
8
330
0
100
AcDbSymbolTable
 70
     1
  0
VPORT
  5
29
330
8
100
AcDbSymbolTableRecord
100
AcDbViewportTableRecord
  2
*Active
 70
     0
 10
0.0
 20
0.0
 11
1.0
 21
1.0
 12
0.3675492866951728
 22
-12.60383739361504
 13
0.0
 23
0.0
 14
10.0
 24
10.0
 15
10.0
 25
10.0
 16
0.0
 26
0.0
 36
1.0
 17
0.0
 27
0.0
 37
0.0
 40
76.23065879020126
 41
1.737726098191214
 42
50.0
 43
0.0
 44
0.0
 50
0.0
 51
0.0
 71
    16
 72
  2000
 73
     1
 74
     3
 75
     0
 76
     0
 77
     0
 78
     0
281
     0
 65
     1
110
0.0
120
0.0
130
0.0
111
1.0
121
0.0
131
0.0
112
0.0
122
1.0
132
0.0
 79
     0
146
0.0
  0
ENDTAB
  0
TABLE
  2
LTYPE
  5
5
330
0
100
AcDbSymbolTable
 70
     6
  0
LTYPE
  5
14
330
5
100
AcDbSymbolTableRecord
100
AcDbLinetypeTableRecord
  2
ByBlock
 70
     0
  3

 72
    65
 73
     0
 40
0.0
  0
LTYPE
  5
15
330
5
100
AcDbSymbolTableRecord
100
AcDbLinetypeTableRecord
  2
ByLayer
 70
     0
  3

 72
    65
 73
     0
 40
0.0
  0
LTYPE
  5
16
330
5
100
AcDbSymbolTableRecord
100
AcDbLinetypeTableRecord
  2
Continuous
 70
     0
  3
Solid line
 72
    65
 73
     0
 40
0.0
  0
LTYPE
  5
6E
330
5
100
AcDbSymbolTableRecord
100
AcDbLinetypeTableRecord
  2
HIDDEN
 70
     0
  3
Hidden __ __ __ __ __ __ __ __ __ __ __ __ __ __
 72
    65
 73
     2
 40
1.905
 49
1.27
 74
     0
 49
-0.635
 74
     0
  0
LTYPE
  5
6F
330
5
100
AcDbSymbolTableRecord
100
AcDbLinetypeTableRecord
  2
PHANTOM
 70
     0
  3
Phantom ______  __  __  ______  __  __  ______
 72
    65
 73
     6
 40
12.7
 49
6.35
 74
     0
 49
-1.27
 74
     0
 49
1.27
 74
     0
 49
-1.27
 74
     0
 49
1.27
 74
     0
 49
-1.27
 74
     0
  0
LTYPE
  5
70
330
5
100
AcDbSymbolTableRecord
100
AcDbLinetypeTableRecord
  2
CENTER
 70
     0
  3
Center ____ _ ____ _ ____ _ ____ _ ____ _ ____
 72
    65
 73
     4
 40
10.16
 49
6.35
 74
     0
 49
-1.27
 74
     0
 49
1.27
 74
     0
 49
-1.27
 74
     0
  0
LTYPE
  5
71
330
5
100
AcDbSymbolTableRecord
100
AcDbLinetypeTableRecord
  2
CENTERX2
 70
     0
  3
Center (2x) ________  __  ________  __  _____
 72
    65
 73
     4
 40
20.32
 49
12.7
 74
     0
 49
-2.54
 74
     0
 49
2.54
 74
     0
 49
-2.54
 74
     0
  0
LTYPE
  5
72
330
5
100
AcDbSymbolTableRecord
100
AcDbLinetypeTableRecord
  2
DOT2
 70
     0
  3
Dot (.5x) ........................................
 72
    65
 73
     2
 40
0.635
 49
0.0
 74
     0
 49
-0.635
 74
     0
  0
ENDTAB
  0
TABLE
  2
LAYER
  5
2
330
0
100
AcDbSymbolTable
 70
    17
  0
LAYER
  5
10
330
2
100
AcDbSymbolTableRecord
100
AcDbLayerTableRecord
  2
0
 70
     0
 62
     7
  6
Continuous
370
    -3
390
F
  0
LAYER
  5
73
330
2
100
AcDbSymbolTableRecord
100
AcDbLayerTableRecord
  2
FORMAT
 70
     0
 62
     2
  6
Continuous
370
    -3
390
F
  0
LAYER
  5
74
330
2
100
AcDbSymbolTableRecord
100
AcDbLayerTableRecord
  2
외형선
 70
     0
 62
   100
  6
Continuous
370
    35
390
F
  0
LAYER
  5
75
330
2
100
AcDbSymbolTableRecord
100
AcDbLayerTableRecord
  2
숨은선
 70
     0
 62
     2
  6
HIDDEN
370
    25
390
F
  0
LAYER
  5
76
330
2
100
AcDbSymbolTableRecord
100
AcDbLayerTableRecord
  2
중심선
 70
     0
 62
     1
  6
CENTERX2
370
    -3
390
F
  0
LAYER
  5
77
330
2
100
AcDbSymbolTableRecord
100
AcDbLayerTableRecord
  2
파단선
 70
     0
 62
     4
  6
Continuous
370
    -3
390
F
  0
LAYER
  5
78
330
2
100
AcDbSymbolTableRecord
100
AcDbLayerTableRecord
  2
해칭선
 70
     0
 62
   100
  6
Continuous
370
    -3
390
F
  0
LAYER
  5
79
330
2
100
AcDbSymbolTableRecord
100
AcDbLayerTableRecord
  2
가는실선
 70
     0
 62
     4
  6
Continuous
370
    -3
390
F
  0
LAYER
  5
7A
330
2
100
AcDbSymbolTableRecord
100
AcDbLayerTableRecord
  2
치수_보조선
 70
     0
 62
     4
  6
Continuous
370
    -3
390
F
  0
LAYER
  5
7B
330
2
100
AcDbSymbolTableRecord
100
AcDbLayerTableRecord
  2
치수문자_일반주서
 70
     0
 62
     7
  6
Continuous
370
    25
390
F
  0
LAYER
  5
7C
330
2
100
AcDbSymbolTableRecord
100
AcDbLayerTableRecord
  2
개별주서
 70
     0
 62
   100
  6
Continuous
370
    35
390
F
  0
LAYER
  5
7D
330
2
100
AcDbSymbolTableRecord
100
AcDbLayerTableRecord
  2
중간선
 70
     0
 62
     2
  6
Continuous
370
    25
390
F
  0
LAYER
  5
7E
330
2
100
AcDbSymbolTableRecord
100
AcDbLayerTableRecord
  2
윤곽선
 70
     0
 62
     3
  6
Continuous
370
    50
390
F
  0
LAYER
  5
7F
330
2
100
AcDbSymbolTableRecord
100
AcDbLayerTableRecord
  2
중심마크
 70
     0
 62
   100
  6
Continuous
370
    35
390
F
  0
LAYER
  5
80
330
2
100
AcDbSymbolTableRecord
100
AcDbLayerTableRecord
  2
가상선
 70
     0
 62
     4
  6
PHANTOM
370
    -3
390
F
  0
LAYER
  5
81
330
2
100
AcDbSymbolTableRecord
100
AcDbLayerTableRecord
  2
특수지정선
 70
     0
 62
     5
  6
CENTERX2
370
    70
390
F
  0
LAYER
  5
152
330
2
100
AcDbSymbolTableRecord
100
AcDbLayerTableRecord
  2
Defpoints
 70
     0
 62
     7
  6
Continuous
290
     0
370
    -3
390
F
  0
ENDTAB
  0
TABLE
  2
STYLE
  5
3
330
0
100
AcDbSymbolTable
 70
     2
  0
STYLE
  5
11
330
3
100
AcDbSymbolTableRecord
100
AcDbTextStyleTableRecord
  2
Standard
 70
     0
 40
0.0
 41
1.0
 50
0.0
 71
     0
 42
3.5
  3
txt
  4

  0
STYLE
  5
97
330
3
100
AcDbSymbolTableRecord
100
AcDbTextStyleTableRecord
  2
SLDTEXTSTYLE0
 70
     0
 40
0.0
 41
0.75
 50
0.0
 71
     0
 42
3.5
  3
TXT
  4

  0
ENDTAB
  0
TABLE
  2
VIEW
  5
6
330
0
100
AcDbSymbolTable
 70
     0
  0
ENDTAB
  0
TABLE
  2
UCS
  5
7
330
0
100
AcDbSymbolTable
 70
     0
  0
ENDTAB
  0
TABLE
  2
APPID
  5
9
330
0
100
AcDbSymbolTable
 70
     1
  0
APPID
  5
12
330
9
100
AcDbSymbolTableRecord
100
AcDbRegAppTableRecord
  2
ACAD
 70
     0
  0
ENDTAB
  0
TABLE
  2
DIMSTYLE
  5
A
330
0
100
AcDbSymbolTable
 70
     4
100
AcDbDimStyleTable
  0
DIMSTYLE
105
27
330
A
100
AcDbSymbolTableRecord
100
AcDbDimStyleTableRecord
  2
ISO-25
 70
     0
 41
2.5
 42
0.625
 43
3.75
 44
1.25
 73
     0
 74
     0
 77
     1
 78
     8
140
2.5
141
2.5
143
0.03937007874016
147
0.625
171
     3
172
     1
178
     0
271
     2
272
     2
274
     3
278
    44
283
     0
284
     8
340
11
  0
DIMSTYLE
105
F7
102
{ACAD_REACTORS
330
F6
102
}
330
A
100
AcDbSymbolTableRecord
100
AcDbDimStyleTableRecord
  2
SLDDIMSTYLE0
 70
     0
 41
3.302
 44
0.0
 45
0.000000001
 73
     0
 74
     0
 77
     1
 78
    12
 79
     3
140
3.5
147
0.875
172
     1
173
     1
178
     0
271
     1
272
     1
276
     2
284
    12
289
     0
340
97
  0
DIMSTYLE
105
105
102
{ACAD_REACTORS
330
104
102
}
330
A
100
AcDbSymbolTableRecord
100
AcDbDimStyleTableRecord
  2
SLDDIMSTYLE1
 70
     0
 41
3.302
 44
0.0
 45
0.000000001
 73
     0
 74
     0
 77
     1
 78
    12
 79
     3
140
3.5
147
0.875
173
     1
178
     0
271
     2
272
     2
276
     2
284
    12
340
97
  0
DIMSTYLE
105
110
102
{ACAD_REACTORS
330
10F
330
11D
102
}
330
A
100
AcDbSymbolTableRecord
100
AcDbDimStyleTableRecord
  2
SLDDIMSTYLE2
 70
     0
 41
3.302
 44
0.0
 45
0.000000001
 73
     0
 74
     0
 77
     1
 78
    12
 79
     3
140
3.5
147
0.875
172
     1
173
     1
178
     0
271
     2
272
     2
276
     2
284
    12
289
     0
340
97
  0
ENDTAB
  0
TABLE
  2
BLOCK_RECORD
  5
1
330
0
100
AcDbSymbolTable
 70
     7
  0
BLOCK_RECORD
  5
1F
330
1
100
AcDbSymbolTableRecord
100
AcDbBlockTableRecord
  2
*Model_Space
340
22
  0
BLOCK_RECORD
  5
1B
330
1
100
AcDbSymbolTableRecord
100
AcDbBlockTableRecord
  2
*Paper_Space
340
1E
  0
BLOCK_RECORD
  5
23
330
1
100
AcDbSymbolTableRecord
100
AcDbBlockTableRecord
  2
*Paper_Space0
340
26
  0
BLOCK_RECORD
  5
82
330
1
100
AcDbSymbolTableRecord
100
AcDbBlockTableRecord
  2
블럭10
340
0
102
{BLKREFS
331
EF
102
}
  0
BLOCK_RECORD
  5
F8
330
1
100
AcDbSymbolTableRecord
100
AcDbBlockTableRecord
  2
_D
340
0
  0
BLOCK_RECORD
  5
106
330
1
100
AcDbSymbolTableRecord
100
AcDbBlockTableRecord
  2
_D_1
340
0
  0
BLOCK_RECORD
  5
111
330
1
100
AcDbSymbolTableRecord
100
AcDbBlockTableRecord
  2
_D_2
340
0
  0
BLOCK_RECORD
  5
11E
330
1
100
AcDbSymbolTableRecord
100
AcDbBlockTableRecord
  2
_D_3
340
0
  0
BLOCK_RECORD
  5
127
330
1
100
AcDbSymbolTableRecord
100
AcDbBlockTableRecord
  2
SW_DOWELSYMBOL_0
340
0
102
{BLKREFS
331
12D
102
}
  0
ENDTAB
  0
ENDSEC
  0
SECTION
  2
BLOCKS
  0
BLOCK
  5
20
330
1F
100
AcDbEntity
  8
0
100
AcDbBlockBegin
  2
*Model_Space
 70
     0
 10
0.0
 20
0.0
 30
0.0
  3
*Model_Space
  1

  0
ENDBLK
  5
21
330
1F
100
AcDbEntity
  8
0
100
AcDbBlockEnd
  0
BLOCK
  5
1C
330
1B
100
AcDbEntity
 67
     1
  8
0
100
AcDbBlockBegin
  2
*Paper_Space
 70
     0
 10
0.0
 20
0.0
 30
0.0
  3
*Paper_Space
  1

  0
ENDBLK
  5
1D
330
1B
100
AcDbEntity
 67
     1
  8
0
100
AcDbBlockEnd
  0
BLOCK
  5
24
330
23
100
AcDbEntity
  8
0
100
AcDbBlockBegin
  2
*Paper_Space0
 70
     0
 10
0.0
 20
0.0
 30
0.0
  3
*Paper_Space0
  1

  0
ENDBLK
  5
25
330
23
100
AcDbEntity
  8
0
100
AcDbBlockEnd
  0
BLOCK
  5
83
330
82
100
AcDbEntity
  8
0
100
AcDbBlockBegin
  2
블럭10
 70
     2
 10
0.0
 20
0.0
 30
0.0
  3
블럭10
  1

  0
ELLIPSE
  5
85
330
82
100
AcDbEntity
  8
중심선
100
AcDbEllipse
 10
20.54032771741204
 20
12.0471743016438
 30
0.0
 11
6.600054785286829
 21
-1.261213355974178E-13
 31
0.0
210
0.0
220
0.0
230
1.0
 40
0.636358354079598
 41
0.9219305317359503
 42
6.513795318482858
  0
ELLIPSE
  5
86
330
82
100
AcDbEntity
  8
중심선
100
AcDbEllipse
 10
20.54032771746488
 20
12.04717430159265
 30
0.0
 11
3.960054785062283
 21
1.540847449632565E-10
 31
0.0
210
0.0
220
0.0
230
1.0
 40
0.3939339440162632
 41
1.131841032648279
 42
5.62031148352944
  0
LINE
  5
87
330
82
100
AcDbEntity
  8
중심선
100
AcDbLine
 10
2.268634060543552
 20
16.24717430164393
 30
0.0
 11
5.714909304380834
 21
16.24717430164393
 31
0.0
  0
LINE
  5
88
330
82
100
AcDbEntity
  8
중심선
100
AcDbLine
 10
5.245725140726316
 20
7.84717430164391
 30
0.0
 11
8.692000384563599
 21
7.84717430164391
 31
0.0
  0
LINE
  5
89
330
82
100
AcDbEntity
  8
중심선
100
AcDbLine
 10
15.74043728645272
 20
16.24717430164393
 30
0.0
 11
8.692000384563599
 21
7.84717430164391
 31
0.0
  0
LINE
  5
8A
330
82
100
AcDbEntity
  8
중심선
100
AcDbLine
 10
0.1404042013395286
 20
13.71084872107135
 30
0.0
 11
3.58671253028996
 21
13.71088815037384
 31
0.0
  0
LINE
  5
8B
330
82
100
AcDbEntity
  8
중심선
100
AcDbLine
 10
2.750260043222114
 20
10.84717430164391
 30
0.0
 11
6.196535287059397
 21
10.84717430164391
 31
0.0
  0
LINE
  5
8C
330
82
100
AcDbEntity
  8
중심선
100
AcDbLine
 10
12.29416204261559
 20
16.24717430164393
 30
0.0
 11
5.245725140726316
 21
7.84717430164391
 31
0.0
  0
LINE
  5
8D
330
82
100
AcDbEntity
  8
중심선
100
AcDbLine
 10
10.72767329541681
 20
16.24717430164393
 30
0.0
 11
6.196535287059397
 21
10.84717430164391
 31
0.0
  0
LINE
  5
8E
330
82
100
AcDbEntity
  8
중심선
100
AcDbLine
 10
7.28139805157953
 20
16.24717430164393
 30
0.0
 11
2.750260043222114
 21
10.84717430164391
 31
0.0
  0
LINE
  5
8F
330
82
100
AcDbEntity
  8
중심선
100
AcDbLine
 10
5.714909304380834
 20
16.24717430164393
 30
0.0
 11
3.58671253028996
 21
13.71088815037384
 31
0.0
  0
LINE
  5
90
330
82
100
AcDbEntity
  8
중심선
100
AcDbLine
 10
2.268634060543552
 20
16.24717430164393
 30
0.0
 11
0.1404042013395286
 21
13.71084872107135
 31
0.0
  0
LINE
  5
91
330
82
100
AcDbEntity
  8
중심선
100
AcDbLine
 10
7.28139805157953
 20
16.24717430164393
 30
0.0
 11
10.72767329541681
 21
16.24717430164393
 31
0.0
  0
LINE
  5
92
330
82
100
AcDbEntity
  8
중심선
100
AcDbLine
 10
12.29416204261559
 20
16.24717430164393
 30
0.0
 11
15.74043728645272
 21
16.24717430164393
 31
0.0
  0
LINE
  5
93
330
82
100
AcDbEntity
  8
중심선
100
AcDbLine
 10
19.22036997980202
 20
11.08717430171403
 30
0.0
 11
23.66174974927406
 21
11.08717430171406
 31
0.0
  0
LINE
  5
94
330
82
100
AcDbEntity
  8
중심선
100
AcDbLine
 10
19.22039502424796
 20
13.00717430171391
 30
0.0
 11
19.22036997980202
 21
11.08717430171403
 31
0.0
  0
LINE
  5
95
330
82
100
AcDbEntity
  8
중심선
100
AcDbLine
 10
19.22039502424796
 20
13.00717430171391
 30
0.0
 11
26.96566020931264
 21
13.00717430171391
 31
0.0
  0
LINE
  5
96
330
82
100
AcDbEntity
  8
중심선
100
AcDbLine
 10
22.22332737316547
 20
13.45928029700563
 30
0.0
 11
24.52862924686651
 21
15.39360700705356
 31
0.0
  0
ATTDEF
  5
98
330
82
100
AcDbEntity
  8
FORMAT
 62
     2
100
AcDbText
 10
-16.11926103943555
 20
2.075366912832191
 30
0.0
 40
4.233333333333333
  1
SEME7202520E [ 4 FLUTE ]
 41
0.75
  7
SLDTEXTSTYLE0
 11
-16.11926103943555
 21
-0.0412997538344756
 31
0.0
100
AcDbAttributeDefinition
  3

  2
AUTOATTR0
 70
     0
 74
     1
  0
ENDBLK
  5
84
330
82
100
AcDbEntity
  8
0
100
AcDbBlockEnd
  0
BLOCK
  5
F9
330
F8
100
AcDbEntity
  8
0
100
AcDbBlockBegin
  2
_D
 70
     0
 10
0.0
 20
0.0
 30
0.0
  3
_D
  1

  0
LINE
  5
FB
330
F8
100
AcDbEntity
  8
치수문자_일반주서
 62
     0
370
    -2
100
AcDbLine
 10
29.59358891324554
 20
-1.250000000000005
 30
0.0
 11
39.57151965233579
 21
-1.249999999999968
 31
0.0
  0
LINE
  5
FC
330
F8
100
AcDbEntity
  8
치수문자_일반주서
 62
     0
370
    -2
100
AcDbLine
 10
29.59358891324554
 20
1.250000000000005
 30
0.0
 11
39.57151965233579
 21
1.250000000000043
 31
0.0
  0
LINE
  5
FD
330
F8
100
AcDbEntity
  8
치수문자_일반주서
 62
     0
370
    -2
100
AcDbLine
 10
39.57151965233579
 20
-1.249999999999968
 30
0.0
 11
39.57151965233574
 21
17.47900000000004
 31
0.0
  0
LINE
  5
FE
330
F8
100
AcDbEntity
  8
치수문자_일반주서
 62
     0
370
    -2
100
AcDbLine
 10
39.57151965233579
 20
-1.249999999999968
 30
0.0
 11
39.57151965233579
 21
1.250000000000043
 31
0.0
  0
LINE
  5
FF
330
F8
100
AcDbEntity
  8
치수문자_일반주서
 62
     0
370
    -2
100
AcDbLine
 10
39.5715196523358
 20
-4.551999999999968
 30
0.0
 11
39.57151965233581
 21
-7.853999999999967
 31
0.0
  0
LINE
  5
100
330
F8
100
AcDbEntity
  8
치수문자_일반주서
 62
     0
370
    -2
100
AcDbLine
 10
39.57151965233578
 20
4.552000000000042
 30
0.0
 11
39.57151965233577
 21
7.854000000000042
 31
0.0
  0
SOLID
  5
101
330
F8
100
AcDbEntity
  8
치수문자_일반주서
 62
     0
100
AcDbTrace
 10
40.12185298566914
 20
-4.551999999999966
 30
0.0
 11
39.02118631900247
 21
-4.551999999999969
 31
0.0
 12
39.57151965233579
 22
-1.249999999999968
 32
0.0
 13
39.57151965233579
 23
-1.249999999999968
 33
0.0
  0
SOLID
  5
102
330
F8
100
AcDbEntity
  8
치수문자_일반주서
 62
     0
100
AcDbTrace
 10
39.02118631900245
 20
4.55200000000004
 30
0.0
 11
40.12185298566911
 21
4.552000000000044
 31
0.0
 12
39.57151965233579
 22
1.250000000000043
 32
0.0
 13
39.57151965233579
 23
1.250000000000043
 33
0.0
  0
MTEXT
  5
103
330
F8
100
AcDbEntity
  8
치수문자_일반주서
 62
     0
100
AcDbMText
 10
35.19651965233575
 20
12.66650000000003
 30
0.0
 40
3.5
 41
0.0
 71
     2
 72
     1
  1
\A1;%%c2.5
  7
SLDTEXTSTYLE0
 11
-2.842170943040389E-15
 21
1.0
 31
0.0
 73
     1
 44
1.0
  0
POINT
  5
15C
330
F8
100
AcDbEntity
  8
Defpoints
 62
     0
100
AcDbPoint
 10
29.53108891324554
 20
-1.250000000000006
 30
0.0
  0
POINT
  5
15D
330
F8
100
AcDbEntity
  8
Defpoints
 62
     0
100
AcDbPoint
 10
29.53108891324554
 20
1.250000000000005
 30
0.0
  0
POINT
  5
15E
330
F8
100
AcDbEntity
  8
Defpoints
 62
     0
100
AcDbPoint
 10
39.57151965233578
 20
1.250000000000042
 30
0.0
  0
ENDBLK
  5
FA
330
F8
100
AcDbEntity
  8
0
100
AcDbBlockEnd
  0
BLOCK
  5
107
330
106
100
AcDbEntity
  8
0
100
AcDbBlockBegin
  2
_D_1
 70
     0
 10
0.0
 20
0.0
 30
0.0
  3
_D_1
  1

  0
LINE
  5
109
330
106
100
AcDbEntity
  8
치수문자_일반주서
 62
     0
370
    -2
100
AcDbLine
 10
-30.46891108675448
 20
2.562499999999996
 30
0.0
 11
-30.46891108675448
 21
20.38913260158165
 31
0.0
  0
LINE
  5
10A
330
106
100
AcDbEntity
  8
치수문자_일반주서
 62
     0
370
    -2
100
AcDbLine
 10
29.53108891324552
 20
1.312500000000002
 30
0.0
 11
29.53108891324552
 21
20.38913260158165
 31
0.0
  0
LINE
  5
10B
330
106
100
AcDbEntity
  8
치수문자_일반주서
 62
     0
370
    -2
100
AcDbLine
 10
-27.16691108675448
 20
20.38913260158165
 30
0.0
 11
26.22908891324552
 21
20.38913260158165
 31
0.0
  0
SOLID
  5
10C
330
106
100
AcDbEntity
  8
치수문자_일반주서
 62
     0
100
AcDbTrace
 10
-27.16691108675448
 20
20.93946593491498
 30
0.0
 11
-27.16691108675448
 21
19.83879926824831
 31
0.0
 12
-30.46891108675448
 22
20.38913260158165
 32
0.0
 13
-30.46891108675448
 23
20.38913260158165
 33
0.0
  0
SOLID
  5
10D
330
106
100
AcDbEntity
  8
치수문자_일반주서
 62
     0
100
AcDbTrace
 10
26.22908891324552
 20
19.83879926824831
 30
0.0
 11
26.22908891324552
 21
20.93946593491498
 31
0.0
 12
29.53108891324552
 22
20.38913260158165
 32
0.0
 13
29.53108891324552
 23
20.38913260158165
 33
0.0
  0
MTEXT
  5
10E
330
106
100
AcDbEntity
  8
치수문자_일반주서
 62
     0
100
AcDbMText
 10
-0.4689110867544777
 20
24.76413260158165
 30
0.0
 40
3.5
 41
0.0
 71
     2
 72
     1
  1
\A1;60
  7
SLDTEXTSTYLE0
 73
     1
 44
1.0
  0
POINT
  5
153
330
106
100
AcDbEntity
  8
Defpoints
 62
     0
100
AcDbPoint
 10
-30.46891108675448
 20
2.499999999999996
 30
0.0
  0
POINT
  5
154
330
106
100
AcDbEntity
  8
Defpoints
 62
     0
100
AcDbPoint
 10
29.53108891324552
 20
1.250000000000002
 30
0.0
  0
POINT
  5
155
330
106
100
AcDbEntity
  8
Defpoints
 62
     0
100
AcDbPoint
 10
29.53108891324552
 20
20.38913260158165
 30
0.0
  0
ENDBLK
  5
108
330
106
100
AcDbEntity
  8
0
100
AcDbBlockEnd
  0
BLOCK
  5
112
330
111
100
AcDbEntity
  8
0
100
AcDbBlockBegin
  2
_D_2
 70
     0
 10
0.0
 20
0.0
 30
0.0
  3
_D_2
  1

  0
LINE
  5
114
330
111
100
AcDbEntity
  8
치수문자_일반주서
 62
     0
370
    -2
100
AcDbLine
 10
-30.03141108675446
 20
3.000000000000003
 30
0.0
 11
-38.29720780489892
 21
2.999999999999972
 31
0.0
  0
LINE
  5
115
330
111
100
AcDbEntity
  8
치수문자_일반주서
 62
     0
370
    -2
100
AcDbLine
 10
-30.03141108675446
 20
-3.000000000000003
 30
0.0
 11
-38.2972078048989
 21
-3.000000000000034
 31
0.0
  0
LINE
  5
116
330
111
100
AcDbEntity
  8
치수문자_일반주서
 62
     0
370
    -2
100
AcDbLine
 10
-38.29720780489892
 20
2.999999999999972
 30
0.0
 11
-38.29720780489897
 21
15.72899999999997
 31
0.0
  0
LINE
  5
117
330
111
100
AcDbEntity
  8
치수문자_일반주서
 62
     0
370
    -2
100
AcDbLine
 10
-38.29720780489892
 20
2.999999999999972
 30
0.0
 11
-38.2972078048989
 21
-3.000000000000034
 31
0.0
  0
LINE
  5
118
330
111
100
AcDbEntity
  8
치수문자_일반주서
 62
     0
370
    -2
100
AcDbLine
 10
-38.29720780489893
 20
6.301999999999971
 30
0.0
 11
-38.29720780489895
 21
9.60399999999997
 31
0.0
  0
LINE
  5
119
330
111
100
AcDbEntity
  8
치수문자_일반주서
 62
     0
370
    -2
100
AcDbLine
 10
-38.29720780489888
 20
-6.302000000000033
 30
0.0
 11
-38.29720780489887
 21
-9.604000000000033
 31
0.0
  0
SOLID
  5
11A
330
111
100
AcDbEntity
  8
치수문자_일반주서
 62
     0
100
AcDbTrace
 10
-38.84754113823227
 20
6.301999999999969
 30
0.0
 11
-37.7468744715656
 21
6.301999999999973
 31
0.0
 12
-38.29720780489892
 22
2.999999999999972
 32
0.0
 13
-38.29720780489892
 23
2.999999999999972
 33
0.0
  0
SOLID
  5
11B
330
111
100
AcDbEntity
  8
치수문자_일반주서
 62
     0
100
AcDbTrace
 10
-37.74687447156555
 20
-6.302000000000032
 30
0.0
 11
-38.84754113823222
 21
-6.302000000000035
 31
0.0
 12
-38.2972078048989
 22
-3.000000000000034
 32
0.0
 13
-38.2972078048989
 23
-3.000000000000034
 33
0.0
  0
MTEXT
  5
11C
330
111
100
AcDbEntity
  8
치수문자_일반주서
 62
     0
100
AcDbMText
 10
-42.67220780489895
 20
12.66649999999996
 30
0.0
 40
3.5
 41
0.0
 71
     2
 72
     1
  1
\A1;%%c6
  7
SLDTEXTSTYLE0
 11
-3.552713678800498E-15
 21
1.0
 31
0.0
 73
     1
 44
1.0
  0
POINT
  5
159
330
111
100
AcDbEntity
  8
Defpoints
 62
     0
100
AcDbPoint
 10
-29.96891108675446
 20
3.000000000000003
 30
0.0
  0
POINT
  5
15A
330
111
100
AcDbEntity
  8
Defpoints
 62
     0
100
AcDbPoint
 10
-29.96891108675446
 20
-3.000000000000002
 30
0.0
  0
POINT
  5
15B
330
111
100
AcDbEntity
  8
Defpoints
 62
     0
100
AcDbPoint
 10
-38.2972078048989
 20
-3.000000000000033
 30
0.0
  0
ENDBLK
  5
113
330
111
100
AcDbEntity
  8
0
100
AcDbBlockEnd
  0
BLOCK
  5
11F
330
11E
100
AcDbEntity
  8
0
100
AcDbBlockBegin
  2
_D_3
 70
     0
 10
0.0
 20
0.0
 30
0.0
  3
_D_3
  1

  0
LINE
  5
121
330
11E
100
AcDbEntity
  8
치수문자_일반주서
 62
     0
370
    -2
100
AcDbLine
 10
9.531088913245519
 20
1.3125
 30
0.0
 11
9.531088913245519
 21
12.09591830258765
 31
0.0
  0
LINE
  5
122
330
11E
100
AcDbEntity
  8
치수문자_일반주서
 62
     0
370
    -2
100
AcDbLine
 10
29.53108891324552
 20
1.312500000000002
 30
0.0
 11
29.53108891324552
 21
12.09591830258765
 31
0.0
  0
LINE
  5
123
330
11E
100
AcDbEntity
  8
치수문자_일반주서
 62
     0
370
    -2
100
AcDbLine
 10
12.83308891324552
 20
12.09591830258765
 30
0.0
 11
26.22908891324552
 21
12.09591830258765
 31
0.0
  0
SOLID
  5
124
330
11E
100
AcDbEntity
  8
치수문자_일반주서
 62
     0
100
AcDbTrace
 10
12.83308891324552
 20
12.64625163592098
 30
0.0
 11
12.83308891324552
 21
11.54558496925432
 31
0.0
 12
9.531088913245519
 22
12.09591830258765
 32
0.0
 13
9.531088913245519
 23
12.09591830258765
 33
0.0
  0
SOLID
  5
125
330
11E
100
AcDbEntity
  8
치수문자_일반주서
 62
     0
100
AcDbTrace
 10
26.22908891324552
 20
11.54558496925432
 30
0.0
 11
26.22908891324552
 21
12.64625163592098
 31
0.0
 12
29.53108891324552
 22
12.09591830258765
 32
0.0
 13
29.53108891324552
 23
12.09591830258765
 33
0.0
  0
MTEXT
  5
126
330
11E
100
AcDbEntity
  8
치수문자_일반주서
 62
     0
100
AcDbMText
 10
19.53108891324552
 20
16.47091830258765
 30
0.0
 40
3.5
 41
0.0
 71
     2
 72
     1
  1
\A1;20
  7
SLDTEXTSTYLE0
 73
     1
 44
1.0
  0
POINT
  5
156
330
11E
100
AcDbEntity
  8
Defpoints
 62
     0
100
AcDbPoint
 10
9.531088913245519
 20
1.25
 30
0.0
  0
POINT
  5
157
330
11E
100
AcDbEntity
  8
Defpoints
 62
     0
100
AcDbPoint
 10
29.53108891324552
 20
1.250000000000002
 30
0.0
  0
POINT
  5
158
330
11E
100
AcDbEntity
  8
Defpoints
 62
     0
100
AcDbPoint
 10
29.53108891324552
 20
12.09591830258765
 30
0.0
  0
ENDBLK
  5
120
330
11E
100
AcDbEntity
  8
0
100
AcDbBlockEnd
  0
BLOCK
  5
128
330
127
100
AcDbEntity
  8
0
100
AcDbBlockBegin
  2
SW_DOWELSYMBOL_0
 70
     0
 10
0.0
 20
0.0
 30
0.0
  3
SW_DOWELSYMBOL_0
  1

  0
CIRCLE
  5
12A
330
127
100
AcDbEntity
  8
해칭선
 62
     0
100
AcDbCircle
 10
0.0
 20
0.0
 30
0.0
 40
3.000000000000003
  0
HATCH
  5
12B
330
127
100
AcDbEntity
  8
0
  6
Continuous
 62
     0
370
    18
100
AcDbHatch
 10
0.0
 20
0.0
 30
0.0
210
0.0
220
0.0
230
1.0
  2
SOLID
 70
     1
 71
     0
 91
        1
 92
        0
 93
        3
 72
     2
 10
0.0
 20
0.0
 40
3.000000000000003
 50
0.0
 51
90.0
 73
     1
 72
     1
 10
0.0
 20
3.000000000000003
 11
0.0
 21
0.0
 72
     1
 10
0.0
 20
0.0
 11
3.000000000000003
 21
0.0
 97
        0
 75
     0
 76
     1
 98
        1
 10
0.0
 20
0.0
  0
HATCH
  5
12C
330
127
100
AcDbEntity
  8
0
  6
Continuous
 62
     0
370
    18
100
AcDbHatch
 10
0.0
 20
0.0
 30
0.0
210
0.0
220
0.0
230
1.0
  2
SOLID
 70
     1
 71
     0
 91
        1
 92
        0
 93
        3
 72
     2
 10
0.0
 20
0.0
 40
3.000000000000003
 50
180.0
 51
270.0000000000008
 73
     1
 72
     1
 10
0.0
 20
-3.000000000000003
 11
0.0
 21
0.0
 72
     1
 10
0.0
 20
0.0
 11
-3.000000000000003
 21
0.0
 97
        0
 75
     0
 76
     1
 98
        1
 10
0.0
 20
0.0
  0
ENDBLK
  5
129
330
127
100
AcDbEntity
  8
0
100
AcDbBlockEnd
  0
ENDSEC
  0
SECTION
  2
ENTITIES
  0
LINE
  5
99
330
1F
100
AcDbEntity
  8
0
  6
Continuous
 62
     4
370
    25
100
AcDbLine
 10
2.0
 20
2.999999999999998
 30
0.0
 11
-29.96891108675447
 21
2.999999999999996
 31
0.0
  0
LINE
  5
9A
330
1F
100
AcDbEntity
  8
0
  6
Continuous
 62
     4
370
    25
100
AcDbLine
 10
-29.96891108675447
 20
-3.0
 30
0.0
 11
2.0
 21
-2.999999999999998
 31
0.0
  0
LINE
  5
9B
330
1F
100
AcDbEntity
  8
0
  6
Continuous
 62
     4
370
    25
100
AcDbLine
 10
2.0
 20
-2.999999999999999
 30
0.0
 11
8.040201936164024
 21
-1.381532769083941
 31
0.0
  0
LINE
  5
9C
330
1F
100
AcDbEntity
  8
0
  6
Continuous
 62
     4
370
    25
100
AcDbLine
 10
8.040201936164024
 20
1.381532769083942
 30
0.0
 11
2.0
 21
2.999999999999999
 31
0.0
  0
LINE
  5
9D
330
1F
100
AcDbEntity
  8
0
  6
Continuous
 62
     4
370
    25
100
AcDbLine
 10
-29.96891108675447
 20
2.999999999999995
 30
0.0
 11
-30.46891108675448
 21
2.499999999999996
 31
0.0
  0
LINE
  5
9E
330
1F
100
AcDbEntity
  8
0
  6
Continuous
 62
     4
370
    25
100
AcDbLine
 10
-30.46891108675448
 20
-2.5
 30
0.0
 11
-29.96891108675447
 21
-2.999999999999999
 31
0.0
  0
LINE
  5
9F
330
1F
100
AcDbEntity
  8
0
  6
Continuous
 62
     4
370
    25
100
AcDbLine
 10
8.641673780968537
 20
-1.25
 30
0.0
 11
9.531088913245519
 21
-1.25
 31
0.0
  0
LINE
  5
A0
330
1F
100
AcDbEntity
  8
0
  6
Continuous
 62
     4
370
    25
100
AcDbLine
 10
9.531088913245519
 20
1.25
 30
0.0
 11
8.641673780968537
 21
1.25
 31
0.0
  0
LINE
  5
A1
330
1F
100
AcDbEntity
  8
0
  6
Continuous
 62
     1
370
    25
100
AcDbLine
 10
25.64742147538773
 20
-1.250000000000002
 30
0.0
 11
26.61404987504321
 21
-1.250000000000002
 31
0.0
  0
LINE
  5
A2
330
1F
100
AcDbEntity
  8
0
  6
Continuous
 62
     1
370
    25
100
AcDbLine
 10
12.04392624363111
 20
-1.250000000000002
 30
0.0
 11
13.01055464328658
 21
-1.250000000000002
 31
0.0
  0
LINE
  5
A3
330
1F
100
AcDbEntity
  8
0
  6
Continuous
 62
     1
370
    25
100
AcDbLine
 10
19.81245247918672
 20
1.250000000000002
 30
0.0
 11
18.84529444418484
 21
1.250000000000002
 31
0.0
  0
LINE
  5
A4
330
1F
100
AcDbEntity
  8
0
  6
Continuous
 62
     1
370
    25
100
AcDbLine
 10
12.38850854074092
 20
-0.1970360920333285
 30
0.0
 11
12.35193415932764
 21
-0.1780435718663871
 31
0.0
  0
LINE
  5
A5
330
1F
100
AcDbEntity
  8
0
  6
Continuous
 62
     1
370
    25
100
AcDbLine
 10
25.99200377249755
 20
-0.1970360920333271
 30
0.0
 11
25.95542939108427
 21
-0.1780435718663854
 31
0.0
  0
LINE
  5
A6
330
1F
100
AcDbEntity
  8
0
  6
Continuous
 62
     1
370
    25
100
AcDbLine
 10
22.8487300042408
 20
0.2062216669573878
 30
0.0
 11
22.90108390386391
 21
0.1789622236874424
 31
0.0
  0
SPLINE
  5
A7
330
1F
100
AcDbEntity
  8
0
  6
Continuous
 62
     1
370
    25
100
AcDbSpline
210
0.0
220
0.0
230
1.0
 70
     8
 71
     3
 72
     9
 73
     5
 74
     0
 42
0.000000001
 43
0.00000001
 40
0.0
 40
0.0
 40
0.0
 40
0.0
 40
0.4990260427457479
 40
1.0
 40
1.0
 40
1.0
 40
1.0
 10
15.92759368149318
 20
0.2777596273623453
 30
0.0
 10
15.97492768682364
 20
0.2515264613296971
 30
0.0
 10
16.06978046258264
 20
0.1989577298696963
 30
0.0
 10
16.1656198782944
 20
0.1420931836879049
 30
0.0
 10
16.21363292964447
 20
0.1136055269597457
 30
0.0
  0
LINE
  5
A8
330
1F
100
AcDbEntity
  8
0
  6
Continuous
 62
     4
370
    25
100
AcDbLine
 10
19.18930208465114
 20
-0.1964021394257511
 30
0.0
 11
19.15368177520595
 21
-0.1780435718663861
 31
0.0
  0
LINE
  5
A9
330
1F
100
AcDbEntity
  8
0
  6
Continuous
 62
     1
370
    25
100
AcDbLine
 10
22.24572082639538
 20
-1.250000000000002
 30
0.0
 11
23.2128823157181
 21
-1.250000000000002
 31
0.0
  0
LINE
  5
AA
330
1F
100
AcDbEntity
  8
0
  6
Continuous
 62
     4
370
    25
100
AcDbLine
 10
9.531088913245517
 20
-1.250000000000002
 30
0.0
 11
9.609402395752168
 21
-1.250000000000002
 31
0.0
  0
LINE
  5
AB
330
1F
100
AcDbEntity
  8
0
  6
Continuous
 62
     1
370
    25
100
AcDbLine
 10
16.41037690382629
 20
1.250000000000002
 30
0.0
 11
15.4433243171752
 21
1.250000000000002
 31
0.0
  0
LINE
  5
AC
330
1F
100
AcDbEntity
  8
0
  6
Continuous
 62
     1
370
    25
100
AcDbLine
 10
29.53108891324552
 20
1.250000000000002
 30
0.0
 11
29.04692561473392
 21
1.250000000000002
 31
0.0
  0
LINE
  5
AD
330
1F
100
AcDbEntity
  8
0
  6
Continuous
 62
     1
370
    25
100
AcDbLine
 10
29.0469256147339
 20
-1.250000000000002
 30
0.0
 11
29.53108891324552
 21
-1.250000000000002
 31
0.0
  0
LINE
  5
AE
330
1F
100
AcDbEntity
  8
0
  6
Continuous
 62
     1
370
    25
100
AcDbLine
 10
15.4433243171752
 20
-1.250000000000002
 30
0.0
 11
16.41037690382631
 21
-1.250000000000002
 31
0.0
  0
LINE
  5
AF
330
1F
100
AcDbEntity
  8
0
  6
Continuous
 62
     1
370
    25
100
AcDbLine
 10
9.609402395752182
 20
1.250000000000002
 30
0.0
 11
9.531088913245517
 21
1.250000000000002
 31
0.0
  0
LINE
  5
B0
330
1F
100
AcDbEntity
  8
0
  6
Continuous
 62
     1
370
    25
100
AcDbLine
 10
23.21288231571811
 20
1.250000000000002
 30
0.0
 11
22.24572082639536
 21
1.250000000000002
 31
0.0
  0
LINE
  5
B1
330
1F
100
AcDbEntity
  8
0
  6
Continuous
 62
     1
370
    25
100
AcDbLine
 10
18.84529444418484
 20
-1.250000000000002
 30
0.0
 11
19.81245247918672
 21
-1.250000000000002
 31
0.0
  0
LINE
  5
B2
330
1F
100
AcDbEntity
  8
0
  6
Continuous
 62
     1
370
    25
100
AcDbLine
 10
13.01055464328657
 20
1.250000000000002
 30
0.0
 11
12.04392624363113
 21
1.250000000000002
 31
0.0
  0
LINE
  5
B3
330
1F
100
AcDbEntity
  8
0
  6
Continuous
 62
     1
370
    25
100
AcDbLine
 10
26.6140498750432
 20
1.250000000000002
 30
0.0
 11
25.64742147538775
 21
1.250000000000002
 31
0.0
  0
LINE
  5
B4
330
1F
100
AcDbEntity
  8
0
  6
Continuous
 62
     4
370
    25
100
AcDbLine
 10
2.0
 20
3.0
 30
0.0
 11
2.0
 21
-3.0
 31
0.0
  0
LINE
  5
B5
330
1F
100
AcDbEntity
  8
0
  6
Continuous
 62
     4
370
    25
100
AcDbLine
 10
-29.96891108675447
 20
2.999999999999995
 30
0.0
 11
-29.96891108675447
 21
-2.999999999999999
 31
0.0
  0
SPLINE
  5
B6
330
1F
100
AcDbEntity
  8
0
  6
Continuous
 62
     4
370
    25
100
AcDbSpline
210
0.0
220
0.0
230
1.0
 70
     8
 71
     3
 72
     8
 73
     4
 74
     0
 42
0.000000001
 43
0.00000001
 40
0.0
 40
0.0
 40
0.0
 40
0.0
 40
1.0
 40
1.0
 40
1.0
 40
1.0
 10
8.408753316897377
 20
-1.274896162814797
 30
0.0
 10
8.449420840532804
 20
-1.266876810137285
 30
0.0
 10
8.49019807657278
 20
-1.258029901202706
 30
0.0
 10
8.531088913245519
 20
-1.248372423494116
 30
0.0
  0
SPLINE
  5
B7
330
1F
100
AcDbEntity
  8
0
  6
Continuous
 62
     4
370
    25
100
AcDbSpline
210
0.0
220
0.0
230
1.0
 70
     8
 71
     3
 72
    14
 73
    10
 74
     0
 42
0.000000001
 43
0.00000001
 40
0.0
 40
0.0
 40
0.0
 40
0.0
 40
0.0389305716309231
 40
0.2005791598588668
 40
0.3637475843902656
 40
0.5353924840858287
 40
0.715091314340239
 40
0.8989790050438065
 40
1.0
 40
1.0
 40
1.0
 40
1.0
 10
8.040106014937184
 20
-1.381174786191855
 30
0.0
 10
8.040893970784667
 20
-1.381078782103224
 30
0.0
 10
8.044953698532609
 20
-1.380584147202325
 30
0.0
 10
8.0755289583081
 20
-1.369440477042352
 30
0.0
 10
8.129331110789405
 20
-1.350339193395137
 30
0.0
 10
8.201626066922849
 20
-1.326362241016559
 30
0.0
 10
8.284109292238428
 20
-1.302673930767646
 30
0.0
 10
8.356232067856086
 20
-1.285503404114182
 30
0.0
 10
8.395005349065443
 20
-1.277672715445044
 30
0.0
 10
8.408753316897362
 20
-1.274896162814799
 30
0.0
  0
SPLINE
  5
B8
330
1F
100
AcDbEntity
  8
0
  6
Continuous
 62
     4
370
    25
100
AcDbSpline
210
0.0
220
0.0
230
1.0
 70
     8
 71
     3
 72
     8
 73
     4
 74
     0
 42
0.000000001
 43
0.00000001
 40
0.0
 40
0.0
 40
0.0
 40
0.0
 40
1.0
 40
1.0
 40
1.0
 40
1.0
 10
8.408753316897377
 20
1.274896162814797
 30
0.0
 10
8.449420840532804
 20
1.266876810137286
 30
0.0
 10
8.49019807657278
 20
1.258029901202707
 30
0.0
 10
8.531088913245519
 20
1.248372423494117
 30
0.0
  0
SPLINE
  5
B9
330
1F
100
AcDbEntity
  8
0
  6
Continuous
 62
     4
370
    25
100
AcDbSpline
210
0.0
220
0.0
230
1.0
 70
     8
 71
     3
 72
    12
 73
     8
 74
     0
 42
0.000000001
 43
0.00000001
 40
0.0
 40
0.0
 40
0.0
 40
0.0
 40
0.25
 40
0.25
 40
0.5
 40
0.5
 40
1.0
 40
1.0
 40
1.0
 40
1.0
 10
8.03113352016774
 20
1.382753808069479
 30
0.0
 10
8.03113352016774
 20
1.384644097838023
 30
0.0
 10
8.043424743104362
 20
1.38082630864882
 30
0.0
 10
8.088948158910567
 20
1.364796806528221
 30
0.0
 10
8.12221779324597
 20
1.352707199906925
 30
0.0
 10
8.23653896387089
 20
1.314984576721802
 30
0.0
 10
8.33400036902241
 20
1.289636923970215
 30
0.0
 10
8.408753316897345
 20
1.274896162814783
 30
0.0
  0
LINE
  5
BA
330
1F
100
AcDbEntity
  8
0
  6
Continuous
 62
     4
370
    25
100
AcDbLine
 10
8.03113352016774
 20
1.382753808069479
 30
0.0
 11
8.03113352016774
 21
1.013989452091177
 31
0.0
  0
SPLINE
  5
BB
330
1F
100
AcDbEntity
  8
0
  6
Continuous
 62
     4
370
    25
100
AcDbSpline
210
0.0
220
0.0
230
1.0
 70
     8
 71
     3
 72
     8
 73
     4
 74
     0
 42
0.000000001
 43
0.00000001
 40
0.0
 40
0.0
 40
0.0
 40
0.0
 40
1.0
 40
1.0
 40
1.0
 40
1.0
 10
8.148942362796877
 20
0.8381490587958074
 30
0.0
 10
8.07770659422045
 20
0.8845218806964301
 30
0.0
 10
8.03113352016774
 20
0.9554833814359113
 30
0.0
 10
8.03113352016774
 20
1.013989452091177
 30
0.0
  0
SPLINE
  5
BC
330
1F
100
AcDbEntity
  8
0
  6
Continuous
 62
     4
370
    25
100
AcDbSpline
210
0.0
220
0.0
230
1.0
 70
     8
 71
     3
 72
     8
 73
     4
 74
     0
 42
0.000000001
 43
0.00000001
 40
0.0
 40
0.0
 40
0.0
 40
0.0
 40
1.0
 40
1.0
 40
1.0
 40
1.0
 10
8.53108891324529
 20
0.596749450629809
 30
0.0
 10
8.40108836364305
 20
0.6749056920900662
 30
0.0
 10
8.274423515377732
 20
0.7564637586045979
 30
0.0
 10
8.148942362796877
 20
0.8381490587958034
 30
0.0
  0
LINE
  5
BD
330
1F
100
AcDbEntity
  8
0
  6
Continuous
 62
     4
370
    25
100
AcDbLine
 10
8.531088913245519
 20
0.596749450629243
 30
0.0
 11
8.531088913245519
 21
0.063767485911108
 31
0.0
  0
SPLINE
  5
BE
330
1F
100
AcDbEntity
  8
0
  6
Continuous
 62
     4
370
    25
100
AcDbSpline
210
0.0
220
0.0
230
1.0
 70
     8
 71
     3
 72
     8
 73
     4
 74
     0
 42
0.000000001
 43
0.00000001
 40
0.0
 40
0.0
 40
0.0
 40
0.0
 40
1.0
 40
1.0
 40
1.0
 40
1.0
 10
8.408753316897377
 20
0.1419985738644262
 30
0.0
 10
8.449420840532804
 20
0.1155589366712852
 30
0.0
 10
8.49019807657278
 20
0.0894812874672711
 30
0.0
 10
8.531088913245519
 20
0.0637674859111086
 30
0.0
  0
SPLINE
  5
BF
330
1F
100
AcDbEntity
  8
0
  6
Continuous
 62
     4
370
    25
100
AcDbSpline
210
0.0
220
0.0
230
1.0
 70
     8
 71
     3
 72
    12
 73
     8
 74
     0
 42
0.000000001
 43
0.00000001
 40
0.0
 40
0.0
 40
0.0
 40
0.0
 40
0.2500000000000001
 40
0.2500000000000001
 40
0.5000000000000001
 40
0.5000000000000001
 40
1.0
 40
1.0
 40
1.0
 40
1.0
 10
8.03113352016774
 20
-0.0578317021827434
 30
0.0
 10
8.03113352016774
 20
-0.0126349454359123
 30
0.0
 10
8.043424743104362
 20
0.0318296017337647
 30
0.0
 10
8.088948158910567
 20
0.1071922694162225
 30
0.0
 10
8.12221779324597
 20
0.1378863676419992
 30
0.0
 10
8.23653896387089
 20
0.1964581936584709
 30
0.0
 10
8.33400036902241
 20
0.1905985535103463
 30
0.0
 10
8.408753316897345
 20
0.1419985738644425
 30
0.0
  0
LINE
  5
C0
330
1F
100
AcDbEntity
  8
0
  6
Continuous
 62
     4
370
    25
100
AcDbLine
 10
8.03113352016774
 20
-0.0578317021827434
 30
0.0
 11
8.03113352016774
 21
-0.9419012636979798
 31
0.0
  0
SPLINE
  5
C1
330
1F
100
AcDbEntity
  8
0
  6
Continuous
 62
     4
370
    25
100
AcDbSpline
210
0.0
220
0.0
230
1.0
 70
     8
 71
     3
 72
     8
 73
     4
 74
     0
 42
0.000000001
 43
0.00000001
 40
0.0
 40
0.0
 40
0.0
 40
0.0
 40
1.0
 40
1.0
 40
1.0
 40
1.0
 10
8.148942362796877
 20
-1.061357958587546
 30
0.0
 10
8.07770659422045
 20
-1.049059194725143
 30
0.0
 10
8.03113352016774
 20
-1.004885082505939
 30
0.0
 10
8.03113352016774
 20
-0.9419012636979802
 30
0.0
  0
SPLINE
  5
C2
330
1F
100
AcDbEntity
  8
0
  6
Continuous
 62
     4
370
    25
100
AcDbSpline
210
0.0
220
0.0
230
1.0
 70
     8
 71
     3
 72
     8
 73
     4
 74
     0
 42
0.000000001
 43
0.00000001
 40
0.0
 40
0.0
 40
0.0
 40
0.0
 40
1.0
 40
1.0
 40
1.0
 40
1.0
 10
8.53108891324529
 20
-1.098357907593373
 30
0.0
 10
8.40108836364305
 20
-1.095537546141627
 30
0.0
 10
8.274423515377732
 20
-1.083022118259213
 30
0.0
 10
8.148942362796877
 20
-1.06135795858754
 30
0.0
  0
LINE
  5
C3
330
1F
100
AcDbEntity
  8
0
  6
Continuous
 62
     4
370
    25
100
AcDbLine
 10
8.531088913245519
 20
-1.098357907593745
 30
0.0
 11
8.531088913245519
 21
-1.248372423494113
 31
0.0
  0
LINE
  5
C4
330
1F
100
AcDbEntity
  8
0
  6
Continuous
 62
     4
370
    25
100
AcDbLine
 10
-30.46891108675448
 20
2.499999999999996
 30
0.0
 11
-30.46891108675448
 21
-2.500000000000002
 31
0.0
  0
SPLINE
  5
C5
330
1F
100
AcDbEntity
  8
0
  6
Continuous
 62
     4
370
    25
100
AcDbSpline
210
0.0
220
0.0
230
1.0
 70
     8
 71
     3
 72
    10
 73
     6
 74
     0
 42
0.000000001
 43
0.00000001
 40
0.0
 40
0.0
 40
0.0
 40
0.0
 40
0.5
 40
0.5
 40
1.0
 40
1.0
 40
1.0
 40
1.0
 10
9.531088913245517
 20
1.146182546817077
 30
0.0
 10
9.363387631500938
 20
1.184622963705972
 30
0.0
 10
9.198052563242145
 20
1.212657163715232
 30
0.0
 10
8.866916990745663
 20
1.246989714814771
 30
0.0
 10
8.697559536518783
 20
1.253275028348529
 30
0.0
 10
8.531088913245519
 20
1.248372423494114
 30
0.0
  0
SPLINE
  5
C6
330
1F
100
AcDbEntity
  8
0
  6
Continuous
 62
     4
370
    25
100
AcDbSpline
210
0.0
220
0.0
230
1.0
 70
    24
 71
     3
 72
    16
 73
    12
 74
     0
 42
0.000000001
 43
0.00000001
 40
0.0
 40
0.0
 40
0.0
 40
0.0
 40
0.1249999999999997
 40
0.1249999999999997
 40
0.2499999999999994
 40
0.2499999999999994
 40
0.4999999999999996
 40
0.4999999999999996
 40
0.7499999999999998
 40
0.7499999999999998
 40
1.0
 40
1.0
 40
1.0
 40
1.0
 10
9.531088913245519
 20
1.146182546817087
 30
0.0
 10
9.531088913245519
 20
1.103765900373944
 30
0.0
 10
9.531088913245519
 20
1.065135754683355
 30
0.0
 10
9.531088913245519
 20
0.9790758831572262
 30
0.0
 10
9.531088913245517
 20
0.9326129706606626
 30
0.0
 10
9.531088913245517
 20
0.7833971564155896
 30
0.0
 10
9.531088913245519
 20
0.6696717226567879
 30
0.0
 10
9.531088913245517
 20
0.4359724080591532
 30
0.0
 10
9.531088913245519
 20
0.3163243863467172
 30
0.0
 10
9.531088913245519
 20
0.1281910632270391
 30
0.0
 10
9.531088913245519
 20
0.0626521787438047
 30
0.0
 10
9.531088913245519
 20
0.0452631699340266
 30
0.0
  0
SPLINE
  5
C7
330
1F
100
AcDbEntity
  8
0
  6
Continuous
 62
     4
370
    25
100
AcDbSpline
210
0.0
220
0.0
230
1.0
 70
     8
 71
     3
 72
    10
 73
     6
 74
     0
 42
0.000000001
 43
0.00000001
 40
0.0
 40
0.0
 40
0.0
 40
0.0
 40
0.5
 40
0.5
 40
1.0
 40
1.0
 40
1.0
 40
1.0
 10
9.531088913245519
 20
0.0452631699340265
 30
0.0
 10
9.363387631500938
 20
0.1415391737434319
 30
0.0
 10
9.198052563242145
 20
0.2369492389008372
 30
0.0
 10
8.866916990745663
 20
0.4220231469626766
 30
0.0
 10
8.697559536518783
 20
0.5123049295270641
 30
0.0
 10
8.531088913245519
 20
0.5967494506292431
 30
0.0
  0
SPLINE
  5
C8
330
1F
100
AcDbEntity
  8
0
  6
Continuous
 62
     4
370
    25
100
AcDbSpline
210
0.0
220
0.0
230
1.0
 70
     8
 71
     3
 72
    10
 73
     6
 74
     0
 42
0.000000001
 43
0.00000001
 40
0.0
 40
0.0
 40
0.0
 40
0.0
 40
0.5
 40
0.5
 40
1.0
 40
1.0
 40
1.0
 40
1.0
 10
9.531088913245517
 20
-0.4987640417791983
 30
0.0
 10
9.363387631500938
 20
-0.410426208175047
 30
0.0
 10
9.198052563242145
 20
-0.3180645699222437
 30
0.0
 10
8.866916990745663
 20
-0.1293024303556065
 30
0.0
 10
8.697559536518783
 20
-0.0322105288419111
 30
0.0
 10
8.531088913245519
 20
0.063767485911108
 30
0.0
  0
SPLINE
  5
C9
330
1F
100
AcDbEntity
  8
0
  6
Continuous
 62
     4
370
    25
100
AcDbSpline
210
0.0
220
0.0
230
1.0
 70
    24
 71
     3
 72
    12
 73
     8
 74
     0
 42
0.000000001
 43
0.00000001
 40
0.0
 40
0.0
 40
0.0
 40
0.0
 40
0.175366351541751
 40
0.404750638320882
 40
0.6341349251000121
 40
0.8635192118788021
 40
1.0
 40
1.0
 40
1.0
 40
1.0
 10
9.531088913245517
 20
-0.4766864836508475
 30
0.0
 10
9.531088913245517
 20
-0.47826000141737
 30
0.0
 10
9.531088913245517
 20
-0.4818917261742004
 30
0.0
 10
9.531088913245519
 20
-0.6031536346596615
 30
0.0
 10
9.531088913245517
 20
-0.8063623679674116
 30
0.0
 10
9.531088913245519
 20
-1.037148604936257
 30
0.0
 10
9.531088913245519
 20
-1.191574015524631
 30
0.0
 10
9.531088913245519
 20
-1.249180229369454
 30
0.0
  0
SPLINE
  5
CA
330
1F
100
AcDbEntity
  8
0
  6
Continuous
 62
     4
370
    25
100
AcDbSpline
210
0.0
220
0.0
230
1.0
 70
     8
 71
     3
 72
    10
 73
     6
 74
     0
 42
0.000000001
 43
0.00000001
 40
0.0
 40
0.0
 40
0.0
 40
0.0
 40
0.5
 40
0.5
 40
1.0
 40
1.0
 40
1.0
 40
1.0
 10
9.531088913245519
 20
-1.249180229369454
 30
0.0
 10
9.363387631500938
 20
-1.245691735861041
 30
0.0
 10
9.198052563242145
 20
-1.231079820943391
 30
0.0
 10
8.866916990745663
 20
-1.180507912204498
 30
0.0
 10
8.697559536518783
 20
-1.144237507702212
 30
0.0
 10
8.531088913245519
 20
-1.098357907593744
 30
0.0
  0
LINE
  5
CB
330
1F
100
AcDbEntity
  8
0
  6
Continuous
 62
     4
370
    25
100
AcDbLine
 10
9.531088913245519
 20
0.0452631699340266
 30
0.0
 11
9.531088913245517
 21
-0.4987640417792006
 31
0.0
  0
LINE
  5
CC
330
1F
100
AcDbEntity
  8
0
  6
Continuous
 62
     4
370
    25
100
AcDbLine
 10
8.531088913245828
 20
-1.248372423494122
 30
0.0
 11
8.641673780968537
 21
-1.244281370664058
 31
0.0
  0
LINE
  5
CD
330
1F
100
AcDbEntity
  8
0
  6
Continuous
 62
     4
370
    25
100
AcDbLine
 10
9.531088913245519
 20
-1.249180229369454
 30
0.0
 11
9.531088913245519
 21
-1.25
 31
0.0
  0
LINE
  5
CE
330
1F
100
AcDbEntity
  8
0
  6
Continuous
 62
     4
370
    25
100
AcDbLine
 10
9.531088913245519
 20
1.25
 30
0.0
 11
9.531088913245517
 21
1.146182546817086
 31
0.0
  0
SPLINE
  5
CF
330
1F
100
AcDbEntity
  8
0
  6
Continuous
 62
     1
370
    25
100
AcDbSpline
210
0.0
220
0.0
230
1.0
 70
     8
 71
     3
 72
    11
 73
     7
 74
     0
 42
0.000000001
 43
0.00000001
 40
0.0
 40
0.0
 40
0.0
 40
0.0
 40
0.2359553591651303
 40
0.4722890136461986
 40
0.7399547424529465
 40
1.0
 40
1.0
 40
1.0
 40
1.0
 10
9.531088913245519
 20
-0.4987640417791986
 30
0.0
 10
9.728623911346551
 20
-0.5999650684576218
 30
0.0
 10
10.12401060543918
 20
-0.8025293723117486
 30
0.0
 10
10.74368849259277
 20
-1.04455242400908
 30
0.0
 10
11.38393231423427
 20
-1.217162008943168
 30
0.0
 10
11.82605644865543
 20
-1.238054141630925
 30
0.0
 10
12.04392624363111
 20
-1.248349360350993
 30
0.0
  0
SPLINE
  5
D0
330
1F
100
AcDbEntity
  8
0
  6
Continuous
 62
     1
370
    25
100
AcDbSpline
210
0.0
220
0.0
230
1.0
 70
     8
 71
     3
 72
    20
 73
    16
 74
     0
 42
0.000000001
 43
0.00000001
 40
0.0
 40
0.0
 40
0.0
 40
0.0
 40
0.0599465758939289
 40
0.1437555133798514
 40
0.2275155180581088
 40
0.3112461581878599
 40
0.3949672112303286
 40
0.4786985231269528
 40
0.5480012030956355
 40
0.6174580778095388
 40
0.6866188169643874
 40
0.7605627865631489
 40
0.8346253067955559
 40
0.9185067095471038
 40
1.0
 40
1.0
 40
1.0
 40
1.0
 10
17.6291666203569
 20
1.047330881943286
 30
0.0
 10
17.78944191503006
 20
1.095773271598239
 30
0.0
 10
18.17379176194402
 20
1.211941050830813
 30
0.0
 10
18.78195209211522
 20
1.267393289578721
 30
0.0
 10
19.45362469749312
 20
1.221059875808238
 30
0.0
 10
20.12501875302963
 20
1.054501573114444
 30
0.0
 10
20.79629169694767
 20
0.7882376819563315
 30
0.0
 10
21.42912824317942
 20
0.4660373721038388
 30
0.0
 10
22.02353570656483
 20
0.1290734877285357
 30
0.0
 10
22.57966832658838
 20
-0.1933832232057087
 30
0.0
 10
23.14731999635433
 20
-0.5113625595539754
 30
0.0
 10
23.72751741505104
 20
-0.8008665792539612
 30
0.0
 10
24.34718017117715
 20
-1.045062724925662
 30
0.0
 10
24.98742844901083
 20
-1.217032318663961
 30
0.0
 10
25.42955197850687
 20
-1.238011329730265
 30
0.0
 10
25.64742147538774
 20
-1.248349360350992
 30
0.0
  0
SPLINE
  5
D1
330
1F
100
AcDbEntity
  8
0
  6
Continuous
 62
     1
370
    25
100
AcDbSpline
210
0.0
220
0.0
230
1.0
 70
     8
 71
     3
 72
    20
 73
    16
 74
     0
 42
0.000000001
 43
0.00000001
 40
0.0
 40
0.0
 40
0.0
 40
0.0
 40
0.0425316176089093
 40
0.1226424090059814
 40
0.2064176289620574
 40
0.2902026662846728
 40
0.3740173096500876
 40
0.4578811368214485
 40
0.541813377032274
 40
0.625747369329474
 40
0.7096125306090342
 40
0.7934280695410195
 40
0.8772135575216468
 40
0.9609887800104039
 40
1.0
 40
1.0
 40
1.0
 40
1.0
 10
27.82586682235931
 20
-1.047321872891761
 30
0.0
 10
27.71226036640113
 20
-1.084144706584094
 30
0.0
 10
27.38466950057844
 20
-1.190325502997261
 30
0.0
 10
26.83348070652558
 20
-1.259764131824615
 30
0.0
 10
26.17195598821038
 20
-1.24466433227439
 30
0.0
 10
25.50057716900137
 20
-1.105599612591336
 30
0.0
 10
24.82889709366741
 20
-0.8622220667112205
 30
0.0
 10
24.15675838700338
 20
-0.536016020978936
 30
0.0
 10
23.48415463809834
 20
-0.1587685580408209
 30
0.0
 10
22.81154256624065
 20
0.2337936301004926
 30
0.0
 10
22.13939075632161
 20
0.6036045867127632
 30
0.0
 10
21.46770534372424
 20
0.9174059903543516
 30
0.0
 10
20.79630949314657
 20
1.136970520017887
 30
0.0
 10
20.24459882548108
 20
1.248350356541011
 30
0.0
 10
19.9166477804404
 20
1.238266028412603
 30
0.0
 10
19.81245247918672
 20
1.235062075800864
 30
0.0
  0
SPLINE
  5
D2
330
1F
100
AcDbEntity
  8
0
  6
Continuous
 62
     1
370
    25
100
AcDbSpline
210
0.0
220
0.0
230
1.0
 70
     8
 71
     3
 72
    15
 73
    11
 74
     0
 42
0.000000001
 43
0.00000001
 40
0.0
 40
0.0
 40
0.0
 40
0.0
 40
0.072645132754531
 40
0.2094764926530494
 40
0.3525667938781391
 40
0.4956738634260826
 40
0.63883150088163
 40
0.7820731455843315
 40
0.9254316415758728
 40
0.9999999999999999
 40
0.9999999999999999
 40
0.9999999999999999
 40
0.9999999999999999
 10
14.22237159060268
 20
-1.047321872891762
 30
0.0
 10
14.10876512414557
 20
-1.084144702081648
 30
0.0
 10
13.78117422804862
 20
-1.190325485511748
 30
0.0
 10
13.22998582382962
 20
-1.259764281518698
 30
0.0
 10
12.56845940934859
 20
-1.244663754570601
 30
0.0
 10
11.89708695289287
 20
-1.1056017635436
 30
0.0
 10
11.22538313486817
 20
-0.8622140356505008
 30
0.0
 10
10.55333311349955
 20
-0.5360460224579796
 30
0.0
 10
9.988066546031341
 20
-0.219038174607825
 30
0.0
 10
9.647590211104447
 20
-0.02211747948042
 30
0.0
 10
9.531088913245412
 20
0.0452631699340876
 30
0.0
  0
SPLINE
  5
D3
330
1F
100
AcDbEntity
  8
0
  6
Continuous
 62
     4
370
    25
100
AcDbSpline
210
0.0
220
0.0
230
1.0
 70
    24
 71
     3
 72
    12
 73
     8
 74
     0
 42
0.000000001
 43
0.00000001
 40
0.0
 40
0.0
 40
0.0
 40
0.0
 40
0.1862999380938923
 40
0.4126428828691027
 40
0.6389858276443128
 40
0.8653287724191872
 40
1.0
 40
1.0
 40
1.0
 40
1.0
 10
9.531088913245517
 20
-0.4752637560688239
 30
0.0
 10
9.531088913245517
 20
-0.4767626246835607
 30
0.0
 10
9.531088913245517
 20
-0.480082526303256
 30
0.0
 10
9.531088913245517
 20
-0.6029332633488685
 30
0.0
 10
9.531088913245517
 20
-0.80642214559914
 30
0.0
 10
9.531088913245517
 20
-1.037140465820691
 30
0.0
 10
9.531088913245517
 20
-1.191571804232613
 30
0.0
 10
9.531088913245517
 20
-1.249180229367765
 30
0.0
  0
SPLINE
  5
D4
330
1F
100
AcDbEntity
  8
0
  6
Continuous
 62
     1
370
    25
100
AcDbSpline
210
0.0
220
0.0
230
1.0
 70
     8
 71
     3
 72
    20
 73
    16
 74
     0
 42
0.000000001
 43
0.00000001
 40
0.0
 40
0.0
 40
0.0
 40
0.0
 40
0.0329999412799012
 40
0.1169655362379683
 40
0.2009328839786905
 40
0.2848313733482651
 40
0.3686802206502996
 40
0.4524990050587011
 40
0.5363075198957168
 40
0.6201256318354631
 40
0.703973139000303
 40
0.7878696300919819
 40
0.8718343466730424
 40
0.9558025465251804
 40
1.0
 40
1.0
 40
1.0
 40
1.0
 10
24.42127958813615
 20
-1.048505194659044
 30
0.0
 10
24.33316074035298
 20
-1.078437453036144
 30
0.0
 10
24.0208308426659
 20
-1.184529843389072
 30
0.0
 10
23.48415033591688
 20
-1.256318649795992
 30
0.0
 10
22.81154369847697
 20
-1.249607730857178
 30
0.0
 10
22.13939052596927
 20
-1.117204760804022
 30
0.0
 10
21.46770513419352
 20
-0.8797726696883624
 30
0.0
 10
20.79631056102227
 20
-0.5578954165250327
 30
0.0
 10
20.12501380045102
 20
-0.1829095333520134
 30
0.0
 10
19.45362564300127
 20
0.2097076104197147
 30
0.0
 10
18.78195326543707
 20
0.5819144428857331
 30
0.0
 10
18.10981865402948
 20
0.9001988304473102
 30
0.0
 10
17.43722380020064
 20
1.126485327975868
 30
0.0
 10
16.87063291173411
 20
1.245059499131932
 30
0.0
 10
16.52839603143117
 20
1.237596186801413
 30
0.0
 10
16.41037690382629
 20
1.235022491033994
 30
0.0
  0
SPLINE
  5
D5
330
1F
100
AcDbEntity
  8
0
  6
Continuous
 62
     1
370
    25
100
AcDbSpline
210
0.0
220
0.0
230
1.0
 70
     8
 71
     3
 72
    10
 73
     6
 74
     0
 42
0.000000001
 43
0.00000001
 40
0.0
 40
0.0
 40
0.0
 40
0.0
 40
0.2054272867041965
 40
0.7281198637132587
 40
1.0
 40
1.0
 40
1.0
 40
1.0
 10
10.81778435637952
 20
-1.048505194659045
 30
0.0
 10
10.72967052224857
 20
-1.0783850022462
 30
0.0
 10
10.41735839503315
 20
-1.184291485154019
 30
0.0
 10
9.988061495918853
 20
-1.244144339023297
 30
0.0
 10
9.647588923635176
 20
-1.247896385874474
 30
0.0
 10
9.531088913245412
 20
-1.249180229369454
 30
0.0
  0
SPLINE
  5
D6
330
1F
100
AcDbEntity
  8
0
  6
Continuous
 62
     1
370
    25
100
AcDbSpline
210
0.0
220
0.0
230
1.0
 70
     8
 71
     3
 72
    20
 73
    16
 74
     0
 42
0.000000001
 43
0.00000001
 40
0.0
 40
0.0
 40
0.0
 40
0.0
 40
0.071305549244241
 40
0.1550954010483417
 40
0.2388173830926413
 40
0.3224907017282804
 40
0.4061349081998452
 40
0.4897697611651295
 40
0.5734150860946386
 40
0.6570906336625636
 40
0.7408159392666823
 40
0.8246101412929778
 40
0.9084008672661859
 40
0.9921235091259956
 40
1.0
 40
1.0
 40
1.0
 40
1.0
 10
10.81778435637954
 20
1.048505194659046
 30
0.0
 10
11.00862092143975
 20
1.103100673984355
 30
0.0
 10
11.42370605725884
 20
1.22185030639209
 30
0.0
 10
12.06288275056498
 20
1.268442606171191
 30
0.0
 10
12.73500773145699
 20
1.206543028441504
 30
0.0
 10
13.40667675312563
 20
1.026628242325064
 30
0.0
 10
14.07806256100527
 20
0.7494339214031954
 30
0.0
 10
14.74935947428101
 20
0.4004717353974367
 30
0.0
 10
15.42075607758597
 20
0.0133634502380704
 30
0.0
 10
16.09244637912388
 20
-0.3753274836541168
 30
0.0
 10
16.76460376632969
 20
-0.7273645927786581
 30
0.0
 10
17.43722150077136
 20
-1.013146965185905
 30
0.0
 10
18.10981548110249
 20
-1.189746672808419
 30
0.0
 10
18.57914198723934
 20
-1.265943099482553
 30
0.0
 10
18.82422046322152
 20
-1.24656548697169
 30
0.0
 10
18.84529444418484
 20
-1.244899231150848
 30
0.0
  0
SPLINE
  5
D7
330
1F
100
AcDbEntity
  8
0
  6
Continuous
 62
     1
370
    25
100
AcDbSpline
210
0.0
220
0.0
230
1.0
 70
     8
 71
     3
 72
    15
 73
    11
 74
     0
 42
0.000000001
 43
0.00000001
 40
0.0
 40
0.0
 40
0.0
 40
0.0
 40
0.1120146607011712
 40
0.2436410477007188
 40
0.3751608173584673
 40
0.506604141139738
 40
0.6380017323067084
 40
0.769384629949213
 40
0.9007839781138992
 40
0.9999999999999999
 40
0.9999999999999999
 40
0.9999999999999999
 40
0.9999999999999999
 10
24.42127958813617
 20
1.048505194659047
 30
0.0
 10
24.61211615440076
 20
1.103100560488707
 30
0.0
 10
25.02720129283946
 20
1.221849946034125
 30
0.0
 10
25.66637796385841
 20
1.26844434607479
 30
0.0
 10
26.33850303200012
 20
1.206536546258475
 30
0.0
 10
27.01017172837519
 20
1.026652414594159
 30
0.0
 10
27.68155874966084
 20
0.7493437468192891
 30
0.0
 10
28.35285113505171
 20
0.4008082517824476
 30
0.0
 10
28.96937219779037
 20
0.0438860344392553
 30
0.0
 10
29.36211986027845
 20
-0.1803669190621034
 30
0.0
 10
29.53108891324552
 20
-0.2768456834120843
 30
0.0
  0
LINE
  5
D8
330
1F
100
AcDbEntity
  8
0
  6
Continuous
 62
     1
370
    25
100
AcDbLine
 10
29.53108891324552
 20
-0.5000000000000003
 30
0.0
 11
29.53108891324552
 21
-0.2780751709923345
 31
0.0
  0
SPLINE
  5
D9
330
1F
100
AcDbEntity
  8
0
  6
Continuous
 62
     1
370
    25
100
AcDbSpline
210
0.0
220
0.0
230
1.0
 70
    24
 71
     3
 72
    10
 73
     6
 74
     0
 42
0.000000001
 43
0.00000001
 40
0.0
 40
0.0
 40
0.0
 40
0.0
 40
0.5
 40
0.5
 40
1.0
 40
1.0
 40
1.0
 40
1.0
 10
29.53108891324552
 20
-0.5
 30
0.0
 10
29.45712426532603
 20
-0.5517906040342484
 30
0.0
 10
29.36953558604758
 20
-0.6131208575278548
 30
0.0
 10
29.19294578687741
 20
-0.7367703660777434
 30
0.0
 10
29.10451492148045
 20
-0.798690324638099
 30
0.0
 10
29.02060181304913
 20
-0.8574469157163187
 30
0.0
  0
SPLINE
  5
DA
330
1F
100
AcDbEntity
  8
0
  6
Continuous
 62
     1
370
    25
100
AcDbSpline
210
0.0
220
0.0
230
1.0
 70
     8
 71
     3
 72
     8
 73
     4
 74
     0
 42
0.000000001
 43
0.00000001
 40
0.0
 40
0.0
 40
0.0
 40
0.0
 40
1.0
 40
1.0
 40
1.0
 40
1.0
 10
29.41456119791204
 20
-1.202188908513169
 30
0.0
 10
29.27496601649665
 20
-1.100234442373329
 30
0.0
 10
29.14641143312493
 20
-0.9809900311237039
 30
0.0
 10
29.02060181304913
 20
-0.8574469157163228
 30
0.0
  0
SPLINE
  5
DB
330
1F
100
AcDbEntity
  8
0
  6
Continuous
 62
     1
370
    25
100
AcDbSpline
210
0.0
220
0.0
230
1.0
 70
     8
 71
     3
 72
    17
 73
    13
 74
     0
 42
0.000000001
 43
0.00000001
 40
0.0
 40
0.0
 40
0.0
 40
0.0
 40
0.1037399923415457
 40
0.2074931032339831
 40
0.3110982857947034
 40
0.4146169710900924
 40
0.5228708090430896
 40
0.6311373329383864
 40
0.7394421135850388
 40
0.8478104492514404
 40
0.9562671878380845
 40
1.0
 40
1.0
 40
1.0
 40
1.0
 10
29.41456119791199
 20
-1.202188908513163
 30
0.0
 10
29.20007662424445
 20
-1.158023144758961
 30
0.0
 10
28.77108035403483
 20
-1.069686032222003
 30
0.0
 10
28.12778775326278
 20
-0.8156188114630436
 30
0.0
 10
27.48521731621521
 20
-0.4976426594926686
 30
0.0
 10
26.83347427148537
 20
-0.1287246514902416
 30
0.0
 10
26.17195770021781
 20
0.2575724096363322
 30
0.0
 10
25.50057687717239
 20
0.6246666666223686
 30
0.0
 10
24.82889654791728
 20
0.9340588454213581
 30
0.0
 10
24.15676086451933
 20
1.146963530191343
 30
0.0
 10
23.61798472635357
 20
1.251571190123314
 30
0.0
 10
23.30330725428807
 20
1.239115063844531
 30
0.0
 10
23.21288231571811
 20
1.235535702264608
 30
0.0
  0
SPLINE
  5
DC
330
1F
100
AcDbEntity
  8
0
  6
Continuous
 62
     1
370
    25
100
AcDbSpline
210
0.0
220
0.0
230
1.0
 70
     8
 71
     3
 72
    21
 73
    17
 74
     0
 42
0.000000001
 43
0.00000001
 40
0.0
 40
0.0
 40
0.0
 40
0.0
 40
0.0239261793469765
 40
0.1077915504585288
 40
0.1915879666319781
 40
0.2267296096651582
 40
0.3069452160852426
 40
0.3871709662550167
 40
0.4672823327568575
 40
0.5473268163677744
 40
0.631032695486329
 40
0.7147483838455787
 40
0.7984936537426749
 40
0.8822880667362295
 40
0.966150836143704
 40
1.0
 40
1.0
 40
1.0
 40
1.0
 10
17.62916662035692
 20
-1.047330881943283
 30
0.0
 10
17.56518551497422
 20
-1.06992496061446
 30
0.0
 10
17.27693963796905
 20
-1.171715168563221
 30
0.0
 10
16.76478395714646
 20
-1.248454512526459
 30
0.0
 10
16.22189817939547
 20
-1.256466467050118
 30
0.0
 10
15.69104525644119
 20
-1.190621152833252
 30
0.0
 10
15.16740925854287
 20
-1.065029552553224
 30
0.0
 10
14.52433959178715
 20
-0.8168635208756146
 30
0.0
 10
13.88170942169595
 20
-0.4973137915689039
 30
0.0
 10
13.22998293985794
 20
-0.1288034236906742
 30
0.0
 10
12.56846008221558
 20
0.2575394680194305
 30
0.0
 10
11.89708719840667
 20
0.6248779518844788
 30
0.0
 10
11.22538147859751
 20
0.9332461339977588
 30
0.0
 10
10.5533394992304
 20
1.150005954413425
 30
0.0
 10
10.01419404315921
 20
1.243087334153859
 30
0.0
 10
9.699807249379537
 20
1.246256955743521
 30
0.0
 10
9.609402395752182
 20
1.247168409982493
 30
0.0
  0
SPLINE
  5
DD
330
1F
100
AcDbEntity
  8
0
  6
Continuous
 62
     4
370
    25
100
AcDbSpline
210
0.0
220
0.0
230
1.0
 70
    24
 71
     3
 72
    16
 73
    12
 74
     0
 42
0.000000001
 43
0.00000001
 40
0.0
 40
0.0
 40
0.0
 40
0.0
 40
0.1249999999999999
 40
0.1249999999999999
 40
0.2499999999999998
 40
0.2499999999999998
 40
0.4999999999999999
 40
0.4999999999999999
 40
0.75
 40
0.75
 40
1.0
 40
1.0
 40
1.0
 40
1.0
 10
9.531088913245519
 20
1.146182546817087
 30
0.0
 10
9.531088913245519
 20
1.103765900373981
 30
0.0
 10
9.531088913245519
 20
1.065135754683425
 30
0.0
 10
9.531088913245519
 20
0.9790758831573819
 30
0.0
 10
9.531088913245519
 20
0.9326129706608678
 30
0.0
 10
9.531088913245519
 20
0.7833971564159584
 30
0.0
 10
9.531088913245519
 20
0.6696717226572907
 30
0.0
 10
9.531088913245519
 20
0.4359724080598705
 30
0.0
 10
9.531088913245519
 20
0.3163243863475097
 30
0.0
 10
9.531088913245519
 20
0.1281910632277207
 30
0.0
 10
9.531088913245519
 20
0.0626521787442864
 30
0.0
 10
9.531088913245519
 20
0.0452631699342083
 30
0.0
  0
SPLINE
  5
DE
330
1F
100
AcDbEntity
  8
0
  6
Continuous
 62
     1
370
    25
100
AcDbSpline
210
0.0
220
0.0
230
1.0
 70
     8
 71
     3
 72
    17
 73
    13
 74
     0
 42
0.000000001
 43
0.00000001
 40
0.0
 40
0.0
 40
0.0
 40
0.0
 40
0.1002849684351046
 40
0.2007307186975523
 40
0.3144931238385956
 40
0.4282484955129474
 40
0.541911725363613
 40
0.6555088884529714
 40
0.769066528080082
 40
0.8826114691337916
 40
0.9961706272096932
 40
1.0
 40
1.0
 40
1.0
 40
1.0
 10
9.531088913245519
 20
1.146182546817079
 30
0.0
 10
9.72862380550948
 20
1.092255951896712
 30
0.0
 10
10.12401028775828
 20
0.9843163042686437
 30
0.0
 10
10.7436898360307
 20
0.7148372565021973
 30
0.0
 10
11.39029835776675
 20
0.3776256405636144
 30
0.0
 10
12.0628775612148
 20
-0.0111840681770978
 30
0.0
 10
12.73500904583185
 20
-0.3987141225768498
 30
0.0
 10
13.40667667991208
 20
-0.7471992341899859
 30
0.0
 10
14.07806154073658
 20
-1.027924308568546
 30
0.0
 10
14.74936362834356
 20
-1.196736329915153
 30
0.0
 10
15.2044309460702
 20
-1.268486750698325
 30
0.0
 10
15.43577748005379
 20
-1.248699517786191
 30
0.0
 10
15.4433243171752
 20
-1.248054031461845
 30
0.0
  0
SPLINE
  5
DF
330
1F
100
AcDbEntity
  8
0
  6
Continuous
 62
     1
370
    25
100
AcDbSpline
210
0.0
220
0.0
230
1.0
 70
     8
 71
     3
 72
    21
 73
    17
 74
     0
 42
0.000000001
 43
0.00000001
 40
0.0
 40
0.0
 40
0.0
 40
0.0
 40
0.0546709094756219
 40
0.1239777541941378
 40
0.1934388029242193
 40
0.2626036982989571
 40
0.3365521115662058
 40
0.4106190825914093
 40
0.4945055262022468
 40
0.5783867834555503
 40
0.6622000969106612
 40
0.7459646938707213
 40
0.8297001469085603
 40
0.9134262362364792
 40
0.9971628089523762
 40
1.0
 40
1.0
 40
1.0
 40
1.0
 10
21.02931490173021
 20
1.046186099222219
 30
0.0
 10
21.17543097665602
 20
1.091730942528282
 30
0.0
 10
21.50677982368851
 20
1.195013427534819
 30
0.0
 10
22.02353426123382
 20
1.255209641770596
 30
0.0
 10
22.57966869105865
 20
1.249408633721895
 30
0.0
 10
23.14731996923216
 20
1.156607822237628
 30
0.0
 10
23.72751710681772
 20
0.9804926941314299
 30
0.0
 10
24.34718149660014
 20
0.7160141686321924
 30
0.0
 10
24.99379460758019
 20
0.3772967209960894
 30
0.0
 10
25.66637247838498
 20
-0.0111064710280465
 30
0.0
 10
26.33850451853134
 20
-0.3986959164915454
 30
0.0
 10
27.01017126266407
 20
-0.7473494655398987
 30
0.0
 10
27.68155912677118
 20
-1.027341813079022
 30
0.0
 10
28.35285009223977
 20
-1.198916016002381
 30
0.0
 10
28.8079815542424
 20
-1.263677636914324
 30
0.0
 10
29.0393434347791
 20
-1.249021073036485
 30
0.0
 10
29.0469256147339
 20
-1.248540748859558
 30
0.0
  0
SPLINE
  5
E0
330
1F
100
AcDbEntity
  8
0
  6
Continuous
 62
     1
370
    25
100
AcDbSpline
210
0.0
220
0.0
230
1.0
 70
     8
 71
     3
 72
    20
 73
    16
 74
     0
 42
0.000000001
 43
0.00000001
 40
0.0
 40
0.0
 40
0.0
 40
0.0
 40
0.065686804396108
 40
0.1493696317027023
 40
0.2330826951980309
 40
0.3168455390385661
 40
0.4006773101909855
 40
0.484505603731829
 40
0.5682657826337657
 40
0.651977057196295
 40
0.735658984294102
 40
0.8193313298822277
 40
0.9030139283560856
 40
0.9722762892294183
 40
1.0
 40
1.0
 40
1.0
 40
1.0
 10
14.22237159060267
 20
1.047321872891764
 30
0.0
 10
14.39802529096406
 20
1.09909551738432
 30
0.0
 10
14.79745602551432
 20
1.216827081293647
 30
0.0
 10
15.42075600086934
 20
1.268154055907275
 30
0.0
 10
16.09244632861011
 20
1.21409313043176
 30
0.0
 10
16.76460404544168
 20
1.040825782469506
 30
0.0
 10
17.43722043394637
 20
0.7689826562593169
 30
0.0
 10
18.10981946737306
 20
0.4234235496602712
 30
0.0
 10
18.78195337510135
 20
0.0374378169124933
 30
0.0
 10
19.45362439275635
 20
-0.3521634756969341
 30
0.0
 10
20.12501868984097
 20
-0.7075973648473903
 30
0.0
 10
20.79629225432101
 20
-0.9972251843978815
 30
0.0
 10
21.42912623302399
 20
-1.174180379566332
 30
0.0
 10
21.9120889182607
 20
-1.251187595787215
 30
0.0
 10
22.17155251059942
 20
-1.242588500415331
 30
0.0
 10
22.24572082639538
 20
-1.240130427529835
 30
0.0
  0
SPLINE
  5
E1
330
1F
100
AcDbEntity
  8
0
  6
Continuous
 62
     1
370
    25
100
AcDbSpline
210
0.0
220
0.0
230
1.0
 70
     8
 71
     3
 72
    10
 73
     6
 74
     0
 42
0.000000001
 43
0.00000001
 40
0.0
 40
0.0
 40
0.0
 40
0.0
 40
0.3090326066442585
 40
0.7027299784629802
 40
1.0
 40
1.0
 40
1.0
 40
1.0
 10
27.8258668223593
 20
1.047321872891764
 30
0.0
 10
28.00151975456428
 20
1.098843600823131
 30
0.0
 10
28.40094874235216
 20
1.216002314761895
 30
0.0
 10
28.96937216381433
 20
1.267555055501888
 30
0.0
 10
29.36211985005818
 20
1.233575784654719
 30
0.0
 10
29.53108891324552
 20
1.218957122944079
 30
0.0
  0
LINE
  5
E2
330
1F
100
AcDbEntity
  8
0
  6
Continuous
 62
     1
370
    25
100
AcDbLine
 10
29.53108891324552
 20
0.562225701681546
 30
0.0
 11
29.53108891324552
 21
1.218957122944079
 31
0.0
  0
SPLINE
  5
E3
330
1F
100
AcDbEntity
  8
0
  6
Continuous
 62
     1
370
    25
100
AcDbSpline
210
0.0
220
0.0
230
1.0
 70
     8
 71
     3
 72
    12
 73
     8
 74
     0
 42
0.000000001
 43
0.00000001
 40
0.0
 40
0.0
 40
0.0
 40
0.0
 40
0.2085494719902267
 40
0.4241612896889154
 40
0.6323576542134499
 40
0.8447437756876114
 40
1.0
 40
1.0
 40
1.0
 40
1.0
 10
29.53108891324552
 20
0.562225701681546
 30
0.0
 10
29.50833767992476
 20
0.5455303404988047
 30
0.0
 10
29.46206476263925
 20
0.5115742443096679
 30
0.0
 10
29.38499432094319
 20
0.481293893782636
 30
0.0
 10
29.30521260088156
 20
0.4654007691442735
 30
0.0
 10
29.23175019218221
 20
0.4615133336838594
 30
0.0
 10
29.18545112319547
 20
0.4692610261706193
 30
0.0
 10
29.16589891784578
 20
0.4725328948669588
 30
0.0
  0
SPLINE
  5
E4
330
1F
100
AcDbEntity
  8
0
  6
Continuous
 62
     1
370
    25
100
AcDbSpline
210
0.0
220
0.0
230
1.0
 70
     8
 71
     3
 72
    12
 73
     8
 74
     0
 42
0.000000001
 43
0.00000001
 40
0.0
 40
0.0
 40
0.0
 40
0.0
 40
0.2297274425023159
 40
0.4594839354323201
 40
0.6889128478742996
 40
0.9181502160998232
 40
1.0
 40
1.0
 40
1.0
 40
1.0
 10
29.41456119791201
 20
0.3424059407310616
 30
0.0
 10
29.20007656057988
 20
0.4583506889860412
 30
0.0
 10
28.77108016303303
 20
0.6902548474122625
 30
0.0
 10
28.12778851692882
 20
0.9713635962549579
 30
0.0
 10
27.48521445804635
 20
1.162187146439446
 30
0.0
 10
26.98081082102413
 20
1.254278831298921
 30
0.0
 10
26.69044713226004
 20
1.240210872826052
 30
0.0
 10
26.6140498750432
 20
1.236509468402717
 30
0.0
  0
SPLINE
  5
E5
330
1F
100
AcDbEntity
  8
0
  6
Continuous
 62
     1
370
    25
100
AcDbSpline
210
0.0
220
0.0
230
1.0
 70
     8
 71
     3
 72
    21
 73
    17
 74
     0
 42
0.000000001
 43
0.00000001
 40
0.0
 40
0.0
 40
0.0
 40
0.0
 40
0.0290624617546228
 40
0.1127799833996461
 40
0.1965070917275639
 40
0.2802635633653769
 40
0.3640689657468424
 40
0.4479425195434139
 40
0.5318195528291801
 40
0.6156276215880885
 40
0.6507741513576839
 40
0.7310009124219841
 40
0.811237818646547
 40
0.8913603252971808
 40
0.9714159397562704
 40
1.0
 40
1.0
 40
1.0
 40
1.0
 10
21.02931490173021
 20
-1.046186099222217
 30
0.0
 10
20.95163822648699
 20
-1.073145588604192
 30
0.0
 10
20.65020560118376
 20
-1.177764763353848
 30
0.0
 10
20.12501484132208
 20
-1.252752787886448
 30
0.0
 10
19.45362626696901
 20
-1.253932427287932
 30
0.0
 10
18.78194972599528
 20
-1.12865502347073
 30
0.0
 10
18.10983220077213
 20
-0.8972563416190422
 30
0.0
 10
17.43717311042081
 20
-0.579732496969812
 30
0.0
 10
16.76478053644326
 20
-0.2067169194594994
 30
0.0
 10
16.22189850293839
 20
0.1094770071675083
 30
0.0
 10
15.6910451352205
 20
0.4119878793755826
 30
0.0
 10
15.16740907612954
 20
0.6886970971269943
 30
0.0
 10
14.52434042821363
 20
0.9717811961236247
 30
0.0
 10
13.88170626451569
 20
1.162072329173328
 30
0.0
 10
13.37731656318148
 20
1.254287458369605
 30
0.0
 10
13.08695210337221
 20
1.240212669867274
 30
0.0
 10
13.01055464328657
 20
1.236509468402717
 30
0.0
  0
LINE
  5
E6
330
1F
100
AcDbEntity
  8
0
  6
Continuous
 62
     1
370
    25
100
AcDbLine
 10
29.53108891324552
 20
1.218957122944079
 30
0.0
 11
29.53108891324552
 21
1.250000000000004
 31
0.0
  0
ELLIPSE
  5
E7
330
1F
100
AcDbEntity
  8
0
  6
Continuous
 62
     1
370
    25
100
AcDbEllipse
 10
29.28686122026741
 20
0.0000000000000017
 30
0.0
 11
1.736654132074953
 21
-0.6879262575522048
 31
0.0
210
0.0
220
0.0
230
1.0
 40
0.6009688174887268
 41
5.017690069071309
 42
5.083334185035837
  0
LINE
  5
E8
330
1F
100
AcDbEntity
  8
0
  6
Continuous
 62
     1
370
    25
100
AcDbLine
 10
29.53108891324552
 20
-1.250000000000003
 30
0.0
 11
29.53108891324552
 21
-1.222060428378376
 31
0.0
  0
ELLIPSE
  5
E9
330
1F
100
AcDbEntity
  8
0
  6
Continuous
 62
     1
370
    25
100
AcDbEllipse
 10
29.28686122026741
 20
0.0000000000000004
 30
0.0
 11
1.773878207475981
 21
-1.215217588009258
 31
0.0
210
0.0
220
0.0
230
1.0
 40
0.1650759015746657
 41
1.54616678223961
 42
1.611810898204137
  0
LINE
  5
EA
330
1F
100
AcDbEntity
  8
0
  6
Continuous
 62
     1
370
    25
100
AcDbLine
 10
29.53108891324552
 20
-0.2768456834120843
 30
0.0
 11
29.53108891324552
 21
0.2628085032712298
 31
0.0
  0
LINE
  5
EB
330
1F
100
AcDbEntity
  8
0
  6
Continuous
 62
     1
370
    25
100
AcDbLine
 10
29.53108891324552
 20
0.2628085032712288
 30
0.0
 11
29.53108891324552
 21
0.562225701681546
 31
0.0
  0
LINE
  5
EC
330
1F
100
AcDbEntity
  8
0
  6
Continuous
 62
     1
370
    25
100
AcDbLine
 10
29.53108891324552
 20
-0.4999999999999983
 30
0.0
 11
29.53108891324552
 21
-1.222060428378376
 31
0.0
  0
LINE
  5
ED
330
1F
100
AcDbEntity
  8
중심선
100
AcDbLine
 10
-33.46891108675447
 20
-0.0000000000000043
 30
0.0
 11
31.0310889132455
 21
0.0000000000000036
 31
0.0
  0
CIRCLE
  5
EE
330
1F
100
AcDbEntity
  8
해칭선
100
AcDbCircle
 10
0.0002182901056493
 20
-0.0000000000000042
 30
0.0
 40
3.000000000000003
  0
INSERT
  5
EF
330
1F
100
AcDbEntity
  8
0
  6
Continuous
 62
     7
100
AcDbBlockReference
 66
     1
  2
블럭10
 10
-12.44009924894178
 20
-52.04717430164393
 30
0.0
  0
ATTRIB
  5
F0
330
EF
100
AcDbEntity
  8
FORMAT
 62
     2
100
AcDbText
 10
-28.55936028837733
 20
-49.97180738881174
 30
0.0
 40
4.233333333333333
  1
SEME7202520E [ 4 FLUTE ]
 41
0.75
  7
SLDTEXTSTYLE0
 11
-28.55936028837733
 21
-52.08847405547841
 31
0.0
100
AcDbAttribute
  2
AUTOATTR0
 70
     0
 74
     1
  0
SEQEND
  5
F1
330
EF
100
AcDbEntity
  8
0
  6
Continuous
 62
     7
  0
HATCH
  5
F2
330
1F
100
AcDbEntity
  8
중심선
100
AcDbHatch
 10
0.0
 20
0.0
 30
0.0
210
0.0
220
0.0
230
1.0
  2
SOLID
 70
     1
 71
     0
 91
        1
 92
        0
 93
        4
 72
     1
 10
-6.725189944560922
 20
-35.8
 11
-10.17146518839821
 21
-35.8
 72
     1
 10
-10.17146518839821
 20
-35.8
 11
-12.29969504760223
 21
-38.33632558057262
 72
     1
 10
-12.29969504760223
 20
-38.33632558057262
 11
-8.853386718651796
 21
-38.33628615127013
 72
     1
 10
-8.853386718651796
 20
-38.33628615127013
 11
-6.725189944560922
 21
-35.8
 97
        0
 75
     0
 76
     1
 98
        1
 10
0.0
 20
0.0
  0
HATCH
  5
F3
330
1F
100
AcDbEntity
  8
중심선
100
AcDbHatch
 10
0.0
 20
0.0
 30
0.0
210
0.0
220
0.0
230
1.0
  2
SOLID
 70
     1
 71
     0
 91
        1
 92
        0
 93
        4
 72
     1
 10
-1.712425953524915
 20
-35.79999999999997
 11
-5.158701197362225
 21
-35.8
 72
     1
 10
-5.158701197362225
 20
-35.8
 11
-9.689839205719641
 21
-41.20000000000002
 72
     1
 10
-9.689839205719641
 20
-41.20000000000002
 11
-6.243563961882359
 21
-41.20000000000002
 72
     1
 10
-6.243563961882359
 20
-41.20000000000002
 11
-1.712425953524916
 21
-35.79999999999997
 97
        0
 75
     0
 76
     1
 98
        1
 10
0.0
 20
0.0
  0
HATCH
  5
F4
330
1F
100
AcDbEntity
  8
중심선
100
AcDbHatch
 10
0.0
 20
0.0
 30
0.0
210
0.0
220
0.0
230
1.0
  2
SOLID
 70
     1
 71
     0
 91
        1
 92
        0
 93
        4
 72
     1
 10
3.300338037510953
 20
-35.79999999999997
 11
-0.1459372063261632
 21
-35.8
 72
     1
 10
-0.1459372063261632
 20
-35.8
 11
-7.19437410821544
 21
-44.20000000000002
 72
     1
 10
-7.19437410821544
 20
-44.20000000000002
 11
-3.748098864378158
 21
-44.20000000000002
 72
     1
 10
-3.748098864378158
 20
-44.20000000000002
 11
3.300338037510952
 21
-35.79999999999997
 97
        0
 75
     0
 76
     1
 98
        1
 10
0.0
 20
0.0
  0
HATCH
  5
F5
330
1F
100
AcDbEntity
  8
중심선
100
AcDbHatch
 10
0.0
 20
0.0
 30
0.0
210
0.0
220
0.0
230
1.0
  2
SOLID
 70
     1
 71
     0
 91
        1
 92
        0
 93
        6
 72
     3
 10
8.100228468523124
 20
-40.00000000005127
 11
3.960054785062284
 21
1.540850780301639E-10
 40
0.3939339440162633
 50
17.09539180608434
 51
320.0019657685079
 73
     0
 72
     1
 10
9.783228124223719
 20
-38.5878940046383
 11
12.08852999792476
 21
-36.65356729459038
 72
     3
 10
8.100228468470277
 20
-40.00000000000015
 11
6.600054785286829
 21
-1.249000902703301E-13
 40
0.6363583540795982
 50
39.99873849337408
 51
368.4976242363725
 73
     1
 72
     1
 10
14.52556096037089
 20
-39.03999999993002
 11
6.7802957753062
 21
-39.03999999993002
 72
     1
 10
6.7802957753062
 20
-39.03999999993002
 11
6.780270730860266
 21
-40.95999999992991
 72
     1
 10
6.780270730860266
 20
-40.95999999992991
 11
11.2216505003323
 21
-40.95999999992988
 97
        0
 75
     0
 76
     1
 98
        1
 10
0.0
 20
0.0
  0
DIMENSION
  5
F6
330
1F
100
AcDbEntity
  8
치수문자_일반주서
100
AcDbDimension
  2
_D
 10
39.57151965233579
 20
1.250000000000043
 30
0.0
 11
39.57151965233575
 21
12.66650000000004
 31
0.0
 70
   160
  1
%%c<>
 71
     2
 42
2.50000000000001
 52
-270.0
  3
SLDDIMSTYLE0
100
AcDbAlignedDimension
 13
29.53108891324554
 23
-1.250000000000006
 33
0.0
 14
29.53108891324554
 24
1.250000000000005
 34
0.0
 50
90.0000000000002
100
AcDbRotatedDimension
  0
DIMENSION
  5
104
330
1F
100
AcDbEntity
  8
치수문자_일반주서
100
AcDbDimension
  2
_D_1
 10
29.53108891324552
 20
20.38913260158165
 30
0.0
 11
-0.4689110867544777
 21
20.38913260158165
 31
0.0
 70
   160
  1
<>
 71
     2
 42
59.99999999999999
  3
SLDDIMSTYLE1
100
AcDbAlignedDimension
 13
-30.46891108675448
 23
2.499999999999996
 33
0.0
 14
29.53108891324552
 24
1.250000000000002
 34
0.0
 50
-0.0000000000000068
100
AcDbRotatedDimension
  0
DIMENSION
  5
10F
330
1F
100
AcDbEntity
  8
치수문자_일반주서
100
AcDbDimension
  2
_D_2
 10
-38.2972078048989
 20
-3.000000000000034
 30
0.0
 11
-38.29720780489895
 21
12.66649999999997
 31
0.0
 70
   160
  1
%%c<>
 71
     2
 42
6.000000000000005
 52
-270.0
  3
SLDDIMSTYLE2
100
AcDbAlignedDimension
 13
-29.96891108675446
 23
3.000000000000003
 33
0.0
 14
-29.96891108675446
 24
-3.000000000000002
 34
0.0
 50
90.0000000000002
100
AcDbRotatedDimension
  0
DIMENSION
  5
11D
330
1F
100
AcDbEntity
  8
치수문자_일반주서
100
AcDbDimension
  2
_D_3
 10
29.53108891324552
 20
12.09591830258765
 30
0.0
 11
19.53108891324552
 21
12.09591830258765
 31
0.0
 70
   160
  1
<>
 71
     2
 42
20.0
  3
SLDDIMSTYLE2
100
AcDbAlignedDimension
 13
9.531088913245519
 23
1.25
 33
0.0
 14
29.53108891324552
 24
1.250000000000002
 34
0.0
 50
0.0000000000000051
100
AcDbRotatedDimension
  0
INSERT
  5
12D
330
1F
100
AcDbEntity
  8
해칭선
100
AcDbBlockReference
  2
SW_DOWELSYMBOL_0
 10
0.0002182901056493
 20
-0.0000000000000042
 30
0.0
  0
ENDSEC
  0
SECTION
  2
OBJECTS
  0
DICTIONARY
  5
C
330
0
100
AcDbDictionary
281
     1
  3
ACAD_GROUP
350
D
  3
ACAD_IMAGE_VARS
350
151
  3
ACAD_LAYOUT
350
1A
  3
ACAD_MLINESTYLE
350
17
  3
ACAD_PLOTSETTINGS
350
19
  3
ACAD_PLOTSTYLENAME
350
E
  3
ACAD_SCALELIST
350
47
  3
APPDATA
350
14F
  3
DWGPROPS
350
160
  0
DICTIONARY
  5
D
102
{ACAD_REACTORS
330
C
102
}
330
C
100
AcDbDictionary
281
     1
  0
RASTERVARIABLES
  5
151
102
{ACAD_REACTORS
330
C
102
}
330
C
100
AcDbRasterVariables
 90
        0
 70
     1
 71
     1
 72
     1
  0
DICTIONARY
  5
1A
102
{ACAD_REACTORS
330
C
102
}
330
C
100
AcDbDictionary
281
     1
  3
Layout1
350
1E
  3
Layout2
350
26
  3
Model
350
22
  0
DICTIONARY
  5
17
102
{ACAD_REACTORS
330
C
102
}
330
C
100
AcDbDictionary
281
     1
  3
Standard
350
18
  0
DICTIONARY
  5
19
102
{ACAD_REACTORS
330
C
102
}
330
C
100
AcDbDictionary
281
     1
  0
ACDBDICTIONARYWDFLT
  5
E
102
{ACAD_REACTORS
330
C
102
}
330
C
100
AcDbDictionary
281
     1
  3
Normal
350
F
100
AcDbDictionaryWithDefault
340
F
  0
DICTIONARY
  5
47
102
{ACAD_REACTORS
330
C
102
}
330
C
100
AcDbDictionary
281
     1
  3
A0
350
48
  3
A1
350
49
  3
A2
350
4A
  3
A3
350
4B
  3
A4
350
4C
  3
A5
350
4D
  3
A6
350
4E
  3
A7
350
4F
  3
A8
350
50
  3
A9
350
51
  3
B0
350
52
  3
B1
350
53
  3
B2
350
54
  3
B3
350
55
  3
B4
350
56
  3
B5
350
57
  3
B6
350
58
  3
B7
350
59
  3
B8
350
5A
  3
B9
350
5B
  3
C0
350
5C
  3
C1
350
5D
  3
C2
350
5E
  3
C3
350
5F
  3
C4
350
60
  3
C5
350
61
  3
C6
350
62
  3
C7
350
63
  3
C8
350
64
  3
C9
350
65
  3
D0
350
66
  3
D1
350
67
  3
D2
350
68
  0
DICTIONARY
  5
14F
102
{ACAD_REACTORS
330
C
102
}
330
C
100
AcDbDictionary
281
     1
  0
XRECORD
  5
160
102
{ACAD_REACTORS
330
C
102
}
330
C
100
AcDbXrecord
280
     1
  1
DWGPROPS COOKIE
  2

  3

  4

  6

  7

  8
12014102
  9

300
=
301
=
302
=
303
=
304
=
305
=
306
=
307
=
308
=
309
=
 40
0.0
 41
2458260.194273507
 42
2458268.107891343
  1

 90
        0
  0
LAYOUT
  5
1E
102
{ACAD_REACTORS
330
1A
102
}
330
1A
100
AcDbPlotSettings
  1

  2
none_device
  4

  6

 40
0.0
 41
0.0
 42
0.0
 43
0.0
 44
0.0
 45
0.0
 46
0.0
 47
0.0
 48
0.0
 49
0.0
140
0.0
141
0.0
142
1.0
143
1.0
 70
   688
 72
     1
 73
     0
 74
     5
  7

 75
    16
147
1.0
148
0.0
149
0.0
100
AcDbLayout
  1
Layout1
 70
     1
 71
     1
 10
0.0
 20
0.0
 11
420.0
 21
297.0
 12
0.0
 22
0.0
 32
0.0
 14
1.000000000000000E+20
 24
1.000000000000000E+20
 34
1.000000000000000E+20
 15
-1.000000000000000E+20
 25
-1.000000000000000E+20
 35
-1.000000000000000E+20
146
0.0
 13
0.0
 23
0.0
 33
0.0
 16
1.0
 26
0.0
 36
0.0
 17
0.0
 27
1.0
 37
0.0
 76
     0
330
1B
  0
LAYOUT
  5
26
102
{ACAD_REACTORS
330
1A
102
}
330
1A
100
AcDbPlotSettings
  1

  2
none_device
  4

  6

 40
0.0
 41
0.0
 42
0.0
 43
0.0
 44
0.0
 45
0.0
 46
0.0
 47
0.0
 48
0.0
 49
0.0
140
0.0
141
0.0
142
1.0
143
1.0
 70
   688
 72
     1
 73
     0
 74
     5
  7

 75
    16
147
1.0
148
0.0
149
0.0
100
AcDbLayout
  1
Layout2
 70
     1
 71
     2
 10
0.0
 20
0.0
 11
0.0
 21
0.0
 12
0.0
 22
0.0
 32
0.0
 14
0.0
 24
0.0
 34
0.0
 15
0.0
 25
0.0
 35
0.0
146
0.0
 13
0.0
 23
0.0
 33
0.0
 16
1.0
 26
0.0
 36
0.0
 17
0.0
 27
1.0
 37
0.0
 76
     0
330
23
  0
LAYOUT
  5
22
102
{ACAD_REACTORS
330
1A
102
}
330
1A
100
AcDbPlotSettings
  1

  2
none_device
  4
ANSI_A_(11.00_x_8.50_Inches)
  6

 40
6.35
 41
19.05
 42
6.35000508
 43
19.05000254
 44
279.4
 45
215.9
 46
130.8804193437698
 47
125.3847137330092
 48
0.0
 49
0.0
140
0.0
141
0.0
142
0.1112850254374008
143
1.0
 70
  1696
 72
     0
 73
     0
 74
     0
  7

 75
     0
147
0.0235690232323232
148
0.0
149
0.0
100
AcDbLayout
  1
Model
 70
     1
 71
     0
 10
0.0
 20
0.0
 11
420.0
 21
297.0
 12
0.0
 22
0.0
 32
0.0
 14
-42.67220780489896
 24
-49.97180738881174
 34
0.0
 15
43.40730637828931
 25
24.76413260158165
 35
0.0
146
0.0
 13
0.0
 23
0.0
 33
0.0
 16
1.0
 26
0.0
 36
0.0
 17
0.0
 27
1.0
 37
0.0
 76
     0
330
1F
331
29
  0
MLINESTYLE
  5
18
102
{ACAD_REACTORS
330
17
102
}
330
17
100
AcDbMlineStyle
  2
Standard
 70
     0
  3

 62
   256
 51
90.0
 52
90.0
 71
     2
 49
0.5
 62
   256
  6
BYLAYER
 49
-0.5
 62
   256
  6
BYLAYER
  0
ACDBPLACEHOLDER
  5
F
102
{ACAD_REACTORS
330
E
102
}
330
E
  0
SCALE
  5
48
102
{ACAD_REACTORS
330
47
102
}
330
47
100
AcDbScale
 70
     0
300
1:1
140
1.0
141
1.0
290
     1
  0
SCALE
  5
49
102
{ACAD_REACTORS
330
47
102
}
330
47
100
AcDbScale
 70
     0
300
1:2
140
1.0
141
2.0
290
     0
  0
SCALE
  5
4A
102
{ACAD_REACTORS
330
47
102
}
330
47
100
AcDbScale
 70
     0
300
1:4
140
1.0
141
4.0
290
     0
  0
SCALE
  5
4B
102
{ACAD_REACTORS
330
47
102
}
330
47
100
AcDbScale
 70
     0
300
1:5
140
1.0
141
5.0
290
     0
  0
SCALE
  5
4C
102
{ACAD_REACTORS
330
47
102
}
330
47
100
AcDbScale
 70
     0
300
1:8
140
1.0
141
8.0
290
     0
  0
SCALE
  5
4D
102
{ACAD_REACTORS
330
47
102
}
330
47
100
AcDbScale
 70
     0
300
1:10
140
1.0
141
10.0
290
     0
  0
SCALE
  5
4E
102
{ACAD_REACTORS
330
47
102
}
330
47
100
AcDbScale
 70
     0
300
1:16
140
1.0
141
16.0
290
     0
  0
SCALE
  5
4F
102
{ACAD_REACTORS
330
47
102
}
330
47
100
AcDbScale
 70
     0
300
1:20
140
1.0
141
20.0
290
     0
  0
SCALE
  5
50
102
{ACAD_REACTORS
330
47
102
}
330
47
100
AcDbScale
 70
     0
300
1:30
140
1.0
141
30.0
290
     0
  0
SCALE
  5
51
102
{ACAD_REACTORS
330
47
102
}
330
47
100
AcDbScale
 70
     0
300
1:40
140
1.0
141
40.0
290
     0
  0
SCALE
  5
52
102
{ACAD_REACTORS
330
47
102
}
330
47
100
AcDbScale
 70
     0
300
1:50
140
1.0
141
50.0
290
     0
  0
SCALE
  5
53
102
{ACAD_REACTORS
330
47
102
}
330
47
100
AcDbScale
 70
     0
300
1:100
140
1.0
141
100.0
290
     0
  0
SCALE
  5
54
102
{ACAD_REACTORS
330
47
102
}
330
47
100
AcDbScale
 70
     0
300
2:1
140
2.0
141
1.0
290
     0
  0
SCALE
  5
55
102
{ACAD_REACTORS
330
47
102
}
330
47
100
AcDbScale
 70
     0
300
4:1
140
4.0
141
1.0
290
     0
  0
SCALE
  5
56
102
{ACAD_REACTORS
330
47
102
}
330
47
100
AcDbScale
 70
     0
300
8:1
140
8.0
141
1.0
290
     0
  0
SCALE
  5
57
102
{ACAD_REACTORS
330
47
102
}
330
47
100
AcDbScale
 70
     0
300
10:1
140
10.0
141
1.0
290
     0
  0
SCALE
  5
58
102
{ACAD_REACTORS
330
47
102
}
330
47
100
AcDbScale
 70
     0
300
100:1
140
100.0
141
1.0
290
     0
  0
SCALE
  5
59
102
{ACAD_REACTORS
330
47
102
}
330
47
100
AcDbScale
 70
     0
300
1/128" = 1'-0"
140
0.0078125
141
12.0
290
     0
  0
SCALE
  5
5A
102
{ACAD_REACTORS
330
47
102
}
330
47
100
AcDbScale
 70
     0
300
1/64" = 1'-0"
140
0.015625
141
12.0
290
     0
  0
SCALE
  5
5B
102
{ACAD_REACTORS
330
47
102
}
330
47
100
AcDbScale
 70
     0
300
1/32" = 1'-0"
140
0.03125
141
12.0
290
     0
  0
SCALE
  5
5C
102
{ACAD_REACTORS
330
47
102
}
330
47
100
AcDbScale
 70
     0
300
1/16" = 1'-0"
140
0.0625
141
12.0
290
     0
  0
SCALE
  5
5D
102
{ACAD_REACTORS
330
47
102
}
330
47
100
AcDbScale
 70
     0
300
3/32" = 1'-0"
140
0.09375
141
12.0
290
     0
  0
SCALE
  5
5E
102
{ACAD_REACTORS
330
47
102
}
330
47
100
AcDbScale
 70
     0
300
1/8" = 1'-0"
140
0.125
141
12.0
290
     0
  0
SCALE
  5
5F
102
{ACAD_REACTORS
330
47
102
}
330
47
100
AcDbScale
 70
     0
300
3/16" = 1'-0"
140
0.1875
141
12.0
290
     0
  0
SCALE
  5
60
102
{ACAD_REACTORS
330
47
102
}
330
47
100
AcDbScale
 70
     0
300
1/4" = 1'-0"
140
0.25
141
12.0
290
     0
  0
SCALE
  5
61
102
{ACAD_REACTORS
330
47
102
}
330
47
100
AcDbScale
 70
     0
300
3/8" = 1'-0"
140
0.375
141
12.0
290
     0
  0
SCALE
  5
62
102
{ACAD_REACTORS
330
47
102
}
330
47
100
AcDbScale
 70
     0
300
1/2" = 1'-0"
140
0.5
141
12.0
290
     0
  0
SCALE
  5
63
102
{ACAD_REACTORS
330
47
102
}
330
47
100
AcDbScale
 70
     0
300
3/4" = 1'-0"
140
0.75
141
12.0
290
     0
  0
SCALE
  5
64
102
{ACAD_REACTORS
330
47
102
}
330
47
100
AcDbScale
 70
     0
300
1" = 1'-0"
140
1.0
141
12.0
290
     0
  0
SCALE
  5
65
102
{ACAD_REACTORS
330
47
102
}
330
47
100
AcDbScale
 70
     0
300
1-1/2" = 1'-0"
140
1.5
141
12.0
290
     0
  0
SCALE
  5
66
102
{ACAD_REACTORS
330
47
102
}
330
47
100
AcDbScale
 70
     0
300
3" = 1'-0"
140
3.0
141
12.0
290
     0
  0
SCALE
  5
67
102
{ACAD_REACTORS
330
47
102
}
330
47
100
AcDbScale
 70
     0
300
6" = 1'-0"
140
6.0
141
12.0
290
     0
  0
SCALE
  5
68
102
{ACAD_REACTORS
330
47
102
}
330
47
100
AcDbScale
 70
     0
300
1'-0" = 1'-0"
140
12.0
141
12.0
290
     0
  0
ENDSEC
  0
EOF
