  0
SECTION
  2
HEADER
  9
$ACADVER
  1
AC1015
  9
$ACADMAINTVER
 70
     6
  9
$DWGCODEPAGE
  3
ANSI_949
  9
$INSBASE
 10
0.0
 20
0.0
 30
0.0
  9
$EXTMIN
 10
-44.84045084792334
 20
-49.97180738881174
 30
0.0
  9
$EXTMAX
 10
38.87813971162264
 20
24.76413260158165
 30
0.0
  9
$LIMMIN
 10
0.0
 20
0.0
  9
$LIMMAX
 10
420.0
 20
297.0
  9
$ORTHOMODE
 70
     0
  9
$REGENMODE
 70
     1
  9
$FILLMODE
 70
     1
  9
$QTEXTMODE
 70
     0
  9
$MIRRTEXT
 70
     1
  9
$LTSCALE
 40
1.0
  9
$ATTMODE
 70
     1
  9
$TEXTSIZE
 40
3.5
  9
$TRACEWID
 40
1.0
  9
$TEXTSTYLE
  7
Standard
  9
$CLAYER
  8
0
  9
$CELTYPE
  6
ByLayer
  9
$CECOLOR
 62
   256
  9
$CELTSCALE
 40
1.0
  9
$DISPSILH
 70
     0
  9
$DIMSCALE
 40
1.0
  9
$DIMASZ
 40
3.302
  9
$DIMEXO
 40
1.0
  9
$DIMDLI
 40
3.75
  9
$DIMRND
 40
0.0
  9
$DIMDLE
 40
0.0
  9
$DIMEXE
 40
1.0
  9
$DIMTP
 40
0.0
  9
$DIMTM
 40
0.0
  9
$DIMTXT
 40
3.5
  9
$DIMCEN
 40
2.5
  9
$DIMTSZ
 40
0.0
  9
$DIMTOL
 70
     0
  9
$DIMLIM
 70
     0
  9
$DIMTIH
 70
     1
  9
$DIMTOH
 70
     1
  9
$DIMSE1
 70
     0
  9
$DIMSE2
 70
     0
  9
$DIMTAD
 70
     1
  9
$DIMZIN
 70
     0
  9
$DIMBLK
  1

  9
$DIMASO
 70
     1
  9
$DIMSHO
 70
     1
  9
$DIMPOST
  1

  9
$DIMAPOST
  1

  9
$DIMALT
 70
     0
  9
$DIMALTD
 70
     3
  9
$DIMALTF
 40
0.0393700787401575
  9
$DIMLFAC
 40
1.0
  9
$DIMTOFL
 70
     1
  9
$DIMTVP
 40
0.0
  9
$DIMTIX
 70
     0
  9
$DIMSOXD
 70
     0
  9
$DIMSAH
 70
     0
  9
$DIMBLK1
  1

  9
$DIMBLK2
  1

  9
$DIMSTYLE
  2
ISO-25
  9
$DIMCLRD
 70
     0
  9
$DIMCLRE
 70
     0
  9
$DIMCLRT
 70
     0
  9
$DIMTFAC
 40
1.0
  9
$DIMGAP
 40
1.524
  9
$DIMJUST
 70
     0
  9
$DIMSD1
 70
     0
  9
$DIMSD2
 70
     0
  9
$DIMTOLJ
 70
     0
  9
$DIMTZIN
 70
     0
  9
$DIMALTZ
 70
     0
  9
$DIMALTTZ
 70
     0
  9
$DIMUPT
 70
     0
  9
$DIMDEC
 70
     2
  9
$DIMTDEC
 70
     2
  9
$DIMALTU
 70
     2
  9
$DIMALTTD
 70
     3
  9
$DIMTXSTY
  7
Standard
  9
$DIMAUNIT
 70
     0
  9
$DIMADEC
 70
     2
  9
$DIMALTRND
 40
0.0
  9
$DIMAZIN
 70
     0
  9
$DIMDSEP
 70
    44
  9
$DIMATFIT
 70
     3
  9
$DIMFRAC
 70
     0
  9
$DIMLDRBLK
  1

  9
$DIMLUNIT
 70
     2
  9
$DIMLWD
 70
    -2
  9
$DIMLWE
 70
    -2
  9
$DIMTMOVE
 70
     0
  9
$LUNITS
 70
     2
  9
$LUPREC
 70
     2
  9
$SKETCHINC
 40
1.0
  9
$FILLETRAD
 40
10.0
  9
$AUNITS
 70
     0
  9
$AUPREC
 70
     2
  9
$MENU
  1
.
  9
$ELEVATION
 40
0.0
  9
$PELEVATION
 40
0.0
  9
$THICKNESS
 40
0.0
  9
$LIMCHECK
 70
     0
  9
$CHAMFERA
 40
0.0
  9
$CHAMFERB
 40
0.0
  9
$CHAMFERC
 40
0.0
  9
$CHAMFERD
 40
0.0
  9
$SKPOLY
 70
     0
  9
$TDCREATE
 40
2458260.569084653
  9
$TDUCREATE
 40
2458260.194084653
  9
$TDUPDATE
 40
2458268.481843275
  9
$TDUUPDATE
 40
2458268.106843275
  9
$TDINDWG
 40
0.0012491551
  9
$TDUSRTIMER
 40
2458268.105594167
  9
$USRTIMER
 70
     1
  9
$ANGBASE
 50
0.0
  9
$ANGDIR
 70
     0
  9
$PDMODE
 70
     0
  9
$PDSIZE
 40
-1.0
  9
$PLINEWID
 40
0.0
  9
$SPLFRAME
 70
     0
  9
$SPLINETYPE
 70
     6
  9
$SPLINESEGS
 70
     8
  9
$HANDSEED
  5
15B
  9
$SURFTAB1
 70
     6
  9
$SURFTAB2
 70
     6
  9
$SURFTYPE
 70
     6
  9
$SURFU
 70
     6
  9
$SURFV
 70
     6
  9
$UCSBASE
  2

  9
$UCSNAME
  2

  9
$UCSORG
 10
0.0
 20
0.0
 30
0.0
  9
$UCSXDIR
 10
1.0
 20
0.0
 30
0.0
  9
$UCSYDIR
 10
0.0
 20
1.0
 30
0.0
  9
$UCSORTHOREF
  2

  9
$UCSORTHOVIEW
 70
     0
  9
$UCSORGTOP
 10
0.0
 20
0.0
 30
0.0
  9
$UCSORGBOTTOM
 10
0.0
 20
0.0
 30
0.0
  9
$UCSORGLEFT
 10
0.0
 20
0.0
 30
0.0
  9
$UCSORGRIGHT
 10
0.0
 20
0.0
 30
0.0
  9
$UCSORGFRONT
 10
0.0
 20
0.0
 30
0.0
  9
$UCSORGBACK
 10
0.0
 20
0.0
 30
0.0
  9
$PUCSBASE
  2

  9
$PUCSNAME
  2

  9
$PUCSORG
 10
0.0
 20
0.0
 30
0.0
  9
$PUCSXDIR
 10
1.0
 20
0.0
 30
0.0
  9
$PUCSYDIR
 10
0.0
 20
1.0
 30
0.0
  9
$PUCSORTHOREF
  2

  9
$PUCSORTHOVIEW
 70
     0
  9
$PUCSORGTOP
 10
0.0
 20
0.0
 30
0.0
  9
$PUCSORGBOTTOM
 10
0.0
 20
0.0
 30
0.0
  9
$PUCSORGLEFT
 10
0.0
 20
0.0
 30
0.0
  9
$PUCSORGRIGHT
 10
0.0
 20
0.0
 30
0.0
  9
$PUCSORGFRONT
 10
0.0
 20
0.0
 30
0.0
  9
$PUCSORGBACK
 10
0.0
 20
0.0
 30
0.0
  9
$USERI1
 70
     0
  9
$USERI2
 70
     0
  9
$USERI3
 70
     0
  9
$USERI4
 70
     0
  9
$USERI5
 70
     0
  9
$USERR1
 40
0.0
  9
$USERR2
 40
0.0
  9
$USERR3
 40
0.0
  9
$USERR4
 40
0.0
  9
$USERR5
 40
0.0
  9
$WORLDVIEW
 70
     1
  9
$SHADEDGE
 70
     3
  9
$SHADEDIF
 70
    70
  9
$TILEMODE
 70
     1
  9
$MAXACTVP
 70
    64
  9
$PINSBASE
 10
0.0
 20
0.0
 30
0.0
  9
$PLIMCHECK
 70
     0
  9
$PEXTMIN
 10
1.000000000000000E+20
 20
1.000000000000000E+20
 30
1.000000000000000E+20
  9
$PEXTMAX
 10
-1.000000000000000E+20
 20
-1.000000000000000E+20
 30
-1.000000000000000E+20
  9
$PLIMMIN
 10
0.0
 20
0.0
  9
$PLIMMAX
 10
0.0
 20
0.0
  9
$UNITMODE
 70
     0
  9
$VISRETAIN
 70
     1
  9
$PLINEGEN
 70
     0
  9
$PSLTSCALE
 70
     1
  9
$TREEDEPTH
 70
  3020
  9
$CMLSTYLE
  2
Standard
  9
$CMLJUST
 70
     0
  9
$CMLSCALE
 40
20.0
  9
$PROXYGRAPHICS
 70
     1
  9
$MEASUREMENT
 70
     1
  9
$CELWEIGHT
370
    -1
  9
$ENDCAPS
280
     0
  9
$JOINSTYLE
280
     0
  9
$LWDISPLAY
290
     1
  9
$INSUNITS
 70
     4
  9
$HYPERLINKBASE
  1

  9
$STYLESHEET
  1

  9
$XEDIT
290
     1
  9
$CEPSNTYPE
380
     0
  9
$PSTYLEMODE
290
     1
  9
$FINGERPRINTGUID
  2
{69834286-4A7E-4C0B-91EA-B33166387B48}
  9
$VERSIONGUID
  2
{FAEB1C32-E019-11D5-929B-00C0DF256EC4}
  9
$EXTNAMES
290
     1
  9
$PSVPSCALE
 40
0.0
  9
$OLESTARTUP
290
     0
  0
ENDSEC
  0
SECTION
  2
CLASSES
  0
CLASS
  1
ACDBDICTIONARYWDFLT
  2
AcDbDictionaryWithDefault
  3
ObjectDBX Classes
 90
        0
280
     0
281
     0
  0
CLASS
  1
VISUALSTYLE
  2
AcDbVisualStyle
  3
ObjectDBX Classes
 90
     4095
280
     0
281
     0
  0
CLASS
  1
MATERIAL
  2
AcDbMaterial
  3
ObjectDBX Classes
 90
     1153
280
     0
281
     0
  0
CLASS
  1
SCALE
  2
AcDbScale
  3
ObjectDBX Classes
 90
     1153
280
     0
281
     0
  0
CLASS
  1
TABLESTYLE
  2
AcDbTableStyle
  3
ObjectDBX Classes
 90
     4095
280
     0
281
     0
  0
CLASS
  1
MLEADERSTYLE
  2
AcDbMLeaderStyle
  3
ACDB_MLEADERSTYLE_CLASS
 90
     4095
280
     0
281
     0
  0
CLASS
  1
SUN
  2
AcDbSun
  3
SCENEOE
 90
     1153
280
     0
281
     0
  0
CLASS
  1
ACDBPLACEHOLDER
  2
AcDbPlaceHolder
  3
ObjectDBX Classes
 90
        0
280
     0
281
     0
  0
CLASS
  1
LAYOUT
  2
AcDbLayout
  3
ObjectDBX Classes
 90
        0
280
     0
281
     0
  0
CLASS
  1
RASTERVARIABLES
  2
AcDbRasterVariables
  3
ISM
 90
        0
280
     0
281
     0
  0
ENDSEC
  0
SECTION
  2
TABLES
  0
TABLE
  2
VPORT
  5
8
330
0
100
AcDbSymbolTable
 70
     1
  0
VPORT
  5
29
330
8
100
AcDbSymbolTableRecord
100
AcDbViewportTableRecord
  2
*Active
 70
     0
 10
0.0
 20
0.0
 11
1.0
 21
1.0
 12
-2.981155568150349
 22
-12.60383739361504
 13
0.0
 23
0.0
 14
10.0
 24
10.0
 15
10.0
 25
10.0
 16
0.0
 26
0.0
 36
1.0
 17
0.0
 27
0.0
 37
0.0
 40
76.23065879020126
 41
1.737726098191214
 42
50.0
 43
0.0
 44
0.0
 50
0.0
 51
0.0
 71
    16
 72
  2000
 73
     1
 74
     3
 75
     0
 76
     0
 77
     0
 78
     0
281
     0
 65
     1
110
0.0
120
0.0
130
0.0
111
1.0
121
0.0
131
0.0
112
0.0
122
1.0
132
0.0
 79
     0
146
0.0
  0
ENDTAB
  0
TABLE
  2
LTYPE
  5
5
330
0
100
AcDbSymbolTable
 70
     6
  0
LTYPE
  5
14
330
5
100
AcDbSymbolTableRecord
100
AcDbLinetypeTableRecord
  2
ByBlock
 70
     0
  3

 72
    65
 73
     0
 40
0.0
  0
LTYPE
  5
15
330
5
100
AcDbSymbolTableRecord
100
AcDbLinetypeTableRecord
  2
ByLayer
 70
     0
  3

 72
    65
 73
     0
 40
0.0
  0
LTYPE
  5
16
330
5
100
AcDbSymbolTableRecord
100
AcDbLinetypeTableRecord
  2
Continuous
 70
     0
  3
Solid line
 72
    65
 73
     0
 40
0.0
  0
LTYPE
  5
6E
330
5
100
AcDbSymbolTableRecord
100
AcDbLinetypeTableRecord
  2
HIDDEN
 70
     0
  3
Hidden __ __ __ __ __ __ __ __ __ __ __ __ __ __
 72
    65
 73
     2
 40
1.905
 49
1.27
 74
     0
 49
-0.635
 74
     0
  0
LTYPE
  5
6F
330
5
100
AcDbSymbolTableRecord
100
AcDbLinetypeTableRecord
  2
PHANTOM
 70
     0
  3
Phantom ______  __  __  ______  __  __  ______
 72
    65
 73
     6
 40
12.7
 49
6.35
 74
     0
 49
-1.27
 74
     0
 49
1.27
 74
     0
 49
-1.27
 74
     0
 49
1.27
 74
     0
 49
-1.27
 74
     0
  0
LTYPE
  5
70
330
5
100
AcDbSymbolTableRecord
100
AcDbLinetypeTableRecord
  2
CENTER
 70
     0
  3
Center ____ _ ____ _ ____ _ ____ _ ____ _ ____
 72
    65
 73
     4
 40
10.16
 49
6.35
 74
     0
 49
-1.27
 74
     0
 49
1.27
 74
     0
 49
-1.27
 74
     0
  0
LTYPE
  5
71
330
5
100
AcDbSymbolTableRecord
100
AcDbLinetypeTableRecord
  2
CENTERX2
 70
     0
  3
Center (2x) ________  __  ________  __  _____
 72
    65
 73
     4
 40
20.32
 49
12.7
 74
     0
 49
-2.54
 74
     0
 49
2.54
 74
     0
 49
-2.54
 74
     0
  0
LTYPE
  5
72
330
5
100
AcDbSymbolTableRecord
100
AcDbLinetypeTableRecord
  2
DOT2
 70
     0
  3
Dot (.5x) ........................................
 72
    65
 73
     2
 40
0.635
 49
0.0
 74
     0
 49
-0.635
 74
     0
  0
ENDTAB
  0
TABLE
  2
LAYER
  5
2
330
0
100
AcDbSymbolTable
 70
    17
  0
LAYER
  5
10
330
2
100
AcDbSymbolTableRecord
100
AcDbLayerTableRecord
  2
0
 70
     0
 62
     7
  6
Continuous
370
    -3
390
F
  0
LAYER
  5
73
330
2
100
AcDbSymbolTableRecord
100
AcDbLayerTableRecord
  2
FORMAT
 70
     0
 62
     2
  6
Continuous
370
    -3
390
F
  0
LAYER
  5
74
330
2
100
AcDbSymbolTableRecord
100
AcDbLayerTableRecord
  2
외형선
 70
     0
 62
   100
  6
Continuous
370
    35
390
F
  0
LAYER
  5
75
330
2
100
AcDbSymbolTableRecord
100
AcDbLayerTableRecord
  2
숨은선
 70
     0
 62
     2
  6
HIDDEN
370
    25
390
F
  0
LAYER
  5
76
330
2
100
AcDbSymbolTableRecord
100
AcDbLayerTableRecord
  2
중심선
 70
     0
 62
     1
  6
CENTERX2
370
    -3
390
F
  0
LAYER
  5
77
330
2
100
AcDbSymbolTableRecord
100
AcDbLayerTableRecord
  2
파단선
 70
     0
 62
     4
  6
Continuous
370
    -3
390
F
  0
LAYER
  5
78
330
2
100
AcDbSymbolTableRecord
100
AcDbLayerTableRecord
  2
해칭선
 70
     0
 62
   100
  6
Continuous
370
    -3
390
F
  0
LAYER
  5
79
330
2
100
AcDbSymbolTableRecord
100
AcDbLayerTableRecord
  2
가는실선
 70
     0
 62
     4
  6
Continuous
370
    -3
390
F
  0
LAYER
  5
7A
330
2
100
AcDbSymbolTableRecord
100
AcDbLayerTableRecord
  2
치수_보조선
 70
     0
 62
     4
  6
Continuous
370
    -3
390
F
  0
LAYER
  5
7B
330
2
100
AcDbSymbolTableRecord
100
AcDbLayerTableRecord
  2
치수문자_일반주서
 70
     0
 62
     7
  6
Continuous
370
    25
390
F
  0
LAYER
  5
7C
330
2
100
AcDbSymbolTableRecord
100
AcDbLayerTableRecord
  2
개별주서
 70
     0
 62
   100
  6
Continuous
370
    35
390
F
  0
LAYER
  5
7D
330
2
100
AcDbSymbolTableRecord
100
AcDbLayerTableRecord
  2
중간선
 70
     0
 62
     2
  6
Continuous
370
    25
390
F
  0
LAYER
  5
7E
330
2
100
AcDbSymbolTableRecord
100
AcDbLayerTableRecord
  2
윤곽선
 70
     0
 62
     3
  6
Continuous
370
    50
390
F
  0
LAYER
  5
7F
330
2
100
AcDbSymbolTableRecord
100
AcDbLayerTableRecord
  2
중심마크
 70
     0
 62
   100
  6
Continuous
370
    35
390
F
  0
LAYER
  5
80
330
2
100
AcDbSymbolTableRecord
100
AcDbLayerTableRecord
  2
가상선
 70
     0
 62
     4
  6
PHANTOM
370
    -3
390
F
  0
LAYER
  5
81
330
2
100
AcDbSymbolTableRecord
100
AcDbLayerTableRecord
  2
특수지정선
 70
     0
 62
     5
  6
CENTERX2
370
    70
390
F
  0
LAYER
  5
14E
330
2
100
AcDbSymbolTableRecord
100
AcDbLayerTableRecord
  2
Defpoints
 70
     0
 62
     7
  6
Continuous
290
     0
370
    -3
390
F
  0
ENDTAB
  0
TABLE
  2
STYLE
  5
3
330
0
100
AcDbSymbolTable
 70
     2
  0
STYLE
  5
11
330
3
100
AcDbSymbolTableRecord
100
AcDbTextStyleTableRecord
  2
Standard
 70
     0
 40
0.0
 41
1.0
 50
0.0
 71
     0
 42
3.5
  3
txt
  4

  0
STYLE
  5
97
330
3
100
AcDbSymbolTableRecord
100
AcDbTextStyleTableRecord
  2
SLDTEXTSTYLE0
 70
     0
 40
0.0
 41
0.75
 50
0.0
 71
     0
 42
3.5
  3
TXT
  4

  0
ENDTAB
  0
TABLE
  2
VIEW
  5
6
330
0
100
AcDbSymbolTable
 70
     0
  0
ENDTAB
  0
TABLE
  2
UCS
  5
7
330
0
100
AcDbSymbolTable
 70
     0
  0
ENDTAB
  0
TABLE
  2
APPID
  5
9
330
0
100
AcDbSymbolTable
 70
     1
  0
APPID
  5
12
330
9
100
AcDbSymbolTableRecord
100
AcDbRegAppTableRecord
  2
ACAD
 70
     0
  0
ENDTAB
  0
TABLE
  2
DIMSTYLE
  5
A
330
0
100
AcDbSymbolTable
 70
     4
100
AcDbDimStyleTable
  0
DIMSTYLE
105
27
330
A
100
AcDbSymbolTableRecord
100
AcDbDimStyleTableRecord
  2
ISO-25
 70
     0
 41
2.5
 42
0.625
 43
3.75
 44
1.25
 73
     0
 74
     0
 77
     1
 78
     8
140
2.5
141
2.5
143
0.03937007874016
147
0.625
171
     3
172
     1
178
     0
271
     2
272
     2
274
     3
278
    44
283
     0
284
     8
340
11
  0
DIMSTYLE
105
F1
102
{ACAD_REACTORS
330
F0
102
}
330
A
100
AcDbSymbolTableRecord
100
AcDbDimStyleTableRecord
  2
SLDDIMSTYLE0
 70
     0
 41
3.302
 44
0.0
 45
0.000000001
 73
     0
 74
     0
 77
     1
 78
    12
 79
     3
140
3.5
147
0.875
172
     1
173
     1
178
     0
271
     1
272
     1
276
     2
284
    12
289
     0
340
97
  0
DIMSTYLE
105
FF
102
{ACAD_REACTORS
330
FE
102
}
330
A
100
AcDbSymbolTableRecord
100
AcDbDimStyleTableRecord
  2
SLDDIMSTYLE1
 70
     0
 41
3.302
 44
0.0
 45
0.000000001
 73
     0
 74
     0
 77
     1
 78
    12
 79
     3
140
3.5
147
0.875
173
     1
178
     0
271
     2
272
     2
276
     2
284
    12
340
97
  0
DIMSTYLE
105
10A
102
{ACAD_REACTORS
330
109
330
117
102
}
330
A
100
AcDbSymbolTableRecord
100
AcDbDimStyleTableRecord
  2
SLDDIMSTYLE2
 70
     0
 41
3.302
 44
0.0
 45
0.000000001
 73
     0
 74
     0
 77
     1
 78
    12
 79
     3
140
3.5
147
0.875
172
     1
173
     1
178
     0
271
     2
272
     2
276
     2
284
    12
289
     0
340
97
  0
ENDTAB
  0
TABLE
  2
BLOCK_RECORD
  5
1
330
0
100
AcDbSymbolTable
 70
     7
  0
BLOCK_RECORD
  5
1F
330
1
100
AcDbSymbolTableRecord
100
AcDbBlockTableRecord
  2
*Model_Space
340
22
  0
BLOCK_RECORD
  5
1B
330
1
100
AcDbSymbolTableRecord
100
AcDbBlockTableRecord
  2
*Paper_Space
340
1E
  0
BLOCK_RECORD
  5
23
330
1
100
AcDbSymbolTableRecord
100
AcDbBlockTableRecord
  2
*Paper_Space0
340
26
  0
BLOCK_RECORD
  5
82
330
1
100
AcDbSymbolTableRecord
100
AcDbBlockTableRecord
  2
블럭10
340
0
102
{BLKREFS
331
E9
102
}
  0
BLOCK_RECORD
  5
F2
330
1
100
AcDbSymbolTableRecord
100
AcDbBlockTableRecord
  2
_D
340
0
  0
BLOCK_RECORD
  5
100
330
1
100
AcDbSymbolTableRecord
100
AcDbBlockTableRecord
  2
_D_1
340
0
  0
BLOCK_RECORD
  5
10B
330
1
100
AcDbSymbolTableRecord
100
AcDbBlockTableRecord
  2
_D_2
340
0
  0
BLOCK_RECORD
  5
118
330
1
100
AcDbSymbolTableRecord
100
AcDbBlockTableRecord
  2
_D_3
340
0
  0
BLOCK_RECORD
  5
123
330
1
100
AcDbSymbolTableRecord
100
AcDbBlockTableRecord
  2
SW_DOWELSYMBOL_0
340
0
102
{BLKREFS
331
129
102
}
  0
ENDTAB
  0
ENDSEC
  0
SECTION
  2
BLOCKS
  0
BLOCK
  5
20
330
1F
100
AcDbEntity
  8
0
100
AcDbBlockBegin
  2
*Model_Space
 70
     0
 10
0.0
 20
0.0
 30
0.0
  3
*Model_Space
  1

  0
ENDBLK
  5
21
330
1F
100
AcDbEntity
  8
0
100
AcDbBlockEnd
  0
BLOCK
  5
1C
330
1B
100
AcDbEntity
 67
     1
  8
0
100
AcDbBlockBegin
  2
*Paper_Space
 70
     0
 10
0.0
 20
0.0
 30
0.0
  3
*Paper_Space
  1

  0
ENDBLK
  5
1D
330
1B
100
AcDbEntity
 67
     1
  8
0
100
AcDbBlockEnd
  0
BLOCK
  5
24
330
23
100
AcDbEntity
  8
0
100
AcDbBlockBegin
  2
*Paper_Space0
 70
     0
 10
0.0
 20
0.0
 30
0.0
  3
*Paper_Space0
  1

  0
ENDBLK
  5
25
330
23
100
AcDbEntity
  8
0
100
AcDbBlockEnd
  0
BLOCK
  5
83
330
82
100
AcDbEntity
  8
0
100
AcDbBlockBegin
  2
블럭10
 70
     2
 10
0.0
 20
0.0
 30
0.0
  3
블럭10
  1

  0
ELLIPSE
  5
85
330
82
100
AcDbEntity
  8
중심선
100
AcDbEllipse
 10
20.54032771741204
 20
12.0471743016438
 30
0.0
 11
6.600054785286829
 21
-1.261213355974178E-13
 31
0.0
210
0.0
220
0.0
230
1.0
 40
0.636358354079598
 41
0.9219305317359503
 42
6.513795318482858
  0
ELLIPSE
  5
86
330
82
100
AcDbEntity
  8
중심선
100
AcDbEllipse
 10
20.54032771746488
 20
12.04717430159265
 30
0.0
 11
3.960054785062283
 21
1.540847449632565E-10
 31
0.0
210
0.0
220
0.0
230
1.0
 40
0.3939339440162632
 41
1.131841032648279
 42
5.62031148352944
  0
LINE
  5
87
330
82
100
AcDbEntity
  8
중심선
100
AcDbLine
 10
2.268634060543552
 20
16.24717430164393
 30
0.0
 11
5.714909304380834
 21
16.24717430164393
 31
0.0
  0
LINE
  5
88
330
82
100
AcDbEntity
  8
중심선
100
AcDbLine
 10
5.245725140726316
 20
7.84717430164391
 30
0.0
 11
8.692000384563599
 21
7.84717430164391
 31
0.0
  0
LINE
  5
89
330
82
100
AcDbEntity
  8
중심선
100
AcDbLine
 10
15.74043728645272
 20
16.24717430164393
 30
0.0
 11
8.692000384563599
 21
7.84717430164391
 31
0.0
  0
LINE
  5
8A
330
82
100
AcDbEntity
  8
중심선
100
AcDbLine
 10
0.1404042013395286
 20
13.71084872107135
 30
0.0
 11
3.58671253028996
 21
13.71088815037384
 31
0.0
  0
LINE
  5
8B
330
82
100
AcDbEntity
  8
중심선
100
AcDbLine
 10
2.750260043222114
 20
10.84717430164391
 30
0.0
 11
6.196535287059397
 21
10.84717430164391
 31
0.0
  0
LINE
  5
8C
330
82
100
AcDbEntity
  8
중심선
100
AcDbLine
 10
12.29416204261559
 20
16.24717430164393
 30
0.0
 11
5.245725140726316
 21
7.84717430164391
 31
0.0
  0
LINE
  5
8D
330
82
100
AcDbEntity
  8
중심선
100
AcDbLine
 10
10.72767329541681
 20
16.24717430164393
 30
0.0
 11
6.196535287059397
 21
10.84717430164391
 31
0.0
  0
LINE
  5
8E
330
82
100
AcDbEntity
  8
중심선
100
AcDbLine
 10
7.28139805157953
 20
16.24717430164393
 30
0.0
 11
2.750260043222114
 21
10.84717430164391
 31
0.0
  0
LINE
  5
8F
330
82
100
AcDbEntity
  8
중심선
100
AcDbLine
 10
5.714909304380834
 20
16.24717430164393
 30
0.0
 11
3.58671253028996
 21
13.71088815037384
 31
0.0
  0
LINE
  5
90
330
82
100
AcDbEntity
  8
중심선
100
AcDbLine
 10
2.268634060543552
 20
16.24717430164393
 30
0.0
 11
0.1404042013395286
 21
13.71084872107135
 31
0.0
  0
LINE
  5
91
330
82
100
AcDbEntity
  8
중심선
100
AcDbLine
 10
7.28139805157953
 20
16.24717430164393
 30
0.0
 11
10.72767329541681
 21
16.24717430164393
 31
0.0
  0
LINE
  5
92
330
82
100
AcDbEntity
  8
중심선
100
AcDbLine
 10
12.29416204261559
 20
16.24717430164393
 30
0.0
 11
15.74043728645272
 21
16.24717430164393
 31
0.0
  0
LINE
  5
93
330
82
100
AcDbEntity
  8
중심선
100
AcDbLine
 10
19.22036997980202
 20
11.08717430171403
 30
0.0
 11
23.66174974927406
 21
11.08717430171406
 31
0.0
  0
LINE
  5
94
330
82
100
AcDbEntity
  8
중심선
100
AcDbLine
 10
19.22039502424796
 20
13.00717430171391
 30
0.0
 11
19.22036997980202
 21
11.08717430171403
 31
0.0
  0
LINE
  5
95
330
82
100
AcDbEntity
  8
중심선
100
AcDbLine
 10
19.22039502424796
 20
13.00717430171391
 30
0.0
 11
26.96566020931264
 21
13.00717430171391
 31
0.0
  0
LINE
  5
96
330
82
100
AcDbEntity
  8
중심선
100
AcDbLine
 10
22.22332737316547
 20
13.45928029700563
 30
0.0
 11
24.52862924686651
 21
15.39360700705356
 31
0.0
  0
ATTDEF
  5
98
330
82
100
AcDbEntity
  8
FORMAT
 62
     2
100
AcDbText
 10
-16.11926103943555
 20
2.075366912832191
 30
0.0
 40
4.233333333333333
  1
SEME7202516E [ 4 FLUTE ]
 41
0.75
  7
SLDTEXTSTYLE0
 11
-16.11926103943555
 21
-0.0412997538344756
 31
0.0
100
AcDbAttributeDefinition
  3

  2
AUTOATTR0
 70
     0
 74
     1
  0
ENDBLK
  5
84
330
82
100
AcDbEntity
  8
0
100
AcDbBlockEnd
  0
BLOCK
  5
F3
330
F2
100
AcDbEntity
  8
0
100
AcDbBlockBegin
  2
_D
 70
     0
 10
0.0
 20
0.0
 30
0.0
  3
_D
  1

  0
LINE
  5
F5
330
F2
100
AcDbEntity
  8
치수문자_일반주서
 62
     0
370
    -2
100
AcDbLine
 10
25.59358891324554
 20
-1.250000000000005
 30
0.0
 11
36.13505629241835
 21
-1.249999999999966
 31
0.0
  0
LINE
  5
F6
330
F2
100
AcDbEntity
  8
치수문자_일반주서
 62
     0
370
    -2
100
AcDbLine
 10
25.59358891324554
 20
1.250000000000005
 30
0.0
 11
36.13505629241834
 21
1.250000000000044
 31
0.0
  0
LINE
  5
F7
330
F2
100
AcDbEntity
  8
치수문자_일반주서
 62
     0
370
    -2
100
AcDbLine
 10
36.13505629241835
 20
-1.249999999999966
 30
0.0
 11
36.13505629241829
 21
17.47900000000004
 31
0.0
  0
LINE
  5
F8
330
F2
100
AcDbEntity
  8
치수문자_일반주서
 62
     0
370
    -2
100
AcDbLine
 10
36.13505629241835
 20
-1.249999999999966
 30
0.0
 11
36.13505629241834
 21
1.250000000000044
 31
0.0
  0
LINE
  5
F9
330
F2
100
AcDbEntity
  8
치수문자_일반주서
 62
     0
370
    -2
100
AcDbLine
 10
36.13505629241835
 20
-4.551999999999966
 30
0.0
 11
36.13505629241836
 21
-7.853999999999965
 31
0.0
  0
LINE
  5
FA
330
F2
100
AcDbEntity
  8
치수문자_일반주서
 62
     0
370
    -2
100
AcDbLine
 10
36.13505629241833
 20
4.552000000000044
 30
0.0
 11
36.13505629241833
 21
7.854000000000044
 31
0.0
  0
SOLID
  5
FB
330
F2
100
AcDbEntity
  8
치수문자_일반주서
 62
     0
100
AcDbTrace
 10
36.68538962575169
 20
-4.551999999999964
 30
0.0
 11
35.58472295908502
 21
-4.551999999999968
 31
0.0
 12
36.13505629241835
 22
-1.249999999999966
 32
0.0
 13
36.13505629241835
 23
-1.249999999999966
 33
0.0
  0
SOLID
  5
FC
330
F2
100
AcDbEntity
  8
치수문자_일반주서
 62
     0
100
AcDbTrace
 10
35.584722959085
 20
4.552000000000042
 30
0.0
 11
36.68538962575167
 21
4.552000000000046
 31
0.0
 12
36.13505629241834
 22
1.250000000000044
 32
0.0
 13
36.13505629241834
 23
1.250000000000044
 33
0.0
  0
MTEXT
  5
FD
330
F2
100
AcDbEntity
  8
치수문자_일반주서
 62
     0
100
AcDbMText
 10
31.76005629241831
 20
12.66650000000003
 30
0.0
 40
3.5
 41
0.0
 71
     2
 72
     1
  1
\A1;%%c2.5
  7
SLDTEXTSTYLE0
 11
-2.842170943040389E-15
 21
1.0
 31
0.0
 73
     1
 44
1.0
  0
POINT
  5
156
330
F2
100
AcDbEntity
  8
Defpoints
 62
     0
100
AcDbPoint
 10
25.53108891324554
 20
-1.250000000000006
 30
0.0
  0
POINT
  5
157
330
F2
100
AcDbEntity
  8
Defpoints
 62
     0
100
AcDbPoint
 10
25.53108891324554
 20
1.250000000000005
 30
0.0
  0
POINT
  5
158
330
F2
100
AcDbEntity
  8
Defpoints
 62
     0
100
AcDbPoint
 10
36.13505629241835
 20
1.250000000000044
 30
0.0
  0
ENDBLK
  5
F4
330
F2
100
AcDbEntity
  8
0
100
AcDbBlockEnd
  0
BLOCK
  5
101
330
100
100
AcDbEntity
  8
0
100
AcDbBlockBegin
  2
_D_1
 70
     0
 10
0.0
 20
0.0
 30
0.0
  3
_D_1
  1

  0
LINE
  5
103
330
100
100
AcDbEntity
  8
치수문자_일반주서
 62
     0
370
    -2
100
AcDbLine
 10
-34.46891108675447
 20
2.562499999999995
 30
0.0
 11
-34.46891108675447
 21
20.38913260158165
 31
0.0
  0
LINE
  5
104
330
100
100
AcDbEntity
  8
치수문자_일반주서
 62
     0
370
    -2
100
AcDbLine
 10
25.53108891324552
 20
1.312500000000003
 30
0.0
 11
25.53108891324552
 21
20.38913260158165
 31
0.0
  0
LINE
  5
105
330
100
100
AcDbEntity
  8
치수문자_일반주서
 62
     0
370
    -2
100
AcDbLine
 10
-31.16691108675447
 20
20.38913260158165
 30
0.0
 11
22.22908891324552
 21
20.38913260158165
 31
0.0
  0
SOLID
  5
106
330
100
100
AcDbEntity
  8
치수문자_일반주서
 62
     0
100
AcDbTrace
 10
-31.16691108675447
 20
20.93946593491498
 30
0.0
 11
-31.16691108675447
 21
19.83879926824831
 31
0.0
 12
-34.46891108675447
 22
20.38913260158165
 32
0.0
 13
-34.46891108675447
 23
20.38913260158165
 33
0.0
  0
SOLID
  5
107
330
100
100
AcDbEntity
  8
치수문자_일반주서
 62
     0
100
AcDbTrace
 10
22.22908891324552
 20
19.83879926824831
 30
0.0
 11
22.22908891324552
 21
20.93946593491498
 31
0.0
 12
25.53108891324552
 22
20.38913260158165
 32
0.0
 13
25.53108891324552
 23
20.38913260158165
 33
0.0
  0
MTEXT
  5
108
330
100
100
AcDbEntity
  8
치수문자_일반주서
 62
     0
100
AcDbMText
 10
-4.468911086754478
 20
24.76413260158165
 30
0.0
 40
3.5
 41
0.0
 71
     2
 72
     1
  1
\A1;60
  7
SLDTEXTSTYLE0
 73
     1
 44
1.0
  0
POINT
  5
14F
330
100
100
AcDbEntity
  8
Defpoints
 62
     0
100
AcDbPoint
 10
-34.46891108675447
 20
2.499999999999995
 30
0.0
  0
POINT
  5
150
330
100
100
AcDbEntity
  8
Defpoints
 62
     0
100
AcDbPoint
 10
25.53108891324552
 20
1.250000000000003
 30
0.0
  0
POINT
  5
151
330
100
100
AcDbEntity
  8
Defpoints
 62
     0
100
AcDbPoint
 10
25.53108891324552
 20
20.38913260158165
 30
0.0
  0
ENDBLK
  5
102
330
100
100
AcDbEntity
  8
0
100
AcDbBlockEnd
  0
BLOCK
  5
10C
330
10B
100
AcDbEntity
  8
0
100
AcDbBlockBegin
  2
_D_2
 70
     0
 10
0.0
 20
0.0
 30
0.0
  3
_D_2
  1

  0
LINE
  5
10E
330
10B
100
AcDbEntity
  8
치수문자_일반주서
 62
     0
370
    -2
100
AcDbLine
 10
-34.03141108675447
 20
3.000000000000003
 30
0.0
 11
-40.4654508479233
 21
2.99999999999998
 31
0.0
  0
LINE
  5
10F
330
10B
100
AcDbEntity
  8
치수문자_일반주서
 62
     0
370
    -2
100
AcDbLine
 10
-34.03141108675447
 20
-3.000000000000002
 30
0.0
 11
-40.46545084792328
 21
-3.000000000000025
 31
0.0
  0
LINE
  5
110
330
10B
100
AcDbEntity
  8
치수문자_일반주서
 62
     0
370
    -2
100
AcDbLine
 10
-40.4654508479233
 20
2.99999999999998
 30
0.0
 11
-40.46545084792335
 21
15.72899999999998
 31
0.0
  0
LINE
  5
111
330
10B
100
AcDbEntity
  8
치수문자_일반주서
 62
     0
370
    -2
100
AcDbLine
 10
-40.4654508479233
 20
2.99999999999998
 30
0.0
 11
-40.46545084792328
 21
-3.000000000000025
 31
0.0
  0
LINE
  5
112
330
10B
100
AcDbEntity
  8
치수문자_일반주서
 62
     0
370
    -2
100
AcDbLine
 10
-40.46545084792331
 20
6.30199999999998
 30
0.0
 11
-40.46545084792333
 21
9.60399999999998
 31
0.0
  0
LINE
  5
113
330
10B
100
AcDbEntity
  8
치수문자_일반주서
 62
     0
370
    -2
100
AcDbLine
 10
-40.46545084792326
 20
-6.302000000000024
 30
0.0
 11
-40.46545084792325
 21
-9.604000000000024
 31
0.0
  0
SOLID
  5
114
330
10B
100
AcDbEntity
  8
치수문자_일반주서
 62
     0
100
AcDbTrace
 10
-41.01578418125665
 20
6.301999999999978
 30
0.0
 11
-39.91511751458998
 21
6.301999999999982
 31
0.0
 12
-40.4654508479233
 22
2.99999999999998
 32
0.0
 13
-40.4654508479233
 23
2.99999999999998
 33
0.0
  0
SOLID
  5
115
330
10B
100
AcDbEntity
  8
치수문자_일반주서
 62
     0
100
AcDbTrace
 10
-39.91511751458993
 20
-6.302000000000023
 30
0.0
 11
-41.0157841812566
 21
-6.302000000000026
 31
0.0
 12
-40.46545084792328
 22
-3.000000000000025
 32
0.0
 13
-40.46545084792328
 23
-3.000000000000025
 33
0.0
  0
MTEXT
  5
116
330
10B
100
AcDbEntity
  8
치수문자_일반주서
 62
     0
100
AcDbMText
 10
-44.84045084792334
 20
12.66649999999997
 30
0.0
 40
3.5
 41
0.0
 71
     2
 72
     1
  1
\A1;%%c6
  7
SLDTEXTSTYLE0
 11
-3.552713678800497E-15
 21
1.0
 31
0.0
 73
     1
 44
1.0
  0
POINT
  5
153
330
10B
100
AcDbEntity
  8
Defpoints
 62
     0
100
AcDbPoint
 10
-33.96891108675447
 20
3.000000000000003
 30
0.0
  0
POINT
  5
154
330
10B
100
AcDbEntity
  8
Defpoints
 62
     0
100
AcDbPoint
 10
-33.96891108675447
 20
-3.000000000000002
 30
0.0
  0
POINT
  5
155
330
10B
100
AcDbEntity
  8
Defpoints
 62
     0
100
AcDbPoint
 10
-40.46545084792327
 20
-3.000000000000027
 30
0.0
  0
ENDBLK
  5
10D
330
10B
100
AcDbEntity
  8
0
100
AcDbBlockEnd
  0
BLOCK
  5
119
330
118
100
AcDbEntity
  8
0
100
AcDbBlockBegin
  2
_D_3
 70
     0
 10
0.0
 20
0.0
 30
0.0
  3
_D_3
  1

  0
LINE
  5
11B
330
118
100
AcDbEntity
  8
치수문자_일반주서
 62
     0
370
    -2
100
AcDbLine
 10
9.531088913245522
 20
1.276601794559986
 30
0.0
 11
9.531088913245522
 21
12.06002009714764
 31
0.0
  0
LINE
  5
11C
330
118
100
AcDbEntity
  8
치수문자_일반주서
 62
     0
370
    -2
100
AcDbLine
 10
25.53108891324552
 20
1.312500000000003
 30
0.0
 11
25.53108891324552
 21
12.06002009714764
 31
0.0
  0
LINE
  5
11D
330
118
100
AcDbEntity
  8
치수문자_일반주서
 62
     0
370
    -2
100
AcDbLine
 10
12.83308891324552
 20
12.06002009714764
 30
0.0
 11
22.22908891324552
 21
12.06002009714764
 31
0.0
  0
SOLID
  5
11E
330
118
100
AcDbEntity
  8
치수문자_일반주서
 62
     0
100
AcDbTrace
 10
12.83308891324552
 20
12.61035343048097
 30
0.0
 11
12.83308891324552
 21
11.50968676381431
 31
0.0
 12
9.531088913245522
 22
12.06002009714764
 32
0.0
 13
9.531088913245522
 23
12.06002009714764
 33
0.0
  0
SOLID
  5
11F
330
118
100
AcDbEntity
  8
치수문자_일반주서
 62
     0
100
AcDbTrace
 10
22.22908891324552
 20
11.50968676381431
 30
0.0
 11
22.22908891324552
 21
12.61035343048097
 31
0.0
 12
25.53108891324552
 22
12.06002009714764
 32
0.0
 13
25.53108891324552
 23
12.06002009714764
 33
0.0
  0
MTEXT
  5
120
330
118
100
AcDbEntity
  8
치수문자_일반주서
 62
     0
100
AcDbMText
 10
17.53108891324552
 20
16.43502009714764
 30
0.0
 40
3.5
 41
0.0
 71
     2
 72
     1
  1
\A1;16
  7
SLDTEXTSTYLE0
 73
     1
 44
1.0
  0
POINT
  5
121
330
118
100
AcDbEntity
  8
Defpoints
 62
     0
100
AcDbPoint
 10
9.531088913245522
 20
1.214101794559986
 30
0.0
  0
POINT
  5
122
330
118
100
AcDbEntity
  8
Defpoints
 62
     0
100
AcDbPoint
 10
25.53108891324552
 20
1.250000000000003
 30
0.0
  0
POINT
  5
152
330
118
100
AcDbEntity
  8
Defpoints
 62
     0
100
AcDbPoint
 10
25.53108891324552
 20
12.06002009714764
 30
0.0
  0
ENDBLK
  5
11A
330
118
100
AcDbEntity
  8
0
100
AcDbBlockEnd
  0
BLOCK
  5
124
330
123
100
AcDbEntity
  8
0
100
AcDbBlockBegin
  2
SW_DOWELSYMBOL_0
 70
     0
 10
0.0
 20
0.0
 30
0.0
  3
SW_DOWELSYMBOL_0
  1

  0
CIRCLE
  5
126
330
123
100
AcDbEntity
  8
해칭선
 62
     0
100
AcDbCircle
 10
0.0
 20
0.0
 30
0.0
 40
3.000000000000003
  0
HATCH
  5
127
330
123
100
AcDbEntity
  8
0
  6
Continuous
 62
     0
370
    18
100
AcDbHatch
 10
0.0
 20
0.0
 30
0.0
210
0.0
220
0.0
230
1.0
  2
SOLID
 70
     1
 71
     0
 91
        1
 92
        0
 93
        3
 72
     2
 10
0.0
 20
0.0
 40
3.000000000000003
 50
0.0
 51
90.0
 73
     1
 72
     1
 10
0.0
 20
3.000000000000003
 11
0.0
 21
0.0
 72
     1
 10
0.0
 20
0.0
 11
3.000000000000003
 21
0.0
 97
        0
 75
     0
 76
     1
 98
        1
 10
0.0
 20
0.0
  0
HATCH
  5
128
330
123
100
AcDbEntity
  8
0
  6
Continuous
 62
     0
370
    18
100
AcDbHatch
 10
0.0
 20
0.0
 30
0.0
210
0.0
220
0.0
230
1.0
  2
SOLID
 70
     1
 71
     0
 91
        1
 92
        0
 93
        3
 72
     2
 10
0.0
 20
0.0
 40
3.000000000000003
 50
180.0
 51
270.0000000000008
 73
     1
 72
     1
 10
0.0
 20
-3.000000000000003
 11
0.0
 21
0.0
 72
     1
 10
0.0
 20
0.0
 11
-3.000000000000003
 21
0.0
 97
        0
 75
     0
 76
     1
 98
        1
 10
0.0
 20
0.0
  0
ENDBLK
  5
125
330
123
100
AcDbEntity
  8
0
100
AcDbBlockEnd
  0
ENDSEC
  0
SECTION
  2
ENTITIES
  0
LINE
  5
99
330
1F
100
AcDbEntity
  8
0
  6
Continuous
 62
     4
370
    25
100
AcDbLine
 10
2.0
 20
2.999999999999998
 30
0.0
 11
-33.96891108675447
 21
2.999999999999996
 31
0.0
  0
LINE
  5
9A
330
1F
100
AcDbEntity
  8
0
  6
Continuous
 62
     4
370
    25
100
AcDbLine
 10
-33.96891108675447
 20
-3.0
 30
0.0
 11
2.0
 21
-2.999999999999998
 31
0.0
  0
LINE
  5
9B
330
1F
100
AcDbEntity
  8
0
  6
Continuous
 62
     4
370
    25
100
AcDbLine
 10
2.0
 20
-2.999999999999999
 30
0.0
 11
8.531088913245519
 21
-1.25
 31
0.0
  0
LINE
  5
9C
330
1F
100
AcDbEntity
  8
0
  6
Continuous
 62
     4
370
    25
100
AcDbLine
 10
8.531088913245519
 20
1.25
 30
0.0
 11
2.0
 21
2.999999999999999
 31
0.0
  0
LINE
  5
9D
330
1F
100
AcDbEntity
  8
0
  6
Continuous
 62
     4
370
    25
100
AcDbLine
 10
-33.96891108675447
 20
2.999999999999995
 30
0.0
 11
-34.46891108675447
 21
2.499999999999994
 31
0.0
  0
LINE
  5
9E
330
1F
100
AcDbEntity
  8
0
  6
Continuous
 62
     4
370
    25
100
AcDbLine
 10
-34.46891108675447
 20
-2.499999999999999
 30
0.0
 11
-33.96891108675447
 21
-2.999999999999999
 31
0.0
  0
LINE
  5
9F
330
1F
100
AcDbEntity
  8
0
  6
Continuous
 62
     4
370
    25
100
AcDbLine
 10
9.00963529464196
 20
1.25
 30
0.0
 11
8.531088913245519
 21
1.25
 31
0.0
  0
LINE
  5
A0
330
1F
100
AcDbEntity
  8
0
  6
Continuous
 62
     4
370
    25
100
AcDbLine
 10
8.531088913245519
 20
-1.25
 30
0.0
 11
9.00963529464196
 21
-1.25
 31
0.0
  0
LINE
  5
A1
330
1F
100
AcDbEntity
  8
0
  6
Continuous
 62
     1
370
    25
100
AcDbLine
 10
21.64661814719053
 20
-1.250000000000001
 30
0.0
 11
22.61294854205725
 21
-1.250000000000001
 31
0.0
  0
LINE
  5
A2
330
1F
100
AcDbEntity
  8
0
  6
Continuous
 62
     1
370
    25
100
AcDbLine
 10
15.81238894512386
 20
1.250000000000002
 30
0.0
 11
14.84452099603852
 21
1.250000000000002
 31
0.0
  0
LINE
  5
A3
330
1F
100
AcDbEntity
  8
0
  6
Continuous
 62
     1
370
    25
100
AcDbLine
 10
15.46706887595912
 20
0.1972336321490035
 30
0.0
 11
15.50325320365012
 21
0.1780435718663899
 31
0.0
  0
LINE
  5
A4
330
1F
100
AcDbEntity
  8
0
  6
Continuous
 62
     1
370
    25
100
AcDbLine
 10
18.60141160082066
 20
-0.2016575295257141
 30
0.0
 11
18.55759869087052
 21
-0.1789622236874647
 31
0.0
  0
SPLINE
  5
A5
330
1F
100
AcDbEntity
  8
0
  6
Continuous
 62
     1
370
    25
100
AcDbSpline
210
0.0
220
0.0
230
1.0
 70
     8
 71
     3
 72
     9
 73
     5
 74
     0
 42
0.000000001
 43
0.00000001
 40
0.0
 40
0.0
 40
0.0
 40
0.0
 40
0.5444178663816384
 40
1.0
 40
1.0
 40
1.0
 40
1.0
 10
11.98441803482753
 20
-0.3040094929264862
 30
0.0
 10
11.91497155574627
 20
-0.269288814777323
 30
0.0
 10
11.78741057112462
 20
-0.2055130272927443
 30
0.0
 10
11.68720589396017
 20
-0.1423716227598116
 30
0.0
 10
11.64155443333905
 20
-0.1136055269630379
 30
0.0
  0
SPLINE
  5
A6
330
1F
100
AcDbEntity
  8
0
  6
Continuous
 62
     1
370
    25
100
AcDbSpline
210
0.0
220
0.0
230
1.0
 70
     8
 71
     3
 72
     9
 73
     5
 74
     0
 42
0.000000001
 43
0.00000001
 40
0.0
 40
0.0
 40
0.0
 40
0.0
 40
0.5000867656559672
 40
1.0
 40
1.0
 40
1.0
 40
1.0
 10
25.53108891324552
 20
-0.2783065290928426
 30
0.0
 10
25.48380584176511
 20
-0.2519575227091366
 30
0.0
 10
25.38925610614396
 20
-0.1992686531103907
 30
0.0
 10
25.29311291749389
 20
-0.1421565987689153
 30
0.0
 10
25.24504966509568
 20
-0.1136055269630362
 30
0.0
  0
LINE
  5
A7
330
1F
100
AcDbEntity
  8
0
  6
Continuous
 62
     1
370
    25
100
AcDbLine
 10
22.26907718992254
 20
0.1966388343655132
 30
0.0
 11
22.30500081952845
 21
0.1780435718663918
 31
0.0
  0
LINE
  5
A8
330
1F
100
AcDbEntity
  8
0
  6
Continuous
 62
     1
370
    25
100
AcDbLine
 10
18.24523272933556
 20
-1.250000000000001
 30
0.0
 11
19.21171895601624
 21
-1.250000000000001
 31
0.0
  0
LINE
  5
A9
330
1F
100
AcDbEntity
  8
0
  6
Continuous
 62
     1
370
    25
100
AcDbLine
 10
12.41153698180556
 20
1.250000000000002
 30
0.0
 11
11.44519183936607
 21
1.250000000000002
 31
0.0
  0
LINE
  5
AA
330
1F
100
AcDbEntity
  8
0
  6
Continuous
 62
     1
370
    25
100
AcDbLine
 10
25.53108891324552
 20
1.250000000000002
 30
0.0
 11
25.0486870711227
 21
1.250000000000002
 31
0.0
  0
LINE
  5
AB
330
1F
100
AcDbEntity
  8
0
  6
Continuous
 62
     1
370
    25
100
AcDbLine
 10
25.0486870711227
 20
-1.250000000000001
 30
0.0
 11
25.53108891324552
 21
-1.250000000000001
 31
0.0
  0
LINE
  5
AC
330
1F
100
AcDbEntity
  8
0
  6
Continuous
 62
     1
370
    25
100
AcDbLine
 10
11.44519183936606
 20
-1.250000000000001
 30
0.0
 11
12.41153698180556
 21
-1.250000000000001
 31
0.0
  0
LINE
  5
AD
330
1F
100
AcDbEntity
  8
0
  6
Continuous
 62
     1
370
    25
100
AcDbLine
 10
19.21171895601625
 20
1.250000000000002
 30
0.0
 11
18.24523272933556
 21
1.250000000000002
 31
0.0
  0
LINE
  5
AE
330
1F
100
AcDbEntity
  8
0
  6
Continuous
 62
     1
370
    25
100
AcDbLine
 10
14.84452099603856
 20
-1.250000000000001
 30
0.0
 11
15.81238894512386
 21
-1.250000000000001
 31
0.0
  0
LINE
  5
AF
330
1F
100
AcDbEntity
  8
0
  6
Continuous
 62
     1
370
    25
100
AcDbLine
 10
22.61294854205725
 20
1.250000000000002
 30
0.0
 11
21.64661814719056
 21
1.250000000000002
 31
0.0
  0
LINE
  5
B0
330
1F
100
AcDbEntity
  8
0
  6
Continuous
 62
     4
370
    25
100
AcDbLine
 10
2.0
 20
2.999999999999999
 30
0.0
 11
2.0
 21
-2.999999999999999
 31
0.0
  0
LINE
  5
B1
330
1F
100
AcDbEntity
  8
0
  6
Continuous
 62
     4
370
    25
100
AcDbLine
 10
-33.96891108675447
 20
2.999999999999995
 30
0.0
 11
-33.96891108675447
 21
-2.999999999999999
 31
0.0
  0
LINE
  5
B2
330
1F
100
AcDbEntity
  8
0
  6
Continuous
 62
     4
370
    25
100
AcDbLine
 10
8.531088913245519
 20
1.25
 30
0.0
 11
8.531088913245519
 21
1.218398831011993
 31
0.0
  0
SPLINE
  5
B3
330
1F
100
AcDbEntity
  8
0
  6
Continuous
 62
     4
370
    25
100
AcDbSpline
210
0.0
220
0.0
230
1.0
 70
     8
 71
     3
 72
     8
 73
     4
 74
     0
 42
0.000000001
 43
0.00000001
 40
0.0
 40
0.0
 40
0.0
 40
0.0
 40
1.0
 40
1.0
 40
1.0
 40
1.0
 10
8.407870749319013
 20
1.265491585680619
 30
0.0
 10
8.448862865187147
 20
1.250485494178445
 30
0.0
 10
8.489934123701143
 20
1.23478512595197
 30
0.0
 10
8.53108891324537
 20
1.218398831012055
 30
0.0
  0
SPLINE
  5
B4
330
1F
100
AcDbEntity
  8
0
  6
Continuous
 62
     4
370
    25
100
AcDbSpline
210
0.0
220
0.0
230
1.0
 70
     8
 71
     3
 72
    12
 73
     8
 74
     0
 42
0.000000001
 43
0.00000001
 40
0.0
 40
0.0
 40
0.0
 40
0.0
 40
0.25
 40
0.25
 40
0.5
 40
0.5
 40
1.0
 40
1.0
 40
1.0
 40
1.0
 10
8.031249284901477
 20
1.314265792290226
 30
0.0
 10
8.031249284901477
 20
1.328405514530145
 30
0.0
 10
8.043483840690815
 20
1.336881832587269
 30
0.0
 10
8.088811156255654
 20
1.342099094116042
 30
0.0
 10
8.121951733830524
 20
1.338900984955823
 30
0.0
 10
8.235889808839161
 20
1.318758287880227
 30
0.0
 10
8.33308262903615
 20
1.292869469268028
 30
0.0
 10
8.407870749318988
 20
1.265491585680608
 30
0.0
  0
LINE
  5
B5
330
1F
100
AcDbEntity
  8
0
  6
Continuous
 62
     4
370
    25
100
AcDbLine
 10
8.031249284901477
 20
1.314265792290226
 30
0.0
 11
8.031249284901477
 21
0.7176541837307271
 31
0.0
  0
SPLINE
  5
B6
330
1F
100
AcDbEntity
  8
0
  6
Continuous
 62
     4
370
    25
100
AcDbSpline
210
0.0
220
0.0
230
1.0
 70
     8
 71
     3
 72
     8
 73
     4
 74
     0
 42
0.000000001
 43
0.00000001
 40
0.0
 40
0.0
 40
0.0
 40
0.0
 40
1.0
 40
1.0
 40
1.0
 40
1.0
 10
8.147832988464723
 20
0.5166664580853582
 30
0.0
 10
8.077251381496813
 20
0.5647262975440192
 30
0.0
 10
8.031249284901481
 20
0.644573432439372
 30
0.0
 10
8.031249284901477
 20
0.7176541837307265
 30
0.0
  0
SPLINE
  5
B7
330
1F
100
AcDbEntity
  8
0
  6
Continuous
 62
     4
370
    25
100
AcDbSpline
210
0.0
220
0.0
230
1.0
 70
     8
 71
     3
 72
     8
 73
     4
 74
     0
 42
0.000000001
 43
0.00000001
 40
0.0
 40
0.0
 40
0.0
 40
0.0
 40
1.0
 40
1.0
 40
1.0
 40
1.0
 10
8.531088913245519
 20
0.2743977722744043
 30
0.0
 10
8.400662089676084
 20
0.3502411673265834
 30
0.0
 10
8.273159336748064
 20
0.4313302857143307
 30
0.0
 10
8.147832988464723
 20
0.5166664580853576
 30
0.0
  0
LINE
  5
B8
330
1F
100
AcDbEntity
  8
0
  6
Continuous
 62
     4
370
    25
100
AcDbLine
 10
8.531088913245519
 20
0.2743977722737103
 30
0.0
 11
8.531088913245519
 21
-0.2792924785750567
 31
0.0
  0
SPLINE
  5
B9
330
1F
100
AcDbEntity
  8
0
  6
Continuous
 62
     4
370
    25
100
AcDbSpline
210
0.0
220
0.0
230
1.0
 70
     8
 71
     3
 72
     8
 73
     4
 74
     0
 42
0.000000001
 43
0.00000001
 40
0.0
 40
0.0
 40
0.0
 40
0.0
 40
1.0
 40
1.0
 40
1.0
 40
1.0
 10
8.407870749319013
 20
-0.2113329962944422
 30
0.0
 10
8.448862865187147
 20
-0.2345081919509791
 30
0.0
 10
8.489934123701143
 20
-0.2571622663611087
 30
0.0
 10
8.53108891324537
 20
-0.2792924785749766
 30
0.0
  0
SPLINE
  5
BA
330
1F
100
AcDbEntity
  8
0
  6
Continuous
 62
     4
370
    25
100
AcDbSpline
210
0.0
220
0.0
230
1.0
 70
     8
 71
     3
 72
    12
 73
     8
 74
     0
 42
0.000000001
 43
0.00000001
 40
0.0
 40
0.0
 40
0.0
 40
0.0
 40
0.2499999999999999
 40
0.2499999999999999
 40
0.4999999999999999
 40
0.4999999999999999
 40
1.0
 40
1.0
 40
1.0
 40
1.0
 10
8.031249284901477
 20
-0.433557573139029
 30
0.0
 10
8.031249284901477
 20
-0.3906950921128927
 30
0.0
 10
8.043483840690815
 20
-0.3469769990792653
 30
0.0
 10
8.088811156255654
 20
-0.2702339376877443
 30
0.0
 10
8.121951733830524
 20
-0.237421773912196
 30
0.0
 10
8.235889808839161
 20
-0.1706630499725366
 30
0.0
 10
8.33308262903615
 20
-0.1690509797741064
 30
0.0
 10
8.407870749318988
 20
-0.2113329962944286
 30
0.0
  0
LINE
  5
BB
330
1F
100
AcDbEntity
  8
0
  6
Continuous
 62
     4
370
    25
100
AcDbLine
 10
8.031249284901477
 20
-0.4335575731390292
 30
0.0
 11
8.031249284901477
 21
-1.183317038914018
 31
0.0
  0
SPLINE
  5
BC
330
1F
100
AcDbEntity
  8
0
  6
Continuous
 62
     4
370
    25
100
AcDbSpline
210
0.0
220
0.0
230
1.0
 70
     8
 71
     3
 72
     8
 73
     4
 74
     0
 42
0.000000001
 43
0.00000001
 40
0.0
 40
0.0
 40
0.0
 40
0.0
 40
1.0
 40
1.0
 40
1.0
 40
1.0
 10
8.147832988464723
 20
-1.250133767209481
 30
0.0
 10
8.077251381496813
 20
-1.250734990975408
 30
0.0
 10
8.031249284901477
 20
-1.227638809994538
 30
0.0
 10
8.031249284901477
 20
-1.183317038914018
 30
0.0
  0
SPLINE
  5
BD
330
1F
100
AcDbEntity
  8
0
  6
Continuous
 62
     4
370
    25
100
AcDbSpline
210
0.0
220
0.0
230
1.0
 70
     8
 71
     3
 72
     8
 73
     4
 74
     0
 42
0.000000001
 43
0.00000001
 40
0.0
 40
0.0
 40
0.0
 40
0.0
 40
1.0
 40
1.0
 40
1.0
 40
1.0
 10
8.531088913245519
 20
-1.219510501212885
 30
0.0
 10
8.400662089676084
 20
-1.238266751275231
 30
0.0
 10
8.273159336748064
 20
-1.249066220261747
 30
0.0
 10
8.147832988464723
 20
-1.250133767209481
 30
0.0
  0
LINE
  5
BE
330
1F
100
AcDbEntity
  8
0
  6
Continuous
 62
     4
370
    25
100
AcDbLine
 10
8.531088913245519
 20
-1.219510501214001
 30
0.0
 11
8.531088913245519
 21
-1.25
 31
0.0
  0
LINE
  5
BF
330
1F
100
AcDbEntity
  8
0
  6
Continuous
 62
     4
370
    25
100
AcDbLine
 10
-34.46891108675447
 20
2.499999999999995
 30
0.0
 11
-34.46891108675447
 21
-2.500000000000001
 31
0.0
  0
SPLINE
  5
C0
330
1F
100
AcDbEntity
  8
0
  6
Continuous
 62
     4
370
    25
100
AcDbSpline
210
0.0
220
0.0
230
1.0
 70
     8
 71
     3
 72
    10
 73
     6
 74
     0
 42
0.000000001
 43
0.00000001
 40
0.0
 40
0.0
 40
0.0
 40
0.0
 40
0.5000000000000001
 40
0.5000000000000001
 40
1.0
 40
1.0
 40
1.0
 40
1.0
 10
9.531088913245517
 20
0.9665238537842108
 30
0.0
 10
9.36496622886084
 20
1.027435275528597
 30
0.0
 10
9.19552982749248
 20
1.080068687649392
 30
0.0
 10
8.86340160236199
 20
1.16463209801676
 30
0.0
 10
8.69885529904074
 20
1.196866686487299
 30
0.0
 10
8.531088913243568
 20
1.218398831012244
 30
0.0
  0
SPLINE
  5
C1
330
1F
100
AcDbEntity
  8
0
  6
Continuous
 62
     4
370
    25
100
AcDbSpline
210
0.0
220
0.0
230
1.0
 70
    24
 71
     3
 72
    16
 73
    12
 74
     0
 42
0.000000001
 43
0.00000001
 40
0.0
 40
0.0
 40
0.0
 40
0.0
 40
0.1249999999999999
 40
0.1249999999999999
 40
0.2499999999999998
 40
0.2499999999999998
 40
0.4999999999999999
 40
0.4999999999999999
 40
0.75
 40
0.75
 40
1.0
 40
1.0
 40
1.0
 40
1.0
 10
9.531088913245517
 20
0.9665238537842147
 30
0.0
 10
9.531088913245517
 20
0.9288857664808217
 30
0.0
 10
9.531088913245519
 20
0.8937898845797163
 30
0.0
 10
9.531088913245519
 20
0.8138881368895765
 30
0.0
 10
9.531088913245519
 20
0.7698711160631885
 30
0.0
 10
9.531088913245519
 20
0.624813350683454
 30
0.0
 10
9.531088913245519
 20
0.5096387212156395
 30
0.0
 10
9.531088913245519
 20
0.2557852443857447
 30
0.0
 10
9.531088913245519
 20
0.1169353713482595
 30
0.0
 10
9.531088913245519
 20
-0.1306662558605406
 30
0.0
 10
9.531088913245519
 20
-0.2365533677991037
 30
0.0
 10
9.531088913245519
 20
-0.2974169336911134
 30
0.0
  0
SPLINE
  5
C2
330
1F
100
AcDbEntity
  8
0
  6
Continuous
 62
     4
370
    25
100
AcDbSpline
210
0.0
220
0.0
230
1.0
 70
     8
 71
     3
 72
    10
 73
     6
 74
     0
 42
0.000000001
 43
0.00000001
 40
0.0
 40
0.0
 40
0.0
 40
0.0
 40
0.5
 40
0.5
 40
1.0
 40
1.0
 40
1.0
 40
1.0
 10
9.531088913245519
 20
-0.2974169336911136
 30
0.0
 10
9.36496622886084
 20
-0.2041217180460524
 30
0.0
 10
9.19552982749248
 20
-0.1075492801460291
 30
0.0
 10
8.86340160236199
 20
0.0845275275192587
 30
0.0
 10
8.69885529904074
 20
0.1803792133222133
 30
0.0
 10
8.531088913243568
 20
0.2743977722748037
 30
0.0
  0
LINE
  5
C3
330
1F
100
AcDbEntity
  8
0
  6
Continuous
 62
     4
370
    25
100
AcDbLine
 10
8.407870749319002
 20
-0.2113329962944372
 30
0.0
 11
8.402753462606679
 21
-0.2091918518068398
 31
0.0
  0
SPLINE
  5
C4
330
1F
100
AcDbEntity
  8
0
  6
Continuous
 62
     4
370
    25
100
AcDbSpline
210
0.0
220
0.0
230
1.0
 70
    24
 71
     3
 72
     9
 73
     5
 74
     0
 42
0.000000001
 43
0.00000001
 40
0.0
 40
0.0
 40
0.0
 40
0.0
 40
0.5050737777607575
 40
1.0
 40
1.0
 40
1.0
 40
1.0
 10
8.031249284901477
 20
-0.4313450354495786
 30
0.0
 10
8.031249284901477
 20
-0.4301707045909897
 30
0.0
 10
8.031249284901477
 20
-0.4278456366300368
 30
0.0
 10
8.031249284901477
 20
-0.4316665185063588
 30
0.0
 10
8.031249284901477
 20
-0.4335575731390292
 30
0.0
  0
SPLINE
  5
C5
330
1F
100
AcDbEntity
  8
0
  6
Continuous
 62
     4
370
    25
100
AcDbSpline
210
0.0
220
0.0
230
1.0
 70
     8
 71
     3
 72
    10
 73
     6
 74
     0
 42
0.000000001
 43
0.00000001
 40
0.0
 40
0.0
 40
0.0
 40
0.0
 40
0.5
 40
0.5
 40
1.0
 40
1.0
 40
1.0
 40
1.0
 10
9.531088913245517
 20
-0.7926737286337321
 30
0.0
 10
9.36496622886084
 20
-0.7184031429473204
 30
0.0
 10
9.19552982749248
 20
-0.6365341995369744
 30
0.0
 10
8.86340160236199
 20
-0.4640649022388308
 30
0.0
 10
8.69885529904074
 20
-0.3732253329506016
 30
0.0
 10
8.531088913243568
 20
-0.2792924785739644
 30
0.0
  0
SPLINE
  5
C6
330
1F
100
AcDbEntity
  8
0
  6
Continuous
 62
     4
370
    25
100
AcDbSpline
210
0.0
220
0.0
230
1.0
 70
    24
 71
     3
 72
    12
 73
     8
 74
     0
 42
0.000000001
 43
0.00000001
 40
0.0
 40
0.0
 40
0.0
 40
0.0
 40
0.1616858319747176
 40
0.417666717816349
 40
0.6810710666887383
 40
0.8396798428890708
 40
1.0
 40
1.0
 40
1.0
 40
1.0
 10
9.531088913245517
 20
-0.7926737286337334
 30
0.0
 10
9.531088913245517
 20
-0.8081479887510177
 30
0.0
 10
9.531088913245517
 20
-0.8481210856815712
 30
0.0
 10
9.531088913245517
 20
-0.9363894465928306
 30
0.0
 10
9.531088913245517
 20
-1.036408104586514
 30
0.0
 10
9.531088913245517
 20
-1.131004209973191
 30
0.0
 10
9.531088913245517
 20
-1.186303686889593
 30
0.0
 10
9.531088913245519
 20
-1.214101794559985
 30
0.0
  0
SPLINE
  5
C7
330
1F
100
AcDbEntity
  8
0
  6
Continuous
 62
     4
370
    25
100
AcDbSpline
210
0.0
220
0.0
230
1.0
 70
     8
 71
     3
 72
    10
 73
     6
 74
     0
 42
0.000000001
 43
0.00000001
 40
0.0
 40
0.0
 40
0.0
 40
0.0
 40
0.5
 40
0.5
 40
1.0
 40
1.0
 40
1.0
 40
1.0
 10
9.531088913245517
 20
-1.214101794559986
 30
0.0
 10
9.36496622886084
 20
-1.236956201900073
 30
0.0
 10
9.19552982749248
 20
-1.249062572316111
 30
0.0
 10
8.86340160236199
 20
-1.250831425217783
 30
0.0
 10
8.69885529904074
 20
-1.240665286763695
 30
0.0
 10
8.531088913243568
 20
-1.219510501213755
 30
0.0
  0
LINE
  5
C8
330
1F
100
AcDbEntity
  8
0
  6
Continuous
 62
     4
370
    25
100
AcDbLine
 10
9.531088913245519
 20
-0.2974169336911136
 30
0.0
 11
9.531088913245517
 21
-0.7926737286337354
 31
0.0
  0
SPLINE
  5
C9
330
1F
100
AcDbEntity
  8
0
  6
Continuous
 62
     4
370
    25
100
AcDbSpline
210
0.0
220
0.0
230
1.0
 70
     8
 71
     3
 72
     9
 73
     5
 74
     0
 42
0.000000001
 43
0.00000001
 40
0.0
 40
0.0
 40
0.0
 40
0.0
 40
0.961931361247605
 40
1.0
 40
1.0
 40
1.0
 40
1.0
 10
9.531088913245519
 20
1.214101794559987
 30
0.0
 10
9.363794387314691
 20
1.236703088990962
 30
0.0
 10
9.189879144844744
 20
1.26019883446875
 30
0.0
 10
9.016245298802144
 20
1.249156304177185
 30
0.0
 10
9.00963529464196
 20
1.248735930080603
 30
0.0
  0
LINE
  5
CA
330
1F
100
AcDbEntity
  8
0
  6
Continuous
 62
     4
370
    25
100
AcDbLine
 10
9.531088913245519
 20
1.214101794559987
 30
0.0
 11
9.531088913245517
 21
0.966523853784213
 31
0.0
  0
SPLINE
  5
CB
330
1F
100
AcDbEntity
  8
0
  6
Continuous
 62
     1
370
    25
100
AcDbSpline
210
0.0
220
0.0
230
1.0
 70
     8
 71
     3
 72
    19
 73
    15
 74
     0
 42
0.000000001
 43
0.00000001
 40
0.0
 40
0.0
 40
0.0
 40
0.0
 40
0.0295467566890646
 40
0.1204528078460089
 40
0.2113583769216033
 40
0.3022640938036684
 40
0.393170588273117
 40
0.4840784895485571
 40
0.5749884258317635
 40
0.6659010238547194
 40
0.7568169084289309
 40
0.847736701997704
 40
0.9386610241920652
 40
1.0
 40
1.0
 40
1.0
 40
1.0
 10
13.62723882812759
 20
1.044576175894057
 30
0.0
 10
13.70622076294691
 20
1.072437426428791
 30
0.0
 10
14.02820519996026
 20
1.186018957299551
 30
0.0
 10
14.59318881327193
 20
1.260098054743582
 30
0.0
 10
15.32219132151367
 20
1.244404275950436
 30
0.0
 10
16.05119509065795
 20
1.080787444592173
 30
0.0
 10
16.78020640115452
 20
0.7979125838882344
 30
0.0
 10
17.50923117296968
 20
0.424829526926373
 30
0.0
 10
18.23827576707781
 20
0.0040836361333696
 30
0.0
 10
18.96734507957367
 20
-0.4168518028221023
 30
0.0
 10
19.69644933673117
 20
-0.7921256553477338
 30
0.0
 10
20.42557879215153
 20
-1.073999694935929
 30
0.0
 10
21.07569237412032
 20
-1.232366707359895
 30
0.0
 10
21.48266857138409
 20
-1.237114514061388
 30
0.0
 10
21.64661814719054
 20
-1.239027158830184
 30
0.0
  0
SPLINE
  5
CC
330
1F
100
AcDbEntity
  8
0
  6
Continuous
 62
     1
370
    25
100
AcDbSpline
210
0.0
220
0.0
230
1.0
 70
     8
 71
     3
 72
    19
 73
    15
 74
     0
 42
0.000000001
 43
0.00000001
 40
0.0
 40
0.0
 40
0.0
 40
0.0
 40
0.0665738126072778
 40
0.1552733013905177
 40
0.243950828912106
 40
0.3326095701005771
 40
0.4236997089965434
 40
0.5147853110081663
 40
0.6058669968964794
 40
0.6969453902399247
 40
0.788021116989464
 40
0.8790948050200381
 40
0.9701670836790592
 40
1.0
 40
1.0
 40
1.0
 40
1.0
 10
23.81737729671265
 20
-1.050786765591405
 30
0.0
 10
23.63971746603071
 20
-1.103064832181362
 30
0.0
 10
23.22535290804461
 20
-1.224995478359323
 30
0.0
 10
22.57437286706965
 20
-1.26999167592731
 30
0.0
 10
21.86448932746705
 20
-1.197919681820124
 30
0.0
 10
21.14827935046916
 20
-0.9926694939890386
 30
0.0
 10
20.42558336422972
 20
-0.6772025834887515
 30
0.0
 10
19.69644811189255
 20
-0.2825795545425726
 30
0.0
 10
18.96734540714036
 20
0.1438994634485415
 30
0.0
 10
18.23827568158342
 20
0.5535233319235192
 30
0.0
 10
17.50923118739546
 20
0.9035620900432854
 30
0.0
 10
16.78020642894182
 20
1.142320202323837
 30
0.0
 10
16.21459458179892
 20
1.256253546293672
 30
0.0
 10
15.89199036111072
 20
1.238753844855792
 30
0.0
 10
15.81238894512386
 20
1.234435857289384
 30
0.0
  0
SPLINE
  5
CD
330
1F
100
AcDbEntity
  8
0
  6
Continuous
 62
     1
370
    25
100
AcDbSpline
210
0.0
220
0.0
230
1.0
 70
     8
 71
     3
 72
     9
 73
     5
 74
     0
 42
0.000000001
 43
0.00000001
 40
0.0
 40
0.0
 40
0.0
 40
0.0
 40
0.7801120353621633
 40
1.0
 40
1.0
 40
1.0
 40
1.0
 10
10.21388206495602
 20
-1.050786765591407
 30
0.0
 10
10.0360337702099
 20
-1.104609810396406
 30
0.0
 10
9.80805588154222
 20
-1.173603804034785
 30
0.0
 10
9.58101292651239
 20
-1.206801926894554
 30
0.0
 10
9.531088913245519
 20
-1.214101794559986
 30
0.0
  0
SPLINE
  5
CE
330
1F
100
AcDbEntity
  8
0
  6
Continuous
 62
     1
370
    25
100
AcDbSpline
210
0.0
220
0.0
230
1.0
 70
     8
 71
     3
 72
    19
 73
    15
 74
     0
 42
0.000000001
 43
0.00000001
 40
0.0
 40
0.0
 40
0.0
 40
0.0
 40
0.0004418000112832
 40
0.0913821328557059
 40
0.1823185558225038
 40
0.2732516914955959
 40
0.3641821648276372
 40
0.455110602692193
 40
0.5460376334329522
 40
0.6369638864106666
 40
0.7278899915485202
 40
0.8188165788766283
 40
0.909744278076369
 40
1.0
 40
1.0
 40
1.0
 40
1.0
 10
20.42911789506231
 20
-1.057404992135224
 30
0.0
 10
20.42793713449117
 20
-1.057857302373151
 30
0.0
 10
20.18370803393343
 20
-1.151413375706365
 30
0.0
 10
19.69644785021852
 20
-1.233647166121737
 30
0.0
 10
18.96734547789843
 20
-1.26798430028711
 30
0.0
 10
18.23827566021116
 20
-1.146486188849711
 30
0.0
 10
17.50923120212918
 20
-0.8997555530418299
 30
0.0
 10
16.78020639137954
 20
-0.5509923978034295
 30
0.0
 10
16.05119510059897
 20
-0.1405315441977878
 30
0.0
 10
15.32219129152474
 20
0.2855879406252194
 30
0.0
 10
14.59318892328685
 20
0.6803400630696174
 30
0.0
 10
13.86418184245782
 20
0.9959118179756447
 30
0.0
 10
13.13696486082021
 20
1.209328935074808
 30
0.0
 10
12.65274764946766
 20
1.236131760208409
 30
0.0
 10
12.41153698180555
 20
1.24948346930534
 30
0.0
  0
SPLINE
  5
CF
330
1F
100
AcDbEntity
  8
0
  6
Continuous
 62
     4
370
    25
100
AcDbSpline
210
0.0
220
0.0
230
1.0
 70
    24
 71
     3
 72
    16
 73
    12
 74
     0
 42
0.000000001
 43
0.00000001
 40
0.0
 40
0.0
 40
0.0
 40
0.0
 40
0.1249999999999999
 40
0.1249999999999999
 40
0.2499999999999998
 40
0.2499999999999998
 40
0.4999999999999999
 40
0.4999999999999999
 40
0.75
 40
0.75
 40
1.0
 40
1.0
 40
1.0
 40
1.0
 10
9.531088913245517
 20
0.9665238537842147
 30
0.0
 10
9.531088913245517
 20
0.9288857664808217
 30
0.0
 10
9.531088913245519
 20
0.8937898845797163
 30
0.0
 10
9.531088913245519
 20
0.8138881368895765
 30
0.0
 10
9.531088913245519
 20
0.7698711160631885
 30
0.0
 10
9.531088913245519
 20
0.624813350683454
 30
0.0
 10
9.531088913245519
 20
0.5096387212156395
 30
0.0
 10
9.531088913245519
 20
0.2557852443857447
 30
0.0
 10
9.531088913245519
 20
0.1169353713482595
 30
0.0
 10
9.531088913245519
 20
-0.1306662558605406
 30
0.0
 10
9.531088913245519
 20
-0.2365533677991037
 30
0.0
 10
9.531088913245519
 20
-0.2974169336911134
 30
0.0
  0
SPLINE
  5
D0
330
1F
100
AcDbEntity
  8
0
  6
Continuous
 62
     1
370
    25
100
AcDbSpline
210
0.0
220
0.0
230
1.0
 70
     8
 71
     3
 72
    15
 73
    11
 74
     0
 42
0.000000001
 43
0.00000001
 40
0.0
 40
0.0
 40
0.0
 40
0.0
 40
0.1352924785172656
 40
0.2705704941985886
 40
0.4058365514566763
 40
0.5410931712886958
 40
0.6782974502850443
 40
0.8154991026487888
 40
0.9526990772990691
 40
1.0
 40
1.0
 40
1.0
 40
1.0
 10
9.531088913245519
 20
0.96652385378421
 30
0.0
 10
9.770718070360617
 20
0.8684515353206748
 30
0.0
 10
10.24995076810996
 20
0.6723173823751821
 30
0.0
 10
10.96874456768478
 20
0.2764280453170946
 30
0.0
 10
11.68746782739958
 20
-0.1422354788060438
 30
0.0
 10
12.40957580324947
 20
-0.5486697710940471
 30
0.0
 10
13.13516683419677
 20
-0.8982880487576507
 30
0.0
 10
13.86418114097486
 20
-1.139306672313593
 30
0.0
 10
14.43396555604141
 20
-1.255268344133295
 30
0.0
 10
14.76074403894916
 20
-1.238368233167982
 30
0.0
 10
14.84452099603856
 20
-1.234035512547737
 30
0.0
  0
SPLINE
  5
D1
330
1F
100
AcDbEntity
  8
0
  6
Continuous
 62
     1
370
    25
100
AcDbSpline
210
0.0
220
0.0
230
1.0
 70
     8
 71
     3
 72
    15
 73
    11
 74
     0
 42
0.000000001
 43
0.00000001
 40
0.0
 40
0.0
 40
0.0
 40
0.0
 40
0.1422120667818255
 40
0.2715476757449536
 40
0.4010134553740589
 40
0.5302322998832272
 40
0.6711234408206778
 40
0.8119995204222766
 40
0.9528631467381355
 40
0.9999999999999999
 40
0.9999999999999999
 40
0.9999999999999999
 40
0.9999999999999999
 10
20.42911789506232
 20
1.057404992135225
 30
0.0
 10
20.67100965840391
 20
1.120487863142988
 30
0.0
 10
21.13289132290448
 20
1.240941825940372
 30
0.0
 10
21.81478911602242
 20
1.264370408844888
 30
0.0
 10
22.47489789566355
 20
1.17812584246741
 30
0.0
 10
23.1544098700177
 20
0.9756253403860831
 30
0.0
 10
23.85348550966946
 20
0.6675042895714896
 30
0.0
 10
24.57211029794866
 20
0.2778299414989028
 30
0.0
 10
25.13191817215292
 20
-0.0496979327791418
 30
0.0
 10
25.45106906942877
 20
-0.2313104633726023
 30
0.0
 10
25.53108891324552
 20
-0.2768456834120844
 30
0.0
  0
LINE
  5
D2
330
1F
100
AcDbEntity
  8
0
  6
Continuous
 62
     1
370
    25
100
AcDbLine
 10
25.53108891324552
 20
-0.5000000000000004
 30
0.0
 11
25.53108891324552
 21
-0.2780751709923343
 31
0.0
  0
SPLINE
  5
D3
330
1F
100
AcDbEntity
  8
0
  6
Continuous
 62
     1
370
    25
100
AcDbSpline
210
0.0
220
0.0
230
1.0
 70
    24
 71
     3
 72
    10
 73
     6
 74
     0
 42
0.000000001
 43
0.00000001
 40
0.0
 40
0.0
 40
0.0
 40
0.0
 40
0.5
 40
0.5
 40
1.0
 40
1.0
 40
1.0
 40
1.0
 10
25.53108891324552
 20
-0.5000000000000003
 30
0.0
 10
25.45712426532604
 20
-0.5517906040342484
 30
0.0
 10
25.36953558604759
 20
-0.6131208575278552
 30
0.0
 10
25.19294578687742
 20
-0.7367703660777427
 30
0.0
 10
25.10451492148047
 20
-0.7986903246380981
 30
0.0
 10
25.02060181304914
 20
-0.8574469157163176
 30
0.0
  0
SPLINE
  5
D4
330
1F
100
AcDbEntity
  8
0
  6
Continuous
 62
     1
370
    25
100
AcDbSpline
210
0.0
220
0.0
230
1.0
 70
     8
 71
     3
 72
     8
 73
     4
 74
     0
 42
0.000000001
 43
0.00000001
 40
0.0
 40
0.0
 40
0.0
 40
0.0
 40
1.0
 40
1.0
 40
1.0
 40
1.0
 10
25.41456119791203
 20
-1.202188908513169
 30
0.0
 10
25.27496601649664
 20
-1.100234442373331
 30
0.0
 10
25.14641143312494
 20
-0.9809900311237028
 30
0.0
 10
25.02060181304914
 20
-0.8574469157163227
 30
0.0
  0
SPLINE
  5
D5
330
1F
100
AcDbEntity
  8
0
  6
Continuous
 62
     1
370
    25
100
AcDbSpline
210
0.0
220
0.0
230
1.0
 70
     8
 71
     3
 72
    16
 73
    12
 74
     0
 42
0.000000001
 43
0.00000001
 40
0.0
 40
0.0
 40
0.0
 40
0.0
 40
0.1144417123270085
 40
0.2289113757484835
 40
0.3434060508497385
 40
0.4578786150840579
 40
0.5723228368558725
 40
0.6867428136207094
 40
0.8043006701418832
 40
0.9218526715133653
 40
0.9999999999999999
 40
0.9999999999999999
 40
0.9999999999999999
 40
0.9999999999999999
 10
25.41456119791199
 20
-1.202188908513162
 30
0.0
 10
25.17794585338087
 20
-1.152235128196986
 30
0.0
 10
24.70465737369567
 20
-1.052315366918523
 30
0.0
 10
23.99460420031592
 20
-0.7560440407843351
 30
0.0
 10
23.28443946255464
 20
-0.3885140386912305
 30
0.0
 10
22.57437320849585
 20
0.022998252536116
 30
0.0
 10
21.86448924303685
 20
0.4309958928933613
 30
0.0
 10
21.14827934762317
 20
0.7979873292976646
 30
0.0
 10
20.42558346590294
 20
1.07552036159627
 30
0.0
 10
19.77790841102622
 20
1.23491053922861
 30
0.0
 10
19.37329183623241
 20
1.234440000993066
 30
0.0
 10
19.21171895601625
 20
1.234252104048886
 30
0.0
  0
SPLINE
  5
D6
330
1F
100
AcDbEntity
  8
0
  6
Continuous
 62
     1
370
    25
100
AcDbSpline
210
0.0
220
0.0
230
1.0
 70
     8
 71
     3
 72
    14
 73
    10
 74
     0
 42
0.000000001
 43
0.00000001
 40
0.0
 40
0.0
 40
0.0
 40
0.0
 40
0.1201161611345565
 40
0.2980750299466799
 40
0.4433978430133172
 40
0.6166688819479149
 40
0.7899822403749346
 40
0.9633334678590737
 40
1.0
 40
1.0
 40
1.0
 40
1.0
 10
13.6272388281276
 20
-1.044576175894056
 30
0.0
 10
13.46322161712823
 20
-1.095068238888089
 30
0.0
 10
13.05620365536001
 20
-1.220367141607404
 30
0.0
 10
12.45057652551494
 20
-1.2671887920263
 30
0.0
 10
11.7730343363566
 20
-1.215007809604817
 30
0.0
 10
11.10106285673364
 20
-1.046393149575078
 30
0.0
 10
10.39135902709333
 20
-0.7573284977698482
 30
0.0
 10
9.866976793548549
 20
-0.4860183484332442
 30
0.0
 10
9.581014442231215
 20
-0.3254501732053138
 30
0.0
 10
9.531088913245519
 20
-0.2974169336911155
 30
0.0
  0
SPLINE
  5
D7
330
1F
100
AcDbEntity
  8
0
  6
Continuous
 62
     4
370
    25
100
AcDbSpline
210
0.0
220
0.0
230
1.0
 70
    24
 71
     3
 72
    11
 73
     7
 74
     0
 42
0.000000001
 43
0.00000001
 40
0.0
 40
0.0
 40
0.0
 40
0.0
 40
0.1617548985846579
 40
0.417845130630465
 40
0.6813619967543589
 40
0.9999999999999999
 40
0.9999999999999999
 40
0.9999999999999999
 40
0.9999999999999999
 10
9.531088913245519
 20
-0.7926737286337348
 30
0.0
 10
9.531088913245519
 20
-0.8081421946956491
 30
0.0
 10
9.531088913245517
 20
-0.8481003244267916
 30
0.0
 10
9.531088913245517
 20
-0.9365334184850949
 30
0.0
 10
9.531088913245517
 20
-1.05939816084309
 30
0.0
 10
9.531088913245519
 20
-1.159378385393475
 30
0.0
 10
9.531088913245522
 20
-1.214101794559985
 30
0.0
  0
SPLINE
  5
D8
330
1F
100
AcDbEntity
  8
0
  6
Continuous
 62
     1
370
    25
100
AcDbSpline
210
0.0
220
0.0
230
1.0
 70
     8
 71
     3
 72
    10
 73
     6
 74
     0
 42
0.000000001
 43
0.00000001
 40
0.0
 40
0.0
 40
0.0
 40
0.0
 40
0.3755655847634088
 40
0.7510910213715198
 40
1.0
 40
1.0
 40
1.0
 40
1.0
 10
9.531088913245519
 20
-0.7926737286337338
 30
0.0
 10
9.770717927867071
 20
-0.8901247721084581
 30
0.0
 10
10.24995034064456
 20
-1.085016441490946
 30
0.0
 10
10.88798213190085
 20
-1.234815859633489
 30
0.0
 10
11.28638317356368
 20
-1.234698287207941
 30
0.0
 10
11.44519183936606
 20
-1.234651421065326
 30
0.0
  0
SPLINE
  5
D9
330
1F
100
AcDbEntity
  8
0
  6
Continuous
 62
     1
370
    25
100
AcDbSpline
210
0.0
220
0.0
230
1.0
 70
     8
 71
     3
 72
    19
 73
    15
 74
     0
 42
0.000000001
 43
0.00000001
 40
0.0
 40
0.0
 40
0.0
 40
0.0
 40
0.0598162274839372
 40
0.1507297425332376
 40
0.2416459194270697
 40
0.3325653830015359
 40
0.4234887557244456
 40
0.5144166572512174
 40
0.5967098547525239
 40
0.6790858767784143
 40
0.7613047798116475
 40
0.8509504897619167
 40
0.9405866165394169
 40
1.0
 40
1.0
 40
1.0
 40
1.0
 10
17.02955725526998
 20
1.044235166025841
 30
0.0
 10
17.18944681943145
 20
1.093821274005844
 30
0.0
 10
17.59234940713275
 20
1.21877233834801
 30
0.0
 10
18.23827589838361
 20
1.270859703367824
 30
0.0
 10
18.96734482421456
 20
1.204451357922725
 30
0.0
 10
19.69645022690643
 20
0.9979960210962664
 30
0.0
 10
20.42557548660073
 20
0.6806737218658094
 30
0.0
 10
21.13171352568692
 20
0.2989668980600135
 30
0.0
 10
21.81478896713156
 20
-0.0988921226688321
 30
0.0
 10
22.47489589831719
 20
-0.4734189381721604
 30
0.0
 10
23.15441829365477
 20
-0.8157758675855357
 30
0.0
 10
23.8534506721732
 20
-1.080806671891191
 30
0.0
 10
24.49147657574353
 20
-1.235466268358285
 30
0.0
 10
24.88987818075932
 20
-1.234883658245858
 30
0.0
 10
25.0486870711227
 20
-1.234651421065324
 30
0.0
  0
SPLINE
  5
DA
330
1F
100
AcDbEntity
  8
0
  6
Continuous
 62
     1
370
    25
100
AcDbSpline
210
0.0
220
0.0
230
1.0
 70
     8
 71
     3
 72
    20
 73
    16
 74
     0
 42
0.000000001
 43
0.00000001
 40
0.0
 40
0.0
 40
0.0
 40
0.0
 40
0.0044936369031376
 40
0.0939917959099555
 40
0.1834820433809721
 40
0.2729660471748132
 40
0.3637385966994759
 40
0.4545094084784949
 40
0.545279110304314
 40
0.6360483307718533
 40
0.7268176988241697
 40
0.817587843297572
 40
0.9083593924669072
 40
0.9991329735917154
 40
1.0
 40
1.0
 40
1.0
 40
1.0
 10
10.21388206495602
 20
1.050786765591407
 30
0.0
 10
10.22591232970862
 20
1.055375017232632
 30
0.0
 10
10.47754507479751
 20
1.151345835779294
 30
0.0
 10
10.96874358383341
 20
1.234896516634038
 30
0.0
 10
11.68746809023962
 20
1.267221649960612
 30
0.0
 10
12.40957573404323
 20
1.148543998537797
 30
0.0
 10
13.13516684392992
 20
0.9049351297460412
 30
0.0
 10
13.8641811716215
 20
0.5575864788615208
 30
0.0
 10
14.59318910476358
 20
0.1479195249872249
 30
0.0
 10
15.32219123644674
 20
-0.2787529793973412
 30
0.0
 10
16.05119513943462
 20
-0.6728815602039345
 30
0.0
 10
16.78020629111378
 20
-0.9959317843052935
 30
0.0
 10
17.50923156436544
 20
-1.190242746686846
 30
0.0
 10
17.99757465781208
 20
-1.272940381388194
 30
0.0
 10
18.24291155778369
 20
-1.249556751937702
 30
0.0
 10
18.24523272933556
 20
-1.249335515688829
 30
0.0
  0
SPLINE
  5
DB
330
1F
100
AcDbEntity
  8
0
  6
Continuous
 62
     1
370
    25
100
AcDbSpline
210
0.0
220
0.0
230
1.0
 70
     8
 71
     3
 72
    11
 73
     7
 74
     0
 42
0.000000001
 43
0.00000001
 40
0.0
 40
0.0
 40
0.0
 40
0.0
 40
0.0210545851815472
 40
0.440391227865127
 40
0.8596908016648525
 40
1.0
 40
1.0
 40
1.0
 40
1.0
 10
23.81737729671265
 20
1.050786765591407
 30
0.0
 10
23.82940761610536
 20
1.055375475331146
 30
0.0
 10
24.08104150408195
 20
1.151355875760572
 30
0.0
 10
24.57210224661844
 20
1.233751532845738
 30
0.0
 10
25.13191873374781
 20
1.262938746111437
 30
0.0
 10
25.451069182009
 20
1.22777390797954
 30
0.0
 10
25.53108891324552
 20
1.218957122944079
 30
0.0
  0
LINE
  5
DC
330
1F
100
AcDbEntity
  8
0
  6
Continuous
 62
     1
370
    25
100
AcDbLine
 10
25.53108891324552
 20
0.562225701681546
 30
0.0
 11
25.53108891324552
 21
1.218957122944079
 31
0.0
  0
SPLINE
  5
DD
330
1F
100
AcDbEntity
  8
0
  6
Continuous
 62
     1
370
    25
100
AcDbSpline
210
0.0
220
0.0
230
1.0
 70
     8
 71
     3
 72
    10
 73
     6
 74
     0
 42
0.000000001
 43
0.00000001
 40
0.0
 40
0.0
 40
0.0
 40
0.0
 40
0.4004787225541758
 40
0.7982217724431354
 40
1.0
 40
1.0
 40
1.0
 40
1.0
 10
25.53108891324552
 20
0.562225701681546
 30
0.0
 10
25.48318041278904
 20
0.532175401767916
 30
0.0
 10
25.38769067514314
 20
0.4722800757278152
 30
0.0
 10
25.24984827324608
 20
0.4538636705144406
 30
0.0
 10
25.17135976694812
 20
0.4752822199411295
 30
0.0
 10
25.14494323715978
 20
0.4824909664906578
 30
0.0
  0
SPLINE
  5
DE
330
1F
100
AcDbEntity
  8
0
  6
Continuous
 62
     1
370
    25
100
AcDbSpline
210
0.0
220
0.0
230
1.0
 70
     8
 71
     3
 72
    11
 73
     7
 74
     0
 42
0.000000001
 43
0.00000001
 40
0.0
 40
0.0
 40
0.0
 40
0.0
 40
0.253385176116234
 40
0.5068322386972018
 40
0.760334679590476
 40
1.0
 40
1.0
 40
1.0
 40
1.0
 10
25.414561197912
 20
0.3424059407310671
 30
0.0
 10
25.17794581983973
 20
0.4703370557107854
 30
0.0
 10
24.70465727306403
 20
0.7262305313987881
 30
0.0
 10
23.99460460299391
 20
1.020225049013856
 30
0.0
 10
23.29731519631962
 20
1.21536362452959
 30
0.0
 10
22.83676342919108
 20
1.236364781232061
 30
0.0
 10
22.61294854205725
 20
1.246570738200481
 30
0.0
  0
SPLINE
  5
DF
330
1F
100
AcDbEntity
  8
0
  6
Continuous
 62
     1
370
    25
100
AcDbSpline
210
0.0
220
0.0
230
1.0
 70
     8
 71
     3
 72
    19
 73
    15
 74
     0
 42
0.000000001
 43
0.00000001
 40
0.0
 40
0.0
 40
0.0
 40
0.0
 40
0.0332518459893881
 40
0.1304669353923643
 40
0.2276811932460936
 40
0.3248952930360968
 40
0.4221099083622208
 40
0.5193257124514584
 40
0.6165433776713478
 40
0.695932197592651
 40
0.7905889346683964
 40
0.8852687905820731
 40
0.9799693340925067
 40
1.0
 40
1.0
 40
1.0
 40
1.0
 10
17.02955725526998
 20
-1.044235166025839
 30
0.0
 10
16.94643913738117
 20
-1.073392554824743
 30
0.0
 10
16.620316908859
 20
-1.187794478911926
 30
0.0
 10
16.05119540801723
 20
-1.261063745706675
 30
0.0
 10
15.32219056638074
 20
-1.242741163242506
 30
0.0
 10
14.59319151644906
 20
-1.07689295773281
 30
0.0
 10
13.86417219484612
 20
-0.7921712634871916
 30
0.0
 10
13.13520034004028
 20
-0.4178912408730342
 30
0.0
 10
12.45057752681788
 20
-0.022513750760457
 30
0.0
 10
11.77303403784986
 20
0.3687558424623658
 30
0.0
 10
11.10106294284583
 20
0.7242513364926418
 30
0.0
 10
10.39135900308037
 20
1.021988799491002
 30
0.0
 10
9.866976794542968
 20
1.163459528929777
 30
0.0
 10
9.581014442379027
 20
1.206574455680294
 30
0.0
 10
9.531088913245522
 20
1.214101794559986
 30
0.0
  0
LINE
  5
E0
330
1F
100
AcDbEntity
  8
0
  6
Continuous
 62
     1
370
    25
100
AcDbLine
 10
25.53108891324552
 20
1.218957122944079
 30
0.0
 11
25.53108891324552
 21
1.250000000000003
 31
0.0
  0
ELLIPSE
  5
E1
330
1F
100
AcDbEntity
  8
0
  6
Continuous
 62
     1
370
    25
100
AcDbEllipse
 10
25.28686122026742
 20
0.0000000000000014
 30
0.0
 11
1.736654132074953
 21
-0.6879262575522047
 31
0.0
210
0.0
220
0.0
230
1.0
 40
0.6009688174887267
 41
5.0176900690713
 42
5.083334185035833
  0
LINE
  5
E2
330
1F
100
AcDbEntity
  8
0
  6
Continuous
 62
     1
370
    25
100
AcDbLine
 10
25.53108891324552
 20
-1.250000000000002
 30
0.0
 11
25.53108891324552
 21
-1.222060428378375
 31
0.0
  0
ELLIPSE
  5
E3
330
1F
100
AcDbEntity
  8
0
  6
Continuous
 62
     1
370
    25
100
AcDbEllipse
 10
25.28686122026742
 20
0.0000000000000004
 30
0.0
 11
1.773878207475981
 21
-1.215217588009258
 31
0.0
210
0.0
220
0.0
230
1.0
 40
0.1650759015746648
 41
1.546166782239612
 42
1.611810898204144
  0
LINE
  5
E4
330
1F
100
AcDbEntity
  8
0
  6
Continuous
 62
     1
370
    25
100
AcDbLine
 10
25.53108891324552
 20
-0.2768456834120844
 30
0.0
 11
25.53108891324552
 21
0.2628085032712297
 31
0.0
  0
LINE
  5
E5
330
1F
100
AcDbEntity
  8
0
  6
Continuous
 62
     1
370
    25
100
AcDbLine
 10
25.53108891324552
 20
0.2628085032712287
 30
0.0
 11
25.53108891324552
 21
0.562225701681546
 31
0.0
  0
LINE
  5
E6
330
1F
100
AcDbEntity
  8
0
  6
Continuous
 62
     1
370
    25
100
AcDbLine
 10
25.53108891324552
 20
-0.4999999999999985
 30
0.0
 11
25.53108891324552
 21
-1.222060428378375
 31
0.0
  0
LINE
  5
E7
330
1F
100
AcDbEntity
  8
중심선
100
AcDbLine
 10
-37.46891108675447
 20
-0.0000000000000043
 30
0.0
 11
27.03108891324551
 21
0.0000000000000036
 31
0.0
  0
CIRCLE
  5
E8
330
1F
100
AcDbEntity
  8
해칭선
100
AcDbCircle
 10
0.0003340548393859
 20
-0.0000000000000042
 30
0.0
 40
3.000000000000003
  0
INSERT
  5
E9
330
1F
100
AcDbEntity
  8
0
  6
Continuous
 62
     7
100
AcDbBlockReference
 66
     1
  2
블럭10
 10
-16.44009924894177
 20
-52.04717430164393
 30
0.0
  0
ATTRIB
  5
EA
330
E9
100
AcDbEntity
  8
FORMAT
 62
     2
100
AcDbText
 10
-32.55936028837733
 20
-49.97180738881174
 30
0.0
 40
4.233333333333333
  1
SEME7202516E [ 4 FLUTE ]
 41
0.75
  7
SLDTEXTSTYLE0
 11
-32.55936028837733
 21
-52.08847405547841
 31
0.0
100
AcDbAttribute
  2
AUTOATTR0
 70
     0
 74
     1
  0
SEQEND
  5
EB
330
E9
100
AcDbEntity
  8
0
  6
Continuous
 62
     7
  0
HATCH
  5
EC
330
1F
100
AcDbEntity
  8
중심선
100
AcDbHatch
 10
0.0
 20
0.0
 30
0.0
210
0.0
220
0.0
230
1.0
  2
SOLID
 70
     1
 71
     0
 91
        1
 92
        0
 93
        4
 72
     1
 10
-10.72518994456093
 20
-35.8
 11
-14.17146518839821
 21
-35.8
 72
     1
 10
-14.17146518839821
 20
-35.8
 11
-16.29969504760223
 21
-38.33632558057262
 72
     1
 10
-16.29969504760223
 20
-38.33632558057262
 11
-12.85338671865177
 21
-38.33628615127013
 72
     1
 10
-12.85338671865177
 20
-38.33628615127013
 11
-10.72518994456093
 21
-35.8
 97
        0
 75
     0
 76
     1
 98
        1
 10
0.0
 20
0.0
  0
HATCH
  5
ED
330
1F
100
AcDbEntity
  8
중심선
100
AcDbHatch
 10
0.0
 20
0.0
 30
0.0
210
0.0
220
0.0
230
1.0
  2
SOLID
 70
     1
 71
     0
 91
        1
 92
        0
 93
        4
 72
     1
 10
-5.712425953524974
 20
-35.8
 11
-9.158701197362229
 21
-35.8
 72
     1
 10
-9.158701197362229
 20
-35.8
 11
-13.68983920571964
 21
-41.20000000000002
 72
     1
 10
-13.68983920571964
 20
-41.20000000000002
 11
-10.24356396188236
 21
-41.20000000000002
 72
     1
 10
-10.24356396188236
 20
-41.20000000000002
 11
-5.712425953524974
 21
-35.8
 97
        0
 75
     0
 76
     1
 98
        1
 10
0.0
 20
0.0
  0
HATCH
  5
EE
330
1F
100
AcDbEntity
  8
중심선
100
AcDbHatch
 10
0.0
 20
0.0
 30
0.0
210
0.0
220
0.0
230
1.0
  2
SOLID
 70
     1
 71
     0
 91
        1
 92
        0
 93
        4
 72
     1
 10
-0.699661962489051
 20
-35.79999999999997
 11
-4.145937206326167
 21
-35.8
 72
     1
 10
-4.145937206326167
 20
-35.8
 11
-11.19437410821544
 21
-44.20000000000002
 72
     1
 10
-11.19437410821544
 20
-44.20000000000002
 11
-7.748098864378161
 21
-44.20000000000002
 72
     1
 10
-7.748098864378161
 20
-44.20000000000002
 11
-0.699661962489051
 21
-35.79999999999997
 97
        0
 75
     0
 76
     1
 98
        1
 10
0.0
 20
0.0
  0
HATCH
  5
EF
330
1F
100
AcDbEntity
  8
중심선
100
AcDbHatch
 10
0.0
 20
0.0
 30
0.0
210
0.0
220
0.0
230
1.0
  2
SOLID
 70
     1
 71
     0
 91
        1
 92
        0
 93
        6
 72
     3
 10
4.10022846852312
 20
-40.00000000005127
 11
3.960054785062284
 21
1.540850780301639E-10
 40
0.3939339440162633
 50
17.09539180608433
 51
320.0019657685081
 73
     0
 72
     1
 10
5.783228124223688
 20
-38.58789400463833
 11
8.088529997924754
 21
-36.6535672945904
 72
     3
 10
4.100228468470274
 20
-40.00000000000015
 11
6.600054785286829
 21
-1.249000902703301E-13
 40
0.6363583540795982
 50
39.9987384933739
 51
368.4976242363725
 73
     1
 72
     1
 10
10.52556096037088
 20
-39.03999999993002
 11
2.780295775306197
 21
-39.03999999993002
 72
     1
 10
2.780295775306196
 20
-39.03999999993002
 11
2.780270730860263
 21
-40.95999999992991
 72
     1
 10
2.780270730860263
 20
-40.95999999992991
 11
7.221650500332299
 21
-40.95999999992988
 97
        0
 75
     0
 76
     1
 98
        1
 10
0.0
 20
0.0
  0
DIMENSION
  5
F0
330
1F
100
AcDbEntity
  8
치수문자_일반주서
100
AcDbDimension
  2
_D
 10
36.13505629241834
 20
1.250000000000044
 30
0.0
 11
36.13505629241831
 21
12.66650000000004
 31
0.0
 70
   160
  1
%%c<>
 71
     2
 42
2.50000000000001
 52
-270.0
  3
SLDDIMSTYLE0
100
AcDbAlignedDimension
 13
25.53108891324554
 23
-1.250000000000006
 33
0.0
 14
25.53108891324554
 24
1.250000000000005
 34
0.0
 50
90.0000000000002
100
AcDbRotatedDimension
  0
DIMENSION
  5
FE
330
1F
100
AcDbEntity
  8
치수문자_일반주서
100
AcDbDimension
  2
_D_1
 10
25.53108891324552
 20
20.38913260158165
 30
0.0
 11
-4.468911086754478
 21
20.38913260158165
 31
0.0
 70
   160
  1
<>
 71
     2
 42
59.99999999999999
  3
SLDDIMSTYLE1
100
AcDbAlignedDimension
 13
-34.46891108675447
 23
2.499999999999995
 33
0.0
 14
25.53108891324552
 24
1.250000000000003
 34
0.0
 50
-0.0000000000000068
100
AcDbRotatedDimension
  0
DIMENSION
  5
109
330
1F
100
AcDbEntity
  8
치수문자_일반주서
100
AcDbDimension
  2
_D_2
 10
-40.46545084792328
 20
-3.000000000000025
 30
0.0
 11
-40.46545084792334
 21
12.66649999999998
 31
0.0
 70
   160
  1
%%c<>
 71
     2
 42
6.000000000000005
 52
-270.0
  3
SLDDIMSTYLE2
100
AcDbAlignedDimension
 13
-33.96891108675447
 23
3.000000000000003
 33
0.0
 14
-33.96891108675447
 24
-3.000000000000002
 34
0.0
 50
90.0000000000002
100
AcDbRotatedDimension
  0
DIMENSION
  5
117
330
1F
100
AcDbEntity
  8
치수문자_일반주서
100
AcDbDimension
  2
_D_3
 10
25.53108891324552
 20
12.06002009714764
 30
0.0
 11
17.53108891324552
 21
12.06002009714764
 31
0.0
 70
   160
  1
<>
 71
     2
 42
16.0
  3
SLDDIMSTYLE2
100
AcDbAlignedDimension
 13
9.531088913245522
 23
1.214101794559986
 33
0.0
 14
25.53108891324552
 24
1.250000000000003
 34
0.0
100
AcDbRotatedDimension
  0
INSERT
  5
129
330
1F
100
AcDbEntity
  8
해칭선
100
AcDbBlockReference
  2
SW_DOWELSYMBOL_0
 10
0.0003340548393859
 20
-0.0000000000000042
 30
0.0
  0
ENDSEC
  0
SECTION
  2
OBJECTS
  0
DICTIONARY
  5
C
330
0
100
AcDbDictionary
281
     1
  3
ACAD_GROUP
350
D
  3
ACAD_IMAGE_VARS
350
14D
  3
ACAD_LAYOUT
350
1A
  3
ACAD_MLINESTYLE
350
17
  3
ACAD_PLOTSETTINGS
350
19
  3
ACAD_PLOTSTYLENAME
350
E
  3
ACAD_SCALELIST
350
47
  3
APPDATA
350
14B
  3
DWGPROPS
350
15A
  0
DICTIONARY
  5
D
102
{ACAD_REACTORS
330
C
102
}
330
C
100
AcDbDictionary
281
     1
  0
RASTERVARIABLES
  5
14D
102
{ACAD_REACTORS
330
C
102
}
330
C
100
AcDbRasterVariables
 90
        0
 70
     1
 71
     1
 72
     1
  0
DICTIONARY
  5
1A
102
{ACAD_REACTORS
330
C
102
}
330
C
100
AcDbDictionary
281
     1
  3
Layout1
350
1E
  3
Layout2
350
26
  3
Model
350
22
  0
DICTIONARY
  5
17
102
{ACAD_REACTORS
330
C
102
}
330
C
100
AcDbDictionary
281
     1
  3
Standard
350
18
  0
DICTIONARY
  5
19
102
{ACAD_REACTORS
330
C
102
}
330
C
100
AcDbDictionary
281
     1
  0
ACDBDICTIONARYWDFLT
  5
E
102
{ACAD_REACTORS
330
C
102
}
330
C
100
AcDbDictionary
281
     1
  3
Normal
350
F
100
AcDbDictionaryWithDefault
340
F
  0
DICTIONARY
  5
47
102
{ACAD_REACTORS
330
C
102
}
330
C
100
AcDbDictionary
281
     1
  3
A0
350
48
  3
A1
350
49
  3
A2
350
4A
  3
A3
350
4B
  3
A4
350
4C
  3
A5
350
4D
  3
A6
350
4E
  3
A7
350
4F
  3
A8
350
50
  3
A9
350
51
  3
B0
350
52
  3
B1
350
53
  3
B2
350
54
  3
B3
350
55
  3
B4
350
56
  3
B5
350
57
  3
B6
350
58
  3
B7
350
59
  3
B8
350
5A
  3
B9
350
5B
  3
C0
350
5C
  3
C1
350
5D
  3
C2
350
5E
  3
C3
350
5F
  3
C4
350
60
  3
C5
350
61
  3
C6
350
62
  3
C7
350
63
  3
C8
350
64
  3
C9
350
65
  3
D0
350
66
  3
D1
350
67
  3
D2
350
68
  0
DICTIONARY
  5
14B
102
{ACAD_REACTORS
330
C
102
}
330
C
100
AcDbDictionary
281
     1
  0
XRECORD
  5
15A
102
{ACAD_REACTORS
330
C
102
}
330
C
100
AcDbXrecord
280
     1
  1
DWGPROPS COOKIE
  2

  3

  4

  6

  7

  8
12014102
  9

300
=
301
=
302
=
303
=
304
=
305
=
306
=
307
=
308
=
309
=
 40
0.0
 41
2458260.194084653
 42
2458268.106843275
  1

 90
        0
  0
LAYOUT
  5
1E
102
{ACAD_REACTORS
330
1A
102
}
330
1A
100
AcDbPlotSettings
  1

  2
none_device
  4

  6

 40
0.0
 41
0.0
 42
0.0
 43
0.0
 44
0.0
 45
0.0
 46
0.0
 47
0.0
 48
0.0
 49
0.0
140
0.0
141
0.0
142
1.0
143
1.0
 70
   688
 72
     1
 73
     0
 74
     5
  7

 75
    16
147
1.0
148
0.0
149
0.0
100
AcDbLayout
  1
Layout1
 70
     1
 71
     1
 10
0.0
 20
0.0
 11
420.0
 21
297.0
 12
0.0
 22
0.0
 32
0.0
 14
1.000000000000000E+20
 24
1.000000000000000E+20
 34
1.000000000000000E+20
 15
-1.000000000000000E+20
 25
-1.000000000000000E+20
 35
-1.000000000000000E+20
146
0.0
 13
0.0
 23
0.0
 33
0.0
 16
1.0
 26
0.0
 36
0.0
 17
0.0
 27
1.0
 37
0.0
 76
     0
330
1B
  0
LAYOUT
  5
26
102
{ACAD_REACTORS
330
1A
102
}
330
1A
100
AcDbPlotSettings
  1

  2
none_device
  4

  6

 40
0.0
 41
0.0
 42
0.0
 43
0.0
 44
0.0
 45
0.0
 46
0.0
 47
0.0
 48
0.0
 49
0.0
140
0.0
141
0.0
142
1.0
143
1.0
 70
   688
 72
     1
 73
     0
 74
     5
  7

 75
    16
147
1.0
148
0.0
149
0.0
100
AcDbLayout
  1
Layout2
 70
     1
 71
     2
 10
0.0
 20
0.0
 11
0.0
 21
0.0
 12
0.0
 22
0.0
 32
0.0
 14
0.0
 24
0.0
 34
0.0
 15
0.0
 25
0.0
 35
0.0
146
0.0
 13
0.0
 23
0.0
 33
0.0
 16
1.0
 26
0.0
 36
0.0
 17
0.0
 27
1.0
 37
0.0
 76
     0
330
23
  0
LAYOUT
  5
22
102
{ACAD_REACTORS
330
1A
102
}
330
1A
100
AcDbPlotSettings
  1

  2
none_device
  4
ANSI_A_(11.00_x_8.50_Inches)
  6

 40
6.35
 41
19.05
 42
6.35000508
 43
19.05000254
 44
279.4
 45
215.9
 46
142.1869779282097
 47
125.3847137330092
 48
0.0
 49
0.0
140
0.0
141
0.0
142
0.1112850254374008
143
1.0
 70
  1696
 72
     0
 73
     0
 74
     0
  7

 75
     0
147
0.0235690232323232
148
0.0
149
0.0
100
AcDbLayout
  1
Model
 70
     1
 71
     0
 10
0.0
 20
0.0
 11
420.0
 21
297.0
 12
0.0
 22
0.0
 32
0.0
 14
-44.84045084792334
 24
-49.97180738881174
 34
0.0
 15
38.87813971162264
 25
24.76413260158165
 35
0.0
146
0.0
 13
0.0
 23
0.0
 33
0.0
 16
1.0
 26
0.0
 36
0.0
 17
0.0
 27
1.0
 37
0.0
 76
     0
330
1F
331
29
  0
MLINESTYLE
  5
18
102
{ACAD_REACTORS
330
17
102
}
330
17
100
AcDbMlineStyle
  2
Standard
 70
     0
  3

 62
   256
 51
90.0
 52
90.0
 71
     2
 49
0.5
 62
   256
  6
BYLAYER
 49
-0.5
 62
   256
  6
BYLAYER
  0
ACDBPLACEHOLDER
  5
F
102
{ACAD_REACTORS
330
E
102
}
330
E
  0
SCALE
  5
48
102
{ACAD_REACTORS
330
47
102
}
330
47
100
AcDbScale
 70
     0
300
1:1
140
1.0
141
1.0
290
     1
  0
SCALE
  5
49
102
{ACAD_REACTORS
330
47
102
}
330
47
100
AcDbScale
 70
     0
300
1:2
140
1.0
141
2.0
290
     0
  0
SCALE
  5
4A
102
{ACAD_REACTORS
330
47
102
}
330
47
100
AcDbScale
 70
     0
300
1:4
140
1.0
141
4.0
290
     0
  0
SCALE
  5
4B
102
{ACAD_REACTORS
330
47
102
}
330
47
100
AcDbScale
 70
     0
300
1:5
140
1.0
141
5.0
290
     0
  0
SCALE
  5
4C
102
{ACAD_REACTORS
330
47
102
}
330
47
100
AcDbScale
 70
     0
300
1:8
140
1.0
141
8.0
290
     0
  0
SCALE
  5
4D
102
{ACAD_REACTORS
330
47
102
}
330
47
100
AcDbScale
 70
     0
300
1:10
140
1.0
141
10.0
290
     0
  0
SCALE
  5
4E
102
{ACAD_REACTORS
330
47
102
}
330
47
100
AcDbScale
 70
     0
300
1:16
140
1.0
141
16.0
290
     0
  0
SCALE
  5
4F
102
{ACAD_REACTORS
330
47
102
}
330
47
100
AcDbScale
 70
     0
300
1:20
140
1.0
141
20.0
290
     0
  0
SCALE
  5
50
102
{ACAD_REACTORS
330
47
102
}
330
47
100
AcDbScale
 70
     0
300
1:30
140
1.0
141
30.0
290
     0
  0
SCALE
  5
51
102
{ACAD_REACTORS
330
47
102
}
330
47
100
AcDbScale
 70
     0
300
1:40
140
1.0
141
40.0
290
     0
  0
SCALE
  5
52
102
{ACAD_REACTORS
330
47
102
}
330
47
100
AcDbScale
 70
     0
300
1:50
140
1.0
141
50.0
290
     0
  0
SCALE
  5
53
102
{ACAD_REACTORS
330
47
102
}
330
47
100
AcDbScale
 70
     0
300
1:100
140
1.0
141
100.0
290
     0
  0
SCALE
  5
54
102
{ACAD_REACTORS
330
47
102
}
330
47
100
AcDbScale
 70
     0
300
2:1
140
2.0
141
1.0
290
     0
  0
SCALE
  5
55
102
{ACAD_REACTORS
330
47
102
}
330
47
100
AcDbScale
 70
     0
300
4:1
140
4.0
141
1.0
290
     0
  0
SCALE
  5
56
102
{ACAD_REACTORS
330
47
102
}
330
47
100
AcDbScale
 70
     0
300
8:1
140
8.0
141
1.0
290
     0
  0
SCALE
  5
57
102
{ACAD_REACTORS
330
47
102
}
330
47
100
AcDbScale
 70
     0
300
10:1
140
10.0
141
1.0
290
     0
  0
SCALE
  5
58
102
{ACAD_REACTORS
330
47
102
}
330
47
100
AcDbScale
 70
     0
300
100:1
140
100.0
141
1.0
290
     0
  0
SCALE
  5
59
102
{ACAD_REACTORS
330
47
102
}
330
47
100
AcDbScale
 70
     0
300
1/128" = 1'-0"
140
0.0078125
141
12.0
290
     0
  0
SCALE
  5
5A
102
{ACAD_REACTORS
330
47
102
}
330
47
100
AcDbScale
 70
     0
300
1/64" = 1'-0"
140
0.015625
141
12.0
290
     0
  0
SCALE
  5
5B
102
{ACAD_REACTORS
330
47
102
}
330
47
100
AcDbScale
 70
     0
300
1/32" = 1'-0"
140
0.03125
141
12.0
290
     0
  0
SCALE
  5
5C
102
{ACAD_REACTORS
330
47
102
}
330
47
100
AcDbScale
 70
     0
300
1/16" = 1'-0"
140
0.0625
141
12.0
290
     0
  0
SCALE
  5
5D
102
{ACAD_REACTORS
330
47
102
}
330
47
100
AcDbScale
 70
     0
300
3/32" = 1'-0"
140
0.09375
141
12.0
290
     0
  0
SCALE
  5
5E
102
{ACAD_REACTORS
330
47
102
}
330
47
100
AcDbScale
 70
     0
300
1/8" = 1'-0"
140
0.125
141
12.0
290
     0
  0
SCALE
  5
5F
102
{ACAD_REACTORS
330
47
102
}
330
47
100
AcDbScale
 70
     0
300
3/16" = 1'-0"
140
0.1875
141
12.0
290
     0
  0
SCALE
  5
60
102
{ACAD_REACTORS
330
47
102
}
330
47
100
AcDbScale
 70
     0
300
1/4" = 1'-0"
140
0.25
141
12.0
290
     0
  0
SCALE
  5
61
102
{ACAD_REACTORS
330
47
102
}
330
47
100
AcDbScale
 70
     0
300
3/8" = 1'-0"
140
0.375
141
12.0
290
     0
  0
SCALE
  5
62
102
{ACAD_REACTORS
330
47
102
}
330
47
100
AcDbScale
 70
     0
300
1/2" = 1'-0"
140
0.5
141
12.0
290
     0
  0
SCALE
  5
63
102
{ACAD_REACTORS
330
47
102
}
330
47
100
AcDbScale
 70
     0
300
3/4" = 1'-0"
140
0.75
141
12.0
290
     0
  0
SCALE
  5
64
102
{ACAD_REACTORS
330
47
102
}
330
47
100
AcDbScale
 70
     0
300
1" = 1'-0"
140
1.0
141
12.0
290
     0
  0
SCALE
  5
65
102
{ACAD_REACTORS
330
47
102
}
330
47
100
AcDbScale
 70
     0
300
1-1/2" = 1'-0"
140
1.5
141
12.0
290
     0
  0
SCALE
  5
66
102
{ACAD_REACTORS
330
47
102
}
330
47
100
AcDbScale
 70
     0
300
3" = 1'-0"
140
3.0
141
12.0
290
     0
  0
SCALE
  5
67
102
{ACAD_REACTORS
330
47
102
}
330
47
100
AcDbScale
 70
     0
300
6" = 1'-0"
140
6.0
141
12.0
290
     0
  0
SCALE
  5
68
102
{ACAD_REACTORS
330
47
102
}
330
47
100
AcDbScale
 70
     0
300
1'-0" = 1'-0"
140
12.0
141
12.0
290
     0
  0
ENDSEC
  0
EOF
