  0
SECTION
  2
HEADER
  9
$ACADVER
  1
AC1015
  9
$ACADMAINTVER
 70
     6
  9
$DWGCODEPAGE
  3
ANSI_949
  9
$INSBASE
 10
0.0
 20
0.0
 30
0.0
  9
$EXTMIN
 10
-52.68678458718067
 20
-49.97180738881174
 30
0.0
  9
$EXTMAX
 10
32.34897304495597
 20
24.76413260158165
 30
0.0
  9
$LIMMIN
 10
0.0
 20
0.0
  9
$LIMMAX
 10
420.0
 20
297.0
  9
$ORTHOMODE
 70
     0
  9
$REGENMODE
 70
     1
  9
$FILLMODE
 70
     1
  9
$QTEXTMODE
 70
     0
  9
$MIRRTEXT
 70
     1
  9
$LTSCALE
 40
1.0
  9
$ATTMODE
 70
     1
  9
$TEXTSIZE
 40
3.5
  9
$TRACEWID
 40
1.0
  9
$TEXTSTYLE
  7
Standard
  9
$CLAYER
  8
0
  9
$CELTYPE
  6
ByLayer
  9
$CECOLOR
 62
   256
  9
$CELTSCALE
 40
1.0
  9
$DISPSILH
 70
     0
  9
$DIMSCALE
 40
1.0
  9
$DIMASZ
 40
3.302
  9
$DIMEXO
 40
1.0
  9
$DIMDLI
 40
3.75
  9
$DIMRND
 40
0.0
  9
$DIMDLE
 40
0.0
  9
$DIMEXE
 40
1.0
  9
$DIMTP
 40
0.0
  9
$DIMTM
 40
0.0
  9
$DIMTXT
 40
3.5
  9
$DIMCEN
 40
2.5
  9
$DIMTSZ
 40
0.0
  9
$DIMTOL
 70
     0
  9
$DIMLIM
 70
     0
  9
$DIMTIH
 70
     1
  9
$DIMTOH
 70
     1
  9
$DIMSE1
 70
     0
  9
$DIMSE2
 70
     0
  9
$DIMTAD
 70
     1
  9
$DIMZIN
 70
     0
  9
$DIMBLK
  1

  9
$DIMASO
 70
     1
  9
$DIMSHO
 70
     1
  9
$DIMPOST
  1

  9
$DIMAPOST
  1

  9
$DIMALT
 70
     0
  9
$DIMALTD
 70
     3
  9
$DIMALTF
 40
0.0393700787401575
  9
$DIMLFAC
 40
1.0
  9
$DIMTOFL
 70
     1
  9
$DIMTVP
 40
0.0
  9
$DIMTIX
 70
     0
  9
$DIMSOXD
 70
     0
  9
$DIMSAH
 70
     0
  9
$DIMBLK1
  1

  9
$DIMBLK2
  1

  9
$DIMSTYLE
  2
ISO-25
  9
$DIMCLRD
 70
     0
  9
$DIMCLRE
 70
     0
  9
$DIMCLRT
 70
     0
  9
$DIMTFAC
 40
1.0
  9
$DIMGAP
 40
1.524
  9
$DIMJUST
 70
     0
  9
$DIMSD1
 70
     0
  9
$DIMSD2
 70
     0
  9
$DIMTOLJ
 70
     0
  9
$DIMTZIN
 70
     0
  9
$DIMALTZ
 70
     0
  9
$DIMALTTZ
 70
     0
  9
$DIMUPT
 70
     0
  9
$DIMDEC
 70
     2
  9
$DIMTDEC
 70
     2
  9
$DIMALTU
 70
     2
  9
$DIMALTTD
 70
     3
  9
$DIMTXSTY
  7
Standard
  9
$DIMAUNIT
 70
     0
  9
$DIMADEC
 70
     2
  9
$DIMALTRND
 40
0.0
  9
$DIMAZIN
 70
     0
  9
$DIMDSEP
 70
    44
  9
$DIMATFIT
 70
     3
  9
$DIMFRAC
 70
     0
  9
$DIMLDRBLK
  1

  9
$DIMLUNIT
 70
     2
  9
$DIMLWD
 70
    -2
  9
$DIMLWE
 70
    -2
  9
$DIMTMOVE
 70
     0
  9
$LUNITS
 70
     2
  9
$LUPREC
 70
     2
  9
$SKETCHINC
 40
1.0
  9
$FILLETRAD
 40
10.0
  9
$AUNITS
 70
     0
  9
$AUPREC
 70
     2
  9
$MENU
  1
.
  9
$ELEVATION
 40
0.0
  9
$PELEVATION
 40
0.0
  9
$THICKNESS
 40
0.0
  9
$LIMCHECK
 70
     0
  9
$CHAMFERA
 40
0.0
  9
$CHAMFERB
 40
0.0
  9
$CHAMFERC
 40
0.0
  9
$CHAMFERD
 40
0.0
  9
$SKPOLY
 70
     0
  9
$TDCREATE
 40
2458260.568706562
  9
$TDUCREATE
 40
2458260.193706562
  9
$TDUPDATE
 40
2458268.47957081
  9
$TDUUPDATE
 40
2458268.10457081
  9
$TDINDWG
 40
0.0009058102
  9
$TDUSRTIMER
 40
2458268.103665035
  9
$USRTIMER
 70
     1
  9
$ANGBASE
 50
0.0
  9
$ANGDIR
 70
     0
  9
$PDMODE
 70
     0
  9
$PDSIZE
 40
-1.0
  9
$PLINEWID
 40
0.0
  9
$SPLFRAME
 70
     0
  9
$SPLINETYPE
 70
     6
  9
$SPLINESEGS
 70
     8
  9
$HANDSEED
  5
155
  9
$SURFTAB1
 70
     6
  9
$SURFTAB2
 70
     6
  9
$SURFTYPE
 70
     6
  9
$SURFU
 70
     6
  9
$SURFV
 70
     6
  9
$UCSBASE
  2

  9
$UCSNAME
  2

  9
$UCSORG
 10
0.0
 20
0.0
 30
0.0
  9
$UCSXDIR
 10
1.0
 20
0.0
 30
0.0
  9
$UCSYDIR
 10
0.0
 20
1.0
 30
0.0
  9
$UCSORTHOREF
  2

  9
$UCSORTHOVIEW
 70
     0
  9
$UCSORGTOP
 10
0.0
 20
0.0
 30
0.0
  9
$UCSORGBOTTOM
 10
0.0
 20
0.0
 30
0.0
  9
$UCSORGLEFT
 10
0.0
 20
0.0
 30
0.0
  9
$UCSORGRIGHT
 10
0.0
 20
0.0
 30
0.0
  9
$UCSORGFRONT
 10
0.0
 20
0.0
 30
0.0
  9
$UCSORGBACK
 10
0.0
 20
0.0
 30
0.0
  9
$PUCSBASE
  2

  9
$PUCSNAME
  2

  9
$PUCSORG
 10
0.0
 20
0.0
 30
0.0
  9
$PUCSXDIR
 10
1.0
 20
0.0
 30
0.0
  9
$PUCSYDIR
 10
0.0
 20
1.0
 30
0.0
  9
$PUCSORTHOREF
  2

  9
$PUCSORTHOVIEW
 70
     0
  9
$PUCSORGTOP
 10
0.0
 20
0.0
 30
0.0
  9
$PUCSORGBOTTOM
 10
0.0
 20
0.0
 30
0.0
  9
$PUCSORGLEFT
 10
0.0
 20
0.0
 30
0.0
  9
$PUCSORGRIGHT
 10
0.0
 20
0.0
 30
0.0
  9
$PUCSORGFRONT
 10
0.0
 20
0.0
 30
0.0
  9
$PUCSORGBACK
 10
0.0
 20
0.0
 30
0.0
  9
$USERI1
 70
     0
  9
$USERI2
 70
     0
  9
$USERI3
 70
     0
  9
$USERI4
 70
     0
  9
$USERI5
 70
     0
  9
$USERR1
 40
0.0
  9
$USERR2
 40
0.0
  9
$USERR3
 40
0.0
  9
$USERR4
 40
0.0
  9
$USERR5
 40
0.0
  9
$WORLDVIEW
 70
     1
  9
$SHADEDGE
 70
     3
  9
$SHADEDIF
 70
    70
  9
$TILEMODE
 70
     1
  9
$MAXACTVP
 70
    64
  9
$PINSBASE
 10
0.0
 20
0.0
 30
0.0
  9
$PLIMCHECK
 70
     0
  9
$PEXTMIN
 10
1.000000000000000E+20
 20
1.000000000000000E+20
 30
1.000000000000000E+20
  9
$PEXTMAX
 10
-1.000000000000000E+20
 20
-1.000000000000000E+20
 30
-1.000000000000000E+20
  9
$PLIMMIN
 10
0.0
 20
0.0
  9
$PLIMMAX
 10
0.0
 20
0.0
  9
$UNITMODE
 70
     0
  9
$VISRETAIN
 70
     1
  9
$PLINEGEN
 70
     0
  9
$PSLTSCALE
 70
     1
  9
$TREEDEPTH
 70
  3020
  9
$CMLSTYLE
  2
Standard
  9
$CMLJUST
 70
     0
  9
$CMLSCALE
 40
20.0
  9
$PROXYGRAPHICS
 70
     1
  9
$MEASUREMENT
 70
     1
  9
$CELWEIGHT
370
    -1
  9
$ENDCAPS
280
     0
  9
$JOINSTYLE
280
     0
  9
$LWDISPLAY
290
     1
  9
$INSUNITS
 70
     4
  9
$HYPERLINKBASE
  1

  9
$STYLESHEET
  1

  9
$XEDIT
290
     1
  9
$CEPSNTYPE
380
     0
  9
$PSTYLEMODE
290
     1
  9
$FINGERPRINTGUID
  2
{BA740479-B19E-453C-B494-B21F6ADA2AA0}
  9
$VERSIONGUID
  2
{FAEB1C32-E019-11D5-929B-00C0DF256EC4}
  9
$EXTNAMES
290
     1
  9
$PSVPSCALE
 40
0.0
  9
$OLESTARTUP
290
     0
  0
ENDSEC
  0
SECTION
  2
CLASSES
  0
CLASS
  1
ACDBDICTIONARYWDFLT
  2
AcDbDictionaryWithDefault
  3
ObjectDBX Classes
 90
        0
280
     0
281
     0
  0
CLASS
  1
VISUALSTYLE
  2
AcDbVisualStyle
  3
ObjectDBX Classes
 90
     4095
280
     0
281
     0
  0
CLASS
  1
MATERIAL
  2
AcDbMaterial
  3
ObjectDBX Classes
 90
     1153
280
     0
281
     0
  0
CLASS
  1
SCALE
  2
AcDbScale
  3
ObjectDBX Classes
 90
     1153
280
     0
281
     0
  0
CLASS
  1
TABLESTYLE
  2
AcDbTableStyle
  3
ObjectDBX Classes
 90
     4095
280
     0
281
     0
  0
CLASS
  1
MLEADERSTYLE
  2
AcDbMLeaderStyle
  3
ACDB_MLEADERSTYLE_CLASS
 90
     4095
280
     0
281
     0
  0
CLASS
  1
SUN
  2
AcDbSun
  3
SCENEOE
 90
     1153
280
     0
281
     0
  0
CLASS
  1
ACDBPLACEHOLDER
  2
AcDbPlaceHolder
  3
ObjectDBX Classes
 90
        0
280
     0
281
     0
  0
CLASS
  1
LAYOUT
  2
AcDbLayout
  3
ObjectDBX Classes
 90
        0
280
     0
281
     0
  0
CLASS
  1
RASTERVARIABLES
  2
AcDbRasterVariables
  3
ISM
 90
        0
280
     0
281
     0
  0
ENDSEC
  0
SECTION
  2
TABLES
  0
TABLE
  2
VPORT
  5
8
330
0
100
AcDbSymbolTable
 70
     1
  0
VPORT
  5
29
330
8
100
AcDbSymbolTableRecord
100
AcDbViewportTableRecord
  2
*Active
 70
     0
 10
0.0
 20
0.0
 11
1.0
 21
1.0
 12
-10.16890577111235
 22
-12.60383739361504
 13
0.0
 23
0.0
 14
10.0
 24
10.0
 15
10.0
 25
10.0
 16
0.0
 26
0.0
 36
1.0
 17
0.0
 27
0.0
 37
0.0
 40
76.23065879020126
 41
1.737726098191214
 42
50.0
 43
0.0
 44
0.0
 50
0.0
 51
0.0
 71
    16
 72
  2000
 73
     1
 74
     3
 75
     0
 76
     0
 77
     0
 78
     0
281
     0
 65
     1
110
0.0
120
0.0
130
0.0
111
1.0
121
0.0
131
0.0
112
0.0
122
1.0
132
0.0
 79
     0
146
0.0
  0
ENDTAB
  0
TABLE
  2
LTYPE
  5
5
330
0
100
AcDbSymbolTable
 70
     6
  0
LTYPE
  5
14
330
5
100
AcDbSymbolTableRecord
100
AcDbLinetypeTableRecord
  2
ByBlock
 70
     0
  3

 72
    65
 73
     0
 40
0.0
  0
LTYPE
  5
15
330
5
100
AcDbSymbolTableRecord
100
AcDbLinetypeTableRecord
  2
ByLayer
 70
     0
  3

 72
    65
 73
     0
 40
0.0
  0
LTYPE
  5
16
330
5
100
AcDbSymbolTableRecord
100
AcDbLinetypeTableRecord
  2
Continuous
 70
     0
  3
Solid line
 72
    65
 73
     0
 40
0.0
  0
LTYPE
  5
6E
330
5
100
AcDbSymbolTableRecord
100
AcDbLinetypeTableRecord
  2
HIDDEN
 70
     0
  3
Hidden __ __ __ __ __ __ __ __ __ __ __ __ __ __
 72
    65
 73
     2
 40
1.905
 49
1.27
 74
     0
 49
-0.635
 74
     0
  0
LTYPE
  5
6F
330
5
100
AcDbSymbolTableRecord
100
AcDbLinetypeTableRecord
  2
PHANTOM
 70
     0
  3
Phantom ______  __  __  ______  __  __  ______
 72
    65
 73
     6
 40
12.7
 49
6.35
 74
     0
 49
-1.27
 74
     0
 49
1.27
 74
     0
 49
-1.27
 74
     0
 49
1.27
 74
     0
 49
-1.27
 74
     0
  0
LTYPE
  5
70
330
5
100
AcDbSymbolTableRecord
100
AcDbLinetypeTableRecord
  2
CENTER
 70
     0
  3
Center ____ _ ____ _ ____ _ ____ _ ____ _ ____
 72
    65
 73
     4
 40
10.16
 49
6.35
 74
     0
 49
-1.27
 74
     0
 49
1.27
 74
     0
 49
-1.27
 74
     0
  0
LTYPE
  5
71
330
5
100
AcDbSymbolTableRecord
100
AcDbLinetypeTableRecord
  2
CENTERX2
 70
     0
  3
Center (2x) ________  __  ________  __  _____
 72
    65
 73
     4
 40
20.32
 49
12.7
 74
     0
 49
-2.54
 74
     0
 49
2.54
 74
     0
 49
-2.54
 74
     0
  0
LTYPE
  5
72
330
5
100
AcDbSymbolTableRecord
100
AcDbLinetypeTableRecord
  2
DOT2
 70
     0
  3
Dot (.5x) ........................................
 72
    65
 73
     2
 40
0.635
 49
0.0
 74
     0
 49
-0.635
 74
     0
  0
ENDTAB
  0
TABLE
  2
LAYER
  5
2
330
0
100
AcDbSymbolTable
 70
    17
  0
LAYER
  5
10
330
2
100
AcDbSymbolTableRecord
100
AcDbLayerTableRecord
  2
0
 70
     0
 62
     7
  6
Continuous
370
    -3
390
F
  0
LAYER
  5
73
330
2
100
AcDbSymbolTableRecord
100
AcDbLayerTableRecord
  2
FORMAT
 70
     0
 62
     2
  6
Continuous
370
    -3
390
F
  0
LAYER
  5
74
330
2
100
AcDbSymbolTableRecord
100
AcDbLayerTableRecord
  2
외형선
 70
     0
 62
   100
  6
Continuous
370
    35
390
F
  0
LAYER
  5
75
330
2
100
AcDbSymbolTableRecord
100
AcDbLayerTableRecord
  2
숨은선
 70
     0
 62
     2
  6
HIDDEN
370
    25
390
F
  0
LAYER
  5
76
330
2
100
AcDbSymbolTableRecord
100
AcDbLayerTableRecord
  2
중심선
 70
     0
 62
     1
  6
CENTERX2
370
    -3
390
F
  0
LAYER
  5
77
330
2
100
AcDbSymbolTableRecord
100
AcDbLayerTableRecord
  2
파단선
 70
     0
 62
     4
  6
Continuous
370
    -3
390
F
  0
LAYER
  5
78
330
2
100
AcDbSymbolTableRecord
100
AcDbLayerTableRecord
  2
해칭선
 70
     0
 62
   100
  6
Continuous
370
    -3
390
F
  0
LAYER
  5
79
330
2
100
AcDbSymbolTableRecord
100
AcDbLayerTableRecord
  2
가는실선
 70
     0
 62
     4
  6
Continuous
370
    -3
390
F
  0
LAYER
  5
7A
330
2
100
AcDbSymbolTableRecord
100
AcDbLayerTableRecord
  2
치수_보조선
 70
     0
 62
     4
  6
Continuous
370
    -3
390
F
  0
LAYER
  5
7B
330
2
100
AcDbSymbolTableRecord
100
AcDbLayerTableRecord
  2
치수문자_일반주서
 70
     0
 62
     7
  6
Continuous
370
    25
390
F
  0
LAYER
  5
7C
330
2
100
AcDbSymbolTableRecord
100
AcDbLayerTableRecord
  2
개별주서
 70
     0
 62
   100
  6
Continuous
370
    35
390
F
  0
LAYER
  5
7D
330
2
100
AcDbSymbolTableRecord
100
AcDbLayerTableRecord
  2
중간선
 70
     0
 62
     2
  6
Continuous
370
    25
390
F
  0
LAYER
  5
7E
330
2
100
AcDbSymbolTableRecord
100
AcDbLayerTableRecord
  2
윤곽선
 70
     0
 62
     3
  6
Continuous
370
    50
390
F
  0
LAYER
  5
7F
330
2
100
AcDbSymbolTableRecord
100
AcDbLayerTableRecord
  2
중심마크
 70
     0
 62
   100
  6
Continuous
370
    35
390
F
  0
LAYER
  5
80
330
2
100
AcDbSymbolTableRecord
100
AcDbLayerTableRecord
  2
가상선
 70
     0
 62
     4
  6
PHANTOM
370
    -3
390
F
  0
LAYER
  5
81
330
2
100
AcDbSymbolTableRecord
100
AcDbLayerTableRecord
  2
특수지정선
 70
     0
 62
     5
  6
CENTERX2
370
    70
390
F
  0
LAYER
  5
148
330
2
100
AcDbSymbolTableRecord
100
AcDbLayerTableRecord
  2
Defpoints
 70
     0
 62
     7
  6
Continuous
290
     0
370
    -3
390
F
  0
ENDTAB
  0
TABLE
  2
STYLE
  5
3
330
0
100
AcDbSymbolTable
 70
     2
  0
STYLE
  5
11
330
3
100
AcDbSymbolTableRecord
100
AcDbTextStyleTableRecord
  2
Standard
 70
     0
 40
0.0
 41
1.0
 50
0.0
 71
     0
 42
3.5
  3
txt
  4

  0
STYLE
  5
97
330
3
100
AcDbSymbolTableRecord
100
AcDbTextStyleTableRecord
  2
SLDTEXTSTYLE0
 70
     0
 40
0.0
 41
0.75
 50
0.0
 71
     0
 42
3.5
  3
TXT
  4

  0
ENDTAB
  0
TABLE
  2
VIEW
  5
6
330
0
100
AcDbSymbolTable
 70
     0
  0
ENDTAB
  0
TABLE
  2
UCS
  5
7
330
0
100
AcDbSymbolTable
 70
     0
  0
ENDTAB
  0
TABLE
  2
APPID
  5
9
330
0
100
AcDbSymbolTable
 70
     1
  0
APPID
  5
12
330
9
100
AcDbSymbolTableRecord
100
AcDbRegAppTableRecord
  2
ACAD
 70
     0
  0
ENDTAB
  0
TABLE
  2
DIMSTYLE
  5
A
330
0
100
AcDbSymbolTable
 70
     4
100
AcDbDimStyleTable
  0
DIMSTYLE
105
27
330
A
100
AcDbSymbolTableRecord
100
AcDbDimStyleTableRecord
  2
ISO-25
 70
     0
 41
2.5
 42
0.625
 43
3.75
 44
1.25
 73
     0
 74
     0
 77
     1
 78
     8
140
2.5
141
2.5
143
0.03937007874016
147
0.625
171
     3
172
     1
178
     0
271
     2
272
     2
274
     3
278
    44
283
     0
284
     8
340
11
  0
DIMSTYLE
105
EB
102
{ACAD_REACTORS
330
EA
102
}
330
A
100
AcDbSymbolTableRecord
100
AcDbDimStyleTableRecord
  2
SLDDIMSTYLE0
 70
     0
 41
3.302
 44
0.0
 45
0.000000001
 73
     0
 74
     0
 77
     1
 78
    12
 79
     3
140
3.5
147
0.875
172
     1
173
     1
178
     0
271
     1
272
     1
276
     2
284
    12
289
     0
340
97
  0
DIMSTYLE
105
F9
102
{ACAD_REACTORS
330
F8
102
}
330
A
100
AcDbSymbolTableRecord
100
AcDbDimStyleTableRecord
  2
SLDDIMSTYLE1
 70
     0
 41
3.302
 44
0.0
 45
0.000000001
 73
     0
 74
     0
 77
     1
 78
    12
 79
     3
140
3.5
147
0.875
173
     1
178
     0
271
     2
272
     2
276
     2
284
    12
340
97
  0
DIMSTYLE
105
104
102
{ACAD_REACTORS
330
103
330
111
102
}
330
A
100
AcDbSymbolTableRecord
100
AcDbDimStyleTableRecord
  2
SLDDIMSTYLE2
 70
     0
 41
3.302
 44
0.0
 45
0.000000001
 73
     0
 74
     0
 77
     1
 78
    12
 79
     3
140
3.5
147
0.875
172
     1
173
     1
178
     0
271
     2
272
     2
276
     2
284
    12
289
     0
340
97
  0
ENDTAB
  0
TABLE
  2
BLOCK_RECORD
  5
1
330
0
100
AcDbSymbolTable
 70
     7
  0
BLOCK_RECORD
  5
1F
330
1
100
AcDbSymbolTableRecord
100
AcDbBlockTableRecord
  2
*Model_Space
340
22
  0
BLOCK_RECORD
  5
1B
330
1
100
AcDbSymbolTableRecord
100
AcDbBlockTableRecord
  2
*Paper_Space
340
1E
  0
BLOCK_RECORD
  5
23
330
1
100
AcDbSymbolTableRecord
100
AcDbBlockTableRecord
  2
*Paper_Space0
340
26
  0
BLOCK_RECORD
  5
82
330
1
100
AcDbSymbolTableRecord
100
AcDbBlockTableRecord
  2
블럭10
340
0
102
{BLKREFS
331
E3
102
}
  0
BLOCK_RECORD
  5
EC
330
1
100
AcDbSymbolTableRecord
100
AcDbBlockTableRecord
  2
_D
340
0
  0
BLOCK_RECORD
  5
FA
330
1
100
AcDbSymbolTableRecord
100
AcDbBlockTableRecord
  2
_D_1
340
0
  0
BLOCK_RECORD
  5
105
330
1
100
AcDbSymbolTableRecord
100
AcDbBlockTableRecord
  2
_D_2
340
0
  0
BLOCK_RECORD
  5
112
330
1
100
AcDbSymbolTableRecord
100
AcDbBlockTableRecord
  2
_D_3
340
0
  0
BLOCK_RECORD
  5
11D
330
1
100
AcDbSymbolTableRecord
100
AcDbBlockTableRecord
  2
SW_DOWELSYMBOL_0
340
0
102
{BLKREFS
331
123
102
}
  0
ENDTAB
  0
ENDSEC
  0
SECTION
  2
BLOCKS
  0
BLOCK
  5
20
330
1F
100
AcDbEntity
  8
0
100
AcDbBlockBegin
  2
*Model_Space
 70
     0
 10
0.0
 20
0.0
 30
0.0
  3
*Model_Space
  1

  0
ENDBLK
  5
21
330
1F
100
AcDbEntity
  8
0
100
AcDbBlockEnd
  0
BLOCK
  5
1C
330
1B
100
AcDbEntity
 67
     1
  8
0
100
AcDbBlockBegin
  2
*Paper_Space
 70
     0
 10
0.0
 20
0.0
 30
0.0
  3
*Paper_Space
  1

  0
ENDBLK
  5
1D
330
1B
100
AcDbEntity
 67
     1
  8
0
100
AcDbBlockEnd
  0
BLOCK
  5
24
330
23
100
AcDbEntity
  8
0
100
AcDbBlockBegin
  2
*Paper_Space0
 70
     0
 10
0.0
 20
0.0
 30
0.0
  3
*Paper_Space0
  1

  0
ENDBLK
  5
25
330
23
100
AcDbEntity
  8
0
100
AcDbBlockEnd
  0
BLOCK
  5
83
330
82
100
AcDbEntity
  8
0
100
AcDbBlockBegin
  2
블럭10
 70
     2
 10
0.0
 20
0.0
 30
0.0
  3
블럭10
  1

  0
ELLIPSE
  5
85
330
82
100
AcDbEntity
  8
중심선
100
AcDbEllipse
 10
20.54032771741204
 20
12.0471743016438
 30
0.0
 11
6.600054785286829
 21
-1.261213355974178E-13
 31
0.0
210
0.0
220
0.0
230
1.0
 40
0.636358354079598
 41
0.9219305317359503
 42
6.513795318482858
  0
ELLIPSE
  5
86
330
82
100
AcDbEntity
  8
중심선
100
AcDbEllipse
 10
20.54032771746488
 20
12.04717430159265
 30
0.0
 11
3.960054785062283
 21
1.540847449632565E-10
 31
0.0
210
0.0
220
0.0
230
1.0
 40
0.3939339440162632
 41
1.131841032648279
 42
5.62031148352944
  0
LINE
  5
87
330
82
100
AcDbEntity
  8
중심선
100
AcDbLine
 10
2.268634060543552
 20
16.24717430164393
 30
0.0
 11
5.714909304380834
 21
16.24717430164393
 31
0.0
  0
LINE
  5
88
330
82
100
AcDbEntity
  8
중심선
100
AcDbLine
 10
5.245725140726316
 20
7.84717430164391
 30
0.0
 11
8.692000384563599
 21
7.84717430164391
 31
0.0
  0
LINE
  5
89
330
82
100
AcDbEntity
  8
중심선
100
AcDbLine
 10
15.74043728645272
 20
16.24717430164393
 30
0.0
 11
8.692000384563599
 21
7.84717430164391
 31
0.0
  0
LINE
  5
8A
330
82
100
AcDbEntity
  8
중심선
100
AcDbLine
 10
0.1404042013395286
 20
13.71084872107135
 30
0.0
 11
3.58671253028996
 21
13.71088815037384
 31
0.0
  0
LINE
  5
8B
330
82
100
AcDbEntity
  8
중심선
100
AcDbLine
 10
2.750260043222114
 20
10.84717430164391
 30
0.0
 11
6.196535287059397
 21
10.84717430164391
 31
0.0
  0
LINE
  5
8C
330
82
100
AcDbEntity
  8
중심선
100
AcDbLine
 10
12.29416204261559
 20
16.24717430164393
 30
0.0
 11
5.245725140726316
 21
7.84717430164391
 31
0.0
  0
LINE
  5
8D
330
82
100
AcDbEntity
  8
중심선
100
AcDbLine
 10
10.72767329541681
 20
16.24717430164393
 30
0.0
 11
6.196535287059397
 21
10.84717430164391
 31
0.0
  0
LINE
  5
8E
330
82
100
AcDbEntity
  8
중심선
100
AcDbLine
 10
7.28139805157953
 20
16.24717430164393
 30
0.0
 11
2.750260043222114
 21
10.84717430164391
 31
0.0
  0
LINE
  5
8F
330
82
100
AcDbEntity
  8
중심선
100
AcDbLine
 10
5.714909304380834
 20
16.24717430164393
 30
0.0
 11
3.58671253028996
 21
13.71088815037384
 31
0.0
  0
LINE
  5
90
330
82
100
AcDbEntity
  8
중심선
100
AcDbLine
 10
2.268634060543552
 20
16.24717430164393
 30
0.0
 11
0.1404042013395286
 21
13.71084872107135
 31
0.0
  0
LINE
  5
91
330
82
100
AcDbEntity
  8
중심선
100
AcDbLine
 10
7.28139805157953
 20
16.24717430164393
 30
0.0
 11
10.72767329541681
 21
16.24717430164393
 31
0.0
  0
LINE
  5
92
330
82
100
AcDbEntity
  8
중심선
100
AcDbLine
 10
12.29416204261559
 20
16.24717430164393
 30
0.0
 11
15.74043728645272
 21
16.24717430164393
 31
0.0
  0
LINE
  5
93
330
82
100
AcDbEntity
  8
중심선
100
AcDbLine
 10
19.22036997980202
 20
11.08717430171403
 30
0.0
 11
23.66174974927406
 21
11.08717430171406
 31
0.0
  0
LINE
  5
94
330
82
100
AcDbEntity
  8
중심선
100
AcDbLine
 10
19.22039502424796
 20
13.00717430171391
 30
0.0
 11
19.22036997980202
 21
11.08717430171403
 31
0.0
  0
LINE
  5
95
330
82
100
AcDbEntity
  8
중심선
100
AcDbLine
 10
19.22039502424796
 20
13.00717430171391
 30
0.0
 11
26.96566020931264
 21
13.00717430171391
 31
0.0
  0
LINE
  5
96
330
82
100
AcDbEntity
  8
중심선
100
AcDbLine
 10
22.22332737316547
 20
13.45928029700563
 30
0.0
 11
24.52862924686651
 21
15.39360700705356
 31
0.0
  0
ATTDEF
  5
98
330
82
100
AcDbEntity
  8
FORMAT
 62
     2
100
AcDbText
 10
-16.11926103943555
 20
2.075366912832191
 30
0.0
 40
4.233333333333333
  1
SEME7202510E [ 4 FLUTE ]
 41
0.75
  7
SLDTEXTSTYLE0
 11
-16.11926103943555
 21
-0.0412997538344756
 31
0.0
100
AcDbAttributeDefinition
  3

  2
AUTOATTR0
 70
     0
 74
     1
  0
ENDBLK
  5
84
330
82
100
AcDbEntity
  8
0
100
AcDbBlockEnd
  0
BLOCK
  5
ED
330
EC
100
AcDbEntity
  8
0
100
AcDbBlockBegin
  2
_D
 70
     0
 10
0.0
 20
0.0
 30
0.0
  3
_D
  1

  0
LINE
  5
EF
330
EC
100
AcDbEntity
  8
치수문자_일반주서
 62
     0
370
    -2
100
AcDbLine
 10
19.59358891324553
 20
-1.250000000000005
 30
0.0
 11
30.47640259980155
 21
-1.249999999999964
 31
0.0
  0
LINE
  5
F0
330
EC
100
AcDbEntity
  8
치수문자_일반주서
 62
     0
370
    -2
100
AcDbLine
 10
19.59358891324553
 20
1.250000000000005
 30
0.0
 11
30.47640259980154
 21
1.250000000000046
 31
0.0
  0
LINE
  5
F1
330
EC
100
AcDbEntity
  8
치수문자_일반주서
 62
     0
370
    -2
100
AcDbLine
 10
30.47640259980155
 20
-1.249999999999964
 30
0.0
 11
30.4764025998015
 21
17.47900000000005
 31
0.0
  0
LINE
  5
F2
330
EC
100
AcDbEntity
  8
치수문자_일반주서
 62
     0
370
    -2
100
AcDbLine
 10
30.47640259980155
 20
-1.249999999999964
 30
0.0
 11
30.47640259980154
 21
1.250000000000046
 31
0.0
  0
LINE
  5
F3
330
EC
100
AcDbEntity
  8
치수문자_일반주서
 62
     0
370
    -2
100
AcDbLine
 10
30.47640259980156
 20
-4.551999999999964
 30
0.0
 11
30.47640259980157
 21
-7.853999999999964
 31
0.0
  0
LINE
  5
F4
330
EC
100
AcDbEntity
  8
치수문자_일반주서
 62
     0
370
    -2
100
AcDbLine
 10
30.47640259980153
 20
4.552000000000046
 30
0.0
 11
30.47640259980152
 21
7.854000000000045
 31
0.0
  0
SOLID
  5
F5
330
EC
100
AcDbEntity
  8
치수문자_일반주서
 62
     0
100
AcDbTrace
 10
31.02673593313489
 20
-4.551999999999962
 30
0.0
 11
29.92606926646823
 21
-4.551999999999966
 31
0.0
 12
30.47640259980155
 22
-1.249999999999964
 32
0.0
 13
30.47640259980155
 23
-1.249999999999964
 33
0.0
  0
SOLID
  5
F6
330
EC
100
AcDbEntity
  8
치수문자_일반주서
 62
     0
100
AcDbTrace
 10
29.9260692664682
 20
4.552000000000044
 30
0.0
 11
31.02673593313487
 21
4.552000000000048
 31
0.0
 12
30.47640259980154
 22
1.250000000000046
 32
0.0
 13
30.47640259980154
 23
1.250000000000046
 33
0.0
  0
MTEXT
  5
F7
330
EC
100
AcDbEntity
  8
치수문자_일반주서
 62
     0
100
AcDbMText
 10
26.10140259980151
 20
12.66650000000003
 30
0.0
 40
3.5
 41
0.0
 71
     2
 72
     1
  1
\A1;%%c2.5
  7
SLDTEXTSTYLE0
 11
-2.842170943040389E-15
 21
1.0
 31
0.0
 73
     1
 44
1.0
  0
POINT
  5
150
330
EC
100
AcDbEntity
  8
Defpoints
 62
     0
100
AcDbPoint
 10
19.53108891324553
 20
-1.250000000000006
 30
0.0
  0
POINT
  5
151
330
EC
100
AcDbEntity
  8
Defpoints
 62
     0
100
AcDbPoint
 10
19.53108891324553
 20
1.250000000000005
 30
0.0
  0
POINT
  5
152
330
EC
100
AcDbEntity
  8
Defpoints
 62
     0
100
AcDbPoint
 10
30.47640259980155
 20
1.250000000000046
 30
0.0
  0
ENDBLK
  5
EE
330
EC
100
AcDbEntity
  8
0
100
AcDbBlockEnd
  0
BLOCK
  5
FB
330
FA
100
AcDbEntity
  8
0
100
AcDbBlockBegin
  2
_D_1
 70
     0
 10
0.0
 20
0.0
 30
0.0
  3
_D_1
  1

  0
LINE
  5
FD
330
FA
100
AcDbEntity
  8
치수문자_일반주서
 62
     0
370
    -2
100
AcDbLine
 10
-40.46891108675448
 20
2.562499999999994
 30
0.0
 11
-40.46891108675448
 21
20.38913260158165
 31
0.0
  0
LINE
  5
FE
330
FA
100
AcDbEntity
  8
치수문자_일반주서
 62
     0
370
    -2
100
AcDbLine
 10
19.53108891324552
 20
1.312500000000002
 30
0.0
 11
19.53108891324552
 21
20.38913260158165
 31
0.0
  0
LINE
  5
FF
330
FA
100
AcDbEntity
  8
치수문자_일반주서
 62
     0
370
    -2
100
AcDbLine
 10
-37.16691108675448
 20
20.38913260158165
 30
0.0
 11
16.22908891324552
 21
20.38913260158165
 31
0.0
  0
SOLID
  5
100
330
FA
100
AcDbEntity
  8
치수문자_일반주서
 62
     0
100
AcDbTrace
 10
-37.16691108675448
 20
20.93946593491498
 30
0.0
 11
-37.16691108675448
 21
19.83879926824831
 31
0.0
 12
-40.46891108675448
 22
20.38913260158165
 32
0.0
 13
-40.46891108675448
 23
20.38913260158165
 33
0.0
  0
SOLID
  5
101
330
FA
100
AcDbEntity
  8
치수문자_일반주서
 62
     0
100
AcDbTrace
 10
16.22908891324552
 20
19.83879926824831
 30
0.0
 11
16.22908891324552
 21
20.93946593491498
 31
0.0
 12
19.53108891324552
 22
20.38913260158165
 32
0.0
 13
19.53108891324552
 23
20.38913260158165
 33
0.0
  0
MTEXT
  5
102
330
FA
100
AcDbEntity
  8
치수문자_일반주서
 62
     0
100
AcDbMText
 10
-10.46891108675448
 20
24.76413260158165
 30
0.0
 40
3.5
 41
0.0
 71
     2
 72
     1
  1
\A1;60
  7
SLDTEXTSTYLE0
 73
     1
 44
1.0
  0
POINT
  5
149
330
FA
100
AcDbEntity
  8
Defpoints
 62
     0
100
AcDbPoint
 10
-40.46891108675448
 20
2.499999999999994
 30
0.0
  0
POINT
  5
14A
330
FA
100
AcDbEntity
  8
Defpoints
 62
     0
100
AcDbPoint
 10
19.53108891324552
 20
1.250000000000002
 30
0.0
  0
POINT
  5
14B
330
FA
100
AcDbEntity
  8
Defpoints
 62
     0
100
AcDbPoint
 10
19.53108891324552
 20
20.38913260158165
 30
0.0
  0
ENDBLK
  5
FC
330
FA
100
AcDbEntity
  8
0
100
AcDbBlockEnd
  0
BLOCK
  5
106
330
105
100
AcDbEntity
  8
0
100
AcDbBlockBegin
  2
_D_2
 70
     0
 10
0.0
 20
0.0
 30
0.0
  3
_D_2
  1

  0
LINE
  5
108
330
105
100
AcDbEntity
  8
치수문자_일반주서
 62
     0
370
    -2
100
AcDbLine
 10
-40.03141108675447
 20
3.000000000000003
 30
0.0
 11
-48.31178458718063
 21
2.999999999999972
 31
0.0
  0
LINE
  5
109
330
105
100
AcDbEntity
  8
치수문자_일반주서
 62
     0
370
    -2
100
AcDbLine
 10
-40.03141108675447
 20
-3.000000000000003
 30
0.0
 11
-48.31178458718061
 21
-3.000000000000034
 31
0.0
  0
LINE
  5
10A
330
105
100
AcDbEntity
  8
치수문자_일반주서
 62
     0
370
    -2
100
AcDbLine
 10
-48.31178458718063
 20
2.999999999999972
 30
0.0
 11
-48.31178458718068
 21
15.72899999999997
 31
0.0
  0
LINE
  5
10B
330
105
100
AcDbEntity
  8
치수문자_일반주서
 62
     0
370
    -2
100
AcDbLine
 10
-48.31178458718063
 20
2.999999999999972
 30
0.0
 11
-48.31178458718061
 21
-3.000000000000034
 31
0.0
  0
LINE
  5
10C
330
105
100
AcDbEntity
  8
치수문자_일반주서
 62
     0
370
    -2
100
AcDbLine
 10
-48.31178458718065
 20
6.301999999999971
 30
0.0
 11
-48.31178458718066
 21
9.60399999999997
 31
0.0
  0
LINE
  5
10D
330
105
100
AcDbEntity
  8
치수문자_일반주서
 62
     0
370
    -2
100
AcDbLine
 10
-48.3117845871806
 20
-6.302000000000033
 30
0.0
 11
-48.31178458718058
 21
-9.604000000000033
 31
0.0
  0
SOLID
  5
10E
330
105
100
AcDbEntity
  8
치수문자_일반주서
 62
     0
100
AcDbTrace
 10
-48.86211792051398
 20
6.301999999999969
 30
0.0
 11
-47.76145125384731
 21
6.301999999999973
 31
0.0
 12
-48.31178458718063
 22
2.999999999999972
 32
0.0
 13
-48.31178458718063
 23
2.999999999999972
 33
0.0
  0
SOLID
  5
10F
330
105
100
AcDbEntity
  8
치수문자_일반주서
 62
     0
100
AcDbTrace
 10
-47.76145125384726
 20
-6.302000000000032
 30
0.0
 11
-48.86211792051393
 21
-6.302000000000035
 31
0.0
 12
-48.31178458718061
 22
-3.000000000000034
 32
0.0
 13
-48.31178458718061
 23
-3.000000000000034
 33
0.0
  0
MTEXT
  5
110
330
105
100
AcDbEntity
  8
치수문자_일반주서
 62
     0
100
AcDbMText
 10
-52.68678458718067
 20
12.66649999999996
 30
0.0
 40
3.5
 41
0.0
 71
     2
 72
     1
  1
\A1;%%c6
  7
SLDTEXTSTYLE0
 11
-3.552713678800498E-15
 21
1.0
 31
0.0
 73
     1
 44
1.0
  0
POINT
  5
14D
330
105
100
AcDbEntity
  8
Defpoints
 62
     0
100
AcDbPoint
 10
-39.96891108675447
 20
3.000000000000003
 30
0.0
  0
POINT
  5
14E
330
105
100
AcDbEntity
  8
Defpoints
 62
     0
100
AcDbPoint
 10
-39.96891108675447
 20
-3.000000000000002
 30
0.0
  0
POINT
  5
14F
330
105
100
AcDbEntity
  8
Defpoints
 62
     0
100
AcDbPoint
 10
-48.31178458718062
 20
-3.000000000000033
 30
0.0
  0
ENDBLK
  5
107
330
105
100
AcDbEntity
  8
0
100
AcDbBlockEnd
  0
BLOCK
  5
113
330
112
100
AcDbEntity
  8
0
100
AcDbBlockBegin
  2
_D_3
 70
     0
 10
0.0
 20
0.0
 30
0.0
  3
_D_3
  1

  0
LINE
  5
115
330
112
100
AcDbEntity
  8
치수문자_일반주서
 62
     0
370
    -2
100
AcDbLine
 10
9.531088913245519
 20
1.3125
 30
0.0
 11
9.531088913245519
 21
12.03380202121155
 31
0.0
  0
LINE
  5
116
330
112
100
AcDbEntity
  8
치수문자_일반주서
 62
     0
370
    -2
100
AcDbLine
 10
19.53108891324552
 20
1.312500000000002
 30
0.0
 11
19.53108891324552
 21
12.03380202121155
 31
0.0
  0
LINE
  5
117
330
112
100
AcDbEntity
  8
치수문자_일반주서
 62
     0
370
    -2
100
AcDbLine
 10
12.83308891324552
 20
12.03380202121155
 30
0.0
 11
16.22908891324552
 21
12.03380202121155
 31
0.0
  0
SOLID
  5
118
330
112
100
AcDbEntity
  8
치수문자_일반주서
 62
     0
100
AcDbTrace
 10
12.83308891324552
 20
12.58413535454489
 30
0.0
 11
12.83308891324552
 21
11.48346868787822
 31
0.0
 12
9.531088913245519
 22
12.03380202121155
 32
0.0
 13
9.531088913245519
 23
12.03380202121155
 33
0.0
  0
SOLID
  5
119
330
112
100
AcDbEntity
  8
치수문자_일반주서
 62
     0
100
AcDbTrace
 10
16.22908891324552
 20
11.48346868787822
 30
0.0
 11
16.22908891324552
 21
12.58413535454489
 31
0.0
 12
19.53108891324552
 22
12.03380202121155
 32
0.0
 13
19.53108891324552
 23
12.03380202121155
 33
0.0
  0
MTEXT
  5
11A
330
112
100
AcDbEntity
  8
치수문자_일반주서
 62
     0
100
AcDbMText
 10
14.53108891324552
 20
16.40880202121155
 30
0.0
 40
3.5
 41
0.0
 71
     2
 72
     1
  1
\A1;10
  7
SLDTEXTSTYLE0
 73
     1
 44
1.0
  0
POINT
  5
11B
330
112
100
AcDbEntity
  8
Defpoints
 62
     0
100
AcDbPoint
 10
9.531088913245519
 20
1.25
 30
0.0
  0
POINT
  5
11C
330
112
100
AcDbEntity
  8
Defpoints
 62
     0
100
AcDbPoint
 10
19.53108891324552
 20
1.250000000000002
 30
0.0
  0
POINT
  5
14C
330
112
100
AcDbEntity
  8
Defpoints
 62
     0
100
AcDbPoint
 10
19.53108891324552
 20
12.03380202121155
 30
0.0
  0
ENDBLK
  5
114
330
112
100
AcDbEntity
  8
0
100
AcDbBlockEnd
  0
BLOCK
  5
11E
330
11D
100
AcDbEntity
  8
0
100
AcDbBlockBegin
  2
SW_DOWELSYMBOL_0
 70
     0
 10
0.0
 20
0.0
 30
0.0
  3
SW_DOWELSYMBOL_0
  1

  0
CIRCLE
  5
120
330
11D
100
AcDbEntity
  8
해칭선
 62
     0
100
AcDbCircle
 10
0.0
 20
0.0
 30
0.0
 40
3.0
  0
HATCH
  5
121
330
11D
100
AcDbEntity
  8
0
  6
Continuous
 62
     0
370
    18
100
AcDbHatch
 10
0.0
 20
0.0
 30
0.0
210
0.0
220
0.0
230
1.0
  2
SOLID
 70
     1
 71
     0
 91
        1
 92
        0
 93
        3
 72
     2
 10
0.0
 20
0.0
 40
3.0
 50
0.0
 51
90.0
 73
     1
 72
     1
 10
0.0
 20
3.0
 11
0.0
 21
0.0
 72
     1
 10
0.0
 20
0.0
 11
3.0
 21
0.0
 97
        0
 75
     0
 76
     1
 98
        1
 10
0.0
 20
0.0
  0
HATCH
  5
122
330
11D
100
AcDbEntity
  8
0
  6
Continuous
 62
     0
370
    18
100
AcDbHatch
 10
0.0
 20
0.0
 30
0.0
210
0.0
220
0.0
230
1.0
  2
SOLID
 70
     1
 71
     0
 91
        1
 92
        0
 93
        3
 72
     2
 10
0.0
 20
0.0
 40
3.0
 50
180.0
 51
270.0000000000008
 73
     1
 72
     1
 10
0.0
 20
-3.0
 11
0.0
 21
0.0
 72
     1
 10
0.0
 20
0.0
 11
-3.0
 21
0.0
 97
        0
 75
     0
 76
     1
 98
        1
 10
0.0
 20
0.0
  0
ENDBLK
  5
11F
330
11D
100
AcDbEntity
  8
0
100
AcDbBlockEnd
  0
ENDSEC
  0
SECTION
  2
ENTITIES
  0
LINE
  5
99
330
1F
100
AcDbEntity
  8
0
  6
Continuous
 62
     4
370
    25
100
AcDbLine
 10
2.0
 20
2.999999999999998
 30
0.0
 11
-39.96891108675448
 21
2.999999999999996
 31
0.0
  0
LINE
  5
9A
330
1F
100
AcDbEntity
  8
0
  6
Continuous
 62
     4
370
    25
100
AcDbLine
 10
-39.96891108675448
 20
-3.000000000000001
 30
0.0
 11
2.0
 21
-2.999999999999998
 31
0.0
  0
LINE
  5
9B
330
1F
100
AcDbEntity
  8
0
  6
Continuous
 62
     4
370
    25
100
AcDbLine
 10
2.0
 20
-2.999999999999999
 30
0.0
 11
8.031258685209353
 21
-1.383929105954955
 31
0.0
  0
LINE
  5
9C
330
1F
100
AcDbEntity
  8
0
  6
Continuous
 62
     4
370
    25
100
AcDbLine
 10
8.031258685209353
 20
1.383929105954956
 30
0.0
 11
2.0
 21
2.999999999999999
 31
0.0
  0
LINE
  5
9D
330
1F
100
AcDbEntity
  8
0
  6
Continuous
 62
     4
370
    25
100
AcDbLine
 10
-39.96891108675448
 20
2.999999999999994
 30
0.0
 11
-40.46891108675448
 21
2.499999999999994
 31
0.0
  0
LINE
  5
9E
330
1F
100
AcDbEntity
  8
0
  6
Continuous
 62
     4
370
    25
100
AcDbLine
 10
-40.46891108675448
 20
-2.5
 30
0.0
 11
-39.96891108675448
 21
-2.999999999999999
 31
0.0
  0
LINE
  5
9F
330
1F
100
AcDbEntity
  8
0
  6
Continuous
 62
     4
370
    25
100
AcDbLine
 10
8.844642365302391
 20
-1.25
 30
0.0
 11
9.531088913245519
 21
-1.25
 31
0.0
  0
LINE
  5
A0
330
1F
100
AcDbEntity
  8
0
  6
Continuous
 62
     4
370
    25
100
AcDbLine
 10
9.531088913245519
 20
1.25
 30
0.0
 11
8.844642365302377
 21
1.25
 31
0.0
  0
LINE
  5
A1
330
1F
100
AcDbEntity
  8
0
  6
Continuous
 62
     1
370
    25
100
AcDbLine
 10
15.64630252006675
 20
-1.25
 30
0.0
 11
16.6133186834855
 21
-1.25
 31
0.0
  0
LINE
  5
A2
330
1F
100
AcDbEntity
  8
0
  6
Continuous
 62
     1
370
    25
100
AcDbLine
 10
9.812411989896558
 20
1.250000000000001
 30
0.0
 11
9.531088913245519
 21
1.250000000000001
 31
0.0
  0
LINE
  5
A3
330
1F
100
AcDbEntity
  8
0
  6
Continuous
 62
     1
370
    25
100
AcDbLine
 10
12.6298195472696
 20
-0.2173382074578511
 30
0.0
 11
12.55742332454491
 21
-0.1788620763715877
 31
0.0
  0
LINE
  5
A4
330
1F
100
AcDbEntity
  8
0
  6
Continuous
 62
     1
370
    25
100
AcDbLine
 10
19.30098355414751
 20
-0.1459318984898324
 30
0.0
 11
19.2768566408412
 21
-0.1318102783936111
 31
0.0
  0
SPLINE
  5
A5
330
1F
100
AcDbEntity
  8
0
  6
Continuous
 62
     1
370
    25
100
AcDbSpline
210
0.0
220
0.0
230
1.0
 70
     8
 71
     3
 72
     9
 73
     5
 74
     0
 42
0.000000001
 43
0.00000001
 40
0.0
 40
0.0
 40
0.0
 40
0.0
 40
0.5529165292883219
 40
1.0
 40
1.0
 40
1.0
 40
1.0
 10
19.53108891324551
 20
-0.2783065290928407
 30
0.0
 10
19.4890916300591
 20
-0.2547070246941834
 30
0.0
 10
19.4131357109252
 20
-0.2120251674000401
 30
0.0
 10
19.3356335080132
 20
-0.1663517351150988
 30
0.0
 10
19.30098355414751
 20
-0.1459318984898324
 30
0.0
  0
LINE
  5
A6
330
1F
100
AcDbEntity
  8
0
  6
Continuous
 62
     1
370
    25
100
AcDbLine
 10
16.21930875461878
 20
0.2234600003484908
 30
0.0
 11
16.30409879853856
 21
0.1785580694507916
 31
0.0
  0
LINE
  5
A7
330
1F
100
AcDbEntity
  8
0
  6
Continuous
 62
     1
370
    25
100
AcDbLine
 10
19.04684881602187
 20
-1.25
 30
0.0
 11
19.53108891324552
 21
-1.25
 31
0.0
  0
LINE
  5
A8
330
1F
100
AcDbEntity
  8
0
  6
Continuous
 62
     1
370
    25
100
AcDbLine
 10
13.21195996457284
 20
1.250000000000001
 30
0.0
 11
12.24636763190431
 21
1.250000000000001
 31
0.0
  0
LINE
  5
A9
330
1F
100
AcDbEntity
  8
0
  6
Continuous
 62
     1
370
    25
100
AcDbLine
 10
12.2463676319043
 20
-1.25
 30
0.0
 11
13.21195996457283
 21
-1.25
 31
0.0
  0
LINE
  5
AA
330
1F
100
AcDbEntity
  8
0
  6
Continuous
 62
     1
370
    25
100
AcDbLine
 10
19.53108891324552
 20
1.250000000000001
 30
0.0
 11
19.04684881602186
 21
1.250000000000001
 31
0.0
  0
LINE
  5
AB
330
1F
100
AcDbEntity
  8
0
  6
Continuous
 62
     1
370
    25
100
AcDbLine
 10
9.531088913245519
 20
-1.25
 30
0.0
 11
9.812411989896555
 21
-1.25
 31
0.0
  0
LINE
  5
AC
330
1F
100
AcDbEntity
  8
0
  6
Continuous
 62
     1
370
    25
100
AcDbLine
 10
16.6133186834855
 20
1.250000000000001
 30
0.0
 11
15.64630252006676
 21
1.250000000000001
 31
0.0
  0
LINE
  5
AD
330
1F
100
AcDbEntity
  8
0
  6
Continuous
 62
     4
370
    25
100
AcDbLine
 10
2.0
 20
3.0
 30
0.0
 11
2.0
 21
-3.0
 31
0.0
  0
LINE
  5
AE
330
1F
100
AcDbEntity
  8
0
  6
Continuous
 62
     4
370
    25
100
AcDbLine
 10
-39.96891108675448
 20
2.999999999999994
 30
0.0
 11
-39.96891108675448
 21
-2.999999999999999
 31
0.0
  0
SPLINE
  5
AF
330
1F
100
AcDbEntity
  8
0
  6
Continuous
 62
     4
370
    25
100
AcDbSpline
210
0.0
220
0.0
230
1.0
 70
     8
 71
     3
 72
     8
 73
     4
 74
     0
 42
0.000000001
 43
0.00000001
 40
0.0
 40
0.0
 40
0.0
 40
0.0
 40
1.0
 40
1.0
 40
1.0
 40
1.0
 10
8.40800689104409
 20
0.2608128095353817
 30
0.0
 10
8.44894725231287
 20
0.2337801314736873
 30
0.0
 10
8.489973146388776
 20
0.2069918408413983
 30
0.0
 10
8.531088913245519
 20
0.1804531654279087
 30
0.0
  0
SPLINE
  5
B0
330
1F
100
AcDbEntity
  8
0
  6
Continuous
 62
     4
370
    25
100
AcDbSpline
210
0.0
220
0.0
230
1.0
 70
     8
 71
     3
 72
    12
 73
     8
 74
     0
 42
0.000000001
 43
0.00000001
 40
0.0
 40
0.0
 40
0.0
 40
0.0
 40
0.2500000000000002
 40
0.2500000000000002
 40
0.5000000000000003
 40
0.5000000000000003
 40
1.0
 40
1.0
 40
1.0
 40
1.0
 10
8.031258685209353
 20
0.0713733558063202
 30
0.0
 10
8.031258685209353
 20
0.1164606792895197
 30
0.0
 10
8.043500382383934
 20
0.1602951777782572
 30
0.0
 10
8.088852545375675
 20
0.2337397147613981
 30
0.0
 10
8.122009531083984
 20
0.2631714760233221
 30
0.0
 10
8.235996243621683
 20
0.3180992468762476
 30
0.0
 10
8.333223192411353
 20
0.3101920428091244
 30
0.0
 10
8.408006891044069
 20
0.2608128095353897
 30
0.0
  0
LINE
  5
B1
330
1F
100
AcDbEntity
  8
0
  6
Continuous
 62
     4
370
    25
100
AcDbLine
 10
8.031258685209353
 20
0.0713733558063202
 30
0.0
 11
8.031258685209353
 21
-0.8431917098405896
 31
0.0
  0
SPLINE
  5
B2
330
1F
100
AcDbEntity
  8
0
  6
Continuous
 62
     4
370
    25
100
AcDbSpline
210
0.0
220
0.0
230
1.0
 70
     8
 71
     3
 72
     8
 73
     4
 74
     0
 42
0.000000001
 43
0.00000001
 40
0.0
 40
0.0
 40
0.0
 40
0.0
 40
1.0
 40
1.0
 40
1.0
 40
1.0
 10
8.148183666735017
 20
-0.9783254744372466
 30
0.0
 10
8.077419581360333
 20
-0.9615600658608418
 30
0.0
 10
8.031258685209353
 20
-0.9110756745526039
 30
0.0
 10
8.031258685209353
 20
-0.8431917098405897
 30
0.0
  0
SPLINE
  5
B3
330
1F
100
AcDbEntity
  8
0
  6
Continuous
 62
     4
370
    25
100
AcDbSpline
210
0.0
220
0.0
230
1.0
 70
     8
 71
     3
 72
     8
 73
     4
 74
     0
 42
0.000000001
 43
0.00000001
 40
0.0
 40
0.0
 40
0.0
 40
0.0
 40
1.0
 40
1.0
 40
1.0
 40
1.0
 10
8.531088913245519
 20
-1.037613766684116
 30
0.0
 10
8.400734391008182
 20
-1.027656676934686
 30
0.0
 10
8.273556967845751
 20
-1.008028884106059
 30
0.0
 10
8.148183666735116
 20
-0.9783254744376502
 30
0.0
  0
LINE
  5
B4
330
1F
100
AcDbEntity
  8
0
  6
Continuous
 62
     4
370
    25
100
AcDbLine
 10
8.531088913245519
 20
-1.037613766684116
 30
0.0
 11
8.531088913245519
 21
-1.236906081756832
 31
0.0
  0
SPLINE
  5
B5
330
1F
100
AcDbEntity
  8
0
  6
Continuous
 62
     4
370
    25
100
AcDbSpline
210
0.0
220
0.0
230
1.0
 70
     8
 71
     3
 72
     8
 73
     4
 74
     0
 42
0.000000001
 43
0.00000001
 40
0.0
 40
0.0
 40
0.0
 40
0.0
 40
1.0
 40
1.0
 40
1.0
 40
1.0
 10
8.40800689104409
 20
-1.256190137678294
 30
0.0
 10
8.44894725231287
 20
-1.250598836222914
 30
0.0
 10
8.489973146388776
 20
-1.244167896380164
 30
0.0
 10
8.531088913245519
 20
-1.236906081756836
 30
0.0
  0
SPLINE
  5
B6
330
1F
100
AcDbEntity
  8
0
  6
Continuous
 62
     4
370
    25
100
AcDbSpline
210
0.0
220
0.0
230
1.0
 70
     8
 71
     3
 72
    12
 73
     8
 74
     0
 42
0.000000001
 43
0.00000001
 40
0.0
 40
0.0
 40
0.0
 40
0.0
 40
0.25
 40
0.25
 40
0.5
 40
0.5
 40
1.0
 40
1.0
 40
1.0
 40
1.0
 10
8.031258685209353
 20
-1.382087411993259
 30
0.0
 10
8.031258685209353
 20
-1.379759025558801
 30
0.0
 10
8.043500382383934
 20
-1.371838137025486
 30
0.0
 10
8.088852545375675
 20
-1.348922657681152
 30
0.0
 10
8.122009531083984
 20
-1.334062739673609
 30
0.0
 10
8.235996243621683
 20
-1.291117926176542
 30
0.0
 10
8.333223192411353
 20
-1.266403486804792
 30
0.0
 10
8.408006891044069
 20
-1.256190137678279
 30
0.0
  0
LINE
  5
B7
330
1F
100
AcDbEntity
  8
0
  6
Continuous
 62
     4
370
    25
100
AcDbLine
 10
8.031258685209353
 20
-1.38208741199326
 30
0.0
 11
8.031258685209353
 21
-1.383929105954955
 31
0.0
  0
SPLINE
  5
B8
330
1F
100
AcDbEntity
  8
0
  6
Continuous
 62
     4
370
    25
100
AcDbSpline
210
0.0
220
0.0
230
1.0
 70
     8
 71
     3
 72
     8
 73
     4
 74
     0
 42
0.000000001
 43
0.00000001
 40
0.0
 40
0.0
 40
0.0
 40
0.0
 40
1.0
 40
1.0
 40
1.0
 40
1.0
 10
8.40800689104409
 20
1.256190137678298
 30
0.0
 10
8.44894725231287
 20
1.250598836222917
 30
0.0
 10
8.489973146388776
 20
1.244167896380166
 30
0.0
 10
8.531088913245519
 20
1.236906081756838
 30
0.0
  0
SPLINE
  5
B9
330
1F
100
AcDbEntity
  8
0
  6
Continuous
 62
     4
370
    25
100
AcDbSpline
210
0.0
220
0.0
230
1.0
 70
     8
 71
     3
 72
    12
 73
     8
 74
     0
 42
0.000000001
 43
0.00000001
 40
0.0
 40
0.0
 40
0.0
 40
0.0
 40
0.2499999999999999
 40
0.2499999999999999
 40
0.4999999999999998
 40
0.4999999999999998
 40
1.0
 40
1.0
 40
1.0
 40
1.0
 10
8.031258685209353
 20
1.382087411993261
 30
0.0
 10
8.031258685209353
 20
1.379759025558803
 30
0.0
 10
8.043500382383934
 20
1.371838137025488
 30
0.0
 10
8.088852545375675
 20
1.348922657681154
 30
0.0
 10
8.122009531083984
 20
1.334062739673612
 30
0.0
 10
8.235996243621683
 20
1.291117926176545
 30
0.0
 10
8.333223192411353
 20
1.266403486804795
 30
0.0
 10
8.408006891044069
 20
1.256190137678282
 30
0.0
  0
LINE
  5
BA
330
1F
100
AcDbEntity
  8
0
  6
Continuous
 62
     4
370
    25
100
AcDbLine
 10
8.031258685209353
 20
1.383929105954956
 30
0.0
 11
8.031258685209353
 21
1.09740034206545
 31
0.0
  0
SPLINE
  5
BB
330
1F
100
AcDbEntity
  8
0
  6
Continuous
 62
     4
370
    25
100
AcDbSpline
210
0.0
220
0.0
230
1.0
 70
     8
 71
     3
 72
     8
 73
     4
 74
     0
 42
0.000000001
 43
0.00000001
 40
0.0
 40
0.0
 40
0.0
 40
0.0
 40
1.0
 40
1.0
 40
1.0
 40
1.0
 10
8.148183666735013
 20
0.9340255515354022
 30
0.0
 10
8.077419581360333
 20
0.9790445572518585
 30
0.0
 10
8.031258685209353
 20
1.045241440630673
 30
0.0
 10
8.031258685209353
 20
1.097400342065449
 30
0.0
  0
SPLINE
  5
BC
330
1F
100
AcDbEntity
  8
0
  6
Continuous
 62
     4
370
    25
100
AcDbSpline
210
0.0
220
0.0
230
1.0
 70
     8
 71
     3
 72
     8
 73
     4
 74
     0
 42
0.000000001
 43
0.00000001
 40
0.0
 40
0.0
 40
0.0
 40
0.0
 40
1.0
 40
1.0
 40
1.0
 40
1.0
 10
8.531088913245519
 20
0.6970349138942654
 30
0.0
 10
8.400734391008182
 20
0.774494591347892
 30
0.0
 10
8.273556967845751
 20
0.8542650158132424
 30
0.0
 10
8.148183666735116
 20
0.9340255515356846
 30
0.0
  0
LINE
  5
BD
330
1F
100
AcDbEntity
  8
0
  6
Continuous
 62
     4
370
    25
100
AcDbLine
 10
8.531088913245519
 20
0.697034913894265
 30
0.0
 11
8.531088913245519
 21
0.1804531654279074
 31
0.0
  0
LINE
  5
BE
330
1F
100
AcDbEntity
  8
0
  6
Continuous
 62
     4
370
    25
100
AcDbLine
 10
-40.46891108675448
 20
2.499999999999994
 30
0.0
 11
-40.46891108675448
 21
-2.500000000000001
 31
0.0
  0
SPLINE
  5
BF
330
1F
100
AcDbEntity
  8
0
  6
Continuous
 62
     4
370
    25
100
AcDbSpline
210
0.0
220
0.0
230
1.0
 70
     8
 71
     3
 72
    10
 73
     6
 74
     0
 42
0.000000001
 43
0.00000001
 40
0.0
 40
0.0
 40
0.0
 40
0.0
 40
0.5
 40
0.5
 40
1.0
 40
1.0
 40
1.0
 40
1.0
 10
9.531088913245517
 20
1.187883718623837
 30
0.0
 10
9.364475260836976
 20
1.21780863068866
 30
0.0
 10
9.19516702748059
 20
1.23721381121503
 30
0.0
 10
8.864502244895723
 20
1.253619639893697
 30
0.0
 10
8.69874781711869
 20
1.25081178096014
 30
0.0
 10
8.531088913245519
 20
1.236906081756834
 30
0.0
  0
SPLINE
  5
C0
330
1F
100
AcDbEntity
  8
0
  6
Continuous
 62
     4
370
    25
100
AcDbSpline
210
0.0
220
0.0
230
1.0
 70
    24
 71
     3
 72
    13
 73
     9
 74
     0
 42
0.000000001
 43
0.00000001
 40
0.0
 40
0.0
 40
0.0
 40
0.0
 40
0.1418067335722344
 40
0.3449074787794866
 40
0.5480082239868244
 40
0.7511089691939913
 40
0.954209714401209
 40
0.9999999999999999
 40
0.9999999999999999
 40
0.9999999999999999
 40
0.9999999999999999
 10
9.531088913245519
 20
1.187883718623901
 30
0.0
 10
9.531088913245519
 20
1.119578963403304
 30
0.0
 10
9.531088913245519
 20
0.9534456612792158
 30
0.0
 10
9.531088913245519
 20
0.6904154804350737
 30
0.0
 10
9.531088913245519
 20
0.4376804232990173
 30
0.0
 10
9.531088913245519
 20
0.2548822761886404
 30
0.0
 10
9.531088913245519
 20
0.1772225042372025
 30
0.0
 10
9.531088913245519
 20
0.1689812144186646
 30
0.0
 10
9.531088913245519
 20
0.1674650046409512
 30
0.0
  0
SPLINE
  5
C1
330
1F
100
AcDbEntity
  8
0
  6
Continuous
 62
     4
370
    25
100
AcDbSpline
210
0.0
220
0.0
230
1.0
 70
     8
 71
     3
 72
    10
 73
     6
 74
     0
 42
0.000000001
 43
0.00000001
 40
0.0
 40
0.0
 40
0.0
 40
0.0
 40
0.5
 40
0.5
 40
1.0
 40
1.0
 40
1.0
 40
1.0
 10
9.531088913245519
 20
0.1621429157241104
 30
0.0
 10
9.36447526083698
 20
0.2574552076877107
 30
0.0
 10
9.19516702748059
 20
0.3518098254594367
 30
0.0
 10
8.864502244895723
 20
0.5312061707610843
 30
0.0
 10
8.69874781711869
 20
0.6170765219508246
 30
0.0
 10
8.531088913245519
 20
0.6970349138942655
 30
0.0
  0
SPLINE
  5
C2
330
1F
100
AcDbEntity
  8
0
  6
Continuous
 62
     4
370
    25
100
AcDbSpline
210
0.0
220
0.0
230
1.0
 70
     8
 71
     3
 72
    10
 73
     6
 74
     0
 42
0.000000001
 43
0.00000001
 40
0.0
 40
0.0
 40
0.0
 40
0.0
 40
0.5
 40
0.5
 40
1.0
 40
1.0
 40
1.0
 40
1.0
 10
9.531088913245517
 20
-0.3891429956049405
 30
0.0
 10
9.364475260836976
 20
-0.2977953002216754
 30
0.0
 10
9.19516702748059
 20
-0.2024711477415324
 30
0.0
 10
8.864502244895723
 20
-0.0114183537253375
 30
0.0
 10
8.69874781711869
 20
0.0851373316775578
 30
0.0
 10
8.531088913245519
 20
0.1804531654279075
 30
0.0
  0
SPLINE
  5
C3
330
1F
100
AcDbEntity
  8
0
  6
Continuous
 62
     4
370
    25
100
AcDbSpline
210
0.0
220
0.0
230
1.0
 70
    24
 71
     3
 72
    12
 73
     8
 74
     0
 42
0.000000001
 43
0.00000001
 40
0.0
 40
0.0
 40
0.0
 40
0.0
 40
0.1945349488882415
 40
0.4289998241437106
 40
0.6634646993989821
 40
0.8979295746543128
 40
1.0
 40
1.0
 40
1.0
 40
1.0
 10
9.531088913245519
 20
-0.389142995604943
 30
0.0
 10
9.531088913245519
 20
-0.4026695158455605
 30
0.0
 10
9.531088913245519
 20
-0.4324989878127543
 30
0.0
 10
9.531088913245519
 20
-0.5921743697196751
 30
0.0
 10
9.531088913245519
 20
-0.8253305547164387
 30
0.0
 10
9.531088913245519
 20
-1.0563531572984
 30
0.0
 10
9.531088913245519
 20
-1.196832253610133
 30
0.0
 10
9.531088913245519
 20
-1.239439258245632
 30
0.0
  0
SPLINE
  5
C4
330
1F
100
AcDbEntity
  8
0
  6
Continuous
 62
     4
370
    25
100
AcDbSpline
210
0.0
220
0.0
230
1.0
 70
     8
 71
     3
 72
    10
 73
     6
 74
     0
 42
0.000000001
 43
0.00000001
 40
0.0
 40
0.0
 40
0.0
 40
0.0
 40
0.5
 40
0.5
 40
1.0
 40
1.0
 40
1.0
 40
1.0
 10
9.531088913245519
 20
-1.239439258245631
 30
0.0
 10
9.36447526083698
 20
-1.226970544816946
 30
0.0
 10
9.19516702748059
 20
-1.203296483431744
 30
0.0
 10
8.864502244895723
 20
-1.135567076166944
 30
0.0
 10
8.69874781711869
 20
-1.091327193233504
 30
0.0
 10
8.531088913245519
 20
-1.037613766684116
 30
0.0
  0
LINE
  5
C5
330
1F
100
AcDbEntity
  8
0
  6
Continuous
 62
     4
370
    25
100
AcDbLine
 10
9.531088913245519
 20
0.1621429157241104
 30
0.0
 11
9.531088913245519
 21
-0.3891429956049542
 31
0.0
  0
LINE
  5
C6
330
1F
100
AcDbEntity
  8
0
  6
Continuous
 62
     4
370
    25
100
AcDbLine
 10
8.531088913245748
 20
-1.236906081756851
 30
0.0
 11
8.844642365302391
 21
-1.242256587273347
 31
0.0
  0
LINE
  5
C7
330
1F
100
AcDbEntity
  8
0
  6
Continuous
 62
     4
370
    25
100
AcDbLine
 10
9.531088913245519
 20
-1.239439258245631
 30
0.0
 11
9.531088913245519
 21
-1.25
 31
0.0
  0
LINE
  5
C8
330
1F
100
AcDbEntity
  8
0
  6
Continuous
 62
     4
370
    25
100
AcDbLine
 10
9.531088913245519
 20
1.25
 30
0.0
 11
9.531088913245519
 21
1.187883718623901
 31
0.0
  0
SPLINE
  5
C9
330
1F
100
AcDbEntity
  8
0
  6
Continuous
 62
     1
370
    25
100
AcDbSpline
210
0.0
220
0.0
230
1.0
 70
     8
 71
     3
 72
    16
 73
    12
 74
     0
 42
0.000000001
 43
0.00000001
 40
0.0
 40
0.0
 40
0.0
 40
0.0
 40
0.112430423005271
 40
0.224833644900814
 40
0.3423318989878106
 40
0.459828437557925
 40
0.5773254861584262
 40
0.6948252696233856
 40
0.8123300089640756
 40
0.929841918270776
 40
1.0
 40
1.0
 40
1.0
 40
1.0
 10
9.531088913245517
 20
1.187883718623837
 30
0.0
 10
9.760257414299955
 20
1.135062877199835
 30
0.0
 10
10.21853897200707
 20
1.029433973682061
 30
0.0
 10
10.91622524755786
 20
0.7317703715358206
 30
0.0
 10
11.62441475680867
 20
0.3609461126521593
 30
0.0
 10
12.34293535677157
 20
-0.057300326728152
 30
0.0
 10
13.06147336166195
 20
-0.4682048207612684
 30
0.0
 10
13.78002762788197
 20
-0.8297632674260774
 30
0.0
 10
14.498619805341
 20
-1.094708391327355
 30
0.0
 10
15.1207131237049
 20
-1.239866727810555
 30
0.0
 10
15.50328340104492
 20
-1.235209801767429
 30
0.0
 10
15.64630252006675
 20
-1.233468868141669
 30
0.0
  0
SPLINE
  5
CA
330
1F
100
AcDbEntity
  8
0
  6
Continuous
 62
     1
370
    25
100
AcDbSpline
210
0.0
220
0.0
230
1.0
 70
     8
 71
     3
 72
    19
 73
    15
 74
     0
 42
0.000000001
 43
0.00000001
 40
0.0
 40
0.0
 40
0.0
 40
0.0
 40
0.0609298968040532
 40
0.1469115489526213
 40
0.2365235658438251
 40
0.3261267650110469
 40
0.4157228169999962
 40
0.5053134023034733
 40
0.5949002090375931
 40
0.6844849305953283
 40
0.7740692632843156
 40
0.8636549039559634
 40
0.9493558764964952
 40
1.0
 40
1.0
 40
1.0
 40
1.0
 10
17.83316468231713
 20
-1.045484467798325
 30
0.0
 10
17.67023960796992
 20
-1.094995749524215
 30
0.0
 10
17.27740166976456
 20
-1.214375224470187
 30
0.0
 10
16.64505579396733
 20
-1.269552961842979
 30
0.0
 10
15.9359719671438
 20
-1.212128085752502
 30
0.0
 10
15.21726469901249
 20
-1.017441113917683
 30
0.0
 10
14.49861913119205
 20
-0.7127425372402887
 30
0.0
 10
13.78002780259447
 20
-0.3299576173451172
 30
0.0
 10
13.06147333691324
 20
0.0888849991936339
 30
0.0
 10
12.34293528106359
 20
0.4976146340200301
 30
0.0
 10
11.62441508438987
 20
0.8535874202753478
 30
0.0
 10
10.91622403550145
 20
1.106729729525582
 30
0.0
 10
10.31230641397768
 20
1.241086075474226
 30
0.0
 10
9.947803297551282
 20
1.236497962941689
 30
0.0
 10
9.812411989896558
 20
1.234793751022907
 30
0.0
  0
SPLINE
  5
CB
330
1F
100
AcDbEntity
  8
0
  6
Continuous
 62
     4
370
    25
100
AcDbSpline
210
0.0
220
0.0
230
1.0
 70
    24
 71
     3
 72
    16
 73
    12
 74
     0
 42
0.000000001
 43
0.00000001
 40
0.0
 40
0.0
 40
0.0
 40
0.0
 40
0.125
 40
0.125
 40
0.2500000000000001
 40
0.2500000000000001
 40
0.5
 40
0.5
 40
0.75
 40
0.75
 40
1.0
 40
1.0
 40
1.0
 40
1.0
 10
9.531088913245519
 20
1.187883718623901
 30
0.0
 10
9.531088913245519
 20
1.144565977441058
 30
0.0
 10
9.531088913245519
 20
1.10539596392232
 30
0.0
 10
9.531088913245519
 20
1.018722438229211
 30
0.0
 10
9.531088913245519
 20
0.9722299884122354
 30
0.0
 10
9.531088913245519
 20
0.8241887669455613
 30
0.0
 10
9.531088913245519
 20
0.7129443705447782
 30
0.0
 10
9.531088913245519
 20
0.4902413752900619
 30
0.0
 10
9.531088913245519
 20
0.3792735722657067
 30
0.0
 10
9.531088913245519
 20
0.214841531440311
 30
0.0
 10
9.531088913245519
 20
0.1643004036651706
 30
0.0
 10
9.531088913245519
 20
0.1621429157241269
 30
0.0
  0
SPLINE
  5
CC
330
1F
100
AcDbEntity
  8
0
  6
Continuous
 62
     1
370
    25
100
AcDbSpline
210
0.0
220
0.0
230
1.0
 70
     8
 71
     3
 72
    14
 73
    10
 74
     0
 42
0.000000001
 43
0.00000001
 40
0.0
 40
0.0
 40
0.0
 40
0.0
 40
0.1323735234415961
 40
0.2790951922999177
 40
0.4258134461402232
 40
0.5725310631069335
 40
0.7192508222350381
 40
0.85960842814063
 40
1.0
 40
1.0
 40
1.0
 40
1.0
 10
14.42830709693037
 20
-1.05258322569815
 30
0.0
 10
14.21221055141739
 20
-1.112034804573322
 30
0.0
 10
13.75659446326585
 20
-1.237381999445117
 30
0.0
 10
13.0614734608778
 20
-1.268277803178808
 30
0.0
 10
12.34293533018501
 20
-1.172276438473471
 30
0.0
 10
11.62441476394069
 20
-0.9453624521217083
 30
0.0
 10
10.91622524574785
 20
-0.6210772752528889
 30
0.0
 10
10.21853897245127
 20
-0.2361889939535246
 30
0.0
 10
9.760257414447986
 20
0.0293549037085084
 30
0.0
 10
9.531088913245442
 20
0.1621429157241544
 30
0.0
  0
SPLINE
  5
CD
330
1F
100
AcDbEntity
  8
0
  6
Continuous
 62
     1
370
    25
100
AcDbSpline
210
0.0
220
0.0
230
1.0
 70
     8
 71
     3
 72
    15
 73
    11
 74
     0
 42
0.000000001
 43
0.00000001
 40
0.0
 40
0.0
 40
0.0
 40
0.0
 40
0.0137776985647991
 40
0.1546198699216043
 40
0.2954732764175104
 40
0.4363405440977487
 40
0.5772242797645419
 40
0.7181270674275245
 40
0.8590514648212964
 40
1.0
 40
1.0
 40
1.0
 40
1.0
 10
14.42830709693039
 20
1.052583225698153
 30
0.0
 10
14.4517401374937
 20
1.061367983222059
 30
0.0
 10
14.71471683615827
 20
1.159954699954974
 30
0.0
 10
15.21726403092454
 20
1.241178301346988
 30
0.0
 10
15.93597626076557
 20
1.26366763789978
 30
0.0
 10
16.65477417117367
 20
1.136961260285516
 30
0.0
 10
17.37367249232344
 20
0.8889164017411009
 30
0.0
 10
18.09268795453568
 20
0.5435320739075664
 30
0.0
 10
18.81183365399124
 20
0.1367857928821789
 30
0.0
 10
19.29132347335275
 20
-0.1389606535966403
 30
0.0
 10
19.53108891324552
 20
-0.2768456834120841
 30
0.0
  0
LINE
  5
CE
330
1F
100
AcDbEntity
  8
0
  6
Continuous
 62
     1
370
    25
100
AcDbLine
 10
19.53108891324552
 20
-0.500000000000001
 30
0.0
 11
19.53108891324552
 21
-0.2780769305441241
 31
0.0
  0
SPLINE
  5
CF
330
1F
100
AcDbEntity
  8
0
  6
Continuous
 62
     1
370
    25
100
AcDbSpline
210
0.0
220
0.0
230
1.0
 70
    24
 71
     3
 72
    10
 73
     6
 74
     0
 42
0.000000001
 43
0.00000001
 40
0.0
 40
0.0
 40
0.0
 40
0.0
 40
0.5
 40
0.5
 40
1.0
 40
1.0
 40
1.0
 40
1.0
 10
19.53108891324552
 20
-0.5000000000000007
 30
0.0
 10
19.45712426532603
 20
-0.5517906040342494
 30
0.0
 10
19.36953558604758
 20
-0.6131208575278557
 30
0.0
 10
19.19294578687742
 20
-0.7367703660777449
 30
0.0
 10
19.10451492148045
 20
-0.7986903246381005
 30
0.0
 10
19.02060181304914
 20
-0.8574469157163207
 30
0.0
  0
SPLINE
  5
D0
330
1F
100
AcDbEntity
  8
0
  6
Continuous
 62
     1
370
    25
100
AcDbSpline
210
0.0
220
0.0
230
1.0
 70
     8
 71
     3
 72
     8
 73
     4
 74
     0
 42
0.000000001
 43
0.00000001
 40
0.0
 40
0.0
 40
0.0
 40
0.0
 40
1.0
 40
1.0
 40
1.0
 40
1.0
 10
19.41456119791203
 20
-1.202188908513169
 30
0.0
 10
19.27576762072446
 20
-1.100819900483518
 30
0.0
 10
19.14689711839812
 20
-0.981466966605413
 30
0.0
 10
19.02060181304914
 20
-0.8574469157163195
 30
0.0
  0
SPLINE
  5
D1
330
1F
100
AcDbEntity
  8
0
  6
Continuous
 62
     1
370
    25
100
AcDbSpline
210
0.0
220
0.0
230
1.0
 70
     8
 71
     3
 72
    16
 73
    12
 74
     0
 42
0.000000001
 43
0.00000001
 40
0.0
 40
0.0
 40
0.0
 40
0.0
 40
0.1112151779948551
 40
0.2224881292398322
 40
0.3337352871361211
 40
0.4449265127524826
 40
0.5608125156274922
 40
0.6766871154471734
 40
0.7925524725564393
 40
0.9084107601637533
 40
0.9999999999999999
 40
0.9999999999999999
 40
0.9999999999999999
 40
0.9999999999999999
 10
19.41456119791199
 20
-1.202188908513162
 30
0.0
 10
19.18462425667379
 20
-1.153997461854563
 30
0.0
 10
18.72463092823096
 20
-1.057589534395875
 30
0.0
 10
18.03451494736813
 20
-0.7742787264750691
 30
0.0
 10
17.34449917780867
 20
-0.421756417166617
 30
0.0
 10
16.64505411168147
 20
-0.0187929981076392
 30
0.0
 10
15.93597242792707
 20
0.3914547425223924
 30
0.0
 10
15.21726456733678
 20
0.7658292300093683
 30
0.0
 10
14.49861919716375
 20
1.052371629880167
 30
0.0
 10
13.83019214742797
 20
1.226417334210193
 30
0.0
 10
13.40131265248838
 20
1.234902260898493
 30
0.0
 10
13.21195996457284
 20
1.238648403332797
 30
0.0
  0
SPLINE
  5
D2
330
1F
100
AcDbEntity
  8
0
  6
Continuous
 62
     1
370
    25
100
AcDbSpline
210
0.0
220
0.0
230
1.0
 70
     8
 71
     3
 72
    19
 73
    15
 74
     0
 42
0.000000001
 43
0.00000001
 40
0.0
 40
0.0
 40
0.0
 40
0.0
 40
0.074097870346655
 40
0.1637343366497304
 40
0.2533711920478561
 40
0.3430101338358351
 40
0.4326528563921101
 40
0.5223010488151957
 40
0.6119563925758551
 40
0.7016205591919723
 40
0.7912952079329622
 40
0.880981983560409
 40
0.9706825141114371
 40
1.0
 40
1.0
 40
1.0
 40
1.0
 10
11.03043804418397
 20
1.04938432241703
 30
0.0
 10
11.22842864778986
 20
1.106053030801285
 30
0.0
 10
11.66592921282135
 20
1.231274084155241
 30
0.0
 10
12.34293756073305
 20
1.269784724497351
 30
0.0
 10
13.06147274719056
 20
1.184397303845762
 30
0.0
 10
13.78002788176122
 20
0.9663649592003771
 30
0.0
 10
14.49861940429934
 20
0.6436821155476743
 30
0.0
 10
15.21726352729184
 20
0.2505110757327249
 30
0.0
 10
15.93597638145828
 20
-0.1701494587661712
 30
0.0
 10
16.65477419210842
 20
-0.5715789887873516
 30
0.0
 10
17.37367228783393
 20
-0.9131391737635066
 30
0.0
 10
18.09268875172383
 20
-1.145465397822315
 30
0.0
 10
18.65042408849864
 20
-1.256125621142451
 30
0.0
 10
18.96849821099052
 20
-1.239082702986644
 30
0.0
 10
19.04684881602187
 20
-1.234884552761326
 30
0.0
  0
ELLIPSE
  5
D3
330
1F
100
AcDbEntity
  8
0
  6
Continuous
 62
     1
370
    25
100
AcDbEllipse
 10
19.28686122026742
 20
0.0000000000000011
 30
0.0
 11
1.736654132074953
 21
-0.6879262575522044
 31
0.0
210
0.0
220
0.0
230
1.0
 40
0.600968817488727
 41
5.0176900690713
 42
5.083334185035835
  0
LINE
  5
D4
330
1F
100
AcDbEntity
  8
0
  6
Continuous
 62
     1
370
    25
100
AcDbLine
 10
19.53108891324552
 20
-1.250000000000001
 30
0.0
 11
19.53108891324552
 21
-1.222060428378375
 31
0.0
  0
SPLINE
  5
D5
330
1F
100
AcDbEntity
  8
0
  6
Continuous
 62
     1
370
    25
100
AcDbSpline
210
0.0
220
0.0
230
1.0
 70
     8
 71
     3
 72
    11
 73
     7
 74
     0
 42
0.000000001
 43
0.00000001
 40
0.0
 40
0.0
 40
0.0
 40
0.0
 40
0.2532005357170602
 40
0.5063398127874735
 40
0.7709534296841389
 40
1.0
 40
1.0
 40
1.0
 40
1.0
 10
9.531088913245513
 20
-0.3891429956049405
 30
0.0
 10
9.76025741424491
 20
-0.5112546591370117
 30
0.0
 10
10.21853897184195
 20
-0.755448442838513
 30
0.0
 10
10.91622524823062
 20
-1.0369375303986
 30
0.0
 10
11.59222319545926
 20
-1.220858164821819
 30
0.0
 10
12.03905043430213
 20
-1.235323529331386
 30
0.0
 10
12.2463676319043
 20
-1.242035113970191
 30
0.0
  0
SPLINE
  5
D6
330
1F
100
AcDbEntity
  8
0
  6
Continuous
 62
     1
370
    25
100
AcDbSpline
210
0.0
220
0.0
230
1.0
 70
     8
 71
     3
 72
    10
 73
     6
 74
     0
 42
0.000000001
 43
0.00000001
 40
0.0
 40
0.0
 40
0.0
 40
0.0
 40
0.1528338563827991
 40
0.5763806552616266
 40
1.0
 40
1.0
 40
1.0
 40
1.0
 10
17.83316468231713
 20
1.045484467798327
 30
0.0
 10
17.91966102087627
 20
1.075399802698047
 30
0.0
 10
18.24586371886737
 20
1.188219178849132
 30
0.0
 10
18.81183442207829
 20
1.267497584876803
 30
0.0
 10
19.29132372939638
 20
1.235138200604827
 30
0.0
 10
19.53108891324552
 20
1.218957122944072
 30
0.0
  0
LINE
  5
D7
330
1F
100
AcDbEntity
  8
0
  6
Continuous
 62
     1
370
    25
100
AcDbLine
 10
19.53108891324552
 20
1.218957122944078
 30
0.0
 11
19.53108891324552
 21
1.250000000000002
 31
0.0
  0
SPLINE
  5
D8
330
1F
100
AcDbEntity
  8
0
  6
Continuous
 62
     1
370
    25
100
AcDbSpline
210
0.0
220
0.0
230
1.0
 70
     8
 71
     3
 72
    12
 73
     8
 74
     0
 42
0.000000001
 43
0.00000001
 40
0.0
 40
0.0
 40
0.0
 40
0.0
 40
0.2462659378094812
 40
0.4926598040535356
 40
0.7389965555825082
 40
0.985209455173116
 40
1.0
 40
1.0
 40
1.0
 40
1.0
 10
19.41456119791201
 20
0.3424059407310652
 30
0.0
 10
19.18462420609301
 20
0.4664628007289502
 30
0.0
 10
18.72463077646229
 20
0.7146409648782186
 30
0.0
 10
18.03451555475218
 20
1.009205661436831
 30
0.0
 10
17.34449690123082
 20
1.190454227732291
 30
0.0
 10
16.87083057291873
 20
1.269162497129273
 30
0.0
 10
16.62712877831227
 20
1.247513533997138
 30
0.0
 10
16.6133186834855
 20
1.24628673041845
 30
0.0
  0
SPLINE
  5
D9
330
1F
100
AcDbEntity
  8
0
  6
Continuous
 62
     1
370
    25
100
AcDbSpline
210
0.0
220
0.0
230
1.0
 70
     8
 71
     3
 72
    10
 73
     6
 74
     0
 42
0.000000001
 43
0.00000001
 40
0.0
 40
0.0
 40
0.0
 40
0.0
 40
0.0830733967785926
 40
0.5414812319995621
 40
1.0
 40
1.0
 40
1.0
 40
1.0
 10
11.03043804418397
 20
-1.049384322417029
 30
0.0
 10
10.98891470157345
 20
-1.064645750968506
 30
0.0
 10
10.71826113995963
 20
-1.164121364757986
 30
0.0
 10
10.21854374257934
 20
-1.249233857494982
 30
0.0
 10
9.760259004618915
 20
-1.242704387980937
 30
0.0
 10
9.531088913245442
 20
-1.239439258245626
 30
0.0
  0
ELLIPSE
  5
DA
330
1F
100
AcDbEntity
  8
0
  6
Continuous
 62
     1
370
    25
100
AcDbEllipse
 10
19.28686122026742
 20
0.0000000000000004
 30
0.0
 11
1.773878207475981
 21
-1.215217588009257
 31
0.0
210
0.0
220
0.0
230
1.0
 40
0.1650759015746647
 41
1.546166782239611
 42
1.611810898204144
  0
LINE
  5
DB
330
1F
100
AcDbEntity
  8
0
  6
Continuous
 62
     1
370
    25
100
AcDbLine
 10
19.53108891324552
 20
-0.2768456834120847
 30
0.0
 11
19.53108891324552
 21
0.2628085032712295
 31
0.0
  0
SPLINE
  5
DC
330
1F
100
AcDbEntity
  8
0
  6
Continuous
 62
     1
370
    25
100
AcDbSpline
210
0.0
220
0.0
230
1.0
 70
     8
 71
     3
 72
    10
 73
     6
 74
     0
 42
0.000000001
 43
0.00000001
 40
0.0
 40
0.0
 40
0.0
 40
0.0
 40
0.4015700587717809
 40
0.8003969899537824
 40
1.0
 40
1.0
 40
1.0
 40
1.0
 10
19.53108891324552
 20
0.5622257016815451
 30
0.0
 10
19.48318117667976
 20
0.5321813752413477
 30
0.0
 10
19.38769296159716
 20
0.4722979553432789
 30
0.0
 10
19.25021569799448
 20
0.4538575282626358
 30
0.0
 10
19.17207901313911
 20
0.4751479206910074
 30
0.0
 10
19.14601695237364
 20
0.4822492137931643
 30
0.0
  0
SPLINE
  5
DD
330
1F
100
AcDbEntity
  8
0
  6
Continuous
 62
     4
370
    25
100
AcDbSpline
210
0.0
220
0.0
230
1.0
 70
    24
 71
     3
 72
    13
 73
     9
 74
     0
 42
0.000000001
 43
0.00000001
 40
0.0
 40
0.0
 40
0.0
 40
0.0
 40
0.0319973296190916
 40
0.2502453284537908
 40
0.4684933272885825
 40
0.6867413261231902
 40
0.9049893249578522
 40
1.0
 40
1.0
 40
1.0
 40
1.0
 10
9.531088913245519
 20
-0.3801146418995039
 30
0.0
 10
9.531088913245519
 20
-0.3790899555291374
 30
0.0
 10
9.531088913245519
 20
-0.3710760687339888
 30
0.0
 10
9.531088913245519
 20
-0.4332988234286503
 30
0.0
 10
9.531088913245519
 20
-0.5893806744224296
 30
0.0
 10
9.531088913245519
 20
-0.8260956050713499
 30
0.0
 10
9.531088913245519
 20
-1.056280812955288
 30
0.0
 10
9.531088913245519
 20
-1.196815417947124
 30
0.0
 10
9.531088913245519
 20
-1.239439258244381
 30
0.0
  0
LINE
  5
DE
330
1F
100
AcDbEntity
  8
0
  6
Continuous
 62
     1
370
    25
100
AcDbLine
 10
19.53108891324552
 20
0.562225701681545
 30
0.0
 11
19.53108891324552
 21
1.218957122944078
 31
0.0
  0
LINE
  5
DF
330
1F
100
AcDbEntity
  8
0
  6
Continuous
 62
     1
370
    25
100
AcDbLine
 10
19.53108891324552
 20
0.2628085032712296
 30
0.0
 11
19.53108891324552
 21
0.562225701681545
 31
0.0
  0
LINE
  5
E0
330
1F
100
AcDbEntity
  8
0
  6
Continuous
 62
     1
370
    25
100
AcDbLine
 10
19.53108891324552
 20
-0.4999999999999989
 30
0.0
 11
19.53108891324552
 21
-1.222060428378375
 31
0.0
  0
LINE
  5
E1
330
1F
100
AcDbEntity
  8
중심선
100
AcDbLine
 10
-43.46891108675447
 20
-0.0000000000000043
 30
0.0
 11
21.03108891324551
 21
0.0000000000000036
 31
0.0
  0
CIRCLE
  5
E2
330
1F
100
AcDbEntity
  8
해칭선
100
AcDbCircle
 10
0.0003434551472618
 20
-0.0000000000000042
 30
0.0
 40
3.0
  0
INSERT
  5
E3
330
1F
100
AcDbEntity
  8
0
  6
Continuous
 62
     7
100
AcDbBlockReference
 66
     1
  2
블럭10
 10
-22.44009924894178
 20
-52.04717430164393
 30
0.0
  0
ATTRIB
  5
E4
330
E3
100
AcDbEntity
  8
FORMAT
 62
     2
100
AcDbText
 10
-38.55936028837733
 20
-49.97180738881174
 30
0.0
 40
4.233333333333333
  1
SEME7202510E [ 4 FLUTE ]
 41
0.75
  7
SLDTEXTSTYLE0
 11
-38.55936028837733
 21
-52.08847405547841
 31
0.0
100
AcDbAttribute
  2
AUTOATTR0
 70
     0
 74
     1
  0
SEQEND
  5
E5
330
E3
100
AcDbEntity
  8
0
  6
Continuous
 62
     7
  0
HATCH
  5
E6
330
1F
100
AcDbEntity
  8
중심선
100
AcDbHatch
 10
0.0
 20
0.0
 30
0.0
210
0.0
220
0.0
230
1.0
  2
SOLID
 70
     1
 71
     0
 91
        1
 92
        0
 93
        4
 72
     1
 10
-16.72518994456093
 20
-35.8
 11
-20.17146518839821
 21
-35.8
 72
     1
 10
-20.17146518839821
 20
-35.8
 11
-22.29969504760223
 21
-38.33632558057259
 72
     1
 10
-22.29969504760223
 20
-38.33632558057259
 11
-18.85338671865181
 21
-38.3362861512701
 72
     1
 10
-18.85338671865181
 20
-38.3362861512701
 11
-16.72518994456093
 21
-35.8
 97
        0
 75
     0
 76
     1
 98
        1
 10
0.0
 20
0.0
  0
HATCH
  5
E7
330
1F
100
AcDbEntity
  8
중심선
100
AcDbHatch
 10
0.0
 20
0.0
 30
0.0
210
0.0
220
0.0
230
1.0
  2
SOLID
 70
     1
 71
     0
 91
        1
 92
        0
 93
        4
 72
     1
 10
-11.71242595352495
 20
-35.8
 11
-15.15870119736223
 21
-35.8
 72
     1
 10
-15.15870119736223
 20
-35.8
 11
-19.68983920571965
 21
-41.20000000000002
 72
     1
 10
-19.68983920571965
 20
-41.20000000000002
 11
-16.24356396188237
 21
-41.20000000000002
 72
     1
 10
-16.24356396188237
 20
-41.20000000000002
 11
-11.71242595352495
 21
-35.8
 97
        0
 75
     0
 76
     1
 98
        1
 10
0.0
 20
0.0
  0
HATCH
  5
E8
330
1F
100
AcDbEntity
  8
중심선
100
AcDbHatch
 10
0.0
 20
0.0
 30
0.0
210
0.0
220
0.0
230
1.0
  2
SOLID
 70
     1
 71
     0
 91
        1
 92
        0
 93
        4
 72
     1
 10
-6.699661962489084
 20
-35.8
 11
-10.14593720632617
 21
-35.8
 72
     1
 10
-10.14593720632617
 20
-35.8
 11
-17.19437410821545
 21
-44.20000000000002
 72
     1
 10
-17.19437410821545
 20
-44.20000000000002
 11
-13.74809886437817
 21
-44.20000000000002
 72
     1
 10
-13.74809886437817
 20
-44.20000000000002
 11
-6.699661962489084
 21
-35.8
 97
        0
 75
     0
 76
     1
 98
        1
 10
0.0
 20
0.0
  0
HATCH
  5
E9
330
1F
100
AcDbEntity
  8
중심선
100
AcDbHatch
 10
0.0
 20
0.0
 30
0.0
210
0.0
220
0.0
230
1.0
  2
SOLID
 70
     1
 71
     0
 91
        1
 92
        0
 93
        6
 72
     3
 10
-1.899771531476885
 20
-40.00000000005127
 11
3.960054785062284
 21
1.540850780301639E-10
 40
0.3939339440162633
 50
17.09539180608433
 51
320.0019657685086
 73
     0
 72
     1
 10
-0.2167718757762893
 20
-38.58789400463833
 11
2.088529997924748
 21
-36.65356729459038
 72
     3
 10
-1.899771531529731
 20
-40.00000000000015
 11
6.600054785286829
 21
-1.249000902703301E-13
 40
0.6363583540795982
 50
39.99873849337408
 51
368.4976242363725
 73
     1
 72
     1
 10
4.525560960370878
 20
-39.03999999993002
 11
-3.219704224693809
 21
-39.03999999993002
 72
     1
 10
-3.219704224693809
 20
-39.03999999993002
 11
-3.219729269139743
 21
-40.95999999992991
 72
     1
 10
-3.219729269139743
 20
-40.95999999992991
 11
1.221650500332294
 21
-40.95999999992988
 97
        0
 75
     0
 76
     1
 98
        1
 10
0.0
 20
0.0
  0
DIMENSION
  5
EA
330
1F
100
AcDbEntity
  8
치수문자_일반주서
100
AcDbDimension
  2
_D
 10
30.47640259980154
 20
1.250000000000046
 30
0.0
 11
30.47640259980151
 21
12.66650000000005
 31
0.0
 70
   160
  1
%%c<>
 71
     2
 42
2.50000000000001
 52
-270.0
  3
SLDDIMSTYLE0
100
AcDbAlignedDimension
 13
19.53108891324553
 23
-1.250000000000006
 33
0.0
 14
19.53108891324553
 24
1.250000000000005
 34
0.0
 50
90.0000000000002
100
AcDbRotatedDimension
  0
DIMENSION
  5
F8
330
1F
100
AcDbEntity
  8
치수문자_일반주서
100
AcDbDimension
  2
_D_1
 10
19.53108891324552
 20
20.38913260158165
 30
0.0
 11
-10.46891108675448
 21
20.38913260158165
 31
0.0
 70
   160
  1
<>
 71
     2
 42
60.0
  3
SLDDIMSTYLE1
100
AcDbAlignedDimension
 13
-40.46891108675448
 23
2.499999999999994
 33
0.0
 14
19.53108891324552
 24
1.250000000000002
 34
0.0
 50
-0.0000000000000068
100
AcDbRotatedDimension
  0
DIMENSION
  5
103
330
1F
100
AcDbEntity
  8
치수문자_일반주서
100
AcDbDimension
  2
_D_2
 10
-48.31178458718061
 20
-3.000000000000034
 30
0.0
 11
-48.31178458718067
 21
12.66649999999997
 31
0.0
 70
   160
  1
%%c<>
 71
     2
 42
6.000000000000005
 52
-270.0
  3
SLDDIMSTYLE2
100
AcDbAlignedDimension
 13
-39.96891108675447
 23
3.000000000000003
 33
0.0
 14
-39.96891108675447
 24
-3.000000000000002
 34
0.0
 50
90.0000000000002
100
AcDbRotatedDimension
  0
DIMENSION
  5
111
330
1F
100
AcDbEntity
  8
치수문자_일반주서
100
AcDbDimension
  2
_D_3
 10
19.53108891324552
 20
12.03380202121155
 30
0.0
 11
14.53108891324552
 21
12.03380202121155
 31
0.0
 70
   160
  1
<>
 71
     2
 42
10.0
  3
SLDDIMSTYLE2
100
AcDbAlignedDimension
 13
9.531088913245519
 23
1.25
 33
0.0
 14
19.53108891324552
 24
1.250000000000002
 34
0.0
100
AcDbRotatedDimension
  0
INSERT
  5
123
330
1F
100
AcDbEntity
  8
해칭선
100
AcDbBlockReference
  2
SW_DOWELSYMBOL_0
 10
0.0003434551472618
 20
-0.0000000000000042
 30
0.0
  0
ENDSEC
  0
SECTION
  2
OBJECTS
  0
DICTIONARY
  5
C
330
0
100
AcDbDictionary
281
     1
  3
ACAD_GROUP
350
D
  3
ACAD_IMAGE_VARS
350
147
  3
ACAD_LAYOUT
350
1A
  3
ACAD_MLINESTYLE
350
17
  3
ACAD_PLOTSETTINGS
350
19
  3
ACAD_PLOTSTYLENAME
350
E
  3
ACAD_SCALELIST
350
47
  3
APPDATA
350
145
  3
DWGPROPS
350
154
  0
DICTIONARY
  5
D
102
{ACAD_REACTORS
330
C
102
}
330
C
100
AcDbDictionary
281
     1
  0
RASTERVARIABLES
  5
147
102
{ACAD_REACTORS
330
C
102
}
330
C
100
AcDbRasterVariables
 90
        0
 70
     1
 71
     1
 72
     1
  0
DICTIONARY
  5
1A
102
{ACAD_REACTORS
330
C
102
}
330
C
100
AcDbDictionary
281
     1
  3
Layout1
350
1E
  3
Layout2
350
26
  3
Model
350
22
  0
DICTIONARY
  5
17
102
{ACAD_REACTORS
330
C
102
}
330
C
100
AcDbDictionary
281
     1
  3
Standard
350
18
  0
DICTIONARY
  5
19
102
{ACAD_REACTORS
330
C
102
}
330
C
100
AcDbDictionary
281
     1
  0
ACDBDICTIONARYWDFLT
  5
E
102
{ACAD_REACTORS
330
C
102
}
330
C
100
AcDbDictionary
281
     1
  3
Normal
350
F
100
AcDbDictionaryWithDefault
340
F
  0
DICTIONARY
  5
47
102
{ACAD_REACTORS
330
C
102
}
330
C
100
AcDbDictionary
281
     1
  3
A0
350
48
  3
A1
350
49
  3
A2
350
4A
  3
A3
350
4B
  3
A4
350
4C
  3
A5
350
4D
  3
A6
350
4E
  3
A7
350
4F
  3
A8
350
50
  3
A9
350
51
  3
B0
350
52
  3
B1
350
53
  3
B2
350
54
  3
B3
350
55
  3
B4
350
56
  3
B5
350
57
  3
B6
350
58
  3
B7
350
59
  3
B8
350
5A
  3
B9
350
5B
  3
C0
350
5C
  3
C1
350
5D
  3
C2
350
5E
  3
C3
350
5F
  3
C4
350
60
  3
C5
350
61
  3
C6
350
62
  3
C7
350
63
  3
C8
350
64
  3
C9
350
65
  3
D0
350
66
  3
D1
350
67
  3
D2
350
68
  0
DICTIONARY
  5
145
102
{ACAD_REACTORS
330
C
102
}
330
C
100
AcDbDictionary
281
     1
  0
XRECORD
  5
154
102
{ACAD_REACTORS
330
C
102
}
330
C
100
AcDbXrecord
280
     1
  1
DWGPROPS COOKIE
  2

  3

  4

  6

  7

  8
12014102
  9

300
=
301
=
302
=
303
=
304
=
305
=
306
=
307
=
308
=
309
=
 40
0.0
 41
2458260.193706562
 42
2458268.10457081
  1

 90
        0
  0
LAYOUT
  5
1E
102
{ACAD_REACTORS
330
1A
102
}
330
1A
100
AcDbPlotSettings
  1

  2
none_device
  4

  6

 40
0.0
 41
0.0
 42
0.0
 43
0.0
 44
0.0
 45
0.0
 46
0.0
 47
0.0
 48
0.0
 49
0.0
140
0.0
141
0.0
142
1.0
143
1.0
 70
   688
 72
     1
 73
     0
 74
     5
  7

 75
    16
147
1.0
148
0.0
149
0.0
100
AcDbLayout
  1
Layout1
 70
     1
 71
     1
 10
0.0
 20
0.0
 11
420.0
 21
297.0
 12
0.0
 22
0.0
 32
0.0
 14
1.000000000000000E+20
 24
1.000000000000000E+20
 34
1.000000000000000E+20
 15
-1.000000000000000E+20
 25
-1.000000000000000E+20
 35
-1.000000000000000E+20
146
0.0
 13
0.0
 23
0.0
 33
0.0
 16
1.0
 26
0.0
 36
0.0
 17
0.0
 27
1.0
 37
0.0
 76
     0
330
1B
  0
LAYOUT
  5
26
102
{ACAD_REACTORS
330
1A
102
}
330
1A
100
AcDbPlotSettings
  1

  2
none_device
  4

  6

 40
0.0
 41
0.0
 42
0.0
 43
0.0
 44
0.0
 45
0.0
 46
0.0
 47
0.0
 48
0.0
 49
0.0
140
0.0
141
0.0
142
1.0
143
1.0
 70
   688
 72
     1
 73
     0
 74
     5
  7

 75
    16
147
1.0
148
0.0
149
0.0
100
AcDbLayout
  1
Layout2
 70
     1
 71
     2
 10
0.0
 20
0.0
 11
0.0
 21
0.0
 12
0.0
 22
0.0
 32
0.0
 14
0.0
 24
0.0
 34
0.0
 15
0.0
 25
0.0
 35
0.0
146
0.0
 13
0.0
 23
0.0
 33
0.0
 16
1.0
 26
0.0
 36
0.0
 17
0.0
 27
1.0
 37
0.0
 76
     0
330
23
  0
LAYOUT
  5
22
102
{ACAD_REACTORS
330
1A
102
}
330
1A
100
AcDbPlotSettings
  1

  2
none_device
  4
ANSI_A_(11.00_x_8.50_Inches)
  6

 40
6.35
 41
19.05
 42
6.35000508
 43
19.05000254
 44
279.4
 45
215.9
 46
159.1468158048696
 47
125.3847137330092
 48
0.0
 49
0.0
140
0.0
141
0.0
142
0.1112850254374008
143
1.0
 70
  1696
 72
     0
 73
     0
 74
     0
  7

 75
     0
147
0.0235690232323232
148
0.0
149
0.0
100
AcDbLayout
  1
Model
 70
     1
 71
     0
 10
0.0
 20
0.0
 11
420.0
 21
297.0
 12
0.0
 22
0.0
 32
0.0
 14
-52.68678458718067
 24
-49.97180738881174
 34
0.0
 15
32.34897304495597
 25
24.76413260158165
 35
0.0
146
0.0
 13
0.0
 23
0.0
 33
0.0
 16
1.0
 26
0.0
 36
0.0
 17
0.0
 27
1.0
 37
0.0
 76
     0
330
1F
331
29
  0
MLINESTYLE
  5
18
102
{ACAD_REACTORS
330
17
102
}
330
17
100
AcDbMlineStyle
  2
Standard
 70
     0
  3

 62
   256
 51
90.0
 52
90.0
 71
     2
 49
0.5
 62
   256
  6
BYLAYER
 49
-0.5
 62
   256
  6
BYLAYER
  0
ACDBPLACEHOLDER
  5
F
102
{ACAD_REACTORS
330
E
102
}
330
E
  0
SCALE
  5
48
102
{ACAD_REACTORS
330
47
102
}
330
47
100
AcDbScale
 70
     0
300
1:1
140
1.0
141
1.0
290
     1
  0
SCALE
  5
49
102
{ACAD_REACTORS
330
47
102
}
330
47
100
AcDbScale
 70
     0
300
1:2
140
1.0
141
2.0
290
     0
  0
SCALE
  5
4A
102
{ACAD_REACTORS
330
47
102
}
330
47
100
AcDbScale
 70
     0
300
1:4
140
1.0
141
4.0
290
     0
  0
SCALE
  5
4B
102
{ACAD_REACTORS
330
47
102
}
330
47
100
AcDbScale
 70
     0
300
1:5
140
1.0
141
5.0
290
     0
  0
SCALE
  5
4C
102
{ACAD_REACTORS
330
47
102
}
330
47
100
AcDbScale
 70
     0
300
1:8
140
1.0
141
8.0
290
     0
  0
SCALE
  5
4D
102
{ACAD_REACTORS
330
47
102
}
330
47
100
AcDbScale
 70
     0
300
1:10
140
1.0
141
10.0
290
     0
  0
SCALE
  5
4E
102
{ACAD_REACTORS
330
47
102
}
330
47
100
AcDbScale
 70
     0
300
1:16
140
1.0
141
16.0
290
     0
  0
SCALE
  5
4F
102
{ACAD_REACTORS
330
47
102
}
330
47
100
AcDbScale
 70
     0
300
1:20
140
1.0
141
20.0
290
     0
  0
SCALE
  5
50
102
{ACAD_REACTORS
330
47
102
}
330
47
100
AcDbScale
 70
     0
300
1:30
140
1.0
141
30.0
290
     0
  0
SCALE
  5
51
102
{ACAD_REACTORS
330
47
102
}
330
47
100
AcDbScale
 70
     0
300
1:40
140
1.0
141
40.0
290
     0
  0
SCALE
  5
52
102
{ACAD_REACTORS
330
47
102
}
330
47
100
AcDbScale
 70
     0
300
1:50
140
1.0
141
50.0
290
     0
  0
SCALE
  5
53
102
{ACAD_REACTORS
330
47
102
}
330
47
100
AcDbScale
 70
     0
300
1:100
140
1.0
141
100.0
290
     0
  0
SCALE
  5
54
102
{ACAD_REACTORS
330
47
102
}
330
47
100
AcDbScale
 70
     0
300
2:1
140
2.0
141
1.0
290
     0
  0
SCALE
  5
55
102
{ACAD_REACTORS
330
47
102
}
330
47
100
AcDbScale
 70
     0
300
4:1
140
4.0
141
1.0
290
     0
  0
SCALE
  5
56
102
{ACAD_REACTORS
330
47
102
}
330
47
100
AcDbScale
 70
     0
300
8:1
140
8.0
141
1.0
290
     0
  0
SCALE
  5
57
102
{ACAD_REACTORS
330
47
102
}
330
47
100
AcDbScale
 70
     0
300
10:1
140
10.0
141
1.0
290
     0
  0
SCALE
  5
58
102
{ACAD_REACTORS
330
47
102
}
330
47
100
AcDbScale
 70
     0
300
100:1
140
100.0
141
1.0
290
     0
  0
SCALE
  5
59
102
{ACAD_REACTORS
330
47
102
}
330
47
100
AcDbScale
 70
     0
300
1/128" = 1'-0"
140
0.0078125
141
12.0
290
     0
  0
SCALE
  5
5A
102
{ACAD_REACTORS
330
47
102
}
330
47
100
AcDbScale
 70
     0
300
1/64" = 1'-0"
140
0.015625
141
12.0
290
     0
  0
SCALE
  5
5B
102
{ACAD_REACTORS
330
47
102
}
330
47
100
AcDbScale
 70
     0
300
1/32" = 1'-0"
140
0.03125
141
12.0
290
     0
  0
SCALE
  5
5C
102
{ACAD_REACTORS
330
47
102
}
330
47
100
AcDbScale
 70
     0
300
1/16" = 1'-0"
140
0.0625
141
12.0
290
     0
  0
SCALE
  5
5D
102
{ACAD_REACTORS
330
47
102
}
330
47
100
AcDbScale
 70
     0
300
3/32" = 1'-0"
140
0.09375
141
12.0
290
     0
  0
SCALE
  5
5E
102
{ACAD_REACTORS
330
47
102
}
330
47
100
AcDbScale
 70
     0
300
1/8" = 1'-0"
140
0.125
141
12.0
290
     0
  0
SCALE
  5
5F
102
{ACAD_REACTORS
330
47
102
}
330
47
100
AcDbScale
 70
     0
300
3/16" = 1'-0"
140
0.1875
141
12.0
290
     0
  0
SCALE
  5
60
102
{ACAD_REACTORS
330
47
102
}
330
47
100
AcDbScale
 70
     0
300
1/4" = 1'-0"
140
0.25
141
12.0
290
     0
  0
SCALE
  5
61
102
{ACAD_REACTORS
330
47
102
}
330
47
100
AcDbScale
 70
     0
300
3/8" = 1'-0"
140
0.375
141
12.0
290
     0
  0
SCALE
  5
62
102
{ACAD_REACTORS
330
47
102
}
330
47
100
AcDbScale
 70
     0
300
1/2" = 1'-0"
140
0.5
141
12.0
290
     0
  0
SCALE
  5
63
102
{ACAD_REACTORS
330
47
102
}
330
47
100
AcDbScale
 70
     0
300
3/4" = 1'-0"
140
0.75
141
12.0
290
     0
  0
SCALE
  5
64
102
{ACAD_REACTORS
330
47
102
}
330
47
100
AcDbScale
 70
     0
300
1" = 1'-0"
140
1.0
141
12.0
290
     0
  0
SCALE
  5
65
102
{ACAD_REACTORS
330
47
102
}
330
47
100
AcDbScale
 70
     0
300
1-1/2" = 1'-0"
140
1.5
141
12.0
290
     0
  0
SCALE
  5
66
102
{ACAD_REACTORS
330
47
102
}
330
47
100
AcDbScale
 70
     0
300
3" = 1'-0"
140
3.0
141
12.0
290
     0
  0
SCALE
  5
67
102
{ACAD_REACTORS
330
47
102
}
330
47
100
AcDbScale
 70
     0
300
6" = 1'-0"
140
6.0
141
12.0
290
     0
  0
SCALE
  5
68
102
{ACAD_REACTORS
330
47
102
}
330
47
100
AcDbScale
 70
     0
300
1'-0" = 1'-0"
140
12.0
141
12.0
290
     0
  0
ENDSEC
  0
EOF
