  0
SECTION
  2
HEADER
  9
$ACADVER
  1
AC1015
  9
$ACADMAINTVER
 70
     6
  9
$DWGCODEPAGE
  3
ANSI_949
  9
$INSBASE
 10
0.0
 20
0.0
 30
0.0
  9
$EXTMIN
 10
-48.61880621326757
 20
-49.97180738881174
 30
0.0
  9
$EXTMAX
 10
37.06679689981677
 20
24.76413260158165
 30
0.0
  9
$LIMMIN
 10
0.0
 20
0.0
  9
$LIMMAX
 10
420.0
 20
297.0
  9
$ORTHOMODE
 70
     0
  9
$REGENMODE
 70
     1
  9
$FILLMODE
 70
     1
  9
$QTEXTMODE
 70
     0
  9
$MIRRTEXT
 70
     1
  9
$LTSCALE
 40
1.0
  9
$ATTMODE
 70
     1
  9
$TEXTSIZE
 40
3.5
  9
$TRACEWID
 40
1.0
  9
$TEXTSTYLE
  7
Standard
  9
$CLAYER
  8
0
  9
$CELTYPE
  6
ByLayer
  9
$CECOLOR
 62
   256
  9
$CELTSCALE
 40
1.0
  9
$DISPSILH
 70
     0
  9
$DIMSCALE
 40
1.0
  9
$DIMASZ
 40
3.302
  9
$DIMEXO
 40
1.0
  9
$DIMDLI
 40
3.75
  9
$DIMRND
 40
0.0
  9
$DIMDLE
 40
0.0
  9
$DIMEXE
 40
1.0
  9
$DIMTP
 40
0.0
  9
$DIMTM
 40
0.0
  9
$DIMTXT
 40
3.5
  9
$DIMCEN
 40
2.5
  9
$DIMTSZ
 40
0.0
  9
$DIMTOL
 70
     0
  9
$DIMLIM
 70
     0
  9
$DIMTIH
 70
     1
  9
$DIMTOH
 70
     1
  9
$DIMSE1
 70
     0
  9
$DIMSE2
 70
     0
  9
$DIMTAD
 70
     1
  9
$DIMZIN
 70
     0
  9
$DIMBLK
  1

  9
$DIMASO
 70
     1
  9
$DIMSHO
 70
     1
  9
$DIMPOST
  1

  9
$DIMAPOST
  1

  9
$DIMALT
 70
     0
  9
$DIMALTD
 70
     3
  9
$DIMALTF
 40
0.0393700787401575
  9
$DIMLFAC
 40
1.0
  9
$DIMTOFL
 70
     1
  9
$DIMTVP
 40
0.0
  9
$DIMTIX
 70
     0
  9
$DIMSOXD
 70
     0
  9
$DIMSAH
 70
     0
  9
$DIMBLK1
  1

  9
$DIMBLK2
  1

  9
$DIMSTYLE
  2
ISO-25
  9
$DIMCLRD
 70
     0
  9
$DIMCLRE
 70
     0
  9
$DIMCLRT
 70
     0
  9
$DIMTFAC
 40
1.0
  9
$DIMGAP
 40
1.524
  9
$DIMJUST
 70
     0
  9
$DIMSD1
 70
     0
  9
$DIMSD2
 70
     0
  9
$DIMTOLJ
 70
     0
  9
$DIMTZIN
 70
     0
  9
$DIMALTZ
 70
     0
  9
$DIMALTTZ
 70
     0
  9
$DIMUPT
 70
     0
  9
$DIMDEC
 70
     2
  9
$DIMTDEC
 70
     2
  9
$DIMALTU
 70
     2
  9
$DIMALTTD
 70
     3
  9
$DIMTXSTY
  7
Standard
  9
$DIMAUNIT
 70
     0
  9
$DIMADEC
 70
     2
  9
$DIMALTRND
 40
0.0
  9
$DIMAZIN
 70
     0
  9
$DIMDSEP
 70
    44
  9
$DIMATFIT
 70
     3
  9
$DIMFRAC
 70
     0
  9
$DIMLDRBLK
  1

  9
$DIMLUNIT
 70
     2
  9
$DIMLWD
 70
    -2
  9
$DIMLWE
 70
    -2
  9
$DIMTMOVE
 70
     0
  9
$LUNITS
 70
     2
  9
$LUPREC
 70
     2
  9
$SKETCHINC
 40
1.0
  9
$FILLETRAD
 40
10.0
  9
$AUNITS
 70
     0
  9
$AUPREC
 70
     2
  9
$MENU
  1
.
  9
$ELEVATION
 40
0.0
  9
$PELEVATION
 40
0.0
  9
$THICKNESS
 40
0.0
  9
$LIMCHECK
 70
     0
  9
$CHAMFERA
 40
0.0
  9
$CHAMFERB
 40
0.0
  9
$CHAMFERC
 40
0.0
  9
$CHAMFERD
 40
0.0
  9
$SKPOLY
 70
     0
  9
$TDCREATE
 40
2458260.568328484
  9
$TDUCREATE
 40
2458260.193328484
  9
$TDUPDATE
 40
2458268.477189873
  9
$TDUUPDATE
 40
2458268.102189873
  9
$TDINDWG
 40
0.0007895718
  9
$TDUSRTIMER
 40
2458268.101400336
  9
$USRTIMER
 70
     1
  9
$ANGBASE
 50
0.0
  9
$ANGDIR
 70
     0
  9
$PDMODE
 70
     0
  9
$PDSIZE
 40
-1.0
  9
$PLINEWID
 40
0.0
  9
$SPLFRAME
 70
     0
  9
$SPLINETYPE
 70
     6
  9
$SPLINESEGS
 70
     8
  9
$HANDSEED
  5
15C
  9
$SURFTAB1
 70
     6
  9
$SURFTAB2
 70
     6
  9
$SURFTYPE
 70
     6
  9
$SURFU
 70
     6
  9
$SURFV
 70
     6
  9
$UCSBASE
  2

  9
$UCSNAME
  2

  9
$UCSORG
 10
0.0
 20
0.0
 30
0.0
  9
$UCSXDIR
 10
1.0
 20
0.0
 30
0.0
  9
$UCSYDIR
 10
0.0
 20
1.0
 30
0.0
  9
$UCSORTHOREF
  2

  9
$UCSORTHOVIEW
 70
     0
  9
$UCSORGTOP
 10
0.0
 20
0.0
 30
0.0
  9
$UCSORGBOTTOM
 10
0.0
 20
0.0
 30
0.0
  9
$UCSORGLEFT
 10
0.0
 20
0.0
 30
0.0
  9
$UCSORGRIGHT
 10
0.0
 20
0.0
 30
0.0
  9
$UCSORGFRONT
 10
0.0
 20
0.0
 30
0.0
  9
$UCSORGBACK
 10
0.0
 20
0.0
 30
0.0
  9
$PUCSBASE
  2

  9
$PUCSNAME
  2

  9
$PUCSORG
 10
0.0
 20
0.0
 30
0.0
  9
$PUCSXDIR
 10
1.0
 20
0.0
 30
0.0
  9
$PUCSYDIR
 10
0.0
 20
1.0
 30
0.0
  9
$PUCSORTHOREF
  2

  9
$PUCSORTHOVIEW
 70
     0
  9
$PUCSORGTOP
 10
0.0
 20
0.0
 30
0.0
  9
$PUCSORGBOTTOM
 10
0.0
 20
0.0
 30
0.0
  9
$PUCSORGLEFT
 10
0.0
 20
0.0
 30
0.0
  9
$PUCSORGRIGHT
 10
0.0
 20
0.0
 30
0.0
  9
$PUCSORGFRONT
 10
0.0
 20
0.0
 30
0.0
  9
$PUCSORGBACK
 10
0.0
 20
0.0
 30
0.0
  9
$USERI1
 70
     0
  9
$USERI2
 70
     0
  9
$USERI3
 70
     0
  9
$USERI4
 70
     0
  9
$USERI5
 70
     0
  9
$USERR1
 40
0.0
  9
$USERR2
 40
0.0
  9
$USERR3
 40
0.0
  9
$USERR4
 40
0.0
  9
$USERR5
 40
0.0
  9
$WORLDVIEW
 70
     1
  9
$SHADEDGE
 70
     3
  9
$SHADEDIF
 70
    70
  9
$TILEMODE
 70
     1
  9
$MAXACTVP
 70
    64
  9
$PINSBASE
 10
0.0
 20
0.0
 30
0.0
  9
$PLIMCHECK
 70
     0
  9
$PEXTMIN
 10
1.000000000000000E+20
 20
1.000000000000000E+20
 30
1.000000000000000E+20
  9
$PEXTMAX
 10
-1.000000000000000E+20
 20
-1.000000000000000E+20
 30
-1.000000000000000E+20
  9
$PLIMMIN
 10
0.0
 20
0.0
  9
$PLIMMAX
 10
0.0
 20
0.0
  9
$UNITMODE
 70
     0
  9
$VISRETAIN
 70
     1
  9
$PLINEGEN
 70
     0
  9
$PSLTSCALE
 70
     1
  9
$TREEDEPTH
 70
  3020
  9
$CMLSTYLE
  2
Standard
  9
$CMLJUST
 70
     0
  9
$CMLSCALE
 40
20.0
  9
$PROXYGRAPHICS
 70
     1
  9
$MEASUREMENT
 70
     1
  9
$CELWEIGHT
370
    -1
  9
$ENDCAPS
280
     0
  9
$JOINSTYLE
280
     0
  9
$LWDISPLAY
290
     1
  9
$INSUNITS
 70
     4
  9
$HYPERLINKBASE
  1

  9
$STYLESHEET
  1

  9
$XEDIT
290
     1
  9
$CEPSNTYPE
380
     0
  9
$PSTYLEMODE
290
     1
  9
$FINGERPRINTGUID
  2
{6B62CDE6-4095-4A0C-8CF5-D3C55624B607}
  9
$VERSIONGUID
  2
{FAEB1C32-E019-11D5-929B-00C0DF256EC4}
  9
$EXTNAMES
290
     1
  9
$PSVPSCALE
 40
0.0
  9
$OLESTARTUP
290
     0
  0
ENDSEC
  0
SECTION
  2
CLASSES
  0
CLASS
  1
ACDBDICTIONARYWDFLT
  2
AcDbDictionaryWithDefault
  3
ObjectDBX Classes
 90
        0
280
     0
281
     0
  0
CLASS
  1
VISUALSTYLE
  2
AcDbVisualStyle
  3
ObjectDBX Classes
 90
     4095
280
     0
281
     0
  0
CLASS
  1
MATERIAL
  2
AcDbMaterial
  3
ObjectDBX Classes
 90
     1153
280
     0
281
     0
  0
CLASS
  1
SCALE
  2
AcDbScale
  3
ObjectDBX Classes
 90
     1153
280
     0
281
     0
  0
CLASS
  1
TABLESTYLE
  2
AcDbTableStyle
  3
ObjectDBX Classes
 90
     4095
280
     0
281
     0
  0
CLASS
  1
MLEADERSTYLE
  2
AcDbMLeaderStyle
  3
ACDB_MLEADERSTYLE_CLASS
 90
     4095
280
     0
281
     0
  0
CLASS
  1
SUN
  2
AcDbSun
  3
SCENEOE
 90
     1153
280
     0
281
     0
  0
CLASS
  1
ACDBPLACEHOLDER
  2
AcDbPlaceHolder
  3
ObjectDBX Classes
 90
        0
280
     0
281
     0
  0
CLASS
  1
LAYOUT
  2
AcDbLayout
  3
ObjectDBX Classes
 90
        0
280
     0
281
     0
  0
CLASS
  1
RASTERVARIABLES
  2
AcDbRasterVariables
  3
ISM
 90
        0
280
     0
281
     0
  0
ENDSEC
  0
SECTION
  2
TABLES
  0
TABLE
  2
VPORT
  5
8
330
0
100
AcDbSymbolTable
 70
     1
  0
VPORT
  5
29
330
8
100
AcDbSymbolTableRecord
100
AcDbViewportTableRecord
  2
*Active
 70
     0
 10
0.0
 20
0.0
 11
1.0
 21
1.0
 12
-5.776004656725398
 22
-12.60383739361504
 13
0.0
 23
0.0
 14
10.0
 24
10.0
 15
10.0
 25
10.0
 16
0.0
 26
0.0
 36
1.0
 17
0.0
 27
0.0
 37
0.0
 40
76.23065879020126
 41
1.737726098191214
 42
50.0
 43
0.0
 44
0.0
 50
0.0
 51
0.0
 71
    16
 72
  2000
 73
     1
 74
     3
 75
     0
 76
     0
 77
     0
 78
     0
281
     0
 65
     1
110
0.0
120
0.0
130
0.0
111
1.0
121
0.0
131
0.0
112
0.0
122
1.0
132
0.0
 79
     0
146
0.0
  0
ENDTAB
  0
TABLE
  2
LTYPE
  5
5
330
0
100
AcDbSymbolTable
 70
     6
  0
LTYPE
  5
14
330
5
100
AcDbSymbolTableRecord
100
AcDbLinetypeTableRecord
  2
ByBlock
 70
     0
  3

 72
    65
 73
     0
 40
0.0
  0
LTYPE
  5
15
330
5
100
AcDbSymbolTableRecord
100
AcDbLinetypeTableRecord
  2
ByLayer
 70
     0
  3

 72
    65
 73
     0
 40
0.0
  0
LTYPE
  5
16
330
5
100
AcDbSymbolTableRecord
100
AcDbLinetypeTableRecord
  2
Continuous
 70
     0
  3
Solid line
 72
    65
 73
     0
 40
0.0
  0
LTYPE
  5
6E
330
5
100
AcDbSymbolTableRecord
100
AcDbLinetypeTableRecord
  2
HIDDEN
 70
     0
  3
Hidden __ __ __ __ __ __ __ __ __ __ __ __ __ __
 72
    65
 73
     2
 40
1.905
 49
1.27
 74
     0
 49
-0.635
 74
     0
  0
LTYPE
  5
6F
330
5
100
AcDbSymbolTableRecord
100
AcDbLinetypeTableRecord
  2
PHANTOM
 70
     0
  3
Phantom ______  __  __  ______  __  __  ______
 72
    65
 73
     6
 40
12.7
 49
6.35
 74
     0
 49
-1.27
 74
     0
 49
1.27
 74
     0
 49
-1.27
 74
     0
 49
1.27
 74
     0
 49
-1.27
 74
     0
  0
LTYPE
  5
70
330
5
100
AcDbSymbolTableRecord
100
AcDbLinetypeTableRecord
  2
CENTER
 70
     0
  3
Center ____ _ ____ _ ____ _ ____ _ ____ _ ____
 72
    65
 73
     4
 40
10.16
 49
6.35
 74
     0
 49
-1.27
 74
     0
 49
1.27
 74
     0
 49
-1.27
 74
     0
  0
LTYPE
  5
71
330
5
100
AcDbSymbolTableRecord
100
AcDbLinetypeTableRecord
  2
CENTERX2
 70
     0
  3
Center (2x) ________  __  ________  __  _____
 72
    65
 73
     4
 40
20.32
 49
12.7
 74
     0
 49
-2.54
 74
     0
 49
2.54
 74
     0
 49
-2.54
 74
     0
  0
LTYPE
  5
72
330
5
100
AcDbSymbolTableRecord
100
AcDbLinetypeTableRecord
  2
DOT2
 70
     0
  3
Dot (.5x) ........................................
 72
    65
 73
     2
 40
0.635
 49
0.0
 74
     0
 49
-0.635
 74
     0
  0
ENDTAB
  0
TABLE
  2
LAYER
  5
2
330
0
100
AcDbSymbolTable
 70
    17
  0
LAYER
  5
10
330
2
100
AcDbSymbolTableRecord
100
AcDbLayerTableRecord
  2
0
 70
     0
 62
     7
  6
Continuous
370
    -3
390
F
  0
LAYER
  5
73
330
2
100
AcDbSymbolTableRecord
100
AcDbLayerTableRecord
  2
FORMAT
 70
     0
 62
     2
  6
Continuous
370
    -3
390
F
  0
LAYER
  5
74
330
2
100
AcDbSymbolTableRecord
100
AcDbLayerTableRecord
  2
외형선
 70
     0
 62
   100
  6
Continuous
370
    35
390
F
  0
LAYER
  5
75
330
2
100
AcDbSymbolTableRecord
100
AcDbLayerTableRecord
  2
숨은선
 70
     0
 62
     2
  6
HIDDEN
370
    25
390
F
  0
LAYER
  5
76
330
2
100
AcDbSymbolTableRecord
100
AcDbLayerTableRecord
  2
중심선
 70
     0
 62
     1
  6
CENTERX2
370
    -3
390
F
  0
LAYER
  5
77
330
2
100
AcDbSymbolTableRecord
100
AcDbLayerTableRecord
  2
파단선
 70
     0
 62
     4
  6
Continuous
370
    -3
390
F
  0
LAYER
  5
78
330
2
100
AcDbSymbolTableRecord
100
AcDbLayerTableRecord
  2
해칭선
 70
     0
 62
   100
  6
Continuous
370
    -3
390
F
  0
LAYER
  5
79
330
2
100
AcDbSymbolTableRecord
100
AcDbLayerTableRecord
  2
가는실선
 70
     0
 62
     4
  6
Continuous
370
    -3
390
F
  0
LAYER
  5
7A
330
2
100
AcDbSymbolTableRecord
100
AcDbLayerTableRecord
  2
치수_보조선
 70
     0
 62
     4
  6
Continuous
370
    -3
390
F
  0
LAYER
  5
7B
330
2
100
AcDbSymbolTableRecord
100
AcDbLayerTableRecord
  2
치수문자_일반주서
 70
     0
 62
     7
  6
Continuous
370
    25
390
F
  0
LAYER
  5
7C
330
2
100
AcDbSymbolTableRecord
100
AcDbLayerTableRecord
  2
개별주서
 70
     0
 62
   100
  6
Continuous
370
    35
390
F
  0
LAYER
  5
7D
330
2
100
AcDbSymbolTableRecord
100
AcDbLayerTableRecord
  2
중간선
 70
     0
 62
     2
  6
Continuous
370
    25
390
F
  0
LAYER
  5
7E
330
2
100
AcDbSymbolTableRecord
100
AcDbLayerTableRecord
  2
윤곽선
 70
     0
 62
     3
  6
Continuous
370
    50
390
F
  0
LAYER
  5
7F
330
2
100
AcDbSymbolTableRecord
100
AcDbLayerTableRecord
  2
중심마크
 70
     0
 62
   100
  6
Continuous
370
    35
390
F
  0
LAYER
  5
80
330
2
100
AcDbSymbolTableRecord
100
AcDbLayerTableRecord
  2
가상선
 70
     0
 62
     4
  6
PHANTOM
370
    -3
390
F
  0
LAYER
  5
81
330
2
100
AcDbSymbolTableRecord
100
AcDbLayerTableRecord
  2
특수지정선
 70
     0
 62
     5
  6
CENTERX2
370
    70
390
F
  0
LAYER
  5
14E
330
2
100
AcDbSymbolTableRecord
100
AcDbLayerTableRecord
  2
Defpoints
 70
     0
 62
     7
  6
Continuous
290
     0
370
    -3
390
F
  0
ENDTAB
  0
TABLE
  2
STYLE
  5
3
330
0
100
AcDbSymbolTable
 70
     2
  0
STYLE
  5
11
330
3
100
AcDbSymbolTableRecord
100
AcDbTextStyleTableRecord
  2
Standard
 70
     0
 40
0.0
 41
1.0
 50
0.0
 71
     0
 42
3.5
  3
txt
  4

  0
STYLE
  5
97
330
3
100
AcDbSymbolTableRecord
100
AcDbTextStyleTableRecord
  2
SLDTEXTSTYLE0
 70
     0
 40
0.0
 41
0.75
 50
0.0
 71
     0
 42
3.5
  3
TXT
  4

  0
ENDTAB
  0
TABLE
  2
VIEW
  5
6
330
0
100
AcDbSymbolTable
 70
     0
  0
ENDTAB
  0
TABLE
  2
UCS
  5
7
330
0
100
AcDbSymbolTable
 70
     0
  0
ENDTAB
  0
TABLE
  2
APPID
  5
9
330
0
100
AcDbSymbolTable
 70
     1
  0
APPID
  5
12
330
9
100
AcDbSymbolTableRecord
100
AcDbRegAppTableRecord
  2
ACAD
 70
     0
  0
ENDTAB
  0
TABLE
  2
DIMSTYLE
  5
A
330
0
100
AcDbSymbolTable
 70
     4
100
AcDbDimStyleTable
  0
DIMSTYLE
105
27
330
A
100
AcDbSymbolTableRecord
100
AcDbDimStyleTableRecord
  2
ISO-25
 70
     0
 41
2.5
 42
0.625
 43
3.75
 44
1.25
 73
     0
 74
     0
 77
     1
 78
     8
140
2.5
141
2.5
143
0.03937007874016
147
0.625
171
     3
172
     1
178
     0
271
     2
272
     2
274
     3
278
    44
283
     0
284
     8
340
11
  0
DIMSTYLE
105
F1
102
{ACAD_REACTORS
330
F0
102
}
330
A
100
AcDbSymbolTableRecord
100
AcDbDimStyleTableRecord
  2
SLDDIMSTYLE0
 70
     0
 41
3.302
 44
0.0
 45
0.000000001
 73
     0
 74
     0
 77
     1
 78
    12
 79
     3
140
3.5
147
0.875
172
     1
173
     1
178
     0
271
     1
272
     1
276
     2
284
    12
289
     0
340
97
  0
DIMSTYLE
105
FF
102
{ACAD_REACTORS
330
FE
102
}
330
A
100
AcDbSymbolTableRecord
100
AcDbDimStyleTableRecord
  2
SLDDIMSTYLE1
 70
     0
 41
3.302
 44
0.0
 45
0.000000001
 73
     0
 74
     0
 77
     1
 78
    12
 79
     3
140
3.5
147
0.875
173
     1
178
     0
271
     2
272
     2
276
     2
284
    12
340
97
  0
DIMSTYLE
105
10A
102
{ACAD_REACTORS
330
109
330
117
102
}
330
A
100
AcDbSymbolTableRecord
100
AcDbDimStyleTableRecord
  2
SLDDIMSTYLE2
 70
     0
 41
3.302
 44
0.0
 45
0.000000001
 73
     0
 74
     0
 77
     1
 78
    12
 79
     3
140
3.5
147
0.875
172
     1
173
     1
178
     0
271
     2
272
     2
276
     2
284
    12
289
     0
340
97
  0
ENDTAB
  0
TABLE
  2
BLOCK_RECORD
  5
1
330
0
100
AcDbSymbolTable
 70
     7
  0
BLOCK_RECORD
  5
1F
330
1
100
AcDbSymbolTableRecord
100
AcDbBlockTableRecord
  2
*Model_Space
340
22
  0
BLOCK_RECORD
  5
1B
330
1
100
AcDbSymbolTableRecord
100
AcDbBlockTableRecord
  2
*Paper_Space
340
1E
  0
BLOCK_RECORD
  5
23
330
1
100
AcDbSymbolTableRecord
100
AcDbBlockTableRecord
  2
*Paper_Space0
340
26
  0
BLOCK_RECORD
  5
82
330
1
100
AcDbSymbolTableRecord
100
AcDbBlockTableRecord
  2
블럭10
340
0
102
{BLKREFS
331
E9
102
}
  0
BLOCK_RECORD
  5
F2
330
1
100
AcDbSymbolTableRecord
100
AcDbBlockTableRecord
  2
_D
340
0
  0
BLOCK_RECORD
  5
100
330
1
100
AcDbSymbolTableRecord
100
AcDbBlockTableRecord
  2
_D_1
340
0
  0
BLOCK_RECORD
  5
10B
330
1
100
AcDbSymbolTableRecord
100
AcDbBlockTableRecord
  2
_D_2
340
0
  0
BLOCK_RECORD
  5
118
330
1
100
AcDbSymbolTableRecord
100
AcDbBlockTableRecord
  2
_D_3
340
0
  0
BLOCK_RECORD
  5
123
330
1
100
AcDbSymbolTableRecord
100
AcDbBlockTableRecord
  2
SW_DOWELSYMBOL_0
340
0
102
{BLKREFS
331
129
102
}
  0
ENDTAB
  0
ENDSEC
  0
SECTION
  2
BLOCKS
  0
BLOCK
  5
20
330
1F
100
AcDbEntity
  8
0
100
AcDbBlockBegin
  2
*Model_Space
 70
     0
 10
0.0
 20
0.0
 30
0.0
  3
*Model_Space
  1

  0
ENDBLK
  5
21
330
1F
100
AcDbEntity
  8
0
100
AcDbBlockEnd
  0
BLOCK
  5
1C
330
1B
100
AcDbEntity
 67
     1
  8
0
100
AcDbBlockBegin
  2
*Paper_Space
 70
     0
 10
0.0
 20
0.0
 30
0.0
  3
*Paper_Space
  1

  0
ENDBLK
  5
1D
330
1B
100
AcDbEntity
 67
     1
  8
0
100
AcDbBlockEnd
  0
BLOCK
  5
24
330
23
100
AcDbEntity
  8
0
100
AcDbBlockBegin
  2
*Paper_Space0
 70
     0
 10
0.0
 20
0.0
 30
0.0
  3
*Paper_Space0
  1

  0
ENDBLK
  5
25
330
23
100
AcDbEntity
  8
0
100
AcDbBlockEnd
  0
BLOCK
  5
83
330
82
100
AcDbEntity
  8
0
100
AcDbBlockBegin
  2
블럭10
 70
     2
 10
0.0
 20
0.0
 30
0.0
  3
블럭10
  1

  0
ELLIPSE
  5
85
330
82
100
AcDbEntity
  8
중심선
100
AcDbEllipse
 10
20.54032771741204
 20
12.0471743016438
 30
0.0
 11
6.600054785286829
 21
-1.261213355974178E-13
 31
0.0
210
0.0
220
0.0
230
1.0
 40
0.636358354079598
 41
0.9219305317359503
 42
6.513795318482858
  0
ELLIPSE
  5
86
330
82
100
AcDbEntity
  8
중심선
100
AcDbEllipse
 10
20.54032771746488
 20
12.04717430159265
 30
0.0
 11
3.960054785062283
 21
1.540847449632565E-10
 31
0.0
210
0.0
220
0.0
230
1.0
 40
0.3939339440162632
 41
1.131841032648279
 42
5.62031148352944
  0
LINE
  5
87
330
82
100
AcDbEntity
  8
중심선
100
AcDbLine
 10
2.268634060543552
 20
16.24717430164393
 30
0.0
 11
5.714909304380834
 21
16.24717430164393
 31
0.0
  0
LINE
  5
88
330
82
100
AcDbEntity
  8
중심선
100
AcDbLine
 10
5.245725140726316
 20
7.84717430164391
 30
0.0
 11
8.692000384563599
 21
7.84717430164391
 31
0.0
  0
LINE
  5
89
330
82
100
AcDbEntity
  8
중심선
100
AcDbLine
 10
15.74043728645272
 20
16.24717430164393
 30
0.0
 11
8.692000384563599
 21
7.84717430164391
 31
0.0
  0
LINE
  5
8A
330
82
100
AcDbEntity
  8
중심선
100
AcDbLine
 10
0.1404042013395286
 20
13.71084872107135
 30
0.0
 11
3.58671253028996
 21
13.71088815037384
 31
0.0
  0
LINE
  5
8B
330
82
100
AcDbEntity
  8
중심선
100
AcDbLine
 10
2.750260043222114
 20
10.84717430164391
 30
0.0
 11
6.196535287059397
 21
10.84717430164391
 31
0.0
  0
LINE
  5
8C
330
82
100
AcDbEntity
  8
중심선
100
AcDbLine
 10
12.29416204261559
 20
16.24717430164393
 30
0.0
 11
5.245725140726316
 21
7.84717430164391
 31
0.0
  0
LINE
  5
8D
330
82
100
AcDbEntity
  8
중심선
100
AcDbLine
 10
10.72767329541681
 20
16.24717430164393
 30
0.0
 11
6.196535287059397
 21
10.84717430164391
 31
0.0
  0
LINE
  5
8E
330
82
100
AcDbEntity
  8
중심선
100
AcDbLine
 10
7.28139805157953
 20
16.24717430164393
 30
0.0
 11
2.750260043222114
 21
10.84717430164391
 31
0.0
  0
LINE
  5
8F
330
82
100
AcDbEntity
  8
중심선
100
AcDbLine
 10
5.714909304380834
 20
16.24717430164393
 30
0.0
 11
3.58671253028996
 21
13.71088815037384
 31
0.0
  0
LINE
  5
90
330
82
100
AcDbEntity
  8
중심선
100
AcDbLine
 10
2.268634060543552
 20
16.24717430164393
 30
0.0
 11
0.1404042013395286
 21
13.71084872107135
 31
0.0
  0
LINE
  5
91
330
82
100
AcDbEntity
  8
중심선
100
AcDbLine
 10
7.28139805157953
 20
16.24717430164393
 30
0.0
 11
10.72767329541681
 21
16.24717430164393
 31
0.0
  0
LINE
  5
92
330
82
100
AcDbEntity
  8
중심선
100
AcDbLine
 10
12.29416204261559
 20
16.24717430164393
 30
0.0
 11
15.74043728645272
 21
16.24717430164393
 31
0.0
  0
LINE
  5
93
330
82
100
AcDbEntity
  8
중심선
100
AcDbLine
 10
19.22036997980202
 20
11.08717430171403
 30
0.0
 11
23.66174974927406
 21
11.08717430171406
 31
0.0
  0
LINE
  5
94
330
82
100
AcDbEntity
  8
중심선
100
AcDbLine
 10
19.22039502424796
 20
13.00717430171391
 30
0.0
 11
19.22036997980202
 21
11.08717430171403
 31
0.0
  0
LINE
  5
95
330
82
100
AcDbEntity
  8
중심선
100
AcDbLine
 10
19.22039502424796
 20
13.00717430171391
 30
0.0
 11
26.96566020931264
 21
13.00717430171391
 31
0.0
  0
LINE
  5
96
330
82
100
AcDbEntity
  8
중심선
100
AcDbLine
 10
22.22332737316547
 20
13.45928029700563
 30
0.0
 11
24.52862924686651
 21
15.39360700705356
 31
0.0
  0
ATTDEF
  5
98
330
82
100
AcDbEntity
  8
FORMAT
 62
     2
100
AcDbText
 10
-16.11926103943555
 20
2.075366912832191
 30
0.0
 40
4.233333333333333
  1
SEME7202014E [ 4 FLUTE ]
 41
0.75
  7
SLDTEXTSTYLE0
 11
-16.11926103943555
 21
-0.0412997538344756
 31
0.0
100
AcDbAttributeDefinition
  3

  2
AUTOATTR0
 70
     0
 74
     1
  0
ENDBLK
  5
84
330
82
100
AcDbEntity
  8
0
100
AcDbBlockEnd
  0
BLOCK
  5
F3
330
F2
100
AcDbEntity
  8
0
100
AcDbBlockBegin
  2
_D
 70
     0
 10
0.0
 20
0.0
 30
0.0
  3
_D
  1

  0
LINE
  5
F5
330
F2
100
AcDbEntity
  8
치수문자_일반주서
 62
     0
370
    -2
100
AcDbLine
 10
24.52660161513776
 20
-1.000000000000006
 30
0.0
 11
36.51646356648341
 21
-0.9999999999999609
 31
0.0
  0
LINE
  5
F6
330
F2
100
AcDbEntity
  8
치수문자_일반주서
 62
     0
370
    -2
100
AcDbLine
 10
24.52660161513776
 20
1.000000000000005
 30
0.0
 11
36.5164635664834
 21
1.00000000000005
 31
0.0
  0
LINE
  5
F7
330
F2
100
AcDbEntity
  8
치수문자_일반주서
 62
     0
370
    -2
100
AcDbLine
 10
36.51646356648341
 20
-0.9999999999999609
 30
0.0
 11
36.51646356648335
 21
13.72900000000005
 31
0.0
  0
LINE
  5
F8
330
F2
100
AcDbEntity
  8
치수문자_일반주서
 62
     0
370
    -2
100
AcDbLine
 10
36.51646356648341
 20
-0.9999999999999609
 30
0.0
 11
36.5164635664834
 21
1.00000000000005
 31
0.0
  0
LINE
  5
F9
330
F2
100
AcDbEntity
  8
치수문자_일반주서
 62
     0
370
    -2
100
AcDbLine
 10
36.51646356648342
 20
-4.301999999999961
 30
0.0
 11
36.51646356648344
 21
-7.60399999999996
 31
0.0
  0
LINE
  5
FA
330
F2
100
AcDbEntity
  8
치수문자_일반주서
 62
     0
370
    -2
100
AcDbLine
 10
36.51646356648339
 20
4.302000000000049
 30
0.0
 11
36.51646356648337
 21
7.604000000000049
 31
0.0
  0
SOLID
  5
FB
330
F2
100
AcDbEntity
  8
치수문자_일반주서
 62
     0
100
AcDbTrace
 10
37.06679689981676
 20
-4.301999999999959
 30
0.0
 11
35.96613023315009
 21
-4.301999999999962
 31
0.0
 12
36.51646356648341
 22
-0.9999999999999609
 32
0.0
 13
36.51646356648341
 23
-0.9999999999999609
 33
0.0
  0
SOLID
  5
FC
330
F2
100
AcDbEntity
  8
치수문자_일반주서
 62
     0
100
AcDbTrace
 10
35.96613023315005
 20
4.302000000000048
 30
0.0
 11
37.06679689981672
 21
4.302000000000051
 31
0.0
 12
36.5164635664834
 22
1.00000000000005
 32
0.0
 13
36.5164635664834
 23
1.00000000000005
 33
0.0
  0
MTEXT
  5
FD
330
F2
100
AcDbEntity
  8
치수문자_일반주서
 62
     0
100
AcDbMText
 10
32.14146356648337
 20
10.66650000000003
 30
0.0
 40
3.5
 41
0.0
 71
     2
 72
     1
  1
\A1;%%c2
  7
SLDTEXTSTYLE0
 11
-3.552713678800481E-15
 21
1.0
 31
0.0
 73
     1
 44
1.0
  0
POINT
  5
156
330
F2
100
AcDbEntity
  8
Defpoints
 62
     0
100
AcDbPoint
 10
24.46410161513776
 20
-1.000000000000006
 30
0.0
  0
POINT
  5
157
330
F2
100
AcDbEntity
  8
Defpoints
 62
     0
100
AcDbPoint
 10
24.46410161513776
 20
1.000000000000005
 30
0.0
  0
POINT
  5
158
330
F2
100
AcDbEntity
  8
Defpoints
 62
     0
100
AcDbPoint
 10
36.5164635664834
 20
1.00000000000005
 30
0.0
  0
ENDBLK
  5
F4
330
F2
100
AcDbEntity
  8
0
100
AcDbBlockEnd
  0
BLOCK
  5
101
330
100
100
AcDbEntity
  8
0
100
AcDbBlockBegin
  2
_D_1
 70
     0
 10
0.0
 20
0.0
 30
0.0
  3
_D_1
  1

  0
LINE
  5
103
330
100
100
AcDbEntity
  8
치수문자_일반주서
 62
     0
370
    -2
100
AcDbLine
 10
-35.53589838486226
 20
2.562499999999995
 30
0.0
 11
-35.53589838486226
 21
20.38913260158165
 31
0.0
  0
LINE
  5
104
330
100
100
AcDbEntity
  8
치수문자_일반주서
 62
     0
370
    -2
100
AcDbLine
 10
24.46410161513774
 20
1.062500000000002
 30
0.0
 11
24.46410161513774
 21
20.38913260158165
 31
0.0
  0
LINE
  5
105
330
100
100
AcDbEntity
  8
치수문자_일반주서
 62
     0
370
    -2
100
AcDbLine
 10
-32.23389838486226
 20
20.38913260158165
 30
0.0
 11
21.16210161513774
 21
20.38913260158165
 31
0.0
  0
SOLID
  5
106
330
100
100
AcDbEntity
  8
치수문자_일반주서
 62
     0
100
AcDbTrace
 10
-32.23389838486226
 20
20.93946593491498
 30
0.0
 11
-32.23389838486226
 21
19.83879926824831
 31
0.0
 12
-35.53589838486226
 22
20.38913260158165
 32
0.0
 13
-35.53589838486226
 23
20.38913260158165
 33
0.0
  0
SOLID
  5
107
330
100
100
AcDbEntity
  8
치수문자_일반주서
 62
     0
100
AcDbTrace
 10
21.16210161513774
 20
19.83879926824831
 30
0.0
 11
21.16210161513774
 21
20.93946593491498
 31
0.0
 12
24.46410161513774
 22
20.38913260158165
 32
0.0
 13
24.46410161513774
 23
20.38913260158165
 33
0.0
  0
MTEXT
  5
108
330
100
100
AcDbEntity
  8
치수문자_일반주서
 62
     0
100
AcDbMText
 10
-5.535898384862261
 20
24.76413260158165
 30
0.0
 40
3.5
 41
0.0
 71
     2
 72
     1
  1
\A1;60
  7
SLDTEXTSTYLE0
 73
     1
 44
1.0
  0
POINT
  5
14F
330
100
100
AcDbEntity
  8
Defpoints
 62
     0
100
AcDbPoint
 10
-35.53589838486226
 20
2.499999999999995
 30
0.0
  0
POINT
  5
150
330
100
100
AcDbEntity
  8
Defpoints
 62
     0
100
AcDbPoint
 10
24.46410161513774
 20
1.000000000000002
 30
0.0
  0
POINT
  5
151
330
100
100
AcDbEntity
  8
Defpoints
 62
     0
100
AcDbPoint
 10
24.46410161513774
 20
20.38913260158165
 30
0.0
  0
ENDBLK
  5
102
330
100
100
AcDbEntity
  8
0
100
AcDbBlockEnd
  0
BLOCK
  5
10C
330
10B
100
AcDbEntity
  8
0
100
AcDbBlockBegin
  2
_D_2
 70
     0
 10
0.0
 20
0.0
 30
0.0
  3
_D_2
  1

  0
LINE
  5
10E
330
10B
100
AcDbEntity
  8
치수문자_일반주서
 62
     0
370
    -2
100
AcDbLine
 10
-35.09839838486225
 20
3.000000000000003
 30
0.0
 11
-44.24380621326753
 21
2.999999999999968
 31
0.0
  0
LINE
  5
10F
330
10B
100
AcDbEntity
  8
치수문자_일반주서
 62
     0
370
    -2
100
AcDbLine
 10
-35.09839838486225
 20
-3.000000000000003
 30
0.0
 11
-44.2438062132675
 21
-3.000000000000037
 31
0.0
  0
LINE
  5
110
330
10B
100
AcDbEntity
  8
치수문자_일반주서
 62
     0
370
    -2
100
AcDbLine
 10
-44.24380621326753
 20
2.999999999999968
 30
0.0
 11
-44.24380621326758
 21
15.72899999999997
 31
0.0
  0
LINE
  5
111
330
10B
100
AcDbEntity
  8
치수문자_일반주서
 62
     0
370
    -2
100
AcDbLine
 10
-44.24380621326753
 20
2.999999999999968
 30
0.0
 11
-44.2438062132675
 21
-3.000000000000037
 31
0.0
  0
LINE
  5
112
330
10B
100
AcDbEntity
  8
치수문자_일반주서
 62
     0
370
    -2
100
AcDbLine
 10
-44.24380621326754
 20
6.301999999999968
 30
0.0
 11
-44.24380621326755
 21
9.603999999999967
 31
0.0
  0
LINE
  5
113
330
10B
100
AcDbEntity
  8
치수문자_일반주서
 62
     0
370
    -2
100
AcDbLine
 10
-44.24380621326749
 20
-6.302000000000037
 30
0.0
 11
-44.24380621326748
 21
-9.604000000000037
 31
0.0
  0
SOLID
  5
114
330
10B
100
AcDbEntity
  8
치수문자_일반주서
 62
     0
100
AcDbTrace
 10
-44.79413954660087
 20
6.301999999999966
 30
0.0
 11
-43.69347287993421
 21
6.301999999999969
 31
0.0
 12
-44.24380621326753
 22
2.999999999999968
 32
0.0
 13
-44.24380621326753
 23
2.999999999999968
 33
0.0
  0
SOLID
  5
115
330
10B
100
AcDbEntity
  8
치수문자_일반주서
 62
     0
100
AcDbTrace
 10
-43.69347287993416
 20
-6.302000000000035
 30
0.0
 11
-44.79413954660082
 21
-6.302000000000039
 31
0.0
 12
-44.2438062132675
 22
-3.000000000000037
 32
0.0
 13
-44.2438062132675
 23
-3.000000000000037
 33
0.0
  0
MTEXT
  5
116
330
10B
100
AcDbEntity
  8
치수문자_일반주서
 62
     0
100
AcDbMText
 10
-48.61880621326756
 20
12.66649999999995
 30
0.0
 40
3.5
 41
0.0
 71
     2
 72
     1
  1
\A1;%%c6
  7
SLDTEXTSTYLE0
 11
-3.552713678800498E-15
 21
1.0
 31
0.0
 73
     1
 44
1.0
  0
POINT
  5
153
330
10B
100
AcDbEntity
  8
Defpoints
 62
     0
100
AcDbPoint
 10
-35.03589838486225
 20
3.000000000000003
 30
0.0
  0
POINT
  5
154
330
10B
100
AcDbEntity
  8
Defpoints
 62
     0
100
AcDbPoint
 10
-35.03589838486225
 20
-3.000000000000002
 30
0.0
  0
POINT
  5
155
330
10B
100
AcDbEntity
  8
Defpoints
 62
     0
100
AcDbPoint
 10
-44.24380621326749
 20
-3.000000000000036
 30
0.0
  0
ENDBLK
  5
10D
330
10B
100
AcDbEntity
  8
0
100
AcDbBlockEnd
  0
BLOCK
  5
119
330
118
100
AcDbEntity
  8
0
100
AcDbBlockBegin
  2
_D_3
 70
     0
 10
0.0
 20
0.0
 30
0.0
  3
_D_3
  1

  0
LINE
  5
11B
330
118
100
AcDbEntity
  8
치수문자_일반주서
 62
     0
370
    -2
100
AcDbLine
 10
10.46410161513774
 20
1.06248547110749
 30
0.0
 11
10.46410161513774
 21
11.84590377369514
 31
0.0
  0
LINE
  5
11C
330
118
100
AcDbEntity
  8
치수문자_일반주서
 62
     0
370
    -2
100
AcDbLine
 10
24.46410161513774
 20
1.062500000000002
 30
0.0
 11
24.46410161513774
 21
11.84590377369514
 31
0.0
  0
LINE
  5
11D
330
118
100
AcDbEntity
  8
치수문자_일반주서
 62
     0
370
    -2
100
AcDbLine
 10
13.76610161513774
 20
11.84590377369514
 30
0.0
 11
21.16210161513774
 21
11.84590377369514
 31
0.0
  0
SOLID
  5
11E
330
118
100
AcDbEntity
  8
치수문자_일반주서
 62
     0
100
AcDbTrace
 10
13.76610161513774
 20
12.39623710702847
 30
0.0
 11
13.76610161513774
 21
11.29557044036181
 31
0.0
 12
10.46410161513774
 22
11.84590377369514
 32
0.0
 13
10.46410161513774
 23
11.84590377369514
 33
0.0
  0
SOLID
  5
11F
330
118
100
AcDbEntity
  8
치수문자_일반주서
 62
     0
100
AcDbTrace
 10
21.16210161513774
 20
11.29557044036181
 30
0.0
 11
21.16210161513774
 21
12.39623710702847
 31
0.0
 12
24.46410161513774
 22
11.84590377369514
 32
0.0
 13
24.46410161513774
 23
11.84590377369514
 33
0.0
  0
MTEXT
  5
120
330
118
100
AcDbEntity
  8
치수문자_일반주서
 62
     0
100
AcDbMText
 10
17.46410161513774
 20
16.22090377369514
 30
0.0
 40
3.5
 41
0.0
 71
     2
 72
     1
  1
\A1;14
  7
SLDTEXTSTYLE0
 73
     1
 44
1.0
  0
POINT
  5
121
330
118
100
AcDbEntity
  8
Defpoints
 62
     0
100
AcDbPoint
 10
10.46410161513774
 20
0.9999854711074897
 30
0.0
  0
POINT
  5
122
330
118
100
AcDbEntity
  8
Defpoints
 62
     0
100
AcDbPoint
 10
24.46410161513774
 20
1.000000000000002
 30
0.0
  0
POINT
  5
152
330
118
100
AcDbEntity
  8
Defpoints
 62
     0
100
AcDbPoint
 10
24.46410161513774
 20
11.84590377369514
 30
0.0
  0
ENDBLK
  5
11A
330
118
100
AcDbEntity
  8
0
100
AcDbBlockEnd
  0
BLOCK
  5
124
330
123
100
AcDbEntity
  8
0
100
AcDbBlockBegin
  2
SW_DOWELSYMBOL_0
 70
     0
 10
0.0
 20
0.0
 30
0.0
  3
SW_DOWELSYMBOL_0
  1

  0
CIRCLE
  5
126
330
123
100
AcDbEntity
  8
해칭선
 62
     0
100
AcDbCircle
 10
0.0
 20
0.0
 30
0.0
 40
3.000000000000003
  0
HATCH
  5
127
330
123
100
AcDbEntity
  8
0
  6
Continuous
 62
     0
370
    18
100
AcDbHatch
 10
0.0
 20
0.0
 30
0.0
210
0.0
220
0.0
230
1.0
  2
SOLID
 70
     1
 71
     0
 91
        1
 92
        0
 93
        3
 72
     2
 10
0.0
 20
0.0
 40
3.000000000000003
 50
0.0
 51
90.0
 73
     1
 72
     1
 10
0.0
 20
3.000000000000003
 11
0.0
 21
0.0
 72
     1
 10
0.0
 20
0.0
 11
3.000000000000003
 21
0.0
 97
        0
 75
     0
 76
     1
 98
        1
 10
0.0
 20
0.0
  0
HATCH
  5
128
330
123
100
AcDbEntity
  8
0
  6
Continuous
 62
     0
370
    18
100
AcDbHatch
 10
0.0
 20
0.0
 30
0.0
210
0.0
220
0.0
230
1.0
  2
SOLID
 70
     1
 71
     0
 91
        1
 92
        0
 93
        3
 72
     2
 10
0.0
 20
0.0
 40
3.000000000000003
 50
180.0
 51
270.0000000000008
 73
     1
 72
     1
 10
0.0
 20
-3.000000000000003
 11
0.0
 21
0.0
 72
     1
 10
0.0
 20
0.0
 11
-3.000000000000003
 21
0.0
 97
        0
 75
     0
 76
     1
 98
        1
 10
0.0
 20
0.0
  0
ENDBLK
  5
125
330
123
100
AcDbEntity
  8
0
100
AcDbBlockEnd
  0
ENDSEC
  0
SECTION
  2
ENTITIES
  0
LINE
  5
99
330
1F
100
AcDbEntity
  8
0
  6
Continuous
 62
     4
370
    25
100
AcDbLine
 10
2.0
 20
2.999999999999998
 30
0.0
 11
-35.03589838486226
 21
2.999999999999996
 31
0.0
  0
LINE
  5
9A
330
1F
100
AcDbEntity
  8
0
  6
Continuous
 62
     4
370
    25
100
AcDbLine
 10
-35.03589838486226
 20
-3.0
 30
0.0
 11
2.000000000000004
 21
-2.999999999999998
 31
0.0
  0
LINE
  5
9B
330
1F
100
AcDbEntity
  8
0
  6
Continuous
 62
     4
370
    25
100
AcDbLine
 10
2.0
 20
-3.0
 30
0.0
 11
8.963907934677021
 21
-1.1340264927386
 31
0.0
  0
LINE
  5
9C
330
1F
100
AcDbEntity
  8
0
  6
Continuous
 62
     4
370
    25
100
AcDbLine
 10
8.963907934677021
 20
1.134026492738601
 30
0.0
 11
2.0
 21
3.0
 31
0.0
  0
LINE
  5
9D
330
1F
100
AcDbEntity
  8
0
  6
Continuous
 62
     4
370
    25
100
AcDbLine
 10
-35.03589838486226
 20
2.999999999999995
 30
0.0
 11
-35.53589838486226
 21
2.499999999999994
 31
0.0
  0
LINE
  5
9E
330
1F
100
AcDbEntity
  8
0
  6
Continuous
 62
     4
370
    25
100
AcDbLine
 10
-35.53589838486226
 20
-2.499999999999999
 30
0.0
 11
-35.03589838486226
 21
-2.999999999999999
 31
0.0
  0
LINE
  5
9F
330
1F
100
AcDbEntity
  8
0
  6
Continuous
 62
     1
370
    25
100
AcDbLine
 10
18.63586862882476
 20
-1.000000000000001
 30
0.0
 11
19.40838038547809
 21
-1.000000000000001
 31
0.0
  0
LINE
  5
A0
330
1F
100
AcDbEntity
  8
0
  6
Continuous
 62
     1
370
    25
100
AcDbLine
 10
13.96757711520013
 20
1.000000000000002
 30
0.0
 11
13.19535222892977
 21
1.000000000000002
 31
0.0
  0
LINE
  5
A1
330
1F
100
AcDbEntity
  8
0
  6
Continuous
 62
     1
370
    25
100
AcDbLine
 10
24.46410161513774
 20
1.000000000000002
 30
0.0
 11
24.07814841433508
 21
1.000000000000002
 31
0.0
  0
LINE
  5
A2
330
1F
100
AcDbEntity
  8
0
  6
Continuous
 62
     1
370
    25
100
AcDbLine
 10
21.35618591155685
 20
-1.000000000000001
 30
0.0
 11
22.12899413233511
 21
-1.000000000000001
 31
0.0
  0
LINE
  5
A3
330
1F
100
AcDbEntity
  8
0
  6
Continuous
 62
     1
370
    25
100
AcDbLine
 10
10.46407661513774
 20
-1.000000000000001
 30
0.0
 11
11.2461979469298
 21
-1.000000000000001
 31
0.0
  0
LINE
  5
A4
330
1F
100
AcDbEntity
  8
0
  6
Continuous
 62
     1
370
    25
100
AcDbLine
 10
16.68954244647452
 20
1.000000000000002
 30
0.0
 11
15.91655603592022
 21
1.000000000000002
 31
0.0
  0
LINE
  5
A5
330
1F
100
AcDbEntity
  8
0
  6
Continuous
 62
     1
370
    25
100
AcDbLine
 10
24.07814841433509
 20
-1.000000000000001
 30
0.0
 11
24.46410161513774
 21
-1.000000000000001
 31
0.0
  0
LINE
  5
A6
330
1F
100
AcDbEntity
  8
0
  6
Continuous
 62
     1
370
    25
100
AcDbLine
 10
13.19535222892978
 20
-1.000000000000001
 30
0.0
 11
13.96757711520014
 21
-1.000000000000001
 31
0.0
  0
LINE
  5
A7
330
1F
100
AcDbEntity
  8
0
  6
Continuous
 62
     1
370
    25
100
AcDbLine
 10
19.40838038547809
 20
1.000000000000002
 30
0.0
 11
18.63586862882475
 21
1.000000000000002
 31
0.0
  0
LINE
  5
A8
330
1F
100
AcDbEntity
  8
0
  6
Continuous
 62
     1
370
    25
100
AcDbLine
 10
16.37351250884808
 20
0.1783405470969104
 30
0.0
 11
16.43895733582841
 21
0.143277007242625
 31
0.0
  0
LINE
  5
A9
330
1F
100
AcDbEntity
  8
0
  6
Continuous
 62
     1
370
    25
100
AcDbLine
 10
18.92777008386457
 20
-0.1650757042741737
 30
0.0
 11
18.88575066269045
 21
-0.1432770072426472
 31
0.0
  0
SPLINE
  5
AA
330
1F
100
AcDbEntity
  8
0
  6
Continuous
 62
     1
370
    25
100
AcDbSpline
210
0.0
220
0.0
230
1.0
 70
     8
 71
     3
 72
     9
 73
     5
 74
     0
 42
0.000000001
 43
0.00000001
 40
0.0
 40
0.0
 40
0.0
 40
0.0
 40
0.5757980745013745
 40
1.0
 40
1.0
 40
1.0
 40
1.0
 10
13.64858602724304
 20
-0.2546070394317612
 30
0.0
 10
13.58543978053945
 20
-0.2230275305515193
 30
0.0
 10
13.47577243446806
 20
-0.1681827676412077
 30
0.0
 10
13.3895361466599
 20
-0.1139849478865615
 30
0.0
 10
13.35295454732382
 20
-0.0909941283888131
 30
0.0
  0
LINE
  5
AB
330
1F
100
AcDbEntity
  8
0
  6
Continuous
 62
     1
370
    25
100
AcDbLine
 10
24.25405187514934
 20
-0.1017600827548665
 30
0.0
 11
24.23575073272913
 21
-0.0909941283888124
 31
0.0
  0
SPLINE
  5
AC
330
1F
100
AcDbEntity
  8
0
  6
Continuous
 62
     1
370
    25
100
AcDbSpline
210
0.0
220
0.0
230
1.0
 70
     8
 71
     3
 72
     9
 73
     5
 74
     0
 42
0.000000001
 43
0.00000001
 40
0.0
 40
0.0
 40
0.0
 40
0.0
 40
0.5430033973497226
 40
1.0
 40
1.0
 40
1.0
 40
1.0
 10
24.46410161513774
 20
-0.222645062465809
 30
0.0
 10
24.42641353864581
 20
-0.2016104236448344
 30
0.0
 10
24.35700683387035
 20
-0.1628728412951845
 30
0.0
 10
24.28634437759987
 20
-0.1209285029012899
 30
0.0
 10
24.25405187514934
 20
-0.1017600827548665
 30
0.0
  0
LINE
  5
AD
330
1F
100
AcDbEntity
  8
0
  6
Continuous
 62
     1
370
    25
100
AcDbLine
 10
15.91655603592022
 20
-1.000000000000001
 30
0.0
 11
16.68954244647452
 21
-1.000000000000001
 31
0.0
  0
LINE
  5
AE
330
1F
100
AcDbEntity
  8
0
  6
Continuous
 62
     1
370
    25
100
AcDbLine
 10
11.2461979469298
 20
1.000000000000002
 30
0.0
 11
10.46410161513774
 21
1.000000000000002
 31
0.0
  0
LINE
  5
AF
330
1F
100
AcDbEntity
  8
0
  6
Continuous
 62
     1
370
    25
100
AcDbLine
 10
22.12899413233511
 20
1.000000000000002
 30
0.0
 11
21.35618591155686
 21
1.000000000000002
 31
0.0
  0
LINE
  5
B0
330
1F
100
AcDbEntity
  8
0
  6
Continuous
 62
     4
370
    25
100
AcDbLine
 10
2.0
 20
3.0
 30
0.0
 11
2.0
 21
-3.0
 31
0.0
  0
LINE
  5
B1
330
1F
100
AcDbEntity
  8
0
  6
Continuous
 62
     4
370
    25
100
AcDbLine
 10
-35.03589838486226
 20
2.999999999999995
 30
0.0
 11
-35.03589838486226
 21
-2.999999999999999
 31
0.0
  0
LINE
  5
B2
330
1F
100
AcDbEntity
  8
0
  6
Continuous
 62
     4
370
    25
100
AcDbLine
 10
8.963907934677021
 20
1.134026492738601
 30
0.0
 11
8.963907934677021
 21
1.119020527266056
 31
0.0
  0
SPLINE
  5
B3
330
1F
100
AcDbEntity
  8
0
  6
Continuous
 62
     4
370
    25
100
AcDbSpline
210
0.0
220
0.0
230
1.0
 70
     8
 71
     3
 72
     8
 73
     4
 74
     0
 42
0.000000001
 43
0.00000001
 40
0.0
 40
0.0
 40
0.0
 40
0.0
 40
1.0
 40
1.0
 40
1.0
 40
1.0
 10
9.056418079342176
 20
1.055486346421888
 30
0.0
 10
9.000441083623425
 20
1.080821826391442
 30
0.0
 10
8.96390793467667
 20
1.107948802157638
 30
0.0
 10
8.963907934676609
 20
1.119020527266138
 30
0.0
  0
SPLINE
  5
B4
330
1F
100
AcDbEntity
  8
0
  6
Continuous
 62
     4
370
    25
100
AcDbSpline
210
0.0
220
0.0
230
1.0
 70
     8
 71
     3
 72
     8
 73
     4
 74
     0
 42
0.000000001
 43
0.00000001
 40
0.0
 40
0.0
 40
0.0
 40
0.0
 40
1.0
 40
1.0
 40
1.0
 40
1.0
 10
9.464101615137508
 20
0.8572117125713075
 30
0.0
 10
9.324986204558286
 20
0.9281293775382272
 30
0.0
 10
9.189501511457298
 20
0.9952520915223874
 30
0.0
 10
9.056418079342173
 20
1.05548634642188
 30
0.0
  0
LINE
  5
B5
330
1F
100
AcDbEntity
  8
0
  6
Continuous
 62
     4
370
    25
100
AcDbLine
 10
9.464101615137736
 20
0.8572117125710069
 30
0.0
 11
9.464101615137736
 21
0.5506759159565247
 31
0.0
  0
SPLINE
  5
B6
330
1F
100
AcDbEntity
  8
0
  6
Continuous
 62
     4
370
    25
100
AcDbSpline
210
0.0
220
0.0
230
1.0
 70
     8
 71
     3
 72
     8
 73
     4
 74
     0
 42
0.000000001
 43
0.00000001
 40
0.0
 40
0.0
 40
0.0
 40
0.0
 40
1.0
 40
1.0
 40
1.0
 40
1.0
 10
9.267293679057982
 20
0.6799845618749116
 30
0.0
 10
9.332778899948032
 20
0.6375681955232696
 30
0.0
 10
9.398373619057
 20
0.5944585649847588
 30
0.0
 10
9.464101615137736
 20
0.5506759159565269
 30
0.0
  0
SPLINE
  5
B7
330
1F
100
AcDbEntity
  8
0
  6
Continuous
 62
     4
370
    25
100
AcDbSpline
210
0.0
220
0.0
230
1.0
 70
     8
 71
     3
 72
    10
 73
     6
 74
     0
 42
0.000000001
 43
0.00000001
 40
0.0
 40
0.0
 40
0.0
 40
0.0
 40
0.5
 40
0.5
 40
1.0
 40
1.0
 40
1.0
 40
1.0
 10
8.963907934677021
 20
0.5939607376457647
 30
0.0
 10
8.963907934677021
 20
0.6559069360107942
 30
0.0
 10
9.006638386537976
 20
0.7035043510409643
 30
0.0
 10
9.128780009556483
 20
0.7337247885467438
 30
0.0
 10
9.207147339898999
 20
0.7189428049991247
 30
0.0
 10
9.267293679058081
 20
0.6799845618748458
 30
0.0
  0
LINE
  5
B8
330
1F
100
AcDbEntity
  8
0
  6
Continuous
 62
     4
370
    25
100
AcDbLine
 10
8.963907934677021
 20
0.5939607376457647
 30
0.0
 11
8.963907934677021
 21
-0.1838726346964286
 31
0.0
  0
SPLINE
  5
B9
330
1F
100
AcDbEntity
  8
0
  6
Continuous
 62
     4
370
    25
100
AcDbSpline
210
0.0
220
0.0
230
1.0
 70
     8
 71
     3
 72
     8
 73
     4
 74
     0
 42
0.000000001
 43
0.00000001
 40
0.0
 40
0.0
 40
0.0
 40
0.0
 40
1.0
 40
1.0
 40
1.0
 40
1.0
 10
9.056418079342176
 20
-0.3411137128975997
 30
0.0
 10
9.000441083623425
 20
-0.3114936913643176
 30
0.0
 10
8.96390793467667
 20
-0.2512534479920989
 30
0.0
 10
8.963907934676609
 20
-0.1838726346966116
 30
0.0
  0
SPLINE
  5
BA
330
1F
100
AcDbEntity
  8
0
  6
Continuous
 62
     4
370
    25
100
AcDbSpline
210
0.0
220
0.0
230
1.0
 70
     8
 71
     3
 72
     8
 73
     4
 74
     0
 42
0.000000001
 43
0.00000001
 40
0.0
 40
0.0
 40
0.0
 40
0.0
 40
1.0
 40
1.0
 40
1.0
 40
1.0
 10
9.464101615137508
 20
-0.514964153927678
 30
0.0
 10
9.324986204558286
 20
-0.4692996335157787
 30
0.0
 10
9.189501511457298
 20
-0.4115343218344503
 30
0.0
 10
9.056418079342173
 20
-0.341113712897596
 30
0.0
  0
LINE
  5
BB
330
1F
100
AcDbEntity
  8
0
  6
Continuous
 62
     4
370
    25
100
AcDbLine
 10
9.464101615137736
 20
-0.51496415392829
 30
0.0
 11
9.464101615137736
 21
-0.8347191357489334
 31
0.0
  0
SPLINE
  5
BC
330
1F
100
AcDbEntity
  8
0
  6
Continuous
 62
     4
370
    25
100
AcDbSpline
210
0.0
220
0.0
230
1.0
 70
     8
 71
     3
 72
     8
 73
     4
 74
     0
 42
0.000000001
 43
0.00000001
 40
0.0
 40
0.0
 40
0.0
 40
0.0
 40
1.0
 40
1.0
 40
1.0
 40
1.0
 10
9.267293679057978
 20
-0.8036609864112589
 30
0.0
 10
9.332778899948028
 20
-0.8165649905145598
 30
0.0
 10
9.398373619057
 20
-0.8269341376479341
 30
0.0
 10
9.464101615137736
 20
-0.834719135748936
 30
0.0
  0
SPLINE
  5
BD
330
1F
100
AcDbEntity
  8
0
  6
Continuous
 62
     4
370
    25
100
AcDbSpline
210
0.0
220
0.0
230
1.0
 70
     8
 71
     3
 72
    10
 73
     6
 74
     0
 42
0.000000001
 43
0.00000001
 40
0.0
 40
0.0
 40
0.0
 40
0.0
 40
0.5
 40
0.5
 40
1.0
 40
1.0
 40
1.0
 40
1.0
 10
8.963907934677021
 20
-0.9660366081926297
 30
0.0
 10
8.963907934677021
 20
-0.927949428718054
 30
0.0
 10
9.006638386537976
 20
-0.8754466586322005
 30
0.0
 10
9.128780009556483
 20
-0.8065763655834999
 30
0.0
 10
9.207147339898999
 20
-0.791809020475177
 30
0.0
 10
9.267293679058081
 20
-0.8036609864112793
 30
0.0
  0
LINE
  5
BE
330
1F
100
AcDbEntity
  8
0
  6
Continuous
 62
     4
370
    25
100
AcDbLine
 10
8.963907934677021
 20
-0.9660366081926297
 30
0.0
 11
8.963907934677021
 21
-1.1340264927386
 31
0.0
  0
SPLINE
  5
BF
330
1F
100
AcDbEntity
  8
0
  6
Continuous
 62
     4
370
    25
100
AcDbSpline
210
0.0
220
0.0
230
1.0
 70
     8
 71
     3
 72
     8
 73
     4
 74
     0
 42
0.000000001
 43
0.00000001
 40
0.0
 40
0.0
 40
0.0
 40
0.0
 40
1.0
 40
1.0
 40
1.0
 40
1.0
 10
9.056418079342176
 20
-1.055486346421885
 30
0.0
 10
9.000441083623425
 20
-1.080821826391439
 30
0.0
 10
8.96390793467667
 20
-1.107948802157636
 30
0.0
 10
8.963907934676609
 20
-1.119020527266136
 30
0.0
  0
SPLINE
  5
C0
330
1F
100
AcDbEntity
  8
0
  6
Continuous
 62
     4
370
    25
100
AcDbSpline
210
0.0
220
0.0
230
1.0
 70
     8
 71
     3
 72
     8
 73
     4
 74
     0
 42
0.000000001
 43
0.00000001
 40
0.0
 40
0.0
 40
0.0
 40
0.0
 40
1.0
 40
1.0
 40
1.0
 40
1.0
 10
9.464101615137508
 20
-0.857211712571303
 30
0.0
 10
9.324986204558286
 20
-0.9281293775382231
 30
0.0
 10
9.189501511457298
 20
-0.9952520915223835
 30
0.0
 10
9.056418079342173
 20
-1.055486346421877
 30
0.0
  0
LINE
  5
C1
330
1F
100
AcDbEntity
  8
0
  6
Continuous
 62
     4
370
    25
100
AcDbLine
 10
-35.53589838486226
 20
2.499999999999995
 30
0.0
 11
-35.53589838486226
 21
-2.500000000000001
 31
0.0
  0
SPLINE
  5
C2
330
1F
100
AcDbEntity
  8
0
  6
Continuous
 62
     4
370
    25
100
AcDbSpline
210
0.0
220
0.0
230
1.0
 70
     8
 71
     3
 72
    10
 73
     6
 74
     0
 42
0.000000001
 43
0.00000001
 40
0.0
 40
0.0
 40
0.0
 40
0.0
 40
0.5
 40
0.5
 40
1.0
 40
1.0
 40
1.0
 40
1.0
 10
10.46410161513779
 20
0.0053905076266182
 30
0.0
 10
10.2957613290796
 20
0.1020077238705019
 30
0.0
 10
10.13293195351712
 20
0.1974922660156541
 30
0.0
 10
9.797281655759285
 20
0.3822444198626866
 30
0.0
 10
9.6287234656081
 20
0.4706231606065175
 30
0.0
 10
9.464101615137736
 20
0.5506759159565247
 30
0.0
  0
SPLINE
  5
C3
330
1F
100
AcDbEntity
  8
0
  6
Continuous
 62
     4
370
    25
100
AcDbSpline
210
0.0
220
0.0
230
1.0
 70
    24
 71
     3
 72
    16
 73
    12
 74
     0
 42
0.000000001
 43
0.00000001
 40
0.0
 40
0.0
 40
0.0
 40
0.0
 40
0.125
 40
0.125
 40
0.25
 40
0.25
 40
0.5
 40
0.5
 40
0.75
 40
0.75
 40
1.0
 40
1.0
 40
1.0
 40
1.0
 10
10.46410161513774
 20
0.0053905076265367
 30
0.0
 10
10.46410161513774
 20
0.000177065690341
 30
0.0
 10
10.46410161513774
 20
-0.0067634304035516
 30
0.0
 10
10.46410161513774
 20
-0.0268249152993388
 30
0.0
 10
10.46410161513774
 20
-0.0400122074719022
 30
0.0
 10
10.46410161513774
 20
-0.0922754423021769
 30
0.0
 10
10.46410161513774
 20
-0.1444905295783121
 30
0.0
 10
10.46410161513774
 20
-0.2978420660835988
 30
0.0
 10
10.46410161513774
 20
-0.4001722780277466
 30
0.0
 10
10.46410161513774
 20
-0.6395684248905259
 30
0.0
 10
10.46410161513774
 20
-0.7756014841834036
 30
0.0
 10
10.46410161513774
 20
-0.8995547308212234
 30
0.0
  0
SPLINE
  5
C4
330
1F
100
AcDbEntity
  8
0
  6
Continuous
 62
     4
370
    25
100
AcDbSpline
210
0.0
220
0.0
230
1.0
 70
     8
 71
     3
 72
    10
 73
     6
 74
     0
 42
0.000000001
 43
0.00000001
 40
0.0
 40
0.0
 40
0.0
 40
0.0
 40
0.5
 40
0.5
 40
1.0
 40
1.0
 40
1.0
 40
1.0
 10
10.46410161513774
 20
-0.8995547308212231
 30
0.0
 10
10.29576132907956
 20
-0.8573509383064596
 30
0.0
 10
10.13293195351709
 20
-0.8031007736170093
 30
0.0
 10
9.797281655759267
 20
-0.6728299054657895
 30
0.0
 10
9.62872346560809
 20
-0.5971740333604117
 30
0.0
 10
9.464101615137736
 20
-0.5149641539282899
 30
0.0
  0
SPLINE
  5
C5
330
1F
100
AcDbEntity
  8
0
  6
Continuous
 62
     4
370
    25
100
AcDbSpline
210
0.0
220
0.0
230
1.0
 70
     8
 71
     3
 72
    10
 73
     6
 74
     0
 42
0.000000001
 43
0.00000001
 40
0.0
 40
0.0
 40
0.0
 40
0.0
 40
0.5
 40
0.5
 40
1.0
 40
1.0
 40
1.0
 40
1.0
 10
10.46410161513779
 20
0.9999854711082172
 30
0.0
 10
10.2957613290796
 20
0.9994646477002056
 30
0.0
 10
10.13293195351712
 20
0.985044627603505
 30
0.0
 10
9.797281655759285
 20
0.9290884333530177
 30
0.0
 10
9.6287234656081
 20
0.887531060729728
 30
0.0
 10
9.464101615137736
 20
0.8347191357489304
 30
0.0
  0
SPLINE
  5
C6
330
1F
100
AcDbEntity
  8
0
  6
Continuous
 62
     4
370
    25
100
AcDbSpline
210
0.0
220
0.0
230
1.0
 70
    24
 71
     3
 72
    14
 73
    10
 74
     0
 42
0.000000001
 43
0.00000001
 40
0.0
 40
0.0
 40
0.0
 40
0.0
 40
0.1369166554822168
 40
0.2771197915623531
 40
0.4269708577767704
 40
0.5811676150630387
 40
0.731018681277458
 40
0.885215438563729
 40
1.0
 40
1.0
 40
1.0
 40
1.0
 10
10.46410161513774
 20
0.9999854711074897
 30
0.0
 10
10.46410161513774
 20
0.965168334071855
 30
0.0
 10
10.46410161513774
 20
0.8946983264301173
 30
0.0
 10
10.46410161513774
 20
0.7918165195221789
 30
0.0
 10
10.46410161513774
 20
0.6927736656968176
 30
0.0
 10
10.46410161513774
 20
0.6030488759390363
 30
0.0
 10
10.46410161513774
 20
0.5273663675864148
 30
0.0
 10
10.46410161513774
 20
0.471120866706197
 30
0.0
 10
10.46410161513774
 20
0.4487902990408754
 30
0.0
 10
10.46410161513774
 20
0.4392609963061719
 30
0.0
  0
SPLINE
  5
C7
330
1F
100
AcDbEntity
  8
0
  6
Continuous
 62
     4
370
    25
100
AcDbSpline
210
0.0
220
0.0
230
1.0
 70
     8
 71
     3
 72
    10
 73
     6
 74
     0
 42
0.000000001
 43
0.00000001
 40
0.0
 40
0.0
 40
0.0
 40
0.0
 40
0.5
 40
0.5
 40
1.0
 40
1.0
 40
1.0
 40
1.0
 10
10.46410161513774
 20
0.4368080656960837
 30
0.0
 10
10.29576132907956
 20
0.5237218024073177
 30
0.0
 10
10.13293195351709
 20
0.6036101895447815
 30
0.0
 10
9.797281655759267
 20
0.74606704244151
 30
0.0
 10
9.62872346560809
 20
0.8078246820562993
 30
0.0
 10
9.464101615137736
 20
0.8572117125710069
 30
0.0
  0
LINE
  5
C8
330
1F
100
AcDbEntity
  8
0
  6
Continuous
 62
     4
370
    25
100
AcDbLine
 10
10.46410161513774
 20
0.4368080656960837
 30
0.0
 11
10.46410161513774
 21
0.0053905076265358
 31
0.0
  0
SPLINE
  5
C9
330
1F
100
AcDbEntity
  8
0
  6
Continuous
 62
     4
370
    25
100
AcDbSpline
210
0.0
220
0.0
230
1.0
 70
     8
 71
     3
 72
    10
 73
     6
 74
     0
 42
0.000000001
 43
0.00000001
 40
0.0
 40
0.0
 40
0.0
 40
0.0
 40
0.5
 40
0.5
 40
1.0
 40
1.0
 40
1.0
 40
1.0
 10
10.46410161513779
 20
-0.9999854711082163
 30
0.0
 10
10.2957613290796
 20
-0.9994646477002052
 30
0.0
 10
10.13293195351712
 20
-0.9850446276035056
 30
0.0
 10
9.797281655759285
 20
-0.9290884333530195
 30
0.0
 10
9.6287234656081
 20
-0.8875310607297306
 30
0.0
 10
9.464101615137736
 20
-0.8347191357489335
 30
0.0
  0
LINE
  5
CA
330
1F
100
AcDbEntity
  8
0
  6
Continuous
 62
     4
370
    25
100
AcDbLine
 10
10.46410161513774
 20
-0.899554730821223
 30
0.0
 11
10.46410161513774
 21
-0.9999854711074888
 31
0.0
  0
SPLINE
  5
CB
330
1F
100
AcDbEntity
  8
0
  6
Continuous
 62
     1
370
    25
100
AcDbSpline
210
0.0
220
0.0
230
1.0
 70
     8
 71
     3
 72
    17
 73
    13
 74
     0
 42
0.000000001
 43
0.00000001
 40
0.0
 40
0.0
 40
0.0
 40
0.0
 40
0.0967531959063854
 40
0.1974390080381998
 40
0.2981060494908659
 40
0.3987568931328918
 40
0.4993941421275557
 40
0.6000204251669083
 40
0.7006383916037673
 40
0.8012507065007811
 40
0.9018600456162212
 40
0.9999999999999999
 40
0.9999999999999999
 40
0.9999999999999999
 40
0.9999999999999999
 10
12.21994521324451
 20
0.8433905562882666
 30
0.0
 10
12.42689405484591
 20
0.8975150418439075
 30
0.0
 10
12.84920335034421
 20
1.007963948865266
 30
0.0
 10
13.48679803811283
 20
1.007409282421426
 30
0.0
 10
14.13270746987568
 20
0.8776058402480466
 30
0.0
 10
14.77849166511431
 20
0.6247592804861771
 30
0.0
 10
15.42417143845637
 20
0.2866915549561674
 30
0.0
 10
16.06976679165709
 20
-0.0907251535325629
 30
0.0
 10
16.71529814162856
 20
-0.4563681957423361
 30
0.0
 10
17.36078605366438
 20
-0.7565222033144575
 30
0.0
 10
18.00097069375303
 20
-0.9615078599798771
 30
0.0
 10
18.42599624432247
 20
-0.9861743780653636
 30
0.0
 10
18.63586862882476
 20
-0.9983544010334746
 30
0.0
  0
SPLINE
  5
CC
330
1F
100
AcDbEntity
  8
0
  6
Continuous
 62
     1
370
    25
100
AcDbSpline
210
0.0
220
0.0
230
1.0
 70
     8
 71
     3
 72
    10
 73
     6
 74
     0
 42
0.000000001
 43
0.00000001
 40
0.0
 40
0.0
 40
0.0
 40
0.0
 40
0.455923391863765
 40
0.9303781791155522
 40
0.9999999999999999
 40
0.9999999999999999
 40
0.9999999999999999
 40
0.9999999999999999
 10
23.10274139864983
 20
0.8433905562882669
 30
0.0
 10
23.30960401418524
 20
0.8974620376388242
 30
0.0
 10
23.73173735281956
 20
1.007802781848861
 30
0.0
 10
24.18659261729223
 20
1.008003389850349
 30
0.0
 10
24.43261924394664
 20
0.9788910132125586
 30
0.0
 10
24.46410161513774
 20
0.9751656983552632
 30
0.0
  0
SPLINE
  5
CD
330
1F
100
AcDbEntity
  8
0
  6
Continuous
 62
     1
370
    25
100
AcDbSpline
210
0.0
220
0.0
230
1.0
 70
     8
 71
     3
 72
    18
 73
    14
 74
     0
 42
0.000000001
 43
0.00000001
 40
0.0
 40
0.0
 40
0.0
 40
0.0
 40
0.0683669238840523
 40
0.1690143247493051
 40
0.2696566590593966
 40
0.3702966050667408
 40
0.4709368455495858
 40
0.571580062727992
 40
0.6722289331820691
 40
0.7728861227930196
 40
0.8735542817273885
 40
0.9549033987769252
 40
1.0
 40
1.0
 40
1.0
 40
1.0
 10
20.38118663313723
 20
-0.8333937985544849
 30
0.0
 10
20.23502397820888
 20
-0.8782783964632234
 30
0.0
 10
19.87368576050321
 20
-0.9892405339444316
 30
0.0
 10
19.29719503835994
 20
-1.018475872388026
 30
0.0
 10
18.65171359018848
 20
-0.9278360474539366
 30
0.0
 10
18.00625104227676
 20
-0.7053043561861072
 30
0.0
 10
17.36078585552951
 20
-0.3871025416241661
 30
0.0
 10
16.71529873406315
 20
-0.0152922643875492
 30
0.0
 10
16.06976461985593
 20
0.3581314134286573
 30
0.0
 10
15.42417953427112
 20
0.683922623416491
 30
0.0
 10
14.81979635596528
 20
0.8955569496931659
 30
0.0
 10
14.33431818550477
 20
0.995109059678746
 30
0.0
 10
14.06398933492687
 20
0.9904913906049759
 30
0.0
 10
13.96757711520013
 20
0.9888445085780894
 30
0.0
  0
LINE
  5
CE
330
1F
100
AcDbEntity
  8
0
  6
Continuous
 62
     1
370
    25
100
AcDbLine
 10
24.46410161513774
 20
0.9751656983552632
 30
0.0
 11
24.46410161513774
 21
1.000000000000003
 31
0.0
  0
SPLINE
  5
CF
330
1F
100
AcDbEntity
  8
0
  6
Continuous
 62
     1
370
    25
100
AcDbSpline
210
0.0
220
0.0
230
1.0
 70
     8
 71
     3
 72
    19
 73
    15
 74
     0
 42
0.000000001
 43
0.00000001
 40
0.0
 40
0.0
 40
0.0
 40
0.0
 40
0.0748966161572266
 40
0.1755655412081966
 40
0.2762261461323785
 40
0.3768810971217839
 40
0.4775330710685802
 40
0.5781847505055434
 40
0.6788388185237021
 40
0.7794979536877225
 40
0.8801648249695997
 40
0.939542040235046
 40
0.9985505465002181
 40
0.9999999999999999
 40
0.9999999999999999
 40
0.9999999999999999
 40
0.9999999999999999
 10
14.94386974945231
 20
0.8350063732184329
 30
0.0
 10
15.10397801273441
 20
0.8825333431952245
 30
0.0
 10
15.47928861202792
 20
0.9939415567311314
 30
0.0
 10
16.06976646546697
 20
1.016891113542804
 30
0.0
 10
16.71529818342627
 20
0.9169528022693311
 30
0.0
 10
17.36078621262063
 20
0.687126998629892
 30
0.0
 10
18.00625016454467
 20
0.3639473950758069
 30
0.0
 10
18.65171674406023
 20
-0.009433870763977
 30
0.0
 10
19.29718330005053
 20
-0.3817264255314121
 30
0.0
 10
19.94275754466602
 20
-0.7005656642359375
 30
0.0
 10
20.49987714306818
 20
-0.8960803769111713
 30
0.0
 10
20.96854940806407
 20
-0.978556152723005
 30
0.0
 10
21.22394912569526
 20
-1.008732809875552
 30
0.0
 10
21.35308981915112
 20
-0.9995596492003661
 30
0.0
 10
21.35618591155685
 20
-0.9993397266310898
 30
0.0
  0
SPLINE
  5
D0
330
1F
100
AcDbEntity
  8
0
  6
Continuous
 62
     1
370
    25
100
AcDbSpline
210
0.0
220
0.0
230
1.0
 70
     8
 71
     3
 72
    19
 73
    15
 74
     0
 42
0.000000001
 43
0.00000001
 40
0.0
 40
0.0
 40
0.0
 40
0.0
 40
0.0080505256534001
 40
0.0899880464639752
 40
0.1906919629758309
 40
0.2913802442824397
 40
0.392055500615945
 40
0.4927203666867891
 40
0.5933774967938739
 40
0.6940295598560307
 40
0.7946792343845711
 40
0.8953292034170782
 40
0.9959821494328935
 40
0.9999999999999999
 40
0.9999999999999999
 40
0.9999999999999999
 40
0.9999999999999999
 10
23.10274139865017
 20
-0.8433905562883397
 30
0.0
 10
23.08553828760282
 20
-0.8497292193182676
 30
0.0
 10
22.89324347072955
 20
-0.9205822204531333
 30
0.0
 10
22.48536881980669
 20
-0.9916979861739031
 30
0.0
 10
21.87973257147135
 20
-1.014596014410178
 30
0.0
 10
21.23394873812302
 20
-0.8892199326153089
 30
0.0
 10
20.58829573631271
 20
-0.6444317905495358
 30
0.0
 10
19.94271443470089
 20
-0.3104532292457943
 30
0.0
 10
19.29719486071524
 20
0.0662636321880317
 30
0.0
 10
18.6517136077347
 20
0.4328069595644077
 30
0.0
 10
18.00625114972551
 20
0.7440446546188566
 30
0.0
 10
17.36078540818049
 20
0.9375299146108188
 30
0.0
 10
16.92188354078095
 20
1.020980238677563
 30
0.0
 10
16.69813130853141
 20
0.9982371680411896
 30
0.0
 10
16.68954244647452
 20
0.997364161794584
 30
0.0
  0
SPLINE
  5
D1
330
1F
100
AcDbEntity
  8
0
  6
Continuous
 62
     1
370
    25
100
AcDbSpline
210
0.0
220
0.0
230
1.0
 70
     8
 71
     3
 72
    11
 73
     7
 74
     0
 42
0.000000001
 43
0.00000001
 40
0.0
 40
0.0
 40
0.0
 40
0.0
 40
0.029400568469015
 40
0.3286368909761357
 40
0.6964082043007951
 40
1.0
 40
1.0
 40
1.0
 40
1.0
 10
12.21994521324486
 20
-0.8433905562883411
 30
0.0
 10
12.20274206297488
 20
-0.849730768192089
 30
0.0
 10
12.01044680767468
 20
-0.9206010824982079
 30
0.0
 10
11.60260238260984
 20
-0.990523250377193
 30
0.0
 10
11.03434637652255
 20
-1.017982869428173
 30
0.0
 10
10.6416704752551
 20
-0.9364321403167615
 30
0.0
 10
10.46410161513867
 20
-0.8995547308214581
 30
0.0
  0
SPLINE
  5
D2
330
1F
100
AcDbEntity
  8
0
  6
Continuous
 62
     1
370
    25
100
AcDbSpline
210
0.0
220
0.0
230
1.0
 70
     8
 71
     3
 72
    12
 73
     8
 74
     0
 42
0.000000001
 43
0.00000001
 40
0.0
 40
0.0
 40
0.0
 40
0.0
 40
0.1604114875926653
 40
0.3970085734724109
 40
0.6336280127266724
 40
0.8701944395047692
 40
1.0
 40
1.0
 40
1.0
 40
1.0
 10
10.46410161513875
 20
0.0053905076260627
 30
0.0
 10
10.60999547186179
 20
-0.0788570967487055
 30
0.0
 10
10.97107380113382
 20
-0.2873647400181649
 30
0.0
 10
11.54825739431777
 20
-0.5961141080402037
 30
0.0
 10
12.19451769331637
 20
-0.8533069626239156
 30
0.0
 10
12.74358417270614
 20
-0.9928963326534846
 30
0.0
 10
13.07716468494339
 20
-0.9854675220098794
 30
0.0
 10
13.19535222892977
 20
-0.9828354951003364
 30
0.0
  0
SPLINE
  5
D3
330
1F
100
AcDbEntity
  8
0
  6
Continuous
 62
     1
370
    25
100
AcDbSpline
210
0.0
220
0.0
230
1.0
 70
     8
 71
     3
 72
    19
 73
    15
 74
     0
 42
0.000000001
 43
0.00000001
 40
0.0
 40
0.0
 40
0.0
 40
0.0
 40
0.0535418316379304
 40
0.1541464159220161
 40
0.2547533876696746
 40
0.3553654241922656
 40
0.4559851932129662
 40
0.5153346257424859
 40
0.5743155217915228
 40
0.642600202186052
 40
0.7433159092344176
 40
0.8440411317673502
 40
0.9447437877120282
 40
1.0
 40
1.0
 40
1.0
 40
1.0
 10
17.66273838324013
 20
0.8315592044770487
 30
0.0
 10
17.77724271989834
 20
0.8692664069099937
 30
0.0
 10
18.10689959870571
 20
0.9778250783575861
 30
0.0
 10
18.65171622641704
 20
1.019774800884139
 30
0.0
 10
19.29718515970826
 20
0.9505671626688421
 30
0.0
 10
19.94275062309605
 20
0.7453834413028103
 30
0.0
 10
20.49989849395639
 20
0.4801872747967951
 30
0.0
 10
20.96850516008524
 20
0.2248859304422755
 30
0.0
 10
21.36663831890988
 20
-0.006316496814023
 30
0.0
 10
21.85393005822537
 20
-0.2872650202147994
 30
0.0
 10
22.43103492510975
 20
-0.5961450749480668
 30
0.0
 10
23.07731895078864
 20
-0.8532985429248686
 30
0.0
 10
23.62637972998678
 20
-0.9928973753488436
 30
0.0
 10
23.95996070602431
 20
-0.9854677947905718
 30
0.0
 10
24.07814841433509
 20
-0.9828354951003353
 30
0.0
  0
SPLINE
  5
D4
330
1F
100
AcDbEntity
  8
0
  6
Continuous
 62
     1
370
    25
100
AcDbSpline
210
0.0
220
0.0
230
1.0
 70
     8
 71
     3
 72
    15
 73
    11
 74
     0
 42
0.000000001
 43
0.00000001
 40
0.0
 40
0.0
 40
0.0
 40
0.0
 40
0.11146888934629
 40
0.2232235468538887
 40
0.3352807458484908
 40
0.4730027406131705
 40
0.6107033527769569
 40
0.7483861520756662
 40
0.8860547417214703
 40
1.0
 40
1.0
 40
1.0
 40
1.0
 10
24.0972666779011
 20
-0.9068606969289715
 30
0.0
 10
23.92319548541113
 20
-0.8563900282841539
 30
0.0
 10
23.57460684134574
 20
-0.7553193014378157
 30
0.0
 10
23.05072262215361
 20
-0.5131367327872198
 30
0.0
 10
22.48539782451747
 20
-0.2090305216348846
 30
0.0
 10
21.87972414554922
 20
0.1469938540241818
 30
0.0
 10
21.2339509627164
 20
0.5064539415165576
 30
0.0
 10
20.58829526220289
 20
0.7927089111199792
 30
0.0
 10
19.97977986306264
 20
0.97338104452725
 30
0.0
 10
19.58648636054155
 20
0.9849280043519861
 30
0.0
 10
19.40838038547809
 20
0.990157133553003
 30
0.0
  0
SPLINE
  5
D5
330
1F
100
AcDbEntity
  8
0
  6
Continuous
 62
     1
370
    25
100
AcDbSpline
210
0.0
220
0.0
230
1.0
 70
     8
 71
     3
 72
    16
 73
    12
 74
     0
 42
0.000000001
 43
0.00000001
 40
0.0
 40
0.0
 40
0.0
 40
0.0
 40
0.0368993966649902
 40
0.1533346742443053
 40
0.2698059081670683
 40
0.3860369756315609
 40
0.5026874449166078
 40
0.6196369661642145
 40
0.736903092400389
 40
0.8810270306076134
 40
1.0
 40
1.0
 40
1.0
 40
1.0
 10
14.94386974945233
 20
-0.8350063732184305
 30
0.0
 10
14.88875117962884
 20
-0.8552444558531465
 30
0.0
 10
14.65970711082118
 20
-0.9393433866919743
 30
0.0
 10
14.25680001300044
 20
-0.9968080142255902
 30
0.0
 10
13.73515611351519
 20
-1.007274559920525
 30
0.0
 10
13.21384655461385
 20
-0.9202578784162339
 30
0.0
 10
12.69181183054528
 20
-0.7517012053126325
 30
0.0
 10
12.16791979207125
 20
-0.5139756886177499
 30
0.0
 10
11.60262956732573
 20
-0.2092660770148302
 30
0.0
 10
11.03434047838269
 20
0.1273146307360268
 30
0.0
 10
10.64166863862977
 20
0.340434718352751
 30
0.0
 10
10.46410161513867
 20
0.4368080656956019
 30
0.0
  0
ELLIPSE
  5
D6
330
1F
100
AcDbEntity
  8
0
  6
Continuous
 62
     1
370
    25
100
AcDbEllipse
 10
24.21987392215964
 20
0.0000000000000013
 30
0.0
 11
1.389323305659968
 21
-0.5503410060417624
 31
0.0
210
0.0
220
0.0
230
1.0
 40
0.6009688174887257
 41
4.860139407233076
 42
5.117950484049572
  0
LINE
  5
D7
330
1F
100
AcDbEntity
  8
0
  6
Continuous
 62
     1
370
    25
100
AcDbLine
 10
24.46410161513774
 20
-1.000000000000002
 30
0.0
 11
24.46410161513774
 21
-0.9843391617328159
 31
0.0
  0
LINE
  5
D8
330
1F
100
AcDbEntity
  8
0
  6
Continuous
 62
     1
370
    25
100
AcDbLine
 10
24.46410161513774
 20
0.3586687346939946
 30
0.0
 11
24.46410161513774
 21
0.9751656983552632
 31
0.0
  0
SPLINE
  5
D9
330
1F
100
AcDbEntity
  8
0
  6
Continuous
 62
     1
370
    25
100
AcDbSpline
210
0.0
220
0.0
230
1.0
 70
     8
 71
     3
 72
    11
 73
     7
 74
     0
 42
0.000000001
 43
0.00000001
 40
0.0
 40
0.0
 40
0.0
 40
0.0
 40
0.2544919421169551
 40
0.5172710951295978
 40
0.846495920256632
 40
1.0
 40
1.0
 40
1.0
 40
1.0
 10
24.46410161513774
 20
0.3586687346939946
 30
0.0
 10
24.4391000571344
 20
0.3508693837918873
 30
0.0
 10
24.38828279674984
 20
0.3350167059079683
 30
0.0
 10
24.30229404419585
 20
0.3331600371705179
 30
0.0
 10
24.22675062815515
 20
0.342726679394777
 30
0.0
 10
24.18028772587287
 20
0.3611429708174845
 30
0.0
 10
24.1655128802295
 20
0.366999209875486
 30
0.0
  0
SPLINE
  5
DA
330
1F
100
AcDbEntity
  8
0
  6
Continuous
 62
     1
370
    25
100
AcDbSpline
210
0.0
220
0.0
230
1.0
 70
     8
 71
     3
 72
    11
 73
     7
 74
     0
 42
0.000000001
 43
0.00000001
 40
0.0
 40
0.0
 40
0.0
 40
0.0
 40
0.2655023704885467
 40
0.5316853983756047
 40
0.7985890352365991
 40
1.0
 40
1.0
 40
1.0
 40
1.0
 10
24.09726667788846
 20
0.4214305119127543
 30
0.0
 10
23.92319533968827
 20
0.5092491630679409
 30
0.0
 10
23.57460640382892
 20
0.6851116024063794
 30
0.0
 10
23.05072437939916
 20
0.8723422190047121
 30
0.0
 10
22.56851943844425
 20
0.988924059953389
 30
0.0
 10
22.26117546209804
 20
0.9851871080674952
 30
0.0
 10
22.12899413233512
 20
0.9835799339968991
 30
0.0
  0
SPLINE
  5
DB
330
1F
100
AcDbEntity
  8
0
  6
Continuous
 62
     1
370
    25
100
AcDbSpline
210
0.0
220
0.0
230
1.0
 70
     8
 71
     3
 72
    19
 73
    15
 74
     0
 42
0.000000001
 43
0.00000001
 40
0.0
 40
0.0
 40
0.0
 40
0.0
 40
0.0470518264680016
 40
0.1476356943226123
 40
0.2482252121191561
 40
0.3488230441667651
 40
0.4494318390691804
 40
0.5307329845299785
 40
0.6120592365733529
 40
0.6932177919481225
 40
0.7746691954096064
 40
0.8563294124507325
 40
0.9382106995040248
 40
1.0
 40
1.0
 40
1.0
 40
1.0
 10
17.66273838324013
 20
-0.831559204477047
 30
0.0
 10
17.5620895507378
 20
-0.8656287386885588
 30
0.0
 10
17.24628118824316
 20
-0.972529569456206
 30
0.0
 10
16.71529885262006
 20
-1.019295593915712
 30
0.0
 10
16.06976397071278
 20
-0.9596936680822563
 30
0.0
 10
15.42418201261358
 20
-0.7619950107717043
 30
0.0
 10
14.81978784198488
 20
-0.4802778884996001
 30
0.0
 10
14.25679625568609
 20
-0.1683167188096963
 30
0.0
 10
13.73515696589964
 20
0.1354533345912393
 30
0.0
 10
13.21384689234534
 20
0.42800533737922
 30
0.0
 10
12.69180961246766
 20
0.6834267378427907
 30
0.0
 10
12.16792835777015
 20
0.872797600094643
 30
0.0
 10
11.6857232235479
 20
0.9888420599151145
 30
0.0
 10
11.3783792678237
 20
0.9851624476578464
 30
0.0
 10
11.2461979469298
 20
0.9835799339968989
 30
0.0
  0
SPLINE
  5
DC
330
1F
100
AcDbEntity
  8
0
  6
Continuous
 62
     4
370
    25
100
AcDbSpline
210
0.0
220
0.0
230
1.0
 70
    24
 71
     3
 72
    16
 73
    12
 74
     0
 42
0.000000001
 43
0.00000001
 40
0.0
 40
0.0
 40
0.0
 40
0.0
 40
0.1249999999999999
 40
0.1249999999999999
 40
0.2499999999999998
 40
0.2499999999999998
 40
0.4999999999999999
 40
0.4999999999999999
 40
0.75
 40
0.75
 40
1.0
 40
1.0
 40
1.0
 40
1.0
 10
10.46410161513774
 20
0.0053905076265366
 30
0.0
 10
10.46410161513774
 20
0.0001770656903427
 30
0.0
 10
10.46410161513774
 20
-0.0067634304035469
 30
0.0
 10
10.46410161513774
 20
-0.0268249152993226
 30
0.0
 10
10.46410161513774
 20
-0.0400122074718776
 30
0.0
 10
10.46410161513774
 20
-0.092275442302116
 30
0.0
 10
10.46410161513774
 20
-0.1444905295782105
 30
0.0
 10
10.46410161513774
 20
-0.2978420660833757
 30
0.0
 10
10.46410161513774
 20
-0.4001722780274401
 30
0.0
 10
10.46410161513774
 20
-0.639568424890069
 30
0.0
 10
10.46410161513774
 20
-0.7756014841828858
 30
0.0
 10
10.46410161513774
 20
-0.8995547308206967
 30
0.0
  0
SPLINE
  5
DD
330
1F
100
AcDbEntity
  8
0
  6
Continuous
 62
     4
370
    25
100
AcDbSpline
210
0.0
220
0.0
230
1.0
 70
    24
 71
     3
 72
    14
 73
    10
 74
     0
 42
0.000000001
 43
0.00000001
 40
0.0
 40
0.0
 40
0.0
 40
0.0
 40
0.1369166554822175
 40
0.2771197915623531
 40
0.4269708577767698
 40
0.5811676150630365
 40
0.7310186812774581
 40
0.8852154385637288
 40
0.9999999999999999
 40
0.9999999999999999
 40
0.9999999999999999
 40
0.9999999999999999
 10
10.46410161513774
 20
0.9999854711074899
 30
0.0
 10
10.46410161513774
 20
0.9651683340718552
 30
0.0
 10
10.46410161513774
 20
0.8946983264301178
 30
0.0
 10
10.46410161513773
 20
0.7918165195221779
 30
0.0
 10
10.46410161513774
 20
0.6927736656968179
 30
0.0
 10
10.46410161513774
 20
0.6030488759390366
 30
0.0
 10
10.46410161513774
 20
0.5273663675864144
 30
0.0
 10
10.46410161513774
 20
0.4711208667061962
 30
0.0
 10
10.46410161513774
 20
0.4487902990408746
 30
0.0
 10
10.46410161513774
 20
0.439260996306171
 30
0.0
  0
SPLINE
  5
DE
330
1F
100
AcDbEntity
  8
0
  6
Continuous
 62
     1
370
    25
100
AcDbSpline
210
0.0
220
0.0
230
1.0
 70
     8
 71
     3
 72
    16
 73
    12
 74
     0
 42
0.000000001
 43
0.00000001
 40
0.0
 40
0.0
 40
0.0
 40
0.0
 40
0.080354654099215
 40
0.1988728305843416
 40
0.3174022045074082
 40
0.4359050229808055
 40
0.554382767457429
 40
0.6728384243362003
 40
0.7912750211306413
 40
0.9096956210023549
 40
1.0
 40
1.0
 40
1.0
 40
1.0
 10
10.46410161513875
 20
0.9999854711082202
 30
0.0
 10
10.60999548368983
 20
0.99409878319061
 30
0.0
 10
10.97107384223554
 20
0.9795295923694244
 30
0.0
 10
11.54825713524595
 20
0.8313820827381135
 30
0.0
 10
12.19451865241614
 20
0.5591245087129734
 30
0.0
 10
12.84074836193693
 20
0.2077713649326648
 30
0.0
 10
13.48679755650155
 20
-0.171223111521868
 30
0.0
 10
14.13270765821415
 20
-0.5279880936706082
 30
0.0
 10
14.77849139331141
 20
-0.8077359631949371
 30
0.0
 10
15.37309558654817
 20
-0.9782566374905604
 30
0.0
 10
15.75243550026315
 20
-0.984699472372516
 30
0.0
 10
15.91655603592022
 20
-0.9874869499717522
 30
0.0
  0
SPLINE
  5
DF
330
1F
100
AcDbEntity
  8
0
  6
Continuous
 62
     1
370
    25
100
AcDbSpline
210
0.0
220
0.0
230
1.0
 70
     8
 71
     3
 72
    16
 73
    12
 74
     0
 42
0.000000001
 43
0.00000001
 40
0.0
 40
0.0
 40
0.0
 40
0.0
 40
0.0507106529867566
 40
0.143955405202784
 40
0.2366211444217099
 40
0.3439041938488722
 40
0.5021400985193302
 40
0.6603909531052777
 40
0.8186063529978864
 40
0.9767882761135072
 40
1.0
 40
1.0
 40
1.0
 40
1.0
 10
20.38118663313724
 20
0.8333937985544876
 30
0.0
 10
20.45020811086157
 20
0.858386130118448
 30
0.0
 10
20.64614356442583
 20
0.9293333770054444
 30
0.0
 10
20.96851366988897
 20
0.9801045214192378
 30
0.0
 10
21.36663500770707
 20
1.010118186408026
 30
0.0
 10
21.85393500713037
 20
0.9747540113677873
 30
0.0
 10
22.43101275295403
 20
0.8328578614623823
 30
0.0
 10
23.07739942984764
 20
0.5587493263398824
 30
0.0
 10
23.72324684507452
 20
0.207796608308945
 30
0.0
 10
24.18659305125021
 20
-0.0632507793563454
 30
0.0
 10
24.43261929317757
 20
-0.2035264176199212
 30
0.0
 10
24.46410161513774
 20
-0.2214765467296674
 30
0.0
  0
LINE
  5
E0
330
1F
100
AcDbEntity
  8
0
  6
Continuous
 62
     1
370
    25
100
AcDbLine
 10
24.46410161513774
 20
-0.4999999999999996
 30
0.0
 11
24.46410161513774
 21
-0.2222080185536814
 31
0.0
  0
SPLINE
  5
E1
330
1F
100
AcDbEntity
  8
0
  6
Continuous
 62
     1
370
    25
100
AcDbSpline
210
0.0
220
0.0
230
1.0
 70
    24
 71
     3
 72
    10
 73
     6
 74
     0
 42
0.000000001
 43
0.00000001
 40
0.0
 40
0.0
 40
0.0
 40
0.0
 40
0.5
 40
0.5
 40
1.0
 40
1.0
 40
1.0
 40
1.0
 10
24.46410161513774
 20
-0.4999999999999995
 30
0.0
 10
24.39250978886368
 20
-0.550129136431291
 30
0.0
 10
24.31669661919353
 20
-0.6032140893299057
 30
0.0
 10
24.17073995562958
 20
-0.7054140454093244
 30
0.0
 10
24.09957401537622
 20
-0.7552449732384944
 30
0.0
 10
24.03417165354496
 20
-0.8010402000094672
 30
0.0
  0
SPLINE
  5
E2
330
1F
100
AcDbEntity
  8
0
  6
Continuous
 62
     1
370
    25
100
AcDbSpline
210
0.0
220
0.0
230
1.0
 70
     8
 71
     3
 72
     8
 73
     4
 74
     0
 42
0.000000001
 43
0.00000001
 40
0.0
 40
0.0
 40
0.0
 40
0.0
 40
1.0
 40
1.0
 40
1.0
 40
1.0
 10
24.0972666778758
 20
-0.9068606969228576
 30
0.0
 10
24.08093458426372
 20
-0.8678391845057529
 30
0.0
 10
24.05766982250778
 20
-0.8343466187133526
 30
0.0
 10
24.03417165354951
 20
-0.8010402000055663
 30
0.0
  0
ELLIPSE
  5
E3
330
1F
100
AcDbEntity
  8
0
  6
Continuous
 62
     1
370
    25
100
AcDbEllipse
 10
24.21987392215964
 20
0.0000000000000004
 30
0.0
 11
1.41910256598079
 21
-0.9721740704074063
 31
0.0
210
0.0
220
0.0
230
1.0
 40
0.1650759015746636
 41
1.511550483225869
 42
1.769361560042364
  0
LINE
  5
E4
330
1F
100
AcDbEntity
  8
0
  6
Continuous
 62
     1
370
    25
100
AcDbLine
 10
24.46410161513774
 20
-0.2214765467296674
 30
0.0
 11
24.46410161513774
 21
0.1762850381601879
 31
0.0
  0
LINE
  5
E5
330
1F
100
AcDbEntity
  8
0
  6
Continuous
 62
     1
370
    25
100
AcDbLine
 10
24.46410161513774
 20
0.1762850381601872
 30
0.0
 11
24.46410161513774
 21
0.3586687346939946
 31
0.0
  0
LINE
  5
E6
330
1F
100
AcDbEntity
  8
0
  6
Continuous
 62
     1
370
    25
100
AcDbLine
 10
24.46410161513774
 20
-0.4999999999999987
 30
0.0
 11
24.46410161513774
 21
-0.9843391617328159
 31
0.0
  0
LINE
  5
E7
330
1F
100
AcDbEntity
  8
중심선
100
AcDbLine
 10
-38.53589838486226
 20
-0.0000000000000043
 30
0.0
 11
25.96410161513773
 21
0.0000000000000036
 31
0.0
  0
CIRCLE
  5
E8
330
1F
100
AcDbEntity
  8
해칭선
100
AcDbCircle
 10
-0.0000199972772872
 20
-0.0000000000000041
 30
0.0
 40
3.000000000000003
  0
INSERT
  5
E9
330
1F
100
AcDbEntity
  8
0
  6
Continuous
 62
     7
100
AcDbBlockReference
 66
     1
  2
블럭10
 10
-18.44009924894177
 20
-52.04717430164393
 30
0.0
  0
ATTRIB
  5
EA
330
E9
100
AcDbEntity
  8
FORMAT
 62
     2
100
AcDbText
 10
-34.55936028837733
 20
-49.97180738881174
 30
0.0
 40
4.233333333333333
  1
SEME7202014E [ 4 FLUTE ]
 41
0.75
  7
SLDTEXTSTYLE0
 11
-34.55936028837733
 21
-52.08847405547841
 31
0.0
100
AcDbAttribute
  2
AUTOATTR0
 70
     0
 74
     1
  0
SEQEND
  5
EB
330
E9
100
AcDbEntity
  8
0
  6
Continuous
 62
     7
  0
HATCH
  5
EC
330
1F
100
AcDbEntity
  8
중심선
100
AcDbHatch
 10
0.0
 20
0.0
 30
0.0
210
0.0
220
0.0
230
1.0
  2
SOLID
 70
     1
 71
     0
 91
        1
 92
        0
 93
        4
 72
     1
 10
-12.72518994456093
 20
-35.8
 11
-16.17146518839821
 21
-35.8
 72
     1
 10
-16.17146518839821
 20
-35.8
 11
-18.29969504760223
 21
-38.33632558057259
 72
     1
 10
-18.29969504760223
 20
-38.33632558057259
 11
-14.85338671865177
 21
-38.3362861512701
 72
     1
 10
-14.85338671865177
 20
-38.3362861512701
 11
-12.72518994456093
 21
-35.8
 97
        0
 75
     0
 76
     1
 98
        1
 10
0.0
 20
0.0
  0
HATCH
  5
ED
330
1F
100
AcDbEntity
  8
중심선
100
AcDbHatch
 10
0.0
 20
0.0
 30
0.0
210
0.0
220
0.0
230
1.0
  2
SOLID
 70
     1
 71
     0
 91
        1
 92
        0
 93
        4
 72
     1
 10
-7.712425953524976
 20
-35.8
 11
-11.15870119736226
 21
-35.8
 72
     1
 10
-11.15870119736226
 20
-35.8
 11
-15.68983920571965
 21
-41.20000000000002
 72
     1
 10
-15.68983920571965
 20
-41.20000000000002
 11
-12.24356396188236
 21
-41.20000000000002
 72
     1
 10
-12.24356396188236
 20
-41.20000000000002
 11
-7.712425953524976
 21
-35.8
 97
        0
 75
     0
 76
     1
 98
        1
 10
0.0
 20
0.0
  0
HATCH
  5
EE
330
1F
100
AcDbEntity
  8
중심선
100
AcDbHatch
 10
0.0
 20
0.0
 30
0.0
210
0.0
220
0.0
230
1.0
  2
SOLID
 70
     1
 71
     0
 91
        1
 92
        0
 93
        4
 72
     1
 10
-2.699661962489053
 20
-35.8
 11
-6.145937206326169
 21
-35.8
 72
     1
 10
-6.145937206326169
 20
-35.8
 11
-13.19437410821545
 21
-44.20000000000002
 72
     1
 10
-13.19437410821545
 20
-44.20000000000002
 11
-9.748098864378163
 21
-44.20000000000002
 72
     1
 10
-9.748098864378163
 20
-44.20000000000002
 11
-2.699661962489053
 21
-35.8
 97
        0
 75
     0
 76
     1
 98
        1
 10
0.0
 20
0.0
  0
HATCH
  5
EF
330
1F
100
AcDbEntity
  8
중심선
100
AcDbHatch
 10
0.0
 20
0.0
 30
0.0
210
0.0
220
0.0
230
1.0
  2
SOLID
 70
     1
 71
     0
 91
        1
 92
        0
 93
        6
 72
     3
 10
2.100228468523119
 20
-40.00000000005127
 11
3.960054785062284
 21
1.540850780301639E-10
 40
0.3939339440162633
 50
17.09539180608433
 51
320.0019657685086
 73
     0
 72
     1
 10
3.783228124223714
 20
-38.58789400463833
 11
6.088529997924752
 21
-36.6535672945904
 72
     3
 10
2.100228468470272
 20
-40.00000000000015
 11
6.600054785286829
 21
-1.249000902703301E-13
 40
0.6363583540795982
 50
39.9987384933739
 51
368.4976242363725
 73
     1
 72
     1
 10
8.525560960370882
 20
-39.03999999993002
 11
0.780295775306195
 21
-39.03999999993002
 72
     1
 10
0.7802957753061945
 20
-39.03999999993002
 11
0.7802707308602608
 21
-40.95999999992991
 72
     1
 10
0.7802707308602608
 20
-40.95999999992991
 11
5.221650500332298
 21
-40.95999999992988
 97
        0
 75
     0
 76
     1
 98
        1
 10
0.0
 20
0.0
  0
DIMENSION
  5
F0
330
1F
100
AcDbEntity
  8
치수문자_일반주서
100
AcDbDimension
  2
_D
 10
36.5164635664834
 20
1.00000000000005
 30
0.0
 11
36.51646356648337
 21
10.66650000000005
 31
0.0
 70
   160
  1
%%c<>
 71
     2
 42
2.000000000000011
 52
-270.0
  3
SLDDIMSTYLE0
100
AcDbAlignedDimension
 13
24.46410161513776
 23
-1.000000000000006
 33
0.0
 14
24.46410161513776
 24
1.000000000000005
 34
0.0
 50
90.0000000000002
100
AcDbRotatedDimension
  0
DIMENSION
  5
FE
330
1F
100
AcDbEntity
  8
치수문자_일반주서
100
AcDbDimension
  2
_D_1
 10
24.46410161513774
 20
20.38913260158165
 30
0.0
 11
-5.535898384862261
 21
20.38913260158165
 31
0.0
 70
   160
  1
<>
 71
     2
 42
60.0
  3
SLDDIMSTYLE1
100
AcDbAlignedDimension
 13
-35.53589838486226
 23
2.499999999999995
 33
0.0
 14
24.46410161513774
 24
1.000000000000002
 34
0.0
 50
-0.0000000000000068
100
AcDbRotatedDimension
  0
DIMENSION
  5
109
330
1F
100
AcDbEntity
  8
치수문자_일반주서
100
AcDbDimension
  2
_D_2
 10
-44.2438062132675
 20
-3.000000000000037
 30
0.0
 11
-44.24380621326756
 21
12.66649999999997
 31
0.0
 70
   160
  1
%%c<>
 71
     2
 42
6.000000000000005
 52
-270.0
  3
SLDDIMSTYLE2
100
AcDbAlignedDimension
 13
-35.03589838486225
 23
3.000000000000003
 33
0.0
 14
-35.03589838486225
 24
-3.000000000000002
 34
0.0
 50
90.0000000000002
100
AcDbRotatedDimension
  0
DIMENSION
  5
117
330
1F
100
AcDbEntity
  8
치수문자_일반주서
100
AcDbDimension
  2
_D_3
 10
24.46410161513774
 20
11.84590377369514
 30
0.0
 11
17.46410161513774
 21
11.84590377369514
 31
0.0
 70
   160
  1
<>
 71
     2
 42
14.0
  3
SLDDIMSTYLE2
100
AcDbAlignedDimension
 13
10.46410161513774
 23
0.9999854711074897
 33
0.0
 14
24.46410161513774
 24
1.000000000000002
 34
0.0
100
AcDbRotatedDimension
  0
INSERT
  5
129
330
1F
100
AcDbEntity
  8
해칭선
100
AcDbBlockReference
  2
SW_DOWELSYMBOL_0
 10
-0.0000199972772872
 20
-0.0000000000000041
 30
0.0
  0
ENDSEC
  0
SECTION
  2
OBJECTS
  0
DICTIONARY
  5
C
330
0
100
AcDbDictionary
281
     1
  3
ACAD_GROUP
350
D
  3
ACAD_IMAGE_VARS
350
14D
  3
ACAD_LAYOUT
350
1A
  3
ACAD_MLINESTYLE
350
17
  3
ACAD_PLOTSETTINGS
350
19
  3
ACAD_PLOTSTYLENAME
350
E
  3
ACAD_SCALELIST
350
47
  3
APPDATA
350
14B
  3
DWGPROPS
350
15B
  0
DICTIONARY
  5
D
102
{ACAD_REACTORS
330
C
102
}
330
C
100
AcDbDictionary
281
     1
  0
RASTERVARIABLES
  5
14D
102
{ACAD_REACTORS
330
C
102
}
330
C
100
AcDbRasterVariables
 90
        0
 70
     1
 71
     1
 72
     1
  0
DICTIONARY
  5
1A
102
{ACAD_REACTORS
330
C
102
}
330
C
100
AcDbDictionary
281
     1
  3
Layout1
350
1E
  3
Layout2
350
26
  3
Model
350
22
  0
DICTIONARY
  5
17
102
{ACAD_REACTORS
330
C
102
}
330
C
100
AcDbDictionary
281
     1
  3
Standard
350
18
  0
DICTIONARY
  5
19
102
{ACAD_REACTORS
330
C
102
}
330
C
100
AcDbDictionary
281
     1
  0
ACDBDICTIONARYWDFLT
  5
E
102
{ACAD_REACTORS
330
C
102
}
330
C
100
AcDbDictionary
281
     1
  3
Normal
350
F
100
AcDbDictionaryWithDefault
340
F
  0
DICTIONARY
  5
47
102
{ACAD_REACTORS
330
C
102
}
330
C
100
AcDbDictionary
281
     1
  3
A0
350
48
  3
A1
350
49
  3
A2
350
4A
  3
A3
350
4B
  3
A4
350
4C
  3
A5
350
4D
  3
A6
350
4E
  3
A7
350
4F
  3
A8
350
50
  3
A9
350
51
  3
B0
350
52
  3
B1
350
53
  3
B2
350
54
  3
B3
350
55
  3
B4
350
56
  3
B5
350
57
  3
B6
350
58
  3
B7
350
59
  3
B8
350
5A
  3
B9
350
5B
  3
C0
350
5C
  3
C1
350
5D
  3
C2
350
5E
  3
C3
350
5F
  3
C4
350
60
  3
C5
350
61
  3
C6
350
62
  3
C7
350
63
  3
C8
350
64
  3
C9
350
65
  3
D0
350
66
  3
D1
350
67
  3
D2
350
68
  0
DICTIONARY
  5
14B
102
{ACAD_REACTORS
330
C
102
}
330
C
100
AcDbDictionary
281
     1
  0
XRECORD
  5
15B
102
{ACAD_REACTORS
330
C
102
}
330
C
100
AcDbXrecord
280
     1
  1
DWGPROPS COOKIE
  2

  3

  4

  6

  7

  8
12014102
  9

300
=
301
=
302
=
303
=
304
=
305
=
306
=
307
=
308
=
309
=
 40
0.0
 41
2458260.193328484
 42
2458268.102189873
  1

 90
        0
  0
LAYOUT
  5
1E
102
{ACAD_REACTORS
330
1A
102
}
330
1A
100
AcDbPlotSettings
  1

  2
none_device
  4

  6

 40
0.0
 41
0.0
 42
0.0
 43
0.0
 44
0.0
 45
0.0
 46
0.0
 47
0.0
 48
0.0
 49
0.0
140
0.0
141
0.0
142
1.0
143
1.0
 70
   688
 72
     1
 73
     0
 74
     5
  7

 75
    16
147
1.0
148
0.0
149
0.0
100
AcDbLayout
  1
Layout1
 70
     1
 71
     1
 10
0.0
 20
0.0
 11
420.0
 21
297.0
 12
0.0
 22
0.0
 32
0.0
 14
1.000000000000000E+20
 24
1.000000000000000E+20
 34
1.000000000000000E+20
 15
-1.000000000000000E+20
 25
-1.000000000000000E+20
 35
-1.000000000000000E+20
146
0.0
 13
0.0
 23
0.0
 33
0.0
 16
1.0
 26
0.0
 36
0.0
 17
0.0
 27
1.0
 37
0.0
 76
     0
330
1B
  0
LAYOUT
  5
26
102
{ACAD_REACTORS
330
1A
102
}
330
1A
100
AcDbPlotSettings
  1

  2
none_device
  4

  6

 40
0.0
 41
0.0
 42
0.0
 43
0.0
 44
0.0
 45
0.0
 46
0.0
 47
0.0
 48
0.0
 49
0.0
140
0.0
141
0.0
142
1.0
143
1.0
 70
   688
 72
     1
 73
     0
 74
     5
  7

 75
    16
147
1.0
148
0.0
149
0.0
100
AcDbLayout
  1
Layout2
 70
     1
 71
     2
 10
0.0
 20
0.0
 11
0.0
 21
0.0
 12
0.0
 22
0.0
 32
0.0
 14
0.0
 24
0.0
 34
0.0
 15
0.0
 25
0.0
 35
0.0
146
0.0
 13
0.0
 23
0.0
 33
0.0
 16
1.0
 26
0.0
 36
0.0
 17
0.0
 27
1.0
 37
0.0
 76
     0
330
23
  0
LAYOUT
  5
22
102
{ACAD_REACTORS
330
1A
102
}
330
1A
100
AcDbPlotSettings
  1

  2
none_device
  4
ANSI_A_(11.00_x_8.50_Inches)
  6

 40
6.35
 41
19.05
 42
6.35000508
 43
19.05000254
 44
279.4
 45
215.9
 46
147.8402572204297
 47
125.3847137330092
 48
0.0
 49
0.0
140
0.0
141
0.0
142
0.1112850254374008
143
1.0
 70
  1696
 72
     0
 73
     0
 74
     0
  7

 75
     0
147
0.0235690232323232
148
0.0
149
0.0
100
AcDbLayout
  1
Model
 70
     1
 71
     0
 10
0.0
 20
0.0
 11
420.0
 21
297.0
 12
0.0
 22
0.0
 32
0.0
 14
-48.61880621326757
 24
-49.97180738881174
 34
0.0
 15
37.06679689981677
 25
24.76413260158165
 35
0.0
146
0.0
 13
0.0
 23
0.0
 33
0.0
 16
1.0
 26
0.0
 36
0.0
 17
0.0
 27
1.0
 37
0.0
 76
     0
330
1F
331
29
  0
MLINESTYLE
  5
18
102
{ACAD_REACTORS
330
17
102
}
330
17
100
AcDbMlineStyle
  2
Standard
 70
     0
  3

 62
   256
 51
90.0
 52
90.0
 71
     2
 49
0.5
 62
   256
  6
BYLAYER
 49
-0.5
 62
   256
  6
BYLAYER
  0
ACDBPLACEHOLDER
  5
F
102
{ACAD_REACTORS
330
E
102
}
330
E
  0
SCALE
  5
48
102
{ACAD_REACTORS
330
47
102
}
330
47
100
AcDbScale
 70
     0
300
1:1
140
1.0
141
1.0
290
     1
  0
SCALE
  5
49
102
{ACAD_REACTORS
330
47
102
}
330
47
100
AcDbScale
 70
     0
300
1:2
140
1.0
141
2.0
290
     0
  0
SCALE
  5
4A
102
{ACAD_REACTORS
330
47
102
}
330
47
100
AcDbScale
 70
     0
300
1:4
140
1.0
141
4.0
290
     0
  0
SCALE
  5
4B
102
{ACAD_REACTORS
330
47
102
}
330
47
100
AcDbScale
 70
     0
300
1:5
140
1.0
141
5.0
290
     0
  0
SCALE
  5
4C
102
{ACAD_REACTORS
330
47
102
}
330
47
100
AcDbScale
 70
     0
300
1:8
140
1.0
141
8.0
290
     0
  0
SCALE
  5
4D
102
{ACAD_REACTORS
330
47
102
}
330
47
100
AcDbScale
 70
     0
300
1:10
140
1.0
141
10.0
290
     0
  0
SCALE
  5
4E
102
{ACAD_REACTORS
330
47
102
}
330
47
100
AcDbScale
 70
     0
300
1:16
140
1.0
141
16.0
290
     0
  0
SCALE
  5
4F
102
{ACAD_REACTORS
330
47
102
}
330
47
100
AcDbScale
 70
     0
300
1:20
140
1.0
141
20.0
290
     0
  0
SCALE
  5
50
102
{ACAD_REACTORS
330
47
102
}
330
47
100
AcDbScale
 70
     0
300
1:30
140
1.0
141
30.0
290
     0
  0
SCALE
  5
51
102
{ACAD_REACTORS
330
47
102
}
330
47
100
AcDbScale
 70
     0
300
1:40
140
1.0
141
40.0
290
     0
  0
SCALE
  5
52
102
{ACAD_REACTORS
330
47
102
}
330
47
100
AcDbScale
 70
     0
300
1:50
140
1.0
141
50.0
290
     0
  0
SCALE
  5
53
102
{ACAD_REACTORS
330
47
102
}
330
47
100
AcDbScale
 70
     0
300
1:100
140
1.0
141
100.0
290
     0
  0
SCALE
  5
54
102
{ACAD_REACTORS
330
47
102
}
330
47
100
AcDbScale
 70
     0
300
2:1
140
2.0
141
1.0
290
     0
  0
SCALE
  5
55
102
{ACAD_REACTORS
330
47
102
}
330
47
100
AcDbScale
 70
     0
300
4:1
140
4.0
141
1.0
290
     0
  0
SCALE
  5
56
102
{ACAD_REACTORS
330
47
102
}
330
47
100
AcDbScale
 70
     0
300
8:1
140
8.0
141
1.0
290
     0
  0
SCALE
  5
57
102
{ACAD_REACTORS
330
47
102
}
330
47
100
AcDbScale
 70
     0
300
10:1
140
10.0
141
1.0
290
     0
  0
SCALE
  5
58
102
{ACAD_REACTORS
330
47
102
}
330
47
100
AcDbScale
 70
     0
300
100:1
140
100.0
141
1.0
290
     0
  0
SCALE
  5
59
102
{ACAD_REACTORS
330
47
102
}
330
47
100
AcDbScale
 70
     0
300
1/128" = 1'-0"
140
0.0078125
141
12.0
290
     0
  0
SCALE
  5
5A
102
{ACAD_REACTORS
330
47
102
}
330
47
100
AcDbScale
 70
     0
300
1/64" = 1'-0"
140
0.015625
141
12.0
290
     0
  0
SCALE
  5
5B
102
{ACAD_REACTORS
330
47
102
}
330
47
100
AcDbScale
 70
     0
300
1/32" = 1'-0"
140
0.03125
141
12.0
290
     0
  0
SCALE
  5
5C
102
{ACAD_REACTORS
330
47
102
}
330
47
100
AcDbScale
 70
     0
300
1/16" = 1'-0"
140
0.0625
141
12.0
290
     0
  0
SCALE
  5
5D
102
{ACAD_REACTORS
330
47
102
}
330
47
100
AcDbScale
 70
     0
300
3/32" = 1'-0"
140
0.09375
141
12.0
290
     0
  0
SCALE
  5
5E
102
{ACAD_REACTORS
330
47
102
}
330
47
100
AcDbScale
 70
     0
300
1/8" = 1'-0"
140
0.125
141
12.0
290
     0
  0
SCALE
  5
5F
102
{ACAD_REACTORS
330
47
102
}
330
47
100
AcDbScale
 70
     0
300
3/16" = 1'-0"
140
0.1875
141
12.0
290
     0
  0
SCALE
  5
60
102
{ACAD_REACTORS
330
47
102
}
330
47
100
AcDbScale
 70
     0
300
1/4" = 1'-0"
140
0.25
141
12.0
290
     0
  0
SCALE
  5
61
102
{ACAD_REACTORS
330
47
102
}
330
47
100
AcDbScale
 70
     0
300
3/8" = 1'-0"
140
0.375
141
12.0
290
     0
  0
SCALE
  5
62
102
{ACAD_REACTORS
330
47
102
}
330
47
100
AcDbScale
 70
     0
300
1/2" = 1'-0"
140
0.5
141
12.0
290
     0
  0
SCALE
  5
63
102
{ACAD_REACTORS
330
47
102
}
330
47
100
AcDbScale
 70
     0
300
3/4" = 1'-0"
140
0.75
141
12.0
290
     0
  0
SCALE
  5
64
102
{ACAD_REACTORS
330
47
102
}
330
47
100
AcDbScale
 70
     0
300
1" = 1'-0"
140
1.0
141
12.0
290
     0
  0
SCALE
  5
65
102
{ACAD_REACTORS
330
47
102
}
330
47
100
AcDbScale
 70
     0
300
1-1/2" = 1'-0"
140
1.5
141
12.0
290
     0
  0
SCALE
  5
66
102
{ACAD_REACTORS
330
47
102
}
330
47
100
AcDbScale
 70
     0
300
3" = 1'-0"
140
3.0
141
12.0
290
     0
  0
SCALE
  5
67
102
{ACAD_REACTORS
330
47
102
}
330
47
100
AcDbScale
 70
     0
300
6" = 1'-0"
140
6.0
141
12.0
290
     0
  0
SCALE
  5
68
102
{ACAD_REACTORS
330
47
102
}
330
47
100
AcDbScale
 70
     0
300
1'-0" = 1'-0"
140
12.0
141
12.0
290
     0
  0
ENDSEC
  0
EOF
