  0
SECTION
  2
HEADER
  9
$ACADVER
  1
AC1015
  9
$ACADMAINTVER
 70
     6
  9
$DWGCODEPAGE
  3
ANSI_949
  9
$INSBASE
 10
0.0
 20
0.0
 30
0.0
  9
$EXTMIN
 10
-49.63456768467613
 20
-49.97180738881174
 30
0.0
  9
$EXTMAX
 10
35.54374730165087
 20
24.76413260158165
 30
0.0
  9
$LIMMIN
 10
0.0
 20
0.0
  9
$LIMMAX
 10
420.0
 20
297.0
  9
$ORTHOMODE
 70
     0
  9
$REGENMODE
 70
     1
  9
$FILLMODE
 70
     1
  9
$QTEXTMODE
 70
     0
  9
$MIRRTEXT
 70
     1
  9
$LTSCALE
 40
1.0
  9
$ATTMODE
 70
     1
  9
$TEXTSIZE
 40
3.5
  9
$TRACEWID
 40
1.0
  9
$TEXTSTYLE
  7
Standard
  9
$CLAYER
  8
0
  9
$CELTYPE
  6
ByLayer
  9
$CECOLOR
 62
   256
  9
$CELTSCALE
 40
1.0
  9
$DISPSILH
 70
     0
  9
$DIMSCALE
 40
1.0
  9
$DIMASZ
 40
3.302
  9
$DIMEXO
 40
1.0
  9
$DIMDLI
 40
3.75
  9
$DIMRND
 40
0.0
  9
$DIMDLE
 40
0.0
  9
$DIMEXE
 40
1.0
  9
$DIMTP
 40
0.0
  9
$DIMTM
 40
0.0
  9
$DIMTXT
 40
3.5
  9
$DIMCEN
 40
2.5
  9
$DIMTSZ
 40
0.0
  9
$DIMTOL
 70
     0
  9
$DIMLIM
 70
     0
  9
$DIMTIH
 70
     1
  9
$DIMTOH
 70
     1
  9
$DIMSE1
 70
     0
  9
$DIMSE2
 70
     0
  9
$DIMTAD
 70
     1
  9
$DIMZIN
 70
     0
  9
$DIMBLK
  1

  9
$DIMASO
 70
     1
  9
$DIMSHO
 70
     1
  9
$DIMPOST
  1

  9
$DIMAPOST
  1

  9
$DIMALT
 70
     0
  9
$DIMALTD
 70
     3
  9
$DIMALTF
 40
0.0393700787401575
  9
$DIMLFAC
 40
1.0
  9
$DIMTOFL
 70
     1
  9
$DIMTVP
 40
0.0
  9
$DIMTIX
 70
     0
  9
$DIMSOXD
 70
     0
  9
$DIMSAH
 70
     0
  9
$DIMBLK1
  1

  9
$DIMBLK2
  1

  9
$DIMSTYLE
  2
ISO-25
  9
$DIMCLRD
 70
     0
  9
$DIMCLRE
 70
     0
  9
$DIMCLRT
 70
     0
  9
$DIMTFAC
 40
1.0
  9
$DIMGAP
 40
1.524
  9
$DIMJUST
 70
     0
  9
$DIMSD1
 70
     0
  9
$DIMSD2
 70
     0
  9
$DIMTOLJ
 70
     0
  9
$DIMTZIN
 70
     0
  9
$DIMALTZ
 70
     0
  9
$DIMALTTZ
 70
     0
  9
$DIMUPT
 70
     0
  9
$DIMDEC
 70
     2
  9
$DIMTDEC
 70
     2
  9
$DIMALTU
 70
     2
  9
$DIMALTTD
 70
     3
  9
$DIMTXSTY
  7
Standard
  9
$DIMAUNIT
 70
     0
  9
$DIMADEC
 70
     2
  9
$DIMALTRND
 40
0.0
  9
$DIMAZIN
 70
     0
  9
$DIMDSEP
 70
    44
  9
$DIMATFIT
 70
     3
  9
$DIMFRAC
 70
     0
  9
$DIMLDRBLK
  1

  9
$DIMLUNIT
 70
     2
  9
$DIMLWD
 70
    -2
  9
$DIMLWE
 70
    -2
  9
$DIMTMOVE
 70
     0
  9
$LUNITS
 70
     2
  9
$LUPREC
 70
     2
  9
$SKETCHINC
 40
1.0
  9
$FILLETRAD
 40
10.0
  9
$AUNITS
 70
     0
  9
$AUPREC
 70
     2
  9
$MENU
  1
.
  9
$ELEVATION
 40
0.0
  9
$PELEVATION
 40
0.0
  9
$THICKNESS
 40
0.0
  9
$LIMCHECK
 70
     0
  9
$CHAMFERA
 40
0.0
  9
$CHAMFERB
 40
0.0
  9
$CHAMFERC
 40
0.0
  9
$CHAMFERD
 40
0.0
  9
$SKPOLY
 70
     0
  9
$TDCREATE
 40
2458260.568139803
  9
$TDUCREATE
 40
2458260.193139803
  9
$TDUPDATE
 40
2458268.476263634
  9
$TDUUPDATE
 40
2458268.101263634
  9
$TDINDWG
 40
0.0008699537
  9
$TDUSRTIMER
 40
2458268.100393715
  9
$USRTIMER
 70
     1
  9
$ANGBASE
 50
0.0
  9
$ANGDIR
 70
     0
  9
$PDMODE
 70
     0
  9
$PDSIZE
 40
-1.0
  9
$PLINEWID
 40
0.0
  9
$SPLFRAME
 70
     0
  9
$SPLINETYPE
 70
     6
  9
$SPLINESEGS
 70
     8
  9
$HANDSEED
  5
159
  9
$SURFTAB1
 70
     6
  9
$SURFTAB2
 70
     6
  9
$SURFTYPE
 70
     6
  9
$SURFU
 70
     6
  9
$SURFV
 70
     6
  9
$UCSBASE
  2

  9
$UCSNAME
  2

  9
$UCSORG
 10
0.0
 20
0.0
 30
0.0
  9
$UCSXDIR
 10
1.0
 20
0.0
 30
0.0
  9
$UCSYDIR
 10
0.0
 20
1.0
 30
0.0
  9
$UCSORTHOREF
  2

  9
$UCSORTHOVIEW
 70
     0
  9
$UCSORGTOP
 10
0.0
 20
0.0
 30
0.0
  9
$UCSORGBOTTOM
 10
0.0
 20
0.0
 30
0.0
  9
$UCSORGLEFT
 10
0.0
 20
0.0
 30
0.0
  9
$UCSORGRIGHT
 10
0.0
 20
0.0
 30
0.0
  9
$UCSORGFRONT
 10
0.0
 20
0.0
 30
0.0
  9
$UCSORGBACK
 10
0.0
 20
0.0
 30
0.0
  9
$PUCSBASE
  2

  9
$PUCSNAME
  2

  9
$PUCSORG
 10
0.0
 20
0.0
 30
0.0
  9
$PUCSXDIR
 10
1.0
 20
0.0
 30
0.0
  9
$PUCSYDIR
 10
0.0
 20
1.0
 30
0.0
  9
$PUCSORTHOREF
  2

  9
$PUCSORTHOVIEW
 70
     0
  9
$PUCSORGTOP
 10
0.0
 20
0.0
 30
0.0
  9
$PUCSORGBOTTOM
 10
0.0
 20
0.0
 30
0.0
  9
$PUCSORGLEFT
 10
0.0
 20
0.0
 30
0.0
  9
$PUCSORGRIGHT
 10
0.0
 20
0.0
 30
0.0
  9
$PUCSORGFRONT
 10
0.0
 20
0.0
 30
0.0
  9
$PUCSORGBACK
 10
0.0
 20
0.0
 30
0.0
  9
$USERI1
 70
     0
  9
$USERI2
 70
     0
  9
$USERI3
 70
     0
  9
$USERI4
 70
     0
  9
$USERI5
 70
     0
  9
$USERR1
 40
0.0
  9
$USERR2
 40
0.0
  9
$USERR3
 40
0.0
  9
$USERR4
 40
0.0
  9
$USERR5
 40
0.0
  9
$WORLDVIEW
 70
     1
  9
$SHADEDGE
 70
     3
  9
$SHADEDIF
 70
    70
  9
$TILEMODE
 70
     1
  9
$MAXACTVP
 70
    64
  9
$PINSBASE
 10
0.0
 20
0.0
 30
0.0
  9
$PLIMCHECK
 70
     0
  9
$PEXTMIN
 10
1.000000000000000E+20
 20
1.000000000000000E+20
 30
1.000000000000000E+20
  9
$PEXTMAX
 10
-1.000000000000000E+20
 20
-1.000000000000000E+20
 30
-1.000000000000000E+20
  9
$PLIMMIN
 10
0.0
 20
0.0
  9
$PLIMMAX
 10
0.0
 20
0.0
  9
$UNITMODE
 70
     0
  9
$VISRETAIN
 70
     1
  9
$PLINEGEN
 70
     0
  9
$PSLTSCALE
 70
     1
  9
$TREEDEPTH
 70
  3020
  9
$CMLSTYLE
  2
Standard
  9
$CMLJUST
 70
     0
  9
$CMLSCALE
 40
20.0
  9
$PROXYGRAPHICS
 70
     1
  9
$MEASUREMENT
 70
     1
  9
$CELWEIGHT
370
    -1
  9
$ENDCAPS
280
     0
  9
$JOINSTYLE
280
     0
  9
$LWDISPLAY
290
     1
  9
$INSUNITS
 70
     4
  9
$HYPERLINKBASE
  1

  9
$STYLESHEET
  1

  9
$XEDIT
290
     1
  9
$CEPSNTYPE
380
     0
  9
$PSTYLEMODE
290
     1
  9
$FINGERPRINTGUID
  2
{898DB552-8E18-42DD-81EA-916FCCC76752}
  9
$VERSIONGUID
  2
{FAEB1C32-E019-11D5-929B-00C0DF256EC4}
  9
$EXTNAMES
290
     1
  9
$PSVPSCALE
 40
0.0
  9
$OLESTARTUP
290
     0
  0
ENDSEC
  0
SECTION
  2
CLASSES
  0
CLASS
  1
ACDBDICTIONARYWDFLT
  2
AcDbDictionaryWithDefault
  3
ObjectDBX Classes
 90
        0
280
     0
281
     0
  0
CLASS
  1
VISUALSTYLE
  2
AcDbVisualStyle
  3
ObjectDBX Classes
 90
     4095
280
     0
281
     0
  0
CLASS
  1
MATERIAL
  2
AcDbMaterial
  3
ObjectDBX Classes
 90
     1153
280
     0
281
     0
  0
CLASS
  1
SCALE
  2
AcDbScale
  3
ObjectDBX Classes
 90
     1153
280
     0
281
     0
  0
CLASS
  1
TABLESTYLE
  2
AcDbTableStyle
  3
ObjectDBX Classes
 90
     4095
280
     0
281
     0
  0
CLASS
  1
MLEADERSTYLE
  2
AcDbMLeaderStyle
  3
ACDB_MLEADERSTYLE_CLASS
 90
     4095
280
     0
281
     0
  0
CLASS
  1
SUN
  2
AcDbSun
  3
SCENEOE
 90
     1153
280
     0
281
     0
  0
CLASS
  1
ACDBPLACEHOLDER
  2
AcDbPlaceHolder
  3
ObjectDBX Classes
 90
        0
280
     0
281
     0
  0
CLASS
  1
LAYOUT
  2
AcDbLayout
  3
ObjectDBX Classes
 90
        0
280
     0
281
     0
  0
CLASS
  1
RASTERVARIABLES
  2
AcDbRasterVariables
  3
ISM
 90
        0
280
     0
281
     0
  0
ENDSEC
  0
SECTION
  2
TABLES
  0
TABLE
  2
VPORT
  5
8
330
0
100
AcDbSymbolTable
 70
     1
  0
VPORT
  5
29
330
8
100
AcDbSymbolTableRecord
100
AcDbViewportTableRecord
  2
*Active
 70
     0
 10
0.0
 20
0.0
 11
1.0
 21
1.0
 12
-7.04541019151263
 22
-12.60383739361504
 13
0.0
 23
0.0
 14
10.0
 24
10.0
 15
10.0
 25
10.0
 16
0.0
 26
0.0
 36
1.0
 17
0.0
 27
0.0
 37
0.0
 40
76.23065879020126
 41
1.737726098191214
 42
50.0
 43
0.0
 44
0.0
 50
0.0
 51
0.0
 71
    16
 72
  2000
 73
     1
 74
     3
 75
     0
 76
     0
 77
     0
 78
     0
281
     0
 65
     1
110
0.0
120
0.0
130
0.0
111
1.0
121
0.0
131
0.0
112
0.0
122
1.0
132
0.0
 79
     0
146
0.0
  0
ENDTAB
  0
TABLE
  2
LTYPE
  5
5
330
0
100
AcDbSymbolTable
 70
     6
  0
LTYPE
  5
14
330
5
100
AcDbSymbolTableRecord
100
AcDbLinetypeTableRecord
  2
ByBlock
 70
     0
  3

 72
    65
 73
     0
 40
0.0
  0
LTYPE
  5
15
330
5
100
AcDbSymbolTableRecord
100
AcDbLinetypeTableRecord
  2
ByLayer
 70
     0
  3

 72
    65
 73
     0
 40
0.0
  0
LTYPE
  5
16
330
5
100
AcDbSymbolTableRecord
100
AcDbLinetypeTableRecord
  2
Continuous
 70
     0
  3
Solid line
 72
    65
 73
     0
 40
0.0
  0
LTYPE
  5
6E
330
5
100
AcDbSymbolTableRecord
100
AcDbLinetypeTableRecord
  2
HIDDEN
 70
     0
  3
Hidden __ __ __ __ __ __ __ __ __ __ __ __ __ __
 72
    65
 73
     2
 40
1.905
 49
1.27
 74
     0
 49
-0.635
 74
     0
  0
LTYPE
  5
6F
330
5
100
AcDbSymbolTableRecord
100
AcDbLinetypeTableRecord
  2
PHANTOM
 70
     0
  3
Phantom ______  __  __  ______  __  __  ______
 72
    65
 73
     6
 40
12.7
 49
6.35
 74
     0
 49
-1.27
 74
     0
 49
1.27
 74
     0
 49
-1.27
 74
     0
 49
1.27
 74
     0
 49
-1.27
 74
     0
  0
LTYPE
  5
70
330
5
100
AcDbSymbolTableRecord
100
AcDbLinetypeTableRecord
  2
CENTER
 70
     0
  3
Center ____ _ ____ _ ____ _ ____ _ ____ _ ____
 72
    65
 73
     4
 40
10.16
 49
6.35
 74
     0
 49
-1.27
 74
     0
 49
1.27
 74
     0
 49
-1.27
 74
     0
  0
LTYPE
  5
71
330
5
100
AcDbSymbolTableRecord
100
AcDbLinetypeTableRecord
  2
CENTERX2
 70
     0
  3
Center (2x) ________  __  ________  __  _____
 72
    65
 73
     4
 40
20.32
 49
12.7
 74
     0
 49
-2.54
 74
     0
 49
2.54
 74
     0
 49
-2.54
 74
     0
  0
LTYPE
  5
72
330
5
100
AcDbSymbolTableRecord
100
AcDbLinetypeTableRecord
  2
DOT2
 70
     0
  3
Dot (.5x) ........................................
 72
    65
 73
     2
 40
0.635
 49
0.0
 74
     0
 49
-0.635
 74
     0
  0
ENDTAB
  0
TABLE
  2
LAYER
  5
2
330
0
100
AcDbSymbolTable
 70
    17
  0
LAYER
  5
10
330
2
100
AcDbSymbolTableRecord
100
AcDbLayerTableRecord
  2
0
 70
     0
 62
     7
  6
Continuous
370
    -3
390
F
  0
LAYER
  5
73
330
2
100
AcDbSymbolTableRecord
100
AcDbLayerTableRecord
  2
FORMAT
 70
     0
 62
     2
  6
Continuous
370
    -3
390
F
  0
LAYER
  5
74
330
2
100
AcDbSymbolTableRecord
100
AcDbLayerTableRecord
  2
외형선
 70
     0
 62
   100
  6
Continuous
370
    35
390
F
  0
LAYER
  5
75
330
2
100
AcDbSymbolTableRecord
100
AcDbLayerTableRecord
  2
숨은선
 70
     0
 62
     2
  6
HIDDEN
370
    25
390
F
  0
LAYER
  5
76
330
2
100
AcDbSymbolTableRecord
100
AcDbLayerTableRecord
  2
중심선
 70
     0
 62
     1
  6
CENTERX2
370
    -3
390
F
  0
LAYER
  5
77
330
2
100
AcDbSymbolTableRecord
100
AcDbLayerTableRecord
  2
파단선
 70
     0
 62
     4
  6
Continuous
370
    -3
390
F
  0
LAYER
  5
78
330
2
100
AcDbSymbolTableRecord
100
AcDbLayerTableRecord
  2
해칭선
 70
     0
 62
   100
  6
Continuous
370
    -3
390
F
  0
LAYER
  5
79
330
2
100
AcDbSymbolTableRecord
100
AcDbLayerTableRecord
  2
가는실선
 70
     0
 62
     4
  6
Continuous
370
    -3
390
F
  0
LAYER
  5
7A
330
2
100
AcDbSymbolTableRecord
100
AcDbLayerTableRecord
  2
치수_보조선
 70
     0
 62
     4
  6
Continuous
370
    -3
390
F
  0
LAYER
  5
7B
330
2
100
AcDbSymbolTableRecord
100
AcDbLayerTableRecord
  2
치수문자_일반주서
 70
     0
 62
     7
  6
Continuous
370
    25
390
F
  0
LAYER
  5
7C
330
2
100
AcDbSymbolTableRecord
100
AcDbLayerTableRecord
  2
개별주서
 70
     0
 62
   100
  6
Continuous
370
    35
390
F
  0
LAYER
  5
7D
330
2
100
AcDbSymbolTableRecord
100
AcDbLayerTableRecord
  2
중간선
 70
     0
 62
     2
  6
Continuous
370
    25
390
F
  0
LAYER
  5
7E
330
2
100
AcDbSymbolTableRecord
100
AcDbLayerTableRecord
  2
윤곽선
 70
     0
 62
     3
  6
Continuous
370
    50
390
F
  0
LAYER
  5
7F
330
2
100
AcDbSymbolTableRecord
100
AcDbLayerTableRecord
  2
중심마크
 70
     0
 62
   100
  6
Continuous
370
    35
390
F
  0
LAYER
  5
80
330
2
100
AcDbSymbolTableRecord
100
AcDbLayerTableRecord
  2
가상선
 70
     0
 62
     4
  6
PHANTOM
370
    -3
390
F
  0
LAYER
  5
81
330
2
100
AcDbSymbolTableRecord
100
AcDbLayerTableRecord
  2
특수지정선
 70
     0
 62
     5
  6
CENTERX2
370
    70
390
F
  0
LAYER
  5
14B
330
2
100
AcDbSymbolTableRecord
100
AcDbLayerTableRecord
  2
Defpoints
 70
     0
 62
     7
  6
Continuous
290
     0
370
    -3
390
F
  0
ENDTAB
  0
TABLE
  2
STYLE
  5
3
330
0
100
AcDbSymbolTable
 70
     2
  0
STYLE
  5
11
330
3
100
AcDbSymbolTableRecord
100
AcDbTextStyleTableRecord
  2
Standard
 70
     0
 40
0.0
 41
1.0
 50
0.0
 71
     0
 42
3.5
  3
txt
  4

  0
STYLE
  5
97
330
3
100
AcDbSymbolTableRecord
100
AcDbTextStyleTableRecord
  2
SLDTEXTSTYLE0
 70
     0
 40
0.0
 41
0.75
 50
0.0
 71
     0
 42
3.5
  3
TXT
  4

  0
ENDTAB
  0
TABLE
  2
VIEW
  5
6
330
0
100
AcDbSymbolTable
 70
     0
  0
ENDTAB
  0
TABLE
  2
UCS
  5
7
330
0
100
AcDbSymbolTable
 70
     0
  0
ENDTAB
  0
TABLE
  2
APPID
  5
9
330
0
100
AcDbSymbolTable
 70
     1
  0
APPID
  5
12
330
9
100
AcDbSymbolTableRecord
100
AcDbRegAppTableRecord
  2
ACAD
 70
     0
  0
ENDTAB
  0
TABLE
  2
DIMSTYLE
  5
A
330
0
100
AcDbSymbolTable
 70
     4
100
AcDbDimStyleTable
  0
DIMSTYLE
105
27
330
A
100
AcDbSymbolTableRecord
100
AcDbDimStyleTableRecord
  2
ISO-25
 70
     0
 41
2.5
 42
0.625
 43
3.75
 44
1.25
 73
     0
 74
     0
 77
     1
 78
     8
140
2.5
141
2.5
143
0.03937007874016
147
0.625
171
     3
172
     1
178
     0
271
     2
272
     2
274
     3
278
    44
283
     0
284
     8
340
11
  0
DIMSTYLE
105
EE
102
{ACAD_REACTORS
330
ED
102
}
330
A
100
AcDbSymbolTableRecord
100
AcDbDimStyleTableRecord
  2
SLDDIMSTYLE0
 70
     0
 41
3.302
 44
0.0
 45
0.000000001
 73
     0
 74
     0
 77
     1
 78
    12
 79
     3
140
3.5
147
0.875
172
     1
173
     1
178
     0
271
     1
272
     1
276
     2
284
    12
289
     0
340
97
  0
DIMSTYLE
105
FC
102
{ACAD_REACTORS
330
FB
102
}
330
A
100
AcDbSymbolTableRecord
100
AcDbDimStyleTableRecord
  2
SLDDIMSTYLE1
 70
     0
 41
3.302
 44
0.0
 45
0.000000001
 73
     0
 74
     0
 77
     1
 78
    12
 79
     3
140
3.5
147
0.875
173
     1
178
     0
271
     2
272
     2
276
     2
284
    12
340
97
  0
DIMSTYLE
105
107
102
{ACAD_REACTORS
330
106
330
114
102
}
330
A
100
AcDbSymbolTableRecord
100
AcDbDimStyleTableRecord
  2
SLDDIMSTYLE2
 70
     0
 41
3.302
 44
0.0
 45
0.000000001
 73
     0
 74
     0
 77
     1
 78
    12
 79
     3
140
3.5
147
0.875
172
     1
173
     1
178
     0
271
     2
272
     2
276
     2
284
    12
289
     0
340
97
  0
ENDTAB
  0
TABLE
  2
BLOCK_RECORD
  5
1
330
0
100
AcDbSymbolTable
 70
     7
  0
BLOCK_RECORD
  5
1F
330
1
100
AcDbSymbolTableRecord
100
AcDbBlockTableRecord
  2
*Model_Space
340
22
  0
BLOCK_RECORD
  5
1B
330
1
100
AcDbSymbolTableRecord
100
AcDbBlockTableRecord
  2
*Paper_Space
340
1E
  0
BLOCK_RECORD
  5
23
330
1
100
AcDbSymbolTableRecord
100
AcDbBlockTableRecord
  2
*Paper_Space0
340
26
  0
BLOCK_RECORD
  5
82
330
1
100
AcDbSymbolTableRecord
100
AcDbBlockTableRecord
  2
블럭10
340
0
102
{BLKREFS
331
E6
102
}
  0
BLOCK_RECORD
  5
EF
330
1
100
AcDbSymbolTableRecord
100
AcDbBlockTableRecord
  2
_D
340
0
  0
BLOCK_RECORD
  5
FD
330
1
100
AcDbSymbolTableRecord
100
AcDbBlockTableRecord
  2
_D_1
340
0
  0
BLOCK_RECORD
  5
108
330
1
100
AcDbSymbolTableRecord
100
AcDbBlockTableRecord
  2
_D_2
340
0
  0
BLOCK_RECORD
  5
115
330
1
100
AcDbSymbolTableRecord
100
AcDbBlockTableRecord
  2
_D_3
340
0
  0
BLOCK_RECORD
  5
120
330
1
100
AcDbSymbolTableRecord
100
AcDbBlockTableRecord
  2
SW_DOWELSYMBOL_0
340
0
102
{BLKREFS
331
126
102
}
  0
ENDTAB
  0
ENDSEC
  0
SECTION
  2
BLOCKS
  0
BLOCK
  5
20
330
1F
100
AcDbEntity
  8
0
100
AcDbBlockBegin
  2
*Model_Space
 70
     0
 10
0.0
 20
0.0
 30
0.0
  3
*Model_Space
  1

  0
ENDBLK
  5
21
330
1F
100
AcDbEntity
  8
0
100
AcDbBlockEnd
  0
BLOCK
  5
1C
330
1B
100
AcDbEntity
 67
     1
  8
0
100
AcDbBlockBegin
  2
*Paper_Space
 70
     0
 10
0.0
 20
0.0
 30
0.0
  3
*Paper_Space
  1

  0
ENDBLK
  5
1D
330
1B
100
AcDbEntity
 67
     1
  8
0
100
AcDbBlockEnd
  0
BLOCK
  5
24
330
23
100
AcDbEntity
  8
0
100
AcDbBlockBegin
  2
*Paper_Space0
 70
     0
 10
0.0
 20
0.0
 30
0.0
  3
*Paper_Space0
  1

  0
ENDBLK
  5
25
330
23
100
AcDbEntity
  8
0
100
AcDbBlockEnd
  0
BLOCK
  5
83
330
82
100
AcDbEntity
  8
0
100
AcDbBlockBegin
  2
블럭10
 70
     2
 10
0.0
 20
0.0
 30
0.0
  3
블럭10
  1

  0
ELLIPSE
  5
85
330
82
100
AcDbEntity
  8
중심선
100
AcDbEllipse
 10
20.54032771741204
 20
12.0471743016438
 30
0.0
 11
6.600054785286829
 21
-1.261213355974178E-13
 31
0.0
210
0.0
220
0.0
230
1.0
 40
0.636358354079598
 41
0.9219305317359503
 42
6.513795318482858
  0
ELLIPSE
  5
86
330
82
100
AcDbEntity
  8
중심선
100
AcDbEllipse
 10
20.54032771746488
 20
12.04717430159265
 30
0.0
 11
3.960054785062283
 21
1.540847449632565E-10
 31
0.0
210
0.0
220
0.0
230
1.0
 40
0.3939339440162632
 41
1.131841032648279
 42
5.62031148352944
  0
LINE
  5
87
330
82
100
AcDbEntity
  8
중심선
100
AcDbLine
 10
2.268634060543552
 20
16.24717430164393
 30
0.0
 11
5.714909304380834
 21
16.24717430164393
 31
0.0
  0
LINE
  5
88
330
82
100
AcDbEntity
  8
중심선
100
AcDbLine
 10
5.245725140726316
 20
7.84717430164391
 30
0.0
 11
8.692000384563599
 21
7.84717430164391
 31
0.0
  0
LINE
  5
89
330
82
100
AcDbEntity
  8
중심선
100
AcDbLine
 10
15.74043728645272
 20
16.24717430164393
 30
0.0
 11
8.692000384563599
 21
7.84717430164391
 31
0.0
  0
LINE
  5
8A
330
82
100
AcDbEntity
  8
중심선
100
AcDbLine
 10
0.1404042013395286
 20
13.71084872107135
 30
0.0
 11
3.58671253028996
 21
13.71088815037384
 31
0.0
  0
LINE
  5
8B
330
82
100
AcDbEntity
  8
중심선
100
AcDbLine
 10
2.750260043222114
 20
10.84717430164391
 30
0.0
 11
6.196535287059397
 21
10.84717430164391
 31
0.0
  0
LINE
  5
8C
330
82
100
AcDbEntity
  8
중심선
100
AcDbLine
 10
12.29416204261559
 20
16.24717430164393
 30
0.0
 11
5.245725140726316
 21
7.84717430164391
 31
0.0
  0
LINE
  5
8D
330
82
100
AcDbEntity
  8
중심선
100
AcDbLine
 10
10.72767329541681
 20
16.24717430164393
 30
0.0
 11
6.196535287059397
 21
10.84717430164391
 31
0.0
  0
LINE
  5
8E
330
82
100
AcDbEntity
  8
중심선
100
AcDbLine
 10
7.28139805157953
 20
16.24717430164393
 30
0.0
 11
2.750260043222114
 21
10.84717430164391
 31
0.0
  0
LINE
  5
8F
330
82
100
AcDbEntity
  8
중심선
100
AcDbLine
 10
5.714909304380834
 20
16.24717430164393
 30
0.0
 11
3.58671253028996
 21
13.71088815037384
 31
0.0
  0
LINE
  5
90
330
82
100
AcDbEntity
  8
중심선
100
AcDbLine
 10
2.268634060543552
 20
16.24717430164393
 30
0.0
 11
0.1404042013395286
 21
13.71084872107135
 31
0.0
  0
LINE
  5
91
330
82
100
AcDbEntity
  8
중심선
100
AcDbLine
 10
7.28139805157953
 20
16.24717430164393
 30
0.0
 11
10.72767329541681
 21
16.24717430164393
 31
0.0
  0
LINE
  5
92
330
82
100
AcDbEntity
  8
중심선
100
AcDbLine
 10
12.29416204261559
 20
16.24717430164393
 30
0.0
 11
15.74043728645272
 21
16.24717430164393
 31
0.0
  0
LINE
  5
93
330
82
100
AcDbEntity
  8
중심선
100
AcDbLine
 10
19.22036997980202
 20
11.08717430171403
 30
0.0
 11
23.66174974927406
 21
11.08717430171406
 31
0.0
  0
LINE
  5
94
330
82
100
AcDbEntity
  8
중심선
100
AcDbLine
 10
19.22039502424796
 20
13.00717430171391
 30
0.0
 11
19.22036997980202
 21
11.08717430171403
 31
0.0
  0
LINE
  5
95
330
82
100
AcDbEntity
  8
중심선
100
AcDbLine
 10
19.22039502424796
 20
13.00717430171391
 30
0.0
 11
26.96566020931264
 21
13.00717430171391
 31
0.0
  0
LINE
  5
96
330
82
100
AcDbEntity
  8
중심선
100
AcDbLine
 10
22.22332737316547
 20
13.45928029700563
 30
0.0
 11
24.52862924686651
 21
15.39360700705356
 31
0.0
  0
ATTDEF
  5
98
330
82
100
AcDbEntity
  8
FORMAT
 62
     2
100
AcDbText
 10
-16.11926103943555
 20
2.075366912832191
 30
0.0
 40
4.233333333333333
  1
SEME7202012E [ 4 FLUTE ]
 41
0.75
  7
SLDTEXTSTYLE0
 11
-16.11926103943555
 21
-0.0412997538344756
 31
0.0
100
AcDbAttributeDefinition
  3

  2
AUTOATTR0
 70
     0
 74
     1
  0
ENDBLK
  5
84
330
82
100
AcDbEntity
  8
0
100
AcDbBlockEnd
  0
BLOCK
  5
F0
330
EF
100
AcDbEntity
  8
0
100
AcDbBlockBegin
  2
_D
 70
     0
 10
0.0
 20
0.0
 30
0.0
  3
_D
  1

  0
LINE
  5
F2
330
EF
100
AcDbEntity
  8
치수문자_일반주서
 62
     0
370
    -2
100
AcDbLine
 10
22.52660161513775
 20
-1.000000000000006
 30
0.0
 11
34.99341396831753
 21
-0.9999999999999591
 31
0.0
  0
LINE
  5
F3
330
EF
100
AcDbEntity
  8
치수문자_일반주서
 62
     0
370
    -2
100
AcDbLine
 10
22.52660161513775
 20
1.000000000000005
 30
0.0
 11
34.99341396831752
 21
1.000000000000052
 31
0.0
  0
LINE
  5
F4
330
EF
100
AcDbEntity
  8
치수문자_일반주서
 62
     0
370
    -2
100
AcDbLine
 10
34.99341396831753
 20
-0.9999999999999591
 30
0.0
 11
34.99341396831747
 21
13.72900000000005
 31
0.0
  0
LINE
  5
F5
330
EF
100
AcDbEntity
  8
치수문자_일반주서
 62
     0
370
    -2
100
AcDbLine
 10
34.99341396831753
 20
-0.9999999999999591
 30
0.0
 11
34.99341396831752
 21
1.000000000000052
 31
0.0
  0
LINE
  5
F6
330
EF
100
AcDbEntity
  8
치수문자_일반주서
 62
     0
370
    -2
100
AcDbLine
 10
34.99341396831754
 20
-4.301999999999959
 30
0.0
 11
34.99341396831755
 21
-7.603999999999958
 31
0.0
  0
LINE
  5
F7
330
EF
100
AcDbEntity
  8
치수문자_일반주서
 62
     0
370
    -2
100
AcDbLine
 10
34.9934139683175
 20
4.302000000000051
 30
0.0
 11
34.99341396831749
 21
7.604000000000051
 31
0.0
  0
SOLID
  5
F8
330
EF
100
AcDbEntity
  8
치수문자_일반주서
 62
     0
100
AcDbTrace
 10
35.54374730165087
 20
-4.301999999999957
 30
0.0
 11
34.44308063498421
 21
-4.301999999999961
 31
0.0
 12
34.99341396831753
 22
-0.9999999999999591
 32
0.0
 13
34.99341396831753
 23
-0.9999999999999591
 33
0.0
  0
SOLID
  5
F9
330
EF
100
AcDbEntity
  8
치수문자_일반주서
 62
     0
100
AcDbTrace
 10
34.44308063498417
 20
4.302000000000049
 30
0.0
 11
35.54374730165084
 21
4.302000000000053
 31
0.0
 12
34.99341396831752
 22
1.000000000000052
 32
0.0
 13
34.99341396831752
 23
1.000000000000052
 33
0.0
  0
MTEXT
  5
FA
330
EF
100
AcDbEntity
  8
치수문자_일반주서
 62
     0
100
AcDbMText
 10
30.61841396831748
 20
10.66650000000004
 30
0.0
 40
3.5
 41
0.0
 71
     2
 72
     1
  1
\A1;%%c2
  7
SLDTEXTSTYLE0
 11
-3.552713678800481E-15
 21
1.0
 31
0.0
 73
     1
 44
1.0
  0
POINT
  5
153
330
EF
100
AcDbEntity
  8
Defpoints
 62
     0
100
AcDbPoint
 10
22.46410161513775
 20
-1.000000000000006
 30
0.0
  0
POINT
  5
154
330
EF
100
AcDbEntity
  8
Defpoints
 62
     0
100
AcDbPoint
 10
22.46410161513775
 20
1.000000000000005
 30
0.0
  0
POINT
  5
155
330
EF
100
AcDbEntity
  8
Defpoints
 62
     0
100
AcDbPoint
 10
34.99341396831752
 20
1.000000000000052
 30
0.0
  0
ENDBLK
  5
F1
330
EF
100
AcDbEntity
  8
0
100
AcDbBlockEnd
  0
BLOCK
  5
FE
330
FD
100
AcDbEntity
  8
0
100
AcDbBlockBegin
  2
_D_1
 70
     0
 10
0.0
 20
0.0
 30
0.0
  3
_D_1
  1

  0
LINE
  5
100
330
FD
100
AcDbEntity
  8
치수문자_일반주서
 62
     0
370
    -2
100
AcDbLine
 10
-37.53589838486227
 20
2.562499999999994
 30
0.0
 11
-37.53589838486228
 21
20.38913260158165
 31
0.0
  0
LINE
  5
101
330
FD
100
AcDbEntity
  8
치수문자_일반주서
 62
     0
370
    -2
100
AcDbLine
 10
22.46410161513774
 20
1.062500000000002
 30
0.0
 11
22.46410161513773
 21
20.38913260158165
 31
0.0
  0
LINE
  5
102
330
FD
100
AcDbEntity
  8
치수문자_일반주서
 62
     0
370
    -2
100
AcDbLine
 10
-34.23389838486228
 20
20.38913260158165
 30
0.0
 11
19.16210161513773
 21
20.38913260158165
 31
0.0
  0
SOLID
  5
103
330
FD
100
AcDbEntity
  8
치수문자_일반주서
 62
     0
100
AcDbTrace
 10
-34.23389838486228
 20
20.93946593491498
 30
0.0
 11
-34.23389838486228
 21
19.83879926824831
 31
0.0
 12
-37.53589838486228
 22
20.38913260158165
 32
0.0
 13
-37.53589838486228
 23
20.38913260158165
 33
0.0
  0
SOLID
  5
104
330
FD
100
AcDbEntity
  8
치수문자_일반주서
 62
     0
100
AcDbTrace
 10
19.16210161513773
 20
19.83879926824831
 30
0.0
 11
19.16210161513773
 21
20.93946593491498
 31
0.0
 12
22.46410161513773
 22
20.38913260158165
 32
0.0
 13
22.46410161513773
 23
20.38913260158165
 33
0.0
  0
MTEXT
  5
105
330
FD
100
AcDbEntity
  8
치수문자_일반주서
 62
     0
100
AcDbMText
 10
-7.535898384862268
 20
24.76413260158165
 30
0.0
 40
3.5
 41
0.0
 71
     2
 72
     1
  1
\A1;60
  7
SLDTEXTSTYLE0
 73
     1
 44
1.0
  0
POINT
  5
14C
330
FD
100
AcDbEntity
  8
Defpoints
 62
     0
100
AcDbPoint
 10
-37.53589838486227
 20
2.499999999999994
 30
0.0
  0
POINT
  5
14D
330
FD
100
AcDbEntity
  8
Defpoints
 62
     0
100
AcDbPoint
 10
22.46410161513774
 20
1.000000000000002
 30
0.0
  0
POINT
  5
14E
330
FD
100
AcDbEntity
  8
Defpoints
 62
     0
100
AcDbPoint
 10
22.46410161513774
 20
20.38913260158165
 30
0.0
  0
ENDBLK
  5
FF
330
FD
100
AcDbEntity
  8
0
100
AcDbBlockEnd
  0
BLOCK
  5
109
330
108
100
AcDbEntity
  8
0
100
AcDbBlockBegin
  2
_D_2
 70
     0
 10
0.0
 20
0.0
 30
0.0
  3
_D_2
  1

  0
LINE
  5
10B
330
108
100
AcDbEntity
  8
치수문자_일반주서
 62
     0
370
    -2
100
AcDbLine
 10
-37.09839838486226
 20
3.000000000000003
 30
0.0
 11
-45.25956768467609
 21
2.999999999999972
 31
0.0
  0
LINE
  5
10C
330
108
100
AcDbEntity
  8
치수문자_일반주서
 62
     0
370
    -2
100
AcDbLine
 10
-37.09839838486226
 20
-3.000000000000003
 30
0.0
 11
-45.25956768467606
 21
-3.000000000000034
 31
0.0
  0
LINE
  5
10D
330
108
100
AcDbEntity
  8
치수문자_일반주서
 62
     0
370
    -2
100
AcDbLine
 10
-45.25956768467609
 20
2.999999999999972
 30
0.0
 11
-45.25956768467614
 21
15.72899999999997
 31
0.0
  0
LINE
  5
10E
330
108
100
AcDbEntity
  8
치수문자_일반주서
 62
     0
370
    -2
100
AcDbLine
 10
-45.25956768467609
 20
2.999999999999972
 30
0.0
 11
-45.25956768467606
 21
-3.000000000000034
 31
0.0
  0
LINE
  5
10F
330
108
100
AcDbEntity
  8
치수문자_일반주서
 62
     0
370
    -2
100
AcDbLine
 10
-45.2595676846761
 20
6.301999999999971
 30
0.0
 11
-45.25956768467611
 21
9.60399999999997
 31
0.0
  0
LINE
  5
110
330
108
100
AcDbEntity
  8
치수문자_일반주서
 62
     0
370
    -2
100
AcDbLine
 10
-45.25956768467605
 20
-6.302000000000033
 30
0.0
 11
-45.25956768467604
 21
-9.604000000000033
 31
0.0
  0
SOLID
  5
111
330
108
100
AcDbEntity
  8
치수문자_일반주서
 62
     0
100
AcDbTrace
 10
-45.80990101800943
 20
6.301999999999969
 30
0.0
 11
-44.70923435134277
 21
6.301999999999973
 31
0.0
 12
-45.25956768467609
 22
2.999999999999972
 32
0.0
 13
-45.25956768467609
 23
2.999999999999972
 33
0.0
  0
SOLID
  5
112
330
108
100
AcDbEntity
  8
치수문자_일반주서
 62
     0
100
AcDbTrace
 10
-44.70923435134272
 20
-6.302000000000032
 30
0.0
 11
-45.80990101800938
 21
-6.302000000000035
 31
0.0
 12
-45.25956768467606
 22
-3.000000000000034
 32
0.0
 13
-45.25956768467606
 23
-3.000000000000034
 33
0.0
  0
MTEXT
  5
113
330
108
100
AcDbEntity
  8
치수문자_일반주서
 62
     0
100
AcDbMText
 10
-49.63456768467612
 20
12.66649999999996
 30
0.0
 40
3.5
 41
0.0
 71
     2
 72
     1
  1
\A1;%%c6
  7
SLDTEXTSTYLE0
 11
-3.552713678800498E-15
 21
1.0
 31
0.0
 73
     1
 44
1.0
  0
POINT
  5
150
330
108
100
AcDbEntity
  8
Defpoints
 62
     0
100
AcDbPoint
 10
-37.03589838486226
 20
3.000000000000003
 30
0.0
  0
POINT
  5
151
330
108
100
AcDbEntity
  8
Defpoints
 62
     0
100
AcDbPoint
 10
-37.03589838486226
 20
-3.000000000000002
 30
0.0
  0
POINT
  5
152
330
108
100
AcDbEntity
  8
Defpoints
 62
     0
100
AcDbPoint
 10
-45.25956768467606
 20
-3.000000000000033
 30
0.0
  0
ENDBLK
  5
10A
330
108
100
AcDbEntity
  8
0
100
AcDbBlockEnd
  0
BLOCK
  5
116
330
115
100
AcDbEntity
  8
0
100
AcDbBlockBegin
  2
_D_3
 70
     0
 10
0.0
 20
0.0
 30
0.0
  3
_D_3
  1

  0
LINE
  5
118
330
115
100
AcDbEntity
  8
치수문자_일반주서
 62
     0
370
    -2
100
AcDbLine
 10
10.46410161513773
 20
0.9750338175790506
 30
0.0
 11
10.46410161513773
 21
11.7584521201667
 31
0.0
  0
LINE
  5
119
330
115
100
AcDbEntity
  8
치수문자_일반주서
 62
     0
370
    -2
100
AcDbLine
 10
22.46410161513774
 20
1.062500000000002
 30
0.0
 11
22.46410161513774
 21
11.7584521201667
 31
0.0
  0
LINE
  5
11A
330
115
100
AcDbEntity
  8
치수문자_일반주서
 62
     0
370
    -2
100
AcDbLine
 10
13.76610161513773
 20
11.7584521201667
 30
0.0
 11
19.16210161513774
 21
11.7584521201667
 31
0.0
  0
SOLID
  5
11B
330
115
100
AcDbEntity
  8
치수문자_일반주서
 62
     0
100
AcDbTrace
 10
13.76610161513773
 20
12.30878545350003
 30
0.0
 11
13.76610161513773
 21
11.20811878683337
 31
0.0
 12
10.46410161513773
 22
11.7584521201667
 32
0.0
 13
10.46410161513773
 23
11.7584521201667
 33
0.0
  0
SOLID
  5
11C
330
115
100
AcDbEntity
  8
치수문자_일반주서
 62
     0
100
AcDbTrace
 10
19.16210161513774
 20
11.20811878683337
 30
0.0
 11
19.16210161513774
 21
12.30878545350003
 31
0.0
 12
22.46410161513774
 22
11.7584521201667
 32
0.0
 13
22.46410161513774
 23
11.7584521201667
 33
0.0
  0
MTEXT
  5
11D
330
115
100
AcDbEntity
  8
치수문자_일반주서
 62
     0
100
AcDbMText
 10
16.46410161513774
 20
16.1334521201667
 30
0.0
 40
3.5
 41
0.0
 71
     2
 72
     1
  1
\A1;12
  7
SLDTEXTSTYLE0
 73
     1
 44
1.0
  0
POINT
  5
11E
330
115
100
AcDbEntity
  8
Defpoints
 62
     0
100
AcDbPoint
 10
10.46410161513773
 20
0.9125338175790506
 30
0.0
  0
POINT
  5
11F
330
115
100
AcDbEntity
  8
Defpoints
 62
     0
100
AcDbPoint
 10
22.46410161513774
 20
1.000000000000002
 30
0.0
  0
POINT
  5
14F
330
115
100
AcDbEntity
  8
Defpoints
 62
     0
100
AcDbPoint
 10
22.46410161513774
 20
11.7584521201667
 30
0.0
  0
ENDBLK
  5
117
330
115
100
AcDbEntity
  8
0
100
AcDbBlockEnd
  0
BLOCK
  5
121
330
120
100
AcDbEntity
  8
0
100
AcDbBlockBegin
  2
SW_DOWELSYMBOL_0
 70
     0
 10
0.0
 20
0.0
 30
0.0
  3
SW_DOWELSYMBOL_0
  1

  0
CIRCLE
  5
123
330
120
100
AcDbEntity
  8
해칭선
 62
     0
100
AcDbCircle
 10
0.0
 20
0.0
 30
0.0
 40
3.0
  0
HATCH
  5
124
330
120
100
AcDbEntity
  8
0
  6
Continuous
 62
     0
370
    18
100
AcDbHatch
 10
0.0
 20
0.0
 30
0.0
210
0.0
220
0.0
230
1.0
  2
SOLID
 70
     1
 71
     0
 91
        1
 92
        0
 93
        3
 72
     2
 10
-0.0000077253528973
 20
-0.0000000000000044
 40
3.0
 50
0.0
 51
90.0
 73
     1
 72
     1
 10
-0.0000077253528973
 20
2.999999999999995
 11
-0.0000077253528973
 21
-0.0000000000000044
 72
     1
 10
-0.0000077253528973
 20
-0.0000000000000044
 11
2.999992274647102
 21
-0.0000000000000044
 97
        0
 75
     0
 76
     1
 98
        1
 10
0.0
 20
0.0
  0
HATCH
  5
125
330
120
100
AcDbEntity
  8
0
  6
Continuous
 62
     0
370
    18
100
AcDbHatch
 10
0.0
 20
0.0
 30
0.0
210
0.0
220
0.0
230
1.0
  2
SOLID
 70
     1
 71
     0
 91
        1
 92
        0
 93
        3
 72
     2
 10
-0.0000077253528973
 20
-0.0000000000000044
 40
3.0
 50
180.0
 51
270.0000000000008
 73
     1
 72
     1
 10
-0.0000077253528973
 20
-3.000000000000004
 11
-0.0000077253528973
 21
-0.0000000000000044
 72
     1
 10
-0.0000077253528973
 20
-0.0000000000000044
 11
-3.000007725352897
 21
-0.0000000000000044
 97
        0
 75
     0
 76
     1
 98
        1
 10
0.0
 20
0.0
  0
ENDBLK
  5
122
330
120
100
AcDbEntity
  8
0
100
AcDbBlockEnd
  0
ENDSEC
  0
SECTION
  2
ENTITIES
  0
LINE
  5
99
330
1F
100
AcDbEntity
  8
0
  6
Continuous
 62
     4
370
    25
100
AcDbLine
 10
2.0
 20
2.999999999999998
 30
0.0
 11
-37.03589838486227
 21
2.999999999999995
 31
0.0
  0
LINE
  5
9A
330
1F
100
AcDbEntity
  8
0
  6
Continuous
 62
     4
370
    25
100
AcDbLine
 10
-37.03589838486227
 20
-3.0
 30
0.0
 11
2.0
 21
-2.999999999999998
 31
0.0
  0
LINE
  5
9B
330
1F
100
AcDbEntity
  8
0
  6
Continuous
 62
     4
370
    25
100
AcDbLine
 10
2.0
 20
-2.999999999999999
 30
0.0
 11
9.238723922888603
 21
-1.060389770630143
 31
0.0
  0
LINE
  5
9C
330
1F
100
AcDbEntity
  8
0
  6
Continuous
 62
     4
370
    25
100
AcDbLine
 10
9.24000218298157
 20
1.060047261870518
 30
0.0
 11
2.0
 21
2.999999999999999
 31
0.0
  0
LINE
  5
9D
330
1F
100
AcDbEntity
  8
0
  6
Continuous
 62
     4
370
    25
100
AcDbLine
 10
-37.03589838486227
 20
2.999999999999994
 30
0.0
 11
-37.53589838486227
 21
2.499999999999994
 31
0.0
  0
LINE
  5
9E
330
1F
100
AcDbEntity
  8
0
  6
Continuous
 62
     4
370
    25
100
AcDbLine
 10
-37.53589838486227
 20
-2.5
 30
0.0
 11
-37.03589838486227
 21
-2.999999999999999
 31
0.0
  0
LINE
  5
9F
330
1F
100
AcDbEntity
  8
0
  6
Continuous
 62
     1
370
    25
100
AcDbLine
 10
16.63693355105158
 20
-1.000000000000001
 30
0.0
 11
17.40969769719511
 21
-1.000000000000001
 31
0.0
  0
LINE
  5
A0
330
1F
100
AcDbEntity
  8
0
  6
Continuous
 62
     1
370
    25
100
AcDbLine
 10
11.9670282230736
 20
1.000000000000002
 30
0.0
 11
11.19306481730228
 21
1.000000000000002
 31
0.0
  0
LINE
  5
A1
330
1F
100
AcDbEntity
  8
0
  6
Continuous
 62
     1
370
    25
100
AcDbLine
 10
22.46410161513774
 20
1.000000000000002
 30
0.0
 11
22.0763498618618
 21
1.000000000000002
 31
0.0
  0
LINE
  5
A2
330
1F
100
AcDbEntity
  8
0
  6
Continuous
 62
     1
370
    25
100
AcDbLine
 10
19.35671223925554
 20
-1.000000000000001
 30
0.0
 11
20.13152272324484
 21
-1.000000000000001
 31
0.0
  0
LINE
  5
A3
330
1F
100
AcDbEntity
  8
0
  6
Continuous
 62
     1
370
    25
100
AcDbLine
 10
14.6879373342992
 20
1.000000000000002
 30
0.0
 11
13.91615652922027
 21
1.000000000000002
 31
0.0
  0
LINE
  5
A4
330
1F
100
AcDbEntity
  8
0
  6
Continuous
 62
     1
370
    25
100
AcDbLine
 10
22.0763498618618
 20
-1.000000000000001
 30
0.0
 11
22.46410161513774
 21
-1.000000000000001
 31
0.0
  0
LINE
  5
A5
330
1F
100
AcDbEntity
  8
0
  6
Continuous
 62
     1
370
    25
100
AcDbLine
 10
11.19306481730229
 20
-1.000000000000001
 30
0.0
 11
11.96702822307362
 21
-1.000000000000001
 31
0.0
  0
LINE
  5
A6
330
1F
100
AcDbEntity
  8
0
  6
Continuous
 62
     1
370
    25
100
AcDbLine
 10
17.40969769719511
 20
1.000000000000002
 30
0.0
 11
16.63693355105158
 21
1.000000000000002
 31
0.0
  0
LINE
  5
A7
330
1F
100
AcDbEntity
  8
0
  6
Continuous
 62
     1
370
    25
100
AcDbLine
 10
14.37799093407013
 20
0.1759411299312851
 30
0.0
 11
14.4389573358284
 21
0.1432770072426263
 31
0.0
  0
LINE
  5
A8
330
1F
100
AcDbEntity
  8
0
  6
Continuous
 62
     1
370
    25
100
AcDbLine
 10
16.9106113227891
 20
-0.1561741386726261
 30
0.0
 11
16.88575066269044
 21
-0.1432770072426459
 31
0.0
  0
SPLINE
  5
A9
330
1F
100
AcDbEntity
  8
0
  6
Continuous
 62
     1
370
    25
100
AcDbSpline
210
0.0
220
0.0
230
1.0
 70
     8
 71
     3
 72
     9
 73
     5
 74
     0
 42
0.000000001
 43
0.00000001
 40
0.0
 40
0.0
 40
0.0
 40
0.0
 40
0.4296946458702914
 40
1.0
 40
1.0
 40
1.0
 40
1.0
 10
11.56775711241574
 20
-0.2125513253301475
 30
0.0
 10
11.53307066412702
 20
-0.1950322681585498
 30
0.0
 10
11.45234718148168
 20
-0.1542613222322513
 30
0.0
 10
11.38905208164873
 20
-0.1139715826111949
 30
0.0
 10
11.35295454732383
 20
-0.0909941283888147
 30
0.0
  0
LINE
  5
AA
330
1F
100
AcDbEntity
  8
0
  6
Continuous
 62
     1
370
    25
100
AcDbLine
 10
22.25352031441666
 20
-0.1014473832271834
 30
0.0
 11
22.23575073272913
 21
-0.0909941283888142
 31
0.0
  0
SPLINE
  5
AB
330
1F
100
AcDbEntity
  8
0
  6
Continuous
 62
     1
370
    25
100
AcDbSpline
210
0.0
220
0.0
230
1.0
 70
     8
 71
     3
 72
     9
 73
     5
 74
     0
 42
0.000000001
 43
0.00000001
 40
0.0
 40
0.0
 40
0.0
 40
0.0
 40
0.5416415383375714
 40
1.0
 40
1.0
 40
1.0
 40
1.0
 10
22.46410161513774
 20
-0.222645062465809
 30
0.0
 10
22.42641322910555
 20
-0.201609633185808
 30
0.0
 10
22.35683144232483
 20
-0.1627731928630002
 30
0.0
 10
22.28599074669064
 20
-0.1207219336918431
 30
0.0
 10
22.25352031441666
 20
-0.1014473832271834
 30
0.0
  0
LINE
  5
AC
330
1F
100
AcDbEntity
  8
0
  6
Continuous
 62
     1
370
    25
100
AcDbLine
 10
19.77121820935132
 20
0.2001895217674236
 30
0.0
 11
19.88035542853106
 21
0.1432770072426258
 31
0.0
  0
LINE
  5
AD
330
1F
100
AcDbEntity
  8
0
  6
Continuous
 62
     1
370
    25
100
AcDbLine
 10
13.91615652922028
 20
-1.000000000000001
 30
0.0
 11
14.68793733429919
 21
-1.000000000000001
 31
0.0
  0
LINE
  5
AE
330
1F
100
AcDbEntity
  8
0
  6
Continuous
 62
     1
370
    25
100
AcDbLine
 10
20.13152272324486
 20
1.000000000000002
 30
0.0
 11
19.35671223925556
 21
1.000000000000002
 31
0.0
  0
LINE
  5
AF
330
1F
100
AcDbEntity
  8
0
  6
Continuous
 62
     4
370
    25
100
AcDbLine
 10
2.0
 20
2.999999999999999
 30
0.0
 11
2.0
 21
-3.0
 31
0.0
  0
LINE
  5
B0
330
1F
100
AcDbEntity
  8
0
  6
Continuous
 62
     4
370
    25
100
AcDbLine
 10
-37.03589838486227
 20
2.999999999999994
 30
0.0
 11
-37.03589838486227
 21
-2.999999999999999
 31
0.0
  0
LINE
  5
B1
330
1F
100
AcDbEntity
  8
0
  6
Continuous
 62
     4
370
    25
100
AcDbLine
 10
9.464101615137732
 20
0.9922343453353178
 30
0.0
 11
9.239763886952968
 21
1.059157928984539
 31
0.0
  0
LINE
  5
B2
330
1F
100
AcDbEntity
  8
0
  6
Continuous
 62
     4
370
    25
100
AcDbLine
 10
9.464101615137732
 20
0.9922343453353178
 30
0.0
 11
9.464101615137732
 21
0.8411651154981686
 31
0.0
  0
SPLINE
  5
B3
330
1F
100
AcDbEntity
  8
0
  6
Continuous
 62
     4
370
    25
100
AcDbSpline
210
0.0
220
0.0
230
1.0
 70
     8
 71
     3
 72
     8
 73
     4
 74
     0
 42
0.000000001
 43
0.00000001
 40
0.0
 40
0.0
 40
0.0
 40
0.0
 40
1.0
 40
1.0
 40
1.0
 40
1.0
 10
9.26721942375761
 20
0.946780429944926
 30
0.0
 10
9.332706404583085
 20
0.9132158987631931
 30
0.0
 10
9.398325473930651
 20
0.8780078915477955
 30
0.0
 10
9.464101615137704
 20
0.8411651154981873
 30
0.0
  0
SPLINE
  5
B4
330
1F
100
AcDbEntity
  8
0
  6
Continuous
 62
     4
370
    25
100
AcDbSpline
210
0.0
220
0.0
230
1.0
 70
     8
 71
     3
 72
    10
 73
     6
 74
     0
 42
0.000000001
 43
0.00000001
 40
0.0
 40
0.0
 40
0.0
 40
0.0
 40
0.5
 40
0.5
 40
1.0
 40
1.0
 40
1.0
 40
1.0
 10
8.963920206601408
 20
0.933662477456545
 30
0.0
 10
8.963920206601408
 20
0.9749258804773466
 30
0.0
 10
9.006628856158706
 20
0.9972495994096345
 30
0.0
 10
9.128726352725423
 20
0.9970820296348254
 30
0.0
 10
9.20706980011262
 20
0.9776093656044006
 30
0.0
 10
9.267219423757652
 20
0.9467804299449045
 30
0.0
  0
LINE
  5
B5
330
1F
100
AcDbEntity
  8
0
  6
Continuous
 62
     4
370
    25
100
AcDbLine
 10
8.963920206601408
 20
0.933662477456545
 30
0.0
 11
8.963920206601408
 21
0.2840100422568146
 31
0.0
  0
SPLINE
  5
B6
330
1F
100
AcDbEntity
  8
0
  6
Continuous
 62
     4
370
    25
100
AcDbSpline
210
0.0
220
0.0
230
1.0
 70
     8
 71
     3
 72
     8
 73
     4
 74
     0
 42
0.000000001
 43
0.00000001
 40
0.0
 40
0.0
 40
0.0
 40
0.0
 40
1.0
 40
1.0
 40
1.0
 40
1.0
 10
9.056300730804946
 20
0.114590375117696
 30
0.0
 10
9.000394608756451
 20
0.1519367714897718
 30
0.0
 10
8.96392020660106
 20
0.2179542902673369
 30
0.0
 10
8.963920206601006
 20
0.284010042256683
 30
0.0
  0
SPLINE
  5
B7
330
1F
100
AcDbEntity
  8
0
  6
Continuous
 62
     4
370
    25
100
AcDbSpline
210
0.0
220
0.0
230
1.0
 70
     8
 71
     3
 72
     8
 73
     4
 74
     0
 42
0.000000001
 43
0.00000001
 40
0.0
 40
0.0
 40
0.0
 40
0.0
 40
1.0
 40
1.0
 40
1.0
 40
1.0
 10
9.464101615137732
 20
-0.1243824904759308
 30
0.0
 10
9.324843741122589
 20
-0.0541824153606548
 30
0.0
 10
9.189329843835086
 20
0.0257242938692096
 30
0.0
 10
9.056300730804942
 20
0.1145903751176963
 30
0.0
  0
LINE
  5
B8
330
1F
100
AcDbEntity
  8
0
  6
Continuous
 62
     4
370
    25
100
AcDbLine
 10
9.464101615137732
 20
-0.1243824904759309
 30
0.0
 11
9.464101615137732
 21
-0.5407783727821814
 31
0.0
  0
SPLINE
  5
B9
330
1F
100
AcDbEntity
  8
0
  6
Continuous
 62
     4
370
    25
100
AcDbSpline
210
0.0
220
0.0
230
1.0
 70
     8
 71
     3
 72
     8
 73
     4
 74
     0
 42
0.000000001
 43
0.00000001
 40
0.0
 40
0.0
 40
0.0
 40
0.0
 40
1.0
 40
1.0
 40
1.0
 40
1.0
 10
9.26721942375761
 20
-0.4603245541061995
 30
0.0
 10
9.332706404583085
 20
-0.4892288694402798
 30
0.0
 10
9.398325473930651
 20
-0.5160617888244753
 30
0.0
 10
9.464101615137704
 20
-0.5407783727821717
 30
0.0
  0
SPLINE
  5
BA
330
1F
100
AcDbEntity
  8
0
  6
Continuous
 62
     4
370
    25
100
AcDbSpline
210
0.0
220
0.0
230
1.0
 70
     8
 71
     3
 72
    10
 73
     6
 74
     0
 42
0.000000001
 43
0.00000001
 40
0.0
 40
0.0
 40
0.0
 40
0.0
 40
0.5
 40
0.5
 40
1.0
 40
1.0
 40
1.0
 40
1.0
 10
8.963920206601408
 20
-0.6436482008855747
 30
0.0
 10
8.963920206601408
 20
-0.5837923805171148
 30
0.0
 10
9.006628856158706
 20
-0.5165507156009869
 30
0.0
 10
9.128726352725423
 20
-0.4413351462604605
 30
0.0
 10
9.20706980011262
 20
-0.4337760147301894
 30
0.0
 10
9.267219423757652
 20
-0.460324554106218
 30
0.0
  0
LINE
  5
BB
330
1F
100
AcDbEntity
  8
0
  6
Continuous
 62
     4
370
    25
100
AcDbLine
 10
8.963920206601408
 20
-0.6436482008855747
 30
0.0
 11
8.963920206601408
 21
-1.097882928280977
 31
0.0
  0
SPLINE
  5
BC
330
1F
100
AcDbEntity
  8
0
  6
Continuous
 62
     4
370
    25
100
AcDbSpline
210
0.0
220
0.0
230
1.0
 70
     8
 71
     3
 72
     8
 73
     4
 74
     0
 42
0.000000001
 43
0.00000001
 40
0.0
 40
0.0
 40
0.0
 40
0.0
 40
1.0
 40
1.0
 40
1.0
 40
1.0
 10
9.056300730804946
 20
-1.103335305375723
 30
0.0
 10
9.000394608756451
 20
-1.114517151926912
 30
0.0
 10
8.96392020660106
 20
-1.114970813000441
 30
0.0
 10
8.963920206601006
 20
-1.097882928281124
 30
0.0
  0
SPLINE
  5
BD
330
1F
100
AcDbEntity
  8
0
  6
Continuous
 62
     4
370
    25
100
AcDbSpline
210
0.0
220
0.0
230
1.0
 70
     8
 71
     3
 72
     8
 73
     4
 74
     0
 42
0.000000001
 43
0.00000001
 40
0.0
 40
0.0
 40
0.0
 40
0.0
 40
1.0
 40
1.0
 40
1.0
 40
1.0
 10
9.464101615137732
 20
-0.9922343453353171
 30
0.0
 10
9.324843741122589
 20
-1.038640413894563
 30
0.0
 10
9.189329843835086
 20
-1.076728002378495
 30
0.0
 10
9.056300730804942
 20
-1.103335305375713
 30
0.0
  0
LINE
  5
BE
330
1F
100
AcDbEntity
  8
0
  6
Continuous
 62
     4
370
    25
100
AcDbLine
 10
-37.53589838486227
 20
2.499999999999994
 30
0.0
 11
-37.53589838486227
 21
-2.500000000000001
 31
0.0
  0
SPLINE
  5
BF
330
1F
100
AcDbEntity
  8
0
  6
Continuous
 62
     4
370
    25
100
AcDbSpline
210
0.0
220
0.0
230
1.0
 70
     8
 71
     3
 72
    12
 73
     8
 74
     0
 42
0.000000001
 43
0.00000001
 40
0.0
 40
0.0
 40
0.0
 40
0.0
 40
0.5
 40
0.5
 40
0.75
 40
0.75
 40
1.0
 40
1.0
 40
1.0
 40
1.0
 10
10.46410161513773
 20
0.4090012613361979
 30
0.0
 10
10.29589274363077
 20
0.4971905103485604
 30
0.0
 10
10.1330829098096
 20
0.5787494591132265
 30
0.0
 10
9.880622405077162
 20
0.6886801480808249
 30
0.0
 10
9.796028791944334
 20
0.7230901280057311
 30
0.0
 10
9.628611805939656
 20
0.7863901562078645
 30
0.0
 10
9.546955280698768
 20
0.8151640181638593
 30
0.0
 10
9.464101615137729
 20
0.8411651154981702
 30
0.0
  0
SPLINE
  5
C0
330
1F
100
AcDbEntity
  8
0
  6
Continuous
 62
     4
370
    25
100
AcDbSpline
210
0.0
220
0.0
230
1.0
 70
    24
 71
     3
 72
    16
 73
    12
 74
     0
 42
0.000000001
 43
0.00000001
 40
0.0
 40
0.0
 40
0.0
 40
0.0
 40
0.1249999999999999
 40
0.1249999999999999
 40
0.25
 40
0.25
 40
0.5
 40
0.5
 40
0.75
 40
0.75
 40
1.0
 40
1.0
 40
1.0
 40
1.0
 10
10.46410161513773
 20
0.4090012613362001
 30
0.0
 10
10.46410161513773
 20
0.3901736538398889
 30
0.0
 10
10.46410161513773
 20
0.3714124818541276
 30
0.0
 10
10.46410161513773
 20
0.3262299279277399
 30
0.0
 10
10.46410161513773
 20
0.3001013748977158
 30
0.0
 10
10.46410161513773
 20
0.2088911415192983
 30
0.0
 10
10.46410161513773
 20
0.1302577722960649
 30
0.0
 10
10.46410161513773
 20
-0.0652375051479264
 30
0.0
 10
10.46410161513773
 20
-0.1828632229466454
 30
0.0
 10
10.46410161513773
 20
-0.4256107283440396
 30
0.0
 10
10.46410161513773
 20
-0.5489308259576917
 30
0.0
 10
10.46410161513773
 20
-0.6463416701867901
 30
0.0
  0
SPLINE
  5
C1
330
1F
100
AcDbEntity
  8
0
  6
Continuous
 62
     4
370
    25
100
AcDbSpline
210
0.0
220
0.0
230
1.0
 70
     8
 71
     3
 72
    12
 73
     8
 74
     0
 42
0.000000001
 43
0.00000001
 40
0.0
 40
0.0
 40
0.0
 40
0.0
 40
0.5
 40
0.5
 40
0.75
 40
0.75
 40
1.0
 40
1.0
 40
1.0
 40
1.0
 10
10.46410161513773
 20
-0.646341670186791
 30
0.0
 10
10.29589274363076
 20
-0.5725990427279297
 30
0.0
 10
10.1330829098096
 20
-0.4906574637482056
 30
0.0
 10
9.880622405077162
 20
-0.357907592262024
 30
0.0
 10
9.796028791944334
 20
-0.3121651710184253
 30
0.0
 10
9.628611805939656
 20
-0.219141774645156
 30
0.0
 10
9.546955280698768
 20
-0.1720899859861109
 30
0.0
 10
9.464101615137729
 20
-0.1243824904759281
 30
0.0
  0
SPLINE
  5
C2
330
1F
100
AcDbEntity
  8
0
  6
Continuous
 62
     4
370
    25
100
AcDbSpline
210
0.0
220
0.0
230
1.0
 70
     8
 71
     3
 72
    12
 73
     8
 74
     0
 42
0.000000001
 43
0.00000001
 40
0.0
 40
0.0
 40
0.0
 40
0.0
 40
0.5
 40
0.5
 40
0.75
 40
0.75
 40
1.0
 40
1.0
 40
1.0
 40
1.0
 10
10.46410161513773
 20
-0.9125338175790473
 30
0.0
 10
10.29589274363077
 20
-0.8730070478445943
 30
0.0
 10
10.1330829098096
 20
-0.8212139813848316
 30
0.0
 10
9.880622405077162
 20
-0.7266742657826896
 30
0.0
 10
9.796028791944334
 20
-0.692436472006365
 30
0.0
 10
9.628611805939656
 20
-0.6196112678150211
 30
0.0
 10
9.546955280698768
 20
-0.5812223275390462
 30
0.0
 10
9.464101615137729
 20
-0.540778372782179
 30
0.0
  0
SPLINE
  5
C3
330
1F
100
AcDbEntity
  8
0
  6
Continuous
 62
     4
370
    25
100
AcDbSpline
210
0.0
220
0.0
230
1.0
 70
     8
 71
     3
 72
     9
 73
     5
 74
     0
 42
0.000000001
 43
0.00000001
 40
0.0
 40
0.0
 40
0.0
 40
0.0
 40
0.3385003956857396
 40
1.0
 40
1.0
 40
1.0
 40
1.0
 10
10.22086385208377
 20
-0.8373467175845327
 30
0.0
 10
10.13550771701195
 20
-0.8656211959161528
 30
0.0
 10
9.883348085414166
 20
-0.9491498378084053
 30
0.0
 10
9.63101791982892
 20
-0.9750809348818191
 30
0.0
 10
9.464101615137732
 20
-0.9922343453353173
 30
0.0
  0
LINE
  5
C4
330
1F
100
AcDbEntity
  8
0
  6
Continuous
 62
     4
370
    25
100
AcDbLine
 10
10.46410161513773
 20
-0.6463416701867909
 30
0.0
 11
10.46410161513773
 21
-0.9125338175790497
 31
0.0
  0
SPLINE
  5
C5
330
1F
100
AcDbEntity
  8
0
  6
Continuous
 62
     4
370
    25
100
AcDbSpline
210
0.0
220
0.0
230
1.0
 70
     8
 71
     3
 72
    12
 73
     8
 74
     0
 42
0.000000001
 43
0.00000001
 40
0.0
 40
0.0
 40
0.0
 40
0.0
 40
0.5
 40
0.5
 40
0.75
 40
0.75
 40
1.0
 40
1.0
 40
1.0
 40
1.0
 10
10.46410161513773
 20
0.7630481278269108
 30
0.0
 10
10.29589274363076
 20
0.8255119898790492
 30
0.0
 10
10.1330829098096
 20
0.8766975492802357
 30
0.0
 10
9.880622405077162
 20
0.9350069466654523
 30
0.0
 10
9.796028791944334
 20
0.9512520733154888
 30
0.0
 10
9.628611805939656
 20
0.9768850923160565
 30
0.0
 10
9.546955280698768
 20
0.9862539263608876
 30
0.0
 10
9.464101615137729
 20
0.9922343453353185
 30
0.0
  0
LINE
  5
C6
330
1F
100
AcDbEntity
  8
0
  6
Continuous
 62
     4
370
    25
100
AcDbLine
 10
10.46410161513773
 20
0.7630481278269108
 30
0.0
 11
10.46410161513773
 21
0.4090012613361994
 31
0.0
  0
LINE
  5
C7
330
1F
100
AcDbEntity
  8
0
  6
Continuous
 62
     4
370
    25
100
AcDbLine
 10
10.22086385208377
 20
0.8373467175845337
 30
0.0
 11
10.46410161513773
 21
0.912533817579049
 31
0.0
  0
SPLINE
  5
C8
330
1F
100
AcDbEntity
  8
0
  6
Continuous
 62
     4
370
    25
100
AcDbSpline
210
0.0
220
0.0
230
1.0
 70
    24
 71
     3
 72
     9
 73
     5
 74
     0
 42
0.000000001
 43
0.00000001
 40
0.0
 40
0.0
 40
0.0
 40
0.0
 40
0.8055328305340217
 40
1.0
 40
1.0
 40
1.0
 40
1.0
 10
10.46410161513773
 20
0.9125338175790506
 30
0.0
 10
10.46410161513773
 20
0.8793379318996499
 30
0.0
 10
10.46410161513773
 20
0.8381280836835394
 30
0.0
 10
10.46410161513773
 20
0.8093359967345818
 30
0.0
 10
10.46410161513773
 20
0.8037368810825997
 30
0.0
  0
SPLINE
  5
C9
330
1F
100
AcDbEntity
  8
0
  6
Continuous
 62
     1
370
    25
100
AcDbSpline
210
0.0
220
0.0
230
1.0
 70
     8
 71
     3
 72
    18
 73
    14
 74
     0
 42
0.000000001
 43
0.00000001
 40
0.0
 40
0.0
 40
0.0
 40
0.0
 40
0.1011887355495604
 40
0.2024088908766568
 40
0.3036717071346129
 40
0.3950262763864906
 40
0.4862411154084089
 40
0.5772838647614706
 40
0.6682647335312105
 40
0.7592952757238807
 40
0.8504859652704653
 40
0.9418469028618325
 40
1.0
 40
1.0
 40
1.0
 40
1.0
 10
10.46410161513773
 20
0.912533817579049
 30
0.0
 10
10.67231406630546
 20
0.9501572916613832
 30
0.0
 10
11.08880361999623
 20
1.025415922165784
 30
0.0
 10
11.71371505716836
 20
0.9748053663909694
 30
0.0
 10
12.31839375291172
 20
0.8123733701946559
 30
0.0
 10
12.90269573524659
 20
0.5618214549185994
 30
0.0
 10
13.46571291879757
 20
0.2617565148132683
 30
0.0
 10
14.02772235284727
 20
-0.0658683499742197
 30
0.0
 10
14.5892809834544
 20
-0.3861673292800318
 30
0.0
 10
15.15120968829908
 20
-0.6673275698177934
 30
0.0
 10
15.71409819099709
 20
-0.8745112383865498
 30
0.0
 10
16.20970148957677
 20
-0.9901318258399073
 30
0.0
 10
16.51729561245226
 20
-0.9884885883666484
 30
0.0
 10
16.63693355105158
 20
-0.987849455401129
 30
0.0
  0
SPLINE
  5
CA
330
1F
100
AcDbEntity
  8
0
  6
Continuous
 62
     1
370
    25
100
AcDbSpline
210
0.0
220
0.0
230
1.0
 70
     8
 71
     3
 72
    10
 73
     6
 74
     0
 42
0.000000001
 43
0.00000001
 40
0.0
 40
0.0
 40
0.0
 40
0.0
 40
0.1790441339930107
 40
0.6380471335541843
 40
1.0
 40
1.0
 40
1.0
 40
1.0
 10
21.10335444907376
 20
0.8352019729022259
 30
0.0
 10
21.18452953105458
 20
0.8626125737039808
 30
0.0
 10
21.47380752759539
 20
0.9602938262561618
 30
0.0
 10
21.92754818681933
 20
1.015860919449185
 30
0.0
 10
22.29992407036767
 20
0.9876178440884752
 30
0.0
 10
22.46410161513774
 20
0.975165698355263
 30
0.0
  0
SPLINE
  5
CB
330
1F
100
AcDbEntity
  8
0
  6
Continuous
 62
     1
370
    25
100
AcDbSpline
210
0.0
220
0.0
230
1.0
 70
     8
 71
     3
 72
    19
 73
    15
 74
     0
 42
0.000000001
 43
0.00000001
 40
0.0
 40
0.0
 40
0.0
 40
0.0
 40
0.0651244539002908
 40
0.1526694891733135
 40
0.240250275748132
 40
0.3279733464108405
 40
0.4158827518837714
 40
0.5036283411263274
 40
0.5912198332345732
 40
0.6787635285360792
 40
0.7663667666294345
 40
0.8541355930023767
 40
0.942038870725821
 40
1.0
 40
1.0
 40
1.0
 40
1.0
 10
18.38137876161363
 20
-0.8376783840573927
 30
0.0
 10
18.24215188488501
 20
-0.8792394141563002
 30
0.0
 10
17.915766097729
 20
-0.9766698086503818
 30
0.0
 10
17.402288551649
 20
-1.015815148733662
 30
0.0
 10
16.84043582972011
 20
-0.9636349935059574
 30
0.0
 10
16.27765170191315
 20
-0.8075995593197125
 30
0.0
 10
15.71410484581087
 20
-0.5682762749346814
 30
0.0
 10
15.15120798993424
 20
-0.2690233563380287
 30
0.0
 10
14.58928114026075
 20
0.0582843736572722
 30
0.0
 10
14.02772342134488
 20
0.3791494990128527
 30
0.0
 10
13.46570848072589
 20
0.6615632821362464
 30
0.0
 10
12.90271246302882
 20
0.8707425068921927
 30
0.0
 10
12.40279702862354
 20
0.988930634203455
 30
0.0
 10
12.09094621948428
 20
0.9884352592217835
 30
0.0
 10
11.9670282230736
 20
0.988238415495868
 30
0.0
  0
LINE
  5
CC
330
1F
100
AcDbEntity
  8
0
  6
Continuous
 62
     1
370
    25
100
AcDbLine
 10
22.46410161513774
 20
0.975165698355263
 30
0.0
 11
22.46410161513774
 21
1.000000000000003
 31
0.0
  0
SPLINE
  5
CD
330
1F
100
AcDbEntity
  8
0
  6
Continuous
 62
     1
370
    25
100
AcDbSpline
210
0.0
220
0.0
230
1.0
 70
     8
 71
     3
 72
    19
 73
    15
 74
     0
 42
0.000000001
 43
0.00000001
 40
0.0
 40
0.0
 40
0.0
 40
0.0
 40
0.0815807741392229
 40
0.1691873174260367
 40
0.256734315674504
 40
0.3443291125330425
 40
0.4320780123398408
 40
0.5199907345576572
 40
0.6077171149350018
 40
0.695301205856203
 40
0.7828495441267428
 40
0.8704694442084684
 40
0.9582666660705074
 40
1.0
 40
1.0
 40
1.0
 40
1.0
 10
12.9426618242379
 20
0.8432472498302316
 30
0.0
 10
13.11713216142411
 20
0.890628181407097
 30
0.0
 10
13.47895967079016
 20
0.9888897239729493
 30
0.0
 10
14.02771876389029
 20
1.014316905087554
 30
0.0
 10
14.58928239425704
 20
0.9418692225281146
 30
0.0
 10
15.15120763185761
 20
0.7689554776562645
 30
0.0
 10
15.71410502194585
 20
0.5160539571291536
 30
0.0
 10
16.2776513561601
 20
0.2095142216764475
 30
0.0
 10
16.84043703288758
 20
-0.1194505342082732
 30
0.0
 10
17.40228409220846
 20
-0.4353604508326118
 30
0.0
 10
17.96385430858439
 20
-0.707248520426911
 30
0.0
 10
18.52596040175013
 20
-0.8996153838925741
 30
0.0
 10
18.99036566573922
 20
-0.9981715941160245
 30
0.0
 10
19.2674414425255
 20
-0.9895500922809677
 30
0.0
 10
19.35671223925554
 20
-0.98677233831506
 30
0.0
  0
SPLINE
  5
CE
330
1F
100
AcDbEntity
  8
0
  6
Continuous
 62
     1
370
    25
100
AcDbSpline
210
0.0
220
0.0
230
1.0
 70
     8
 71
     3
 72
    19
 73
    15
 74
     0
 42
0.000000001
 43
0.00000001
 40
0.0
 40
0.0
 40
0.0
 40
0.0
 40
0.0324283256124266
 40
0.1261780386746784
 40
0.2200118210263927
 40
0.3139452097264261
 40
0.4017323434915249
 40
0.4893421758509787
 40
0.5768804546218588
 40
0.6644544819353404
 40
0.7521707823555897
 40
0.8400734032052168
 40
0.9278122204673872
 40
1.0
 40
1.0
 40
1.0
 40
1.0
 10
21.103354449074
 20
-0.835201972902302
 30
0.0
 10
21.0340146365752
 20
-0.8595611025298292
 30
0.0
 10
20.76421465837911
 20
-0.9543420430248215
 30
0.0
 10
20.29370946788491
 20
-1.01158242732269
 30
0.0
 10
19.69159937011305
 20
-0.9888361383927988
 30
0.0
 10
19.10201929488116
 20
-0.8444115753802329
 30
0.0
 10
18.52596202202263
 20
-0.6120755664193634
 30
0.0
 10
17.96385388305157
 20
-0.3204729288729688
 30
0.0
 10
17.40228417697789
 20
0.0044470646068826
 30
0.0
 10
16.84043711944857
 20
0.3287762097511214
 30
0.0
 10
16.27765092380157
 20
0.6196506244734837
 30
0.0
 10
15.71410666710196
 20
0.8424320848878702
 30
0.0
 10
15.18412765096969
 20
0.9800183175980206
 30
0.0
 10
14.84225296848251
 20
0.9885525153286124
 30
0.0
 10
14.6879373342992
 20
0.992404687491409
 30
0.0
  0
SPLINE
  5
CF
330
1F
100
AcDbEntity
  8
0
  6
Continuous
 62
     1
370
    25
100
AcDbSpline
210
0.0
220
0.0
230
1.0
 70
     8
 71
     3
 72
     9
 73
     5
 74
     0
 42
0.000000001
 43
0.00000001
 40
0.0
 40
0.0
 40
0.0
 40
0.0
 40
0.8569052506754886
 40
1.0
 40
1.0
 40
1.0
 40
1.0
 10
10.46410161513773
 20
-0.912533817579048
 30
0.0
 10
10.67231169516706
 20
-0.9594305475193775
 30
0.0
 10
10.91529081084548
 20
-1.014158570137235
 30
0.0
 10
11.15829254505951
 20
-0.9939030140558882
 30
0.0
 10
11.19306481730228
 20
-0.9910045503359992
 30
0.0
  0
SPLINE
  5
D0
330
1F
100
AcDbEntity
  8
0
  6
Continuous
 62
     1
370
    25
100
AcDbSpline
210
0.0
220
0.0
230
1.0
 70
     8
 71
     3
 72
    20
 73
    16
 74
     0
 42
0.000000001
 43
0.00000001
 40
0.0
 40
0.0
 40
0.0
 40
0.0
 40
0.0082133788656415
 40
0.0961126409914815
 40
0.183825589807172
 40
0.2713962709522939
 40
0.3589312049207511
 40
0.4465376897437483
 40
0.5343214691977749
 40
0.622496720669104
 40
0.7104692378389105
 40
0.7983234293776375
 40
0.8863102926312094
 40
0.9836649764243576
 40
1.0
 40
1.0
 40
1.0
 40
1.0
 10
15.6611193138284
 20
0.8423910372522456
 30
0.0
 10
15.6786844505139
 20
0.8489540262807709
 30
0.0
 10
15.88423099887552
 20
0.9257538693963032
 30
0.0
 10
16.27767128707746
 20
0.9904310750516238
 30
0.0
 10
16.84043165282882
 20
1.012185409047647
 30
0.0
 10
17.40228573305418
 20
0.919379380640744
 30
0.0
 10
17.96385311869502
 20
0.7328567338968891
 30
0.0
 10
18.52596352516432
 20
0.4690067985711582
 30
0.0
 10
19.08970544027147
 20
0.1559908200965507
 30
0.0
 10
19.65445738797269
 20
-0.1736976508110333
 30
0.0
 10
20.21893843042794
 20
-0.4853238194887501
 30
0.0
 10
20.78292404855779
 20
-0.7478680006731159
 30
0.0
 10
21.36684216677516
 20
-0.9302726550206059
 30
0.0
 10
21.79827482318422
 20
-1.009477034228814
 30
0.0
 10
22.04141525919351
 20
-0.9953068955681469
 30
0.0
 10
22.0763498618618
 20
-0.9932709192739934
 30
0.0
  0
SPLINE
  5
D1
330
1F
100
AcDbEntity
  8
0
  6
Continuous
 62
     1
370
    25
100
AcDbSpline
210
0.0
220
0.0
230
1.0
 70
     8
 71
     3
 72
    15
 73
    11
 74
     0
 42
0.000000001
 43
0.00000001
 40
0.0
 40
0.0
 40
0.0
 40
0.0
 40
0.1282035795559863
 40
0.2564361070880263
 40
0.3847409893174302
 40
0.5131609279020068
 40
0.6417171866989139
 40
0.7618617449175474
 40
0.8817636502764834
 40
0.9999999999999999
 40
0.9999999999999999
 40
0.9999999999999999
 40
0.9999999999999999
 10
22.09726667790108
 20
-0.906860696928967
 30
0.0
 10
21.89697269824168
 20
-0.8474612395532678
 30
0.0
 10
21.49633951315504
 20
-0.7286489125861131
 30
0.0
 10
20.89523191422354
 20
-0.4344158981127323
 30
0.0
 10
20.29371168822969
 20
-0.0959654518575481
 30
0.0
 10
19.69159873053651
 20
0.255993246091164
 30
0.0
 10
19.10201960839289
 20
0.5703289647503335
 30
0.0
 10
18.52596141016159
 20
0.8118479111601231
 30
0.0
 10
17.96630475082885
 20
0.9701568123519003
 30
0.0
 10
17.59436626045553
 20
0.989648178616843
 30
0.0
 10
17.40969769719512
 20
0.999325699758891
 30
0.0
  0
SPLINE
  5
D2
330
1F
100
AcDbEntity
  8
0
  6
Continuous
 62
     1
370
    25
100
AcDbSpline
210
0.0
220
0.0
230
1.0
 70
     8
 71
     3
 72
    13
 73
     9
 74
     0
 42
0.000000001
 43
0.00000001
 40
0.0
 40
0.0
 40
0.0
 40
0.0
 40
0.0160235261000449
 40
0.2435297236256546
 40
0.4703657068150011
 40
0.6972491652985018
 40
0.9397139089699627
 40
1.0
 40
1.0
 40
1.0
 40
1.0
 10
12.94266182423791
 20
-0.8432472498302295
 30
0.0
 10
12.92942220339219
 20
-0.8482180327924655
 30
0.0
 10
12.7282029969993
 20
-0.9237652870883274
 30
0.0
 10
12.33928761556131
 20
-0.9886060891592804
 30
0.0
 10
11.77656430708206
 20
-1.013155911716434
 30
0.0
 10
11.20160725803979
 20
-0.9203086791817854
 30
0.0
 10
10.76417511840549
 20
-0.7746970490815481
 30
0.0
 10
10.5139319691637
 20
-0.6676564277438972
 30
0.0
 10
10.46410161513773
 20
-0.6463416701867931
 30
0.0
  0
ELLIPSE
  5
D3
330
1F
100
AcDbEntity
  8
0
  6
Continuous
 62
     1
370
    25
100
AcDbEllipse
 10
22.21987392215963
 20
0.0000000000000012
 30
0.0
 11
1.389323305659968
 21
-0.5503410060417624
 31
0.0
210
0.0
220
0.0
230
1.0
 40
0.6009688174887258
 41
4.860139407233069
 42
5.11795048404958
  0
LINE
  5
D4
330
1F
100
AcDbEntity
  8
0
  6
Continuous
 62
     1
370
    25
100
AcDbLine
 10
22.46410161513774
 20
-1.000000000000002
 30
0.0
 11
22.46410161513774
 21
-0.9843391617328157
 31
0.0
  0
SPLINE
  5
D5
330
1F
100
AcDbEntity
  8
0
  6
Continuous
 62
     4
370
    25
100
AcDbSpline
210
0.0
220
0.0
230
1.0
 70
    24
 71
     3
 72
     9
 73
     5
 74
     0
 42
0.000000001
 43
0.00000001
 40
0.0
 40
0.0
 40
0.0
 40
0.0
 40
0.5523959617496704
 40
1.0
 40
1.0
 40
1.0
 40
1.0
 10
10.46410161513773
 20
0.9125338175790506
 30
0.0
 10
10.46410161513773
 20
0.8801819673748116
 30
0.0
 10
10.46410161513773
 20
0.8216155540690964
 30
0.0
 10
10.46410161513773
 20
0.7811573730370969
 30
0.0
 10
10.46410161513773
 20
0.7630481278269109
 30
0.0
  0
LINE
  5
D6
330
1F
100
AcDbEntity
  8
0
  6
Continuous
 62
     1
370
    25
100
AcDbLine
 10
22.46410161513774
 20
0.3586687346939966
 30
0.0
 11
22.46410161513774
 21
0.975165698355263
 31
0.0
  0
SPLINE
  5
D7
330
1F
100
AcDbEntity
  8
0
  6
Continuous
 62
     1
370
    25
100
AcDbSpline
210
0.0
220
0.0
230
1.0
 70
     8
 71
     3
 72
     9
 73
     5
 74
     0
 42
0.000000001
 43
0.00000001
 40
0.0
 40
0.0
 40
0.0
 40
0.0
 40
0.5146787924962536
 40
1.0
 40
1.0
 40
1.0
 40
1.0
 10
22.46410161513774
 20
0.3586687346939966
 30
0.0
 10
22.41223076632998
 20
0.3453440883184002
 30
0.0
 10
22.31144781283742
 20
0.3194548413358884
 30
0.0
 10
22.21286907795232
 20
0.3553397599737407
 30
0.0
 10
22.16502672730369
 20
0.3727554720182369
 30
0.0
  0
SPLINE
  5
D8
330
1F
100
AcDbEntity
  8
0
  6
Continuous
 62
     1
370
    25
100
AcDbSpline
210
0.0
220
0.0
230
1.0
 70
     8
 71
     3
 72
    11
 73
     7
 74
     0
 42
0.000000001
 43
0.00000001
 40
0.0
 40
0.0
 40
0.0
 40
0.0
 40
0.3057060071332826
 40
0.6114810417477299
 40
0.9174286087181777
 40
1.0
 40
1.0
 40
1.0
 40
1.0
 10
22.09726667788843
 20
0.4214305119127654
 30
0.0
 10
21.89697326829609
 20
0.5219246502445598
 30
0.0
 10
21.49634122347228
 20
0.7229356181771424
 30
0.0
 10
20.8952250694955
 20
0.9161805087574169
 30
0.0
 10
20.44028549819843
 20
1.008110792395174
 30
0.0
 10
20.18564179388422
 20
0.991658381130182
 30
0.0
 10
20.13152272324486
 20
0.9881617731545961
 30
0.0
  0
SPLINE
  5
D9
330
1F
100
AcDbEntity
  8
0
  6
Continuous
 62
     1
370
    25
100
AcDbSpline
210
0.0
220
0.0
230
1.0
 70
     8
 71
     3
 72
    17
 73
    13
 74
     0
 42
0.000000001
 43
0.00000001
 40
0.0
 40
0.0
 40
0.0
 40
0.0
 40
0.0981594904011402
 40
0.2062671194079243
 40
0.3143157563901826
 40
0.4224378825880749
 40
0.530764382017506
 40
0.6392568246951874
 40
0.7474296576612429
 40
0.8556251304968406
 40
0.9712509577935368
 40
1.0
 40
1.0
 40
1.0
 40
1.0
 10
15.6611193138284
 20
-0.842391037252244
 30
0.0
 10
15.49103569899153
 20
-0.8891616381183983
 30
0.0
 10
15.13363105938391
 20
-0.9874428850382311
 30
0.0
 10
14.58928632824565
 20
-1.014707342311895
 30
0.0
 10
14.02772160506089
 20
-0.9447437557638928
 30
0.0
 10
13.46571055913428
 20
-0.7738846261697018
 30
0.0
 10
12.90270595186254
 20
-0.522590948097565
 30
0.0
 10
12.33930654921388
 20
-0.2170186804824268
 30
0.0
 10
11.77655923674443
 20
0.1119684860291524
 30
0.0
 10
11.20160877240521
 20
0.4356143299166511
 30
0.0
 10
10.76417504081899
 20
0.6483181784753079
 30
0.0
 10
10.51393195627754
 20
0.7439960158241103
 30
0.0
 10
10.46410161513773
 20
0.7630481278269108
 30
0.0
  0
SPLINE
  5
DA
330
1F
100
AcDbEntity
  8
0
  6
Continuous
 62
     4
370
    25
100
AcDbSpline
210
0.0
220
0.0
230
1.0
 70
    24
 71
     3
 72
    16
 73
    12
 74
     0
 42
0.000000001
 43
0.00000001
 40
0.0
 40
0.0
 40
0.0
 40
0.0
 40
0.1249999999999999
 40
0.1249999999999999
 40
0.25
 40
0.25
 40
0.5
 40
0.5
 40
0.75
 40
0.75
 40
1.0
 40
1.0
 40
1.0
 40
1.0
 10
10.46410161513773
 20
0.4090012613362001
 30
0.0
 10
10.46410161513773
 20
0.3901736538398889
 30
0.0
 10
10.46410161513773
 20
0.3714124818541276
 30
0.0
 10
10.46410161513773
 20
0.3262299279277399
 30
0.0
 10
10.46410161513773
 20
0.3001013748977158
 30
0.0
 10
10.46410161513773
 20
0.2088911415192983
 30
0.0
 10
10.46410161513773
 20
0.1302577722960649
 30
0.0
 10
10.46410161513773
 20
-0.0652375051479264
 30
0.0
 10
10.46410161513773
 20
-0.1828632229466454
 30
0.0
 10
10.46410161513773
 20
-0.4256107283440396
 30
0.0
 10
10.46410161513773
 20
-0.5489308259576917
 30
0.0
 10
10.46410161513773
 20
-0.6463416701867901
 30
0.0
  0
SPLINE
  5
DB
330
1F
100
AcDbEntity
  8
0
  6
Continuous
 62
     1
370
    25
100
AcDbSpline
210
0.0
220
0.0
230
1.0
 70
     8
 71
     3
 72
    13
 73
     9
 74
     0
 42
0.000000001
 43
0.00000001
 40
0.0
 40
0.0
 40
0.0
 40
0.0
 40
0.18095731255572
 40
0.3619708135643654
 40
0.543060605746703
 40
0.7064313332463906
 40
0.8695521791089679
 40
1.0
 40
1.0
 40
1.0
 40
1.0
 10
10.46410161513773
 20
0.4090012613361967
 30
0.0
 10
10.67231408184398
 20
0.2940776474281536
 30
0.0
 10
11.08880366661661
 20
0.0641947350631598
 30
0.0
 10
11.71371487058651
 20
-0.3027305989075864
 30
0.0
 10
12.31839442399511
 20
-0.6173668210566426
 30
0.0
 10
12.90269350265325
 20
-0.8466025820243207
 30
0.0
 10
13.42847953808499
 20
-0.9813221146105322
 30
0.0
 10
13.76612368227681
 20
-0.9884704471389726
 30
0.0
 10
13.91615652922028
 20
-0.9916468229138511
 30
0.0
  0
SPLINE
  5
DC
330
1F
100
AcDbEntity
  8
0
  6
Continuous
 62
     1
370
    25
100
AcDbSpline
210
0.0
220
0.0
230
1.0
 70
     8
 71
     3
 72
    15
 73
    11
 74
     0
 42
0.000000001
 43
0.00000001
 40
0.0
 40
0.0
 40
0.0
 40
0.0
 40
0.0353394080999939
 40
0.1732802500496798
 40
0.3118362395813258
 40
0.4500736584109805
 40
0.5881251438338388
 40
0.7263851056764008
 40
0.879365384421466
 40
1.0
 40
1.0
 40
1.0
 40
1.0
 10
18.38137876161364
 20
0.837678384057395
 30
0.0
 10
18.42946013417373
 20
0.8549249374322531
 30
0.0
 10
18.66521824977009
 20
0.9394902214017677
 30
0.0
 10
19.0897150059154
 20
1.001476362441633
 30
0.0
 10
19.65445474946923
 20
1.004087174691134
 30
0.0
 10
20.21893942210164
 20
0.8942296941080469
 30
0.0
 10
20.78292271436829
 20
0.6918715789663302
 30
0.0
 10
21.36684672071492
 20
0.4068027841893397
 30
0.0
 10
21.92754274032941
 20
0.0857561279174456
 30
0.0
 10
22.29992240382097
 20
-0.1274678170589074
 30
0.0
 10
22.46410161513774
 20
-0.2214765467296675
 30
0.0
  0
LINE
  5
DD
330
1F
100
AcDbEntity
  8
0
  6
Continuous
 62
     1
370
    25
100
AcDbLine
 10
22.46410161513774
 20
-0.4999999999999996
 30
0.0
 11
22.46410161513774
 21
-0.2222080185536816
 31
0.0
  0
SPLINE
  5
DE
330
1F
100
AcDbEntity
  8
0
  6
Continuous
 62
     1
370
    25
100
AcDbSpline
210
0.0
220
0.0
230
1.0
 70
    24
 71
     3
 72
    10
 73
     6
 74
     0
 42
0.000000001
 43
0.00000001
 40
0.0
 40
0.0
 40
0.0
 40
0.0
 40
0.5
 40
0.5
 40
1.0
 40
1.0
 40
1.0
 40
1.0
 10
22.46410161513774
 20
-0.4999999999999996
 30
0.0
 10
22.39250978886368
 20
-0.5501291364312914
 30
0.0
 10
22.31669661919353
 20
-0.6032140893299055
 30
0.0
 10
22.17073995562957
 20
-0.7054140454093243
 30
0.0
 10
22.09957401537622
 20
-0.7552449732384955
 30
0.0
 10
22.03417165354495
 20
-0.8010402000094683
 30
0.0
  0
SPLINE
  5
DF
330
1F
100
AcDbEntity
  8
0
  6
Continuous
 62
     1
370
    25
100
AcDbSpline
210
0.0
220
0.0
230
1.0
 70
     8
 71
     3
 72
     8
 73
     4
 74
     0
 42
0.000000001
 43
0.00000001
 40
0.0
 40
0.0
 40
0.0
 40
0.0
 40
1.0
 40
1.0
 40
1.0
 40
1.0
 10
22.09726667787579
 20
-0.9068606969228521
 30
0.0
 10
22.08093458426369
 20
-0.8678391845057514
 30
0.0
 10
22.05766982250778
 20
-0.834346618713348
 30
0.0
 10
22.03417165354951
 20
-0.8010402000055665
 30
0.0
  0
ELLIPSE
  5
E0
330
1F
100
AcDbEntity
  8
0
  6
Continuous
 62
     1
370
    25
100
AcDbEllipse
 10
22.21987392215963
 20
0.0000000000000004
 30
0.0
 11
1.41910256598079
 21
-0.9721740704074077
 31
0.0
210
0.0
220
0.0
230
1.0
 40
0.1650759015746648
 41
1.511550483225865
 42
1.769361560042372
  0
LINE
  5
E1
330
1F
100
AcDbEntity
  8
0
  6
Continuous
 62
     1
370
    25
100
AcDbLine
 10
22.46410161513774
 20
-0.2214765467296675
 30
0.0
 11
22.46410161513774
 21
0.1762850381601879
 31
0.0
  0
LINE
  5
E2
330
1F
100
AcDbEntity
  8
0
  6
Continuous
 62
     1
370
    25
100
AcDbLine
 10
22.46410161513774
 20
0.1762850381601871
 30
0.0
 11
22.46410161513774
 21
0.3586687346939966
 31
0.0
  0
LINE
  5
E3
330
1F
100
AcDbEntity
  8
0
  6
Continuous
 62
     1
370
    25
100
AcDbLine
 10
22.46410161513774
 20
-0.4999999999999988
 30
0.0
 11
22.46410161513774
 21
-0.9843391617328157
 31
0.0
  0
LINE
  5
E4
330
1F
100
AcDbEntity
  8
중심선
100
AcDbLine
 10
-40.53589838486226
 20
-0.0000000000000043
 30
0.0
 11
23.96410161513774
 21
0.0000000000000036
 31
0.0
  0
CIRCLE
  5
E5
330
1F
100
AcDbEntity
  8
해칭선
100
AcDbCircle
 10
-0.0000077253528973
 20
-0.0000000000000044
 30
0.0
 40
3.0
  0
INSERT
  5
E6
330
1F
100
AcDbEntity
  8
0
  6
Continuous
 62
     7
100
AcDbBlockReference
 66
     1
  2
블럭10
 10
-20.44009924894178
 20
-52.04717430164393
 30
0.0
  0
ATTRIB
  5
E7
330
E6
100
AcDbEntity
  8
FORMAT
 62
     2
100
AcDbText
 10
-36.55936028837733
 20
-49.97180738881174
 30
0.0
 40
4.233333333333333
  1
SEME7202012E [ 4 FLUTE ]
 41
0.75
  7
SLDTEXTSTYLE0
 11
-36.55936028837733
 21
-52.08847405547841
 31
0.0
100
AcDbAttribute
  2
AUTOATTR0
 70
     0
 74
     1
  0
SEQEND
  5
E8
330
E6
100
AcDbEntity
  8
0
  6
Continuous
 62
     7
  0
HATCH
  5
E9
330
1F
100
AcDbEntity
  8
중심선
100
AcDbHatch
 10
0.0
 20
0.0
 30
0.0
210
0.0
220
0.0
230
1.0
  2
SOLID
 70
     1
 71
     0
 91
        1
 92
        0
 93
        4
 72
     1
 10
-14.72518994456093
 20
-35.8
 11
-18.17146518839821
 21
-35.8
 72
     1
 10
-18.17146518839821
 20
-35.8
 11
-20.29969504760223
 21
-38.33632558057259
 72
     1
 10
-20.29969504760223
 20
-38.33632558057259
 11
-16.8533867186518
 21
-38.3362861512701
 72
     1
 10
-16.8533867186518
 20
-38.3362861512701
 11
-14.72518994456093
 21
-35.8
 97
        0
 75
     0
 76
     1
 98
        1
 10
0.0
 20
0.0
  0
HATCH
  5
EA
330
1F
100
AcDbEntity
  8
중심선
100
AcDbHatch
 10
0.0
 20
0.0
 30
0.0
210
0.0
220
0.0
230
1.0
  2
SOLID
 70
     1
 71
     0
 91
        1
 92
        0
 93
        4
 72
     1
 10
-9.71242595352495
 20
-35.8
 11
-13.15870119736223
 21
-35.8
 72
     1
 10
-13.15870119736223
 20
-35.8
 11
-17.68983920571965
 21
-41.20000000000002
 72
     1
 10
-17.68983920571965
 20
-41.20000000000002
 11
-14.24356396188237
 21
-41.20000000000002
 72
     1
 10
-14.24356396188237
 20
-41.20000000000002
 11
-9.71242595352495
 21
-35.8
 97
        0
 75
     0
 76
     1
 98
        1
 10
0.0
 20
0.0
  0
HATCH
  5
EB
330
1F
100
AcDbEntity
  8
중심선
100
AcDbHatch
 10
0.0
 20
0.0
 30
0.0
210
0.0
220
0.0
230
1.0
  2
SOLID
 70
     1
 71
     0
 91
        1
 92
        0
 93
        4
 72
     1
 10
-4.699661962489027
 20
-35.79999999999997
 11
-8.145937206326199
 21
-35.8
 72
     1
 10
-8.145937206326199
 20
-35.8
 11
-15.19437410821545
 21
-44.20000000000002
 72
     1
 10
-15.19437410821545
 20
-44.20000000000002
 11
-11.74809886437816
 21
-44.20000000000002
 72
     1
 10
-11.74809886437816
 20
-44.20000000000002
 11
-4.699661962489027
 21
-35.79999999999997
 97
        0
 75
     0
 76
     1
 98
        1
 10
0.0
 20
0.0
  0
HATCH
  5
EC
330
1F
100
AcDbEntity
  8
중심선
100
AcDbHatch
 10
0.0
 20
0.0
 30
0.0
210
0.0
220
0.0
230
1.0
  2
SOLID
 70
     1
 71
     0
 91
        1
 92
        0
 93
        6
 72
     3
 10
0.100228468523117
 20
-40.00000000005127
 11
3.960054785062284
 21
1.540850780301639E-10
 40
0.3939339440162633
 50
17.09539180608433
 51
320.0019657685081
 73
     0
 72
     1
 10
1.783228124223685
 20
-38.58789400463833
 11
4.08852999792475
 21
-36.65356729459038
 72
     3
 10
0.1002284684702703
 20
-40.00000000000015
 11
6.600054785286829
 21
-1.249000902703301E-13
 40
0.6363583540795982
 50
39.99873849337408
 51
368.4976242363725
 73
     1
 72
     1
 10
6.52556096037088
 20
-39.03999999993002
 11
-1.219704224693807
 21
-39.03999999993002
 72
     1
 10
-1.219704224693807
 20
-39.03999999993002
 11
-1.219729269139741
 21
-40.95999999992991
 72
     1
 10
-1.219729269139741
 20
-40.95999999992991
 11
3.221650500332296
 21
-40.95999999992988
 97
        0
 75
     0
 76
     1
 98
        1
 10
0.0
 20
0.0
  0
DIMENSION
  5
ED
330
1F
100
AcDbEntity
  8
치수문자_일반주서
100
AcDbDimension
  2
_D
 10
34.99341396831752
 20
1.000000000000052
 30
0.0
 11
34.99341396831748
 21
10.66650000000005
 31
0.0
 70
   160
  1
%%c<>
 71
     2
 42
2.000000000000011
 52
-270.0
  3
SLDDIMSTYLE0
100
AcDbAlignedDimension
 13
22.46410161513775
 23
-1.000000000000006
 33
0.0
 14
22.46410161513775
 24
1.000000000000005
 34
0.0
 50
90.0000000000002
100
AcDbRotatedDimension
  0
DIMENSION
  5
FB
330
1F
100
AcDbEntity
  8
치수문자_일반주서
100
AcDbDimension
  2
_D_1
 10
22.46410161513773
 20
20.38913260158165
 30
0.0
 11
-7.535898384862268
 21
20.38913260158165
 31
0.0
 70
   160
  1
<>
 71
     2
 42
60.00000000000001
  3
SLDDIMSTYLE1
100
AcDbAlignedDimension
 13
-37.53589838486227
 23
2.499999999999994
 33
0.0
 14
22.46410161513774
 24
1.000000000000002
 34
0.0
 50
-0.0000000000000068
100
AcDbRotatedDimension
  0
DIMENSION
  5
106
330
1F
100
AcDbEntity
  8
치수문자_일반주서
100
AcDbDimension
  2
_D_2
 10
-45.25956768467606
 20
-3.000000000000034
 30
0.0
 11
-45.25956768467612
 21
12.66649999999997
 31
0.0
 70
   160
  1
%%c<>
 71
     2
 42
6.000000000000005
 52
-270.0
  3
SLDDIMSTYLE2
100
AcDbAlignedDimension
 13
-37.03589838486226
 23
3.000000000000003
 33
0.0
 14
-37.03589838486226
 24
-3.000000000000002
 34
0.0
 50
90.0000000000002
100
AcDbRotatedDimension
  0
DIMENSION
  5
114
330
1F
100
AcDbEntity
  8
치수문자_일반주서
100
AcDbDimension
  2
_D_3
 10
22.46410161513774
 20
11.7584521201667
 30
0.0
 11
16.46410161513774
 21
11.7584521201667
 31
0.0
 70
   160
  1
<>
 71
     2
 42
12.00000000000001
  3
SLDDIMSTYLE2
100
AcDbAlignedDimension
 13
10.46410161513773
 23
0.9125338175790506
 33
0.0
 14
22.46410161513774
 24
1.000000000000002
 34
0.0
100
AcDbRotatedDimension
  0
INSERT
  5
126
330
1F
100
AcDbEntity
  8
해칭선
100
AcDbBlockReference
  2
SW_DOWELSYMBOL_0
 10
-0.0000077253528973
 20
-0.0000000000000044
 30
0.0
  0
ENDSEC
  0
SECTION
  2
OBJECTS
  0
DICTIONARY
  5
C
330
0
100
AcDbDictionary
281
     1
  3
ACAD_GROUP
350
D
  3
ACAD_IMAGE_VARS
350
14A
  3
ACAD_LAYOUT
350
1A
  3
ACAD_MLINESTYLE
350
17
  3
ACAD_PLOTSETTINGS
350
19
  3
ACAD_PLOTSTYLENAME
350
E
  3
ACAD_SCALELIST
350
47
  3
APPDATA
350
148
  3
DWGPROPS
350
158
  0
DICTIONARY
  5
D
102
{ACAD_REACTORS
330
C
102
}
330
C
100
AcDbDictionary
281
     1
  0
RASTERVARIABLES
  5
14A
102
{ACAD_REACTORS
330
C
102
}
330
C
100
AcDbRasterVariables
 90
        0
 70
     1
 71
     1
 72
     1
  0
DICTIONARY
  5
1A
102
{ACAD_REACTORS
330
C
102
}
330
C
100
AcDbDictionary
281
     1
  3
Layout1
350
1E
  3
Layout2
350
26
  3
Model
350
22
  0
DICTIONARY
  5
17
102
{ACAD_REACTORS
330
C
102
}
330
C
100
AcDbDictionary
281
     1
  3
Standard
350
18
  0
DICTIONARY
  5
19
102
{ACAD_REACTORS
330
C
102
}
330
C
100
AcDbDictionary
281
     1
  0
ACDBDICTIONARYWDFLT
  5
E
102
{ACAD_REACTORS
330
C
102
}
330
C
100
AcDbDictionary
281
     1
  3
Normal
350
F
100
AcDbDictionaryWithDefault
340
F
  0
DICTIONARY
  5
47
102
{ACAD_REACTORS
330
C
102
}
330
C
100
AcDbDictionary
281
     1
  3
A0
350
48
  3
A1
350
49
  3
A2
350
4A
  3
A3
350
4B
  3
A4
350
4C
  3
A5
350
4D
  3
A6
350
4E
  3
A7
350
4F
  3
A8
350
50
  3
A9
350
51
  3
B0
350
52
  3
B1
350
53
  3
B2
350
54
  3
B3
350
55
  3
B4
350
56
  3
B5
350
57
  3
B6
350
58
  3
B7
350
59
  3
B8
350
5A
  3
B9
350
5B
  3
C0
350
5C
  3
C1
350
5D
  3
C2
350
5E
  3
C3
350
5F
  3
C4
350
60
  3
C5
350
61
  3
C6
350
62
  3
C7
350
63
  3
C8
350
64
  3
C9
350
65
  3
D0
350
66
  3
D1
350
67
  3
D2
350
68
  0
DICTIONARY
  5
148
102
{ACAD_REACTORS
330
C
102
}
330
C
100
AcDbDictionary
281
     1
  0
XRECORD
  5
158
102
{ACAD_REACTORS
330
C
102
}
330
C
100
AcDbXrecord
280
     1
  1
DWGPROPS COOKIE
  2

  3

  4

  6

  7

  8
12014102
  9

300
=
301
=
302
=
303
=
304
=
305
=
306
=
307
=
308
=
309
=
 40
0.0
 41
2458260.193139803
 42
2458268.101263634
  1

 90
        0
  0
LAYOUT
  5
1E
102
{ACAD_REACTORS
330
1A
102
}
330
1A
100
AcDbPlotSettings
  1

  2
none_device
  4

  6

 40
0.0
 41
0.0
 42
0.0
 43
0.0
 44
0.0
 45
0.0
 46
0.0
 47
0.0
 48
0.0
 49
0.0
140
0.0
141
0.0
142
1.0
143
1.0
 70
   688
 72
     1
 73
     0
 74
     5
  7

 75
    16
147
1.0
148
0.0
149
0.0
100
AcDbLayout
  1
Layout1
 70
     1
 71
     1
 10
0.0
 20
0.0
 11
420.0
 21
297.0
 12
0.0
 22
0.0
 32
0.0
 14
1.000000000000000E+20
 24
1.000000000000000E+20
 34
1.000000000000000E+20
 15
-1.000000000000000E+20
 25
-1.000000000000000E+20
 35
-1.000000000000000E+20
146
0.0
 13
0.0
 23
0.0
 33
0.0
 16
1.0
 26
0.0
 36
0.0
 17
0.0
 27
1.0
 37
0.0
 76
     0
330
1B
  0
LAYOUT
  5
26
102
{ACAD_REACTORS
330
1A
102
}
330
1A
100
AcDbPlotSettings
  1

  2
none_device
  4

  6

 40
0.0
 41
0.0
 42
0.0
 43
0.0
 44
0.0
 45
0.0
 46
0.0
 47
0.0
 48
0.0
 49
0.0
140
0.0
141
0.0
142
1.0
143
1.0
 70
   688
 72
     1
 73
     0
 74
     5
  7

 75
    16
147
1.0
148
0.0
149
0.0
100
AcDbLayout
  1
Layout2
 70
     1
 71
     2
 10
0.0
 20
0.0
 11
0.0
 21
0.0
 12
0.0
 22
0.0
 32
0.0
 14
0.0
 24
0.0
 34
0.0
 15
0.0
 25
0.0
 35
0.0
146
0.0
 13
0.0
 23
0.0
 33
0.0
 16
1.0
 26
0.0
 36
0.0
 17
0.0
 27
1.0
 37
0.0
 76
     0
330
23
  0
LAYOUT
  5
22
102
{ACAD_REACTORS
330
1A
102
}
330
1A
100
AcDbPlotSettings
  1

  2
none_device
  4
ANSI_A_(11.00_x_8.50_Inches)
  6

 40
6.35
 41
19.05
 42
6.35000508
 43
19.05000254
 44
279.4
 45
215.9
 46
153.4935365126497
 47
125.3847137330092
 48
0.0
 49
0.0
140
0.0
141
0.0
142
0.1112850254374008
143
1.0
 70
  1696
 72
     0
 73
     0
 74
     0
  7

 75
     0
147
0.0235690232323232
148
0.0
149
0.0
100
AcDbLayout
  1
Model
 70
     1
 71
     0
 10
0.0
 20
0.0
 11
420.0
 21
297.0
 12
0.0
 22
0.0
 32
0.0
 14
-49.63456768467613
 24
-49.97180738881174
 34
0.0
 15
35.54374730165087
 25
24.76413260158165
 35
0.0
146
0.0
 13
0.0
 23
0.0
 33
0.0
 16
1.0
 26
0.0
 36
0.0
 17
0.0
 27
1.0
 37
0.0
 76
     0
330
1F
331
29
  0
MLINESTYLE
  5
18
102
{ACAD_REACTORS
330
17
102
}
330
17
100
AcDbMlineStyle
  2
Standard
 70
     0
  3

 62
   256
 51
90.0
 52
90.0
 71
     2
 49
0.5
 62
   256
  6
BYLAYER
 49
-0.5
 62
   256
  6
BYLAYER
  0
ACDBPLACEHOLDER
  5
F
102
{ACAD_REACTORS
330
E
102
}
330
E
  0
SCALE
  5
48
102
{ACAD_REACTORS
330
47
102
}
330
47
100
AcDbScale
 70
     0
300
1:1
140
1.0
141
1.0
290
     1
  0
SCALE
  5
49
102
{ACAD_REACTORS
330
47
102
}
330
47
100
AcDbScale
 70
     0
300
1:2
140
1.0
141
2.0
290
     0
  0
SCALE
  5
4A
102
{ACAD_REACTORS
330
47
102
}
330
47
100
AcDbScale
 70
     0
300
1:4
140
1.0
141
4.0
290
     0
  0
SCALE
  5
4B
102
{ACAD_REACTORS
330
47
102
}
330
47
100
AcDbScale
 70
     0
300
1:5
140
1.0
141
5.0
290
     0
  0
SCALE
  5
4C
102
{ACAD_REACTORS
330
47
102
}
330
47
100
AcDbScale
 70
     0
300
1:8
140
1.0
141
8.0
290
     0
  0
SCALE
  5
4D
102
{ACAD_REACTORS
330
47
102
}
330
47
100
AcDbScale
 70
     0
300
1:10
140
1.0
141
10.0
290
     0
  0
SCALE
  5
4E
102
{ACAD_REACTORS
330
47
102
}
330
47
100
AcDbScale
 70
     0
300
1:16
140
1.0
141
16.0
290
     0
  0
SCALE
  5
4F
102
{ACAD_REACTORS
330
47
102
}
330
47
100
AcDbScale
 70
     0
300
1:20
140
1.0
141
20.0
290
     0
  0
SCALE
  5
50
102
{ACAD_REACTORS
330
47
102
}
330
47
100
AcDbScale
 70
     0
300
1:30
140
1.0
141
30.0
290
     0
  0
SCALE
  5
51
102
{ACAD_REACTORS
330
47
102
}
330
47
100
AcDbScale
 70
     0
300
1:40
140
1.0
141
40.0
290
     0
  0
SCALE
  5
52
102
{ACAD_REACTORS
330
47
102
}
330
47
100
AcDbScale
 70
     0
300
1:50
140
1.0
141
50.0
290
     0
  0
SCALE
  5
53
102
{ACAD_REACTORS
330
47
102
}
330
47
100
AcDbScale
 70
     0
300
1:100
140
1.0
141
100.0
290
     0
  0
SCALE
  5
54
102
{ACAD_REACTORS
330
47
102
}
330
47
100
AcDbScale
 70
     0
300
2:1
140
2.0
141
1.0
290
     0
  0
SCALE
  5
55
102
{ACAD_REACTORS
330
47
102
}
330
47
100
AcDbScale
 70
     0
300
4:1
140
4.0
141
1.0
290
     0
  0
SCALE
  5
56
102
{ACAD_REACTORS
330
47
102
}
330
47
100
AcDbScale
 70
     0
300
8:1
140
8.0
141
1.0
290
     0
  0
SCALE
  5
57
102
{ACAD_REACTORS
330
47
102
}
330
47
100
AcDbScale
 70
     0
300
10:1
140
10.0
141
1.0
290
     0
  0
SCALE
  5
58
102
{ACAD_REACTORS
330
47
102
}
330
47
100
AcDbScale
 70
     0
300
100:1
140
100.0
141
1.0
290
     0
  0
SCALE
  5
59
102
{ACAD_REACTORS
330
47
102
}
330
47
100
AcDbScale
 70
     0
300
1/128" = 1'-0"
140
0.0078125
141
12.0
290
     0
  0
SCALE
  5
5A
102
{ACAD_REACTORS
330
47
102
}
330
47
100
AcDbScale
 70
     0
300
1/64" = 1'-0"
140
0.015625
141
12.0
290
     0
  0
SCALE
  5
5B
102
{ACAD_REACTORS
330
47
102
}
330
47
100
AcDbScale
 70
     0
300
1/32" = 1'-0"
140
0.03125
141
12.0
290
     0
  0
SCALE
  5
5C
102
{ACAD_REACTORS
330
47
102
}
330
47
100
AcDbScale
 70
     0
300
1/16" = 1'-0"
140
0.0625
141
12.0
290
     0
  0
SCALE
  5
5D
102
{ACAD_REACTORS
330
47
102
}
330
47
100
AcDbScale
 70
     0
300
3/32" = 1'-0"
140
0.09375
141
12.0
290
     0
  0
SCALE
  5
5E
102
{ACAD_REACTORS
330
47
102
}
330
47
100
AcDbScale
 70
     0
300
1/8" = 1'-0"
140
0.125
141
12.0
290
     0
  0
SCALE
  5
5F
102
{ACAD_REACTORS
330
47
102
}
330
47
100
AcDbScale
 70
     0
300
3/16" = 1'-0"
140
0.1875
141
12.0
290
     0
  0
SCALE
  5
60
102
{ACAD_REACTORS
330
47
102
}
330
47
100
AcDbScale
 70
     0
300
1/4" = 1'-0"
140
0.25
141
12.0
290
     0
  0
SCALE
  5
61
102
{ACAD_REACTORS
330
47
102
}
330
47
100
AcDbScale
 70
     0
300
3/8" = 1'-0"
140
0.375
141
12.0
290
     0
  0
SCALE
  5
62
102
{ACAD_REACTORS
330
47
102
}
330
47
100
AcDbScale
 70
     0
300
1/2" = 1'-0"
140
0.5
141
12.0
290
     0
  0
SCALE
  5
63
102
{ACAD_REACTORS
330
47
102
}
330
47
100
AcDbScale
 70
     0
300
3/4" = 1'-0"
140
0.75
141
12.0
290
     0
  0
SCALE
  5
64
102
{ACAD_REACTORS
330
47
102
}
330
47
100
AcDbScale
 70
     0
300
1" = 1'-0"
140
1.0
141
12.0
290
     0
  0
SCALE
  5
65
102
{ACAD_REACTORS
330
47
102
}
330
47
100
AcDbScale
 70
     0
300
1-1/2" = 1'-0"
140
1.5
141
12.0
290
     0
  0
SCALE
  5
66
102
{ACAD_REACTORS
330
47
102
}
330
47
100
AcDbScale
 70
     0
300
3" = 1'-0"
140
3.0
141
12.0
290
     0
  0
SCALE
  5
67
102
{ACAD_REACTORS
330
47
102
}
330
47
100
AcDbScale
 70
     0
300
6" = 1'-0"
140
6.0
141
12.0
290
     0
  0
SCALE
  5
68
102
{ACAD_REACTORS
330
47
102
}
330
47
100
AcDbScale
 70
     0
300
1'-0" = 1'-0"
140
12.0
141
12.0
290
     0
  0
ENDSEC
  0
EOF
