  0
SECTION
  2
HEADER
  9
$ACADVER
  1
AC1015
  9
$ACADMAINTVER
 70
     6
  9
$DWGCODEPAGE
  3
ANSI_949
  9
$INSBASE
 10
0.0
 20
0.0
 30
0.0
  9
$EXTMIN
 10
-44.23576969120145
 20
-49.97180738881174
 30
0.0
  9
$EXTMAX
 10
39.4206809148539
 20
24.76413260158165
 30
0.0
  9
$LIMMIN
 10
0.0
 20
0.0
  9
$LIMMAX
 10
420.0
 20
297.0
  9
$ORTHOMODE
 70
     0
  9
$REGENMODE
 70
     1
  9
$FILLMODE
 70
     1
  9
$QTEXTMODE
 70
     0
  9
$MIRRTEXT
 70
     1
  9
$LTSCALE
 40
1.0
  9
$ATTMODE
 70
     1
  9
$TEXTSIZE
 40
3.5
  9
$TRACEWID
 40
1.0
  9
$TEXTSTYLE
  7
Standard
  9
$CLAYER
  8
0
  9
$CELTYPE
  6
ByLayer
  9
$CECOLOR
 62
   256
  9
$CELTSCALE
 40
1.0
  9
$DISPSILH
 70
     0
  9
$DIMSCALE
 40
1.0
  9
$DIMASZ
 40
3.302
  9
$DIMEXO
 40
1.0
  9
$DIMDLI
 40
3.75
  9
$DIMRND
 40
0.0
  9
$DIMDLE
 40
0.0
  9
$DIMEXE
 40
1.0
  9
$DIMTP
 40
0.0
  9
$DIMTM
 40
0.0
  9
$DIMTXT
 40
3.5
  9
$DIMCEN
 40
2.5
  9
$DIMTSZ
 40
0.0
  9
$DIMTOL
 70
     0
  9
$DIMLIM
 70
     0
  9
$DIMTIH
 70
     1
  9
$DIMTOH
 70
     1
  9
$DIMSE1
 70
     0
  9
$DIMSE2
 70
     0
  9
$DIMTAD
 70
     1
  9
$DIMZIN
 70
     0
  9
$DIMBLK
  1

  9
$DIMASO
 70
     1
  9
$DIMSHO
 70
     1
  9
$DIMPOST
  1

  9
$DIMAPOST
  1

  9
$DIMALT
 70
     0
  9
$DIMALTD
 70
     3
  9
$DIMALTF
 40
0.0393700787401575
  9
$DIMLFAC
 40
1.0
  9
$DIMTOFL
 70
     1
  9
$DIMTVP
 40
0.0
  9
$DIMTIX
 70
     0
  9
$DIMSOXD
 70
     0
  9
$DIMSAH
 70
     0
  9
$DIMBLK1
  1

  9
$DIMBLK2
  1

  9
$DIMSTYLE
  2
ISO-25
  9
$DIMCLRD
 70
     0
  9
$DIMCLRE
 70
     0
  9
$DIMCLRT
 70
     0
  9
$DIMTFAC
 40
1.0
  9
$DIMGAP
 40
1.524
  9
$DIMJUST
 70
     0
  9
$DIMSD1
 70
     0
  9
$DIMSD2
 70
     0
  9
$DIMTOLJ
 70
     0
  9
$DIMTZIN
 70
     0
  9
$DIMALTZ
 70
     0
  9
$DIMALTTZ
 70
     0
  9
$DIMUPT
 70
     0
  9
$DIMDEC
 70
     2
  9
$DIMTDEC
 70
     2
  9
$DIMALTU
 70
     2
  9
$DIMALTTD
 70
     3
  9
$DIMTXSTY
  7
Standard
  9
$DIMAUNIT
 70
     0
  9
$DIMADEC
 70
     2
  9
$DIMALTRND
 40
0.0
  9
$DIMAZIN
 70
     0
  9
$DIMDSEP
 70
    44
  9
$DIMATFIT
 70
     3
  9
$DIMFRAC
 70
     0
  9
$DIMLDRBLK
  1

  9
$DIMLUNIT
 70
     2
  9
$DIMLWD
 70
    -2
  9
$DIMLWE
 70
    -2
  9
$DIMTMOVE
 70
     0
  9
$LUNITS
 70
     2
  9
$LUPREC
 70
     2
  9
$SKETCHINC
 40
1.0
  9
$FILLETRAD
 40
10.0
  9
$AUNITS
 70
     0
  9
$AUPREC
 70
     2
  9
$MENU
  1
.
  9
$ELEVATION
 40
0.0
  9
$PELEVATION
 40
0.0
  9
$THICKNESS
 40
0.0
  9
$LIMCHECK
 70
     0
  9
$CHAMFERA
 40
0.0
  9
$CHAMFERB
 40
0.0
  9
$CHAMFERC
 40
0.0
  9
$CHAMFERD
 40
0.0
  9
$SKPOLY
 70
     0
  9
$TDCREATE
 40
2458260.567572129
  9
$TDUCREATE
 40
2458260.192572129
  9
$TDUPDATE
 40
2458268.473399387
  9
$TDUUPDATE
 40
2458268.098399387
  9
$TDINDWG
 40
0.0009094213
  9
$TDUSRTIMER
 40
2458268.097489988
  9
$USRTIMER
 70
     1
  9
$ANGBASE
 50
0.0
  9
$ANGDIR
 70
     0
  9
$PDMODE
 70
     0
  9
$PDSIZE
 40
-1.0
  9
$PLINEWID
 40
0.0
  9
$SPLFRAME
 70
     0
  9
$SPLINETYPE
 70
     6
  9
$SPLINESEGS
 70
     8
  9
$HANDSEED
  5
16A
  9
$SURFTAB1
 70
     6
  9
$SURFTAB2
 70
     6
  9
$SURFTYPE
 70
     6
  9
$SURFU
 70
     6
  9
$SURFV
 70
     6
  9
$UCSBASE
  2

  9
$UCSNAME
  2

  9
$UCSORG
 10
0.0
 20
0.0
 30
0.0
  9
$UCSXDIR
 10
1.0
 20
0.0
 30
0.0
  9
$UCSYDIR
 10
0.0
 20
1.0
 30
0.0
  9
$UCSORTHOREF
  2

  9
$UCSORTHOVIEW
 70
     0
  9
$UCSORGTOP
 10
0.0
 20
0.0
 30
0.0
  9
$UCSORGBOTTOM
 10
0.0
 20
0.0
 30
0.0
  9
$UCSORGLEFT
 10
0.0
 20
0.0
 30
0.0
  9
$UCSORGRIGHT
 10
0.0
 20
0.0
 30
0.0
  9
$UCSORGFRONT
 10
0.0
 20
0.0
 30
0.0
  9
$UCSORGBACK
 10
0.0
 20
0.0
 30
0.0
  9
$PUCSBASE
  2

  9
$PUCSNAME
  2

  9
$PUCSORG
 10
0.0
 20
0.0
 30
0.0
  9
$PUCSXDIR
 10
1.0
 20
0.0
 30
0.0
  9
$PUCSYDIR
 10
0.0
 20
1.0
 30
0.0
  9
$PUCSORTHOREF
  2

  9
$PUCSORTHOVIEW
 70
     0
  9
$PUCSORGTOP
 10
0.0
 20
0.0
 30
0.0
  9
$PUCSORGBOTTOM
 10
0.0
 20
0.0
 30
0.0
  9
$PUCSORGLEFT
 10
0.0
 20
0.0
 30
0.0
  9
$PUCSORGRIGHT
 10
0.0
 20
0.0
 30
0.0
  9
$PUCSORGFRONT
 10
0.0
 20
0.0
 30
0.0
  9
$PUCSORGBACK
 10
0.0
 20
0.0
 30
0.0
  9
$USERI1
 70
     0
  9
$USERI2
 70
     0
  9
$USERI3
 70
     0
  9
$USERI4
 70
     0
  9
$USERI5
 70
     0
  9
$USERR1
 40
0.0
  9
$USERR2
 40
0.0
  9
$USERR3
 40
0.0
  9
$USERR4
 40
0.0
  9
$USERR5
 40
0.0
  9
$WORLDVIEW
 70
     1
  9
$SHADEDGE
 70
     3
  9
$SHADEDIF
 70
    70
  9
$TILEMODE
 70
     1
  9
$MAXACTVP
 70
    64
  9
$PINSBASE
 10
0.0
 20
0.0
 30
0.0
  9
$PLIMCHECK
 70
     0
  9
$PEXTMIN
 10
1.000000000000000E+20
 20
1.000000000000000E+20
 30
1.000000000000000E+20
  9
$PEXTMAX
 10
-1.000000000000000E+20
 20
-1.000000000000000E+20
 30
-1.000000000000000E+20
  9
$PLIMMIN
 10
0.0
 20
0.0
  9
$PLIMMAX
 10
0.0
 20
0.0
  9
$UNITMODE
 70
     0
  9
$VISRETAIN
 70
     1
  9
$PLINEGEN
 70
     0
  9
$PSLTSCALE
 70
     1
  9
$TREEDEPTH
 70
  3020
  9
$CMLSTYLE
  2
Standard
  9
$CMLJUST
 70
     0
  9
$CMLSCALE
 40
20.0
  9
$PROXYGRAPHICS
 70
     1
  9
$MEASUREMENT
 70
     1
  9
$CELWEIGHT
370
    -1
  9
$ENDCAPS
280
     0
  9
$JOINSTYLE
280
     0
  9
$LWDISPLAY
290
     1
  9
$INSUNITS
 70
     4
  9
$HYPERLINKBASE
  1

  9
$STYLESHEET
  1

  9
$XEDIT
290
     1
  9
$CEPSNTYPE
380
     0
  9
$PSTYLEMODE
290
     1
  9
$FINGERPRINTGUID
  2
{5C3C2D82-8C99-4B3F-A3F1-79BFB6403542}
  9
$VERSIONGUID
  2
{FAEB1C32-E019-11D5-929B-00C0DF256EC4}
  9
$EXTNAMES
290
     1
  9
$PSVPSCALE
 40
0.0
  9
$OLESTARTUP
290
     0
  0
ENDSEC
  0
SECTION
  2
CLASSES
  0
CLASS
  1
ACDBDICTIONARYWDFLT
  2
AcDbDictionaryWithDefault
  3
ObjectDBX Classes
 90
        0
280
     0
281
     0
  0
CLASS
  1
VISUALSTYLE
  2
AcDbVisualStyle
  3
ObjectDBX Classes
 90
     4095
280
     0
281
     0
  0
CLASS
  1
MATERIAL
  2
AcDbMaterial
  3
ObjectDBX Classes
 90
     1153
280
     0
281
     0
  0
CLASS
  1
SCALE
  2
AcDbScale
  3
ObjectDBX Classes
 90
     1153
280
     0
281
     0
  0
CLASS
  1
TABLESTYLE
  2
AcDbTableStyle
  3
ObjectDBX Classes
 90
     4095
280
     0
281
     0
  0
CLASS
  1
MLEADERSTYLE
  2
AcDbMLeaderStyle
  3
ACDB_MLEADERSTYLE_CLASS
 90
     4095
280
     0
281
     0
  0
CLASS
  1
SUN
  2
AcDbSun
  3
SCENEOE
 90
     1153
280
     0
281
     0
  0
CLASS
  1
ACDBPLACEHOLDER
  2
AcDbPlaceHolder
  3
ObjectDBX Classes
 90
        0
280
     0
281
     0
  0
CLASS
  1
LAYOUT
  2
AcDbLayout
  3
ObjectDBX Classes
 90
        0
280
     0
281
     0
  0
CLASS
  1
RASTERVARIABLES
  2
AcDbRasterVariables
  3
ISM
 90
        0
280
     0
281
     0
  0
ENDSEC
  0
SECTION
  2
TABLES
  0
TABLE
  2
VPORT
  5
8
330
0
100
AcDbSymbolTable
 70
     1
  0
VPORT
  5
29
330
8
100
AcDbSymbolTableRecord
100
AcDbViewportTableRecord
  2
*Active
 70
     0
 10
0.0
 20
0.0
 11
1.0
 21
1.0
 12
-2.407544388173775
 22
-12.60383739361504
 13
0.0
 23
0.0
 14
10.0
 24
10.0
 15
10.0
 25
10.0
 16
0.0
 26
0.0
 36
1.0
 17
0.0
 27
0.0
 37
0.0
 40
76.23065879020126
 41
1.737726098191214
 42
50.0
 43
0.0
 44
0.0
 50
0.0
 51
0.0
 71
    16
 72
  2000
 73
     1
 74
     3
 75
     0
 76
     0
 77
     0
 78
     0
281
     0
 65
     1
110
0.0
120
0.0
130
0.0
111
1.0
121
0.0
131
0.0
112
0.0
122
1.0
132
0.0
 79
     0
146
0.0
  0
ENDTAB
  0
TABLE
  2
LTYPE
  5
5
330
0
100
AcDbSymbolTable
 70
     6
  0
LTYPE
  5
14
330
5
100
AcDbSymbolTableRecord
100
AcDbLinetypeTableRecord
  2
ByBlock
 70
     0
  3

 72
    65
 73
     0
 40
0.0
  0
LTYPE
  5
15
330
5
100
AcDbSymbolTableRecord
100
AcDbLinetypeTableRecord
  2
ByLayer
 70
     0
  3

 72
    65
 73
     0
 40
0.0
  0
LTYPE
  5
16
330
5
100
AcDbSymbolTableRecord
100
AcDbLinetypeTableRecord
  2
Continuous
 70
     0
  3
Solid line
 72
    65
 73
     0
 40
0.0
  0
LTYPE
  5
6E
330
5
100
AcDbSymbolTableRecord
100
AcDbLinetypeTableRecord
  2
HIDDEN
 70
     0
  3
Hidden __ __ __ __ __ __ __ __ __ __ __ __ __ __
 72
    65
 73
     2
 40
1.905
 49
1.27
 74
     0
 49
-0.635
 74
     0
  0
LTYPE
  5
6F
330
5
100
AcDbSymbolTableRecord
100
AcDbLinetypeTableRecord
  2
PHANTOM
 70
     0
  3
Phantom ______  __  __  ______  __  __  ______
 72
    65
 73
     6
 40
12.7
 49
6.35
 74
     0
 49
-1.27
 74
     0
 49
1.27
 74
     0
 49
-1.27
 74
     0
 49
1.27
 74
     0
 49
-1.27
 74
     0
  0
LTYPE
  5
70
330
5
100
AcDbSymbolTableRecord
100
AcDbLinetypeTableRecord
  2
CENTER
 70
     0
  3
Center ____ _ ____ _ ____ _ ____ _ ____ _ ____
 72
    65
 73
     4
 40
10.16
 49
6.35
 74
     0
 49
-1.27
 74
     0
 49
1.27
 74
     0
 49
-1.27
 74
     0
  0
LTYPE
  5
71
330
5
100
AcDbSymbolTableRecord
100
AcDbLinetypeTableRecord
  2
CENTERX2
 70
     0
  3
Center (2x) ________  __  ________  __  _____
 72
    65
 73
     4
 40
20.32
 49
12.7
 74
     0
 49
-2.54
 74
     0
 49
2.54
 74
     0
 49
-2.54
 74
     0
  0
LTYPE
  5
72
330
5
100
AcDbSymbolTableRecord
100
AcDbLinetypeTableRecord
  2
DOT2
 70
     0
  3
Dot (.5x) ........................................
 72
    65
 73
     2
 40
0.635
 49
0.0
 74
     0
 49
-0.635
 74
     0
  0
ENDTAB
  0
TABLE
  2
LAYER
  5
2
330
0
100
AcDbSymbolTable
 70
    17
  0
LAYER
  5
10
330
2
100
AcDbSymbolTableRecord
100
AcDbLayerTableRecord
  2
0
 70
     0
 62
     7
  6
Continuous
370
    -3
390
F
  0
LAYER
  5
73
330
2
100
AcDbSymbolTableRecord
100
AcDbLayerTableRecord
  2
FORMAT
 70
     0
 62
     2
  6
Continuous
370
    -3
390
F
  0
LAYER
  5
74
330
2
100
AcDbSymbolTableRecord
100
AcDbLayerTableRecord
  2
외형선
 70
     0
 62
   100
  6
Continuous
370
    35
390
F
  0
LAYER
  5
75
330
2
100
AcDbSymbolTableRecord
100
AcDbLayerTableRecord
  2
숨은선
 70
     0
 62
     2
  6
HIDDEN
370
    25
390
F
  0
LAYER
  5
76
330
2
100
AcDbSymbolTableRecord
100
AcDbLayerTableRecord
  2
중심선
 70
     0
 62
     1
  6
CENTERX2
370
    -3
390
F
  0
LAYER
  5
77
330
2
100
AcDbSymbolTableRecord
100
AcDbLayerTableRecord
  2
파단선
 70
     0
 62
     4
  6
Continuous
370
    -3
390
F
  0
LAYER
  5
78
330
2
100
AcDbSymbolTableRecord
100
AcDbLayerTableRecord
  2
해칭선
 70
     0
 62
   100
  6
Continuous
370
    -3
390
F
  0
LAYER
  5
79
330
2
100
AcDbSymbolTableRecord
100
AcDbLayerTableRecord
  2
가는실선
 70
     0
 62
     4
  6
Continuous
370
    -3
390
F
  0
LAYER
  5
7A
330
2
100
AcDbSymbolTableRecord
100
AcDbLayerTableRecord
  2
치수_보조선
 70
     0
 62
     4
  6
Continuous
370
    -3
390
F
  0
LAYER
  5
7B
330
2
100
AcDbSymbolTableRecord
100
AcDbLayerTableRecord
  2
치수문자_일반주서
 70
     0
 62
     7
  6
Continuous
370
    25
390
F
  0
LAYER
  5
7C
330
2
100
AcDbSymbolTableRecord
100
AcDbLayerTableRecord
  2
개별주서
 70
     0
 62
   100
  6
Continuous
370
    35
390
F
  0
LAYER
  5
7D
330
2
100
AcDbSymbolTableRecord
100
AcDbLayerTableRecord
  2
중간선
 70
     0
 62
     2
  6
Continuous
370
    25
390
F
  0
LAYER
  5
7E
330
2
100
AcDbSymbolTableRecord
100
AcDbLayerTableRecord
  2
윤곽선
 70
     0
 62
     3
  6
Continuous
370
    50
390
F
  0
LAYER
  5
7F
330
2
100
AcDbSymbolTableRecord
100
AcDbLayerTableRecord
  2
중심마크
 70
     0
 62
   100
  6
Continuous
370
    35
390
F
  0
LAYER
  5
80
330
2
100
AcDbSymbolTableRecord
100
AcDbLayerTableRecord
  2
가상선
 70
     0
 62
     4
  6
PHANTOM
370
    -3
390
F
  0
LAYER
  5
81
330
2
100
AcDbSymbolTableRecord
100
AcDbLayerTableRecord
  2
특수지정선
 70
     0
 62
     5
  6
CENTERX2
370
    70
390
F
  0
LAYER
  5
15D
330
2
100
AcDbSymbolTableRecord
100
AcDbLayerTableRecord
  2
Defpoints
 70
     0
 62
     7
  6
Continuous
290
     0
370
    -3
390
F
  0
ENDTAB
  0
TABLE
  2
STYLE
  5
3
330
0
100
AcDbSymbolTable
 70
     2
  0
STYLE
  5
11
330
3
100
AcDbSymbolTableRecord
100
AcDbTextStyleTableRecord
  2
Standard
 70
     0
 40
0.0
 41
1.0
 50
0.0
 71
     0
 42
3.5
  3
txt
  4

  0
STYLE
  5
97
330
3
100
AcDbSymbolTableRecord
100
AcDbTextStyleTableRecord
  2
SLDTEXTSTYLE0
 70
     0
 40
0.0
 41
0.75
 50
0.0
 71
     0
 42
3.5
  3
TXT
  4

  0
ENDTAB
  0
TABLE
  2
VIEW
  5
6
330
0
100
AcDbSymbolTable
 70
     0
  0
ENDTAB
  0
TABLE
  2
UCS
  5
7
330
0
100
AcDbSymbolTable
 70
     0
  0
ENDTAB
  0
TABLE
  2
APPID
  5
9
330
0
100
AcDbSymbolTable
 70
     1
  0
APPID
  5
12
330
9
100
AcDbSymbolTableRecord
100
AcDbRegAppTableRecord
  2
ACAD
 70
     0
  0
ENDTAB
  0
TABLE
  2
DIMSTYLE
  5
A
330
0
100
AcDbSymbolTable
 70
     4
100
AcDbDimStyleTable
  0
DIMSTYLE
105
27
330
A
100
AcDbSymbolTableRecord
100
AcDbDimStyleTableRecord
  2
ISO-25
 70
     0
 41
2.5
 42
0.625
 43
3.75
 44
1.25
 73
     0
 74
     0
 77
     1
 78
     8
140
2.5
141
2.5
143
0.03937007874016
147
0.625
171
     3
172
     1
178
     0
271
     2
272
     2
274
     3
278
    44
283
     0
284
     8
340
11
  0
DIMSTYLE
105
100
102
{ACAD_REACTORS
330
FF
102
}
330
A
100
AcDbSymbolTableRecord
100
AcDbDimStyleTableRecord
  2
SLDDIMSTYLE0
 70
     0
 41
3.302
 44
0.0
 45
0.000000001
 73
     0
 74
     0
 77
     1
 78
    12
 79
     3
140
3.5
147
0.875
172
     1
173
     1
178
     0
271
     1
272
     1
276
     2
284
    12
289
     0
340
97
  0
DIMSTYLE
105
10E
102
{ACAD_REACTORS
330
10D
102
}
330
A
100
AcDbSymbolTableRecord
100
AcDbDimStyleTableRecord
  2
SLDDIMSTYLE1
 70
     0
 41
3.302
 44
0.0
 45
0.000000001
 73
     0
 74
     0
 77
     1
 78
    12
 79
     3
140
3.5
147
0.875
173
     1
178
     0
271
     2
272
     2
276
     2
284
    12
340
97
  0
DIMSTYLE
105
119
102
{ACAD_REACTORS
330
118
330
126
102
}
330
A
100
AcDbSymbolTableRecord
100
AcDbDimStyleTableRecord
  2
SLDDIMSTYLE2
 70
     0
 41
3.302
 44
0.0
 45
0.000000001
 73
     0
 74
     0
 77
     1
 78
    12
 79
     3
140
3.5
147
0.875
172
     1
173
     1
178
     0
271
     2
272
     2
276
     2
284
    12
289
     0
340
97
  0
ENDTAB
  0
TABLE
  2
BLOCK_RECORD
  5
1
330
0
100
AcDbSymbolTable
 70
     7
  0
BLOCK_RECORD
  5
1F
330
1
100
AcDbSymbolTableRecord
100
AcDbBlockTableRecord
  2
*Model_Space
340
22
  0
BLOCK_RECORD
  5
1B
330
1
100
AcDbSymbolTableRecord
100
AcDbBlockTableRecord
  2
*Paper_Space
340
1E
  0
BLOCK_RECORD
  5
23
330
1
100
AcDbSymbolTableRecord
100
AcDbBlockTableRecord
  2
*Paper_Space0
340
26
  0
BLOCK_RECORD
  5
82
330
1
100
AcDbSymbolTableRecord
100
AcDbBlockTableRecord
  2
블럭10
340
0
102
{BLKREFS
331
F8
102
}
  0
BLOCK_RECORD
  5
101
330
1
100
AcDbSymbolTableRecord
100
AcDbBlockTableRecord
  2
_D
340
0
  0
BLOCK_RECORD
  5
10F
330
1
100
AcDbSymbolTableRecord
100
AcDbBlockTableRecord
  2
_D_1
340
0
  0
BLOCK_RECORD
  5
11A
330
1
100
AcDbSymbolTableRecord
100
AcDbBlockTableRecord
  2
_D_2
340
0
  0
BLOCK_RECORD
  5
127
330
1
100
AcDbSymbolTableRecord
100
AcDbBlockTableRecord
  2
_D_3
340
0
  0
BLOCK_RECORD
  5
132
330
1
100
AcDbSymbolTableRecord
100
AcDbBlockTableRecord
  2
SW_DOWELSYMBOL_0
340
0
102
{BLKREFS
331
138
102
}
  0
ENDTAB
  0
ENDSEC
  0
SECTION
  2
BLOCKS
  0
BLOCK
  5
20
330
1F
100
AcDbEntity
  8
0
100
AcDbBlockBegin
  2
*Model_Space
 70
     0
 10
0.0
 20
0.0
 30
0.0
  3
*Model_Space
  1

  0
ENDBLK
  5
21
330
1F
100
AcDbEntity
  8
0
100
AcDbBlockEnd
  0
BLOCK
  5
1C
330
1B
100
AcDbEntity
 67
     1
  8
0
100
AcDbBlockBegin
  2
*Paper_Space
 70
     0
 10
0.0
 20
0.0
 30
0.0
  3
*Paper_Space
  1

  0
ENDBLK
  5
1D
330
1B
100
AcDbEntity
 67
     1
  8
0
100
AcDbBlockEnd
  0
BLOCK
  5
24
330
23
100
AcDbEntity
  8
0
100
AcDbBlockBegin
  2
*Paper_Space0
 70
     0
 10
0.0
 20
0.0
 30
0.0
  3
*Paper_Space0
  1

  0
ENDBLK
  5
25
330
23
100
AcDbEntity
  8
0
100
AcDbBlockEnd
  0
BLOCK
  5
83
330
82
100
AcDbEntity
  8
0
100
AcDbBlockBegin
  2
블럭10
 70
     2
 10
0.0
 20
0.0
 30
0.0
  3
블럭10
  1

  0
ELLIPSE
  5
85
330
82
100
AcDbEntity
  8
중심선
100
AcDbEllipse
 10
20.54032771741204
 20
12.0471743016438
 30
0.0
 11
6.600054785286829
 21
-1.261213355974178E-13
 31
0.0
210
0.0
220
0.0
230
1.0
 40
0.636358354079598
 41
0.9219305317359503
 42
6.513795318482858
  0
ELLIPSE
  5
86
330
82
100
AcDbEntity
  8
중심선
100
AcDbEllipse
 10
20.54032771746488
 20
12.04717430159265
 30
0.0
 11
3.960054785062283
 21
1.540847449632565E-10
 31
0.0
210
0.0
220
0.0
230
1.0
 40
0.3939339440162632
 41
1.131841032648279
 42
5.62031148352944
  0
LINE
  5
87
330
82
100
AcDbEntity
  8
중심선
100
AcDbLine
 10
2.268634060543552
 20
16.24717430164393
 30
0.0
 11
5.714909304380834
 21
16.24717430164393
 31
0.0
  0
LINE
  5
88
330
82
100
AcDbEntity
  8
중심선
100
AcDbLine
 10
5.245725140726316
 20
7.84717430164391
 30
0.0
 11
8.692000384563599
 21
7.84717430164391
 31
0.0
  0
LINE
  5
89
330
82
100
AcDbEntity
  8
중심선
100
AcDbLine
 10
15.74043728645272
 20
16.24717430164393
 30
0.0
 11
8.692000384563599
 21
7.84717430164391
 31
0.0
  0
LINE
  5
8A
330
82
100
AcDbEntity
  8
중심선
100
AcDbLine
 10
0.1404042013395286
 20
13.71084872107135
 30
0.0
 11
3.58671253028996
 21
13.71088815037384
 31
0.0
  0
LINE
  5
8B
330
82
100
AcDbEntity
  8
중심선
100
AcDbLine
 10
2.750260043222114
 20
10.84717430164391
 30
0.0
 11
6.196535287059397
 21
10.84717430164391
 31
0.0
  0
LINE
  5
8C
330
82
100
AcDbEntity
  8
중심선
100
AcDbLine
 10
12.29416204261559
 20
16.24717430164393
 30
0.0
 11
5.245725140726316
 21
7.84717430164391
 31
0.0
  0
LINE
  5
8D
330
82
100
AcDbEntity
  8
중심선
100
AcDbLine
 10
10.72767329541681
 20
16.24717430164393
 30
0.0
 11
6.196535287059397
 21
10.84717430164391
 31
0.0
  0
LINE
  5
8E
330
82
100
AcDbEntity
  8
중심선
100
AcDbLine
 10
7.28139805157953
 20
16.24717430164393
 30
0.0
 11
2.750260043222114
 21
10.84717430164391
 31
0.0
  0
LINE
  5
8F
330
82
100
AcDbEntity
  8
중심선
100
AcDbLine
 10
5.714909304380834
 20
16.24717430164393
 30
0.0
 11
3.58671253028996
 21
13.71088815037384
 31
0.0
  0
LINE
  5
90
330
82
100
AcDbEntity
  8
중심선
100
AcDbLine
 10
2.268634060543552
 20
16.24717430164393
 30
0.0
 11
0.1404042013395286
 21
13.71084872107135
 31
0.0
  0
LINE
  5
91
330
82
100
AcDbEntity
  8
중심선
100
AcDbLine
 10
7.28139805157953
 20
16.24717430164393
 30
0.0
 11
10.72767329541681
 21
16.24717430164393
 31
0.0
  0
LINE
  5
92
330
82
100
AcDbEntity
  8
중심선
100
AcDbLine
 10
12.29416204261559
 20
16.24717430164393
 30
0.0
 11
15.74043728645272
 21
16.24717430164393
 31
0.0
  0
LINE
  5
93
330
82
100
AcDbEntity
  8
중심선
100
AcDbLine
 10
19.22036997980202
 20
11.08717430171403
 30
0.0
 11
23.66174974927406
 21
11.08717430171406
 31
0.0
  0
LINE
  5
94
330
82
100
AcDbEntity
  8
중심선
100
AcDbLine
 10
19.22039502424796
 20
13.00717430171391
 30
0.0
 11
19.22036997980202
 21
11.08717430171403
 31
0.0
  0
LINE
  5
95
330
82
100
AcDbEntity
  8
중심선
100
AcDbLine
 10
19.22039502424796
 20
13.00717430171391
 30
0.0
 11
26.96566020931264
 21
13.00717430171391
 31
0.0
  0
LINE
  5
96
330
82
100
AcDbEntity
  8
중심선
100
AcDbLine
 10
22.22332737316547
 20
13.45928029700563
 30
0.0
 11
24.52862924686651
 21
15.39360700705356
 31
0.0
  0
ATTDEF
  5
98
330
82
100
AcDbEntity
  8
FORMAT
 62
     2
100
AcDbText
 10
-16.11926103943555
 20
2.075366912832191
 30
0.0
 40
4.233333333333333
  1
SEME7201516E [ 4 FLUTE ]
 41
0.75
  7
SLDTEXTSTYLE0
 11
-16.11926103943555
 21
-0.0412997538344756
 31
0.0
100
AcDbAttributeDefinition
  3

  2
AUTOATTR0
 70
     0
 74
     1
  0
ENDBLK
  5
84
330
82
100
AcDbEntity
  8
0
100
AcDbBlockEnd
  0
BLOCK
  5
102
330
101
100
AcDbEntity
  8
0
100
AcDbBlockBegin
  2
_D
 70
     0
 10
0.0
 20
0.0
 30
0.0
  3
_D
  1

  0
LINE
  5
104
330
101
100
AcDbEntity
  8
치수문자_일반주서
 62
     0
370
    -2
100
AcDbLine
 10
27.45961431702997
 20
-0.7500000000000061
 30
0.0
 11
38.87034758152056
 21
-0.7499999999999645
 31
0.0
  0
LINE
  5
105
330
101
100
AcDbEntity
  8
치수문자_일반주서
 62
     0
370
    -2
100
AcDbLine
 10
27.45961431702997
 20
0.7500000000000057
 30
0.0
 11
38.87034758152055
 21
0.750000000000048
 31
0.0
  0
LINE
  5
106
330
101
100
AcDbEntity
  8
치수문자_일반주서
 62
     0
370
    -2
100
AcDbLine
 10
38.87034758152056
 20
-0.7499999999999645
 30
0.0
 11
38.87034758152048
 21
16.10400000000005
 31
0.0
  0
LINE
  5
107
330
101
100
AcDbEntity
  8
치수문자_일반주서
 62
     0
370
    -2
100
AcDbLine
 10
38.87034758152056
 20
-0.7499999999999645
 30
0.0
 11
38.87034758152055
 21
0.750000000000048
 31
0.0
  0
LINE
  5
108
330
101
100
AcDbEntity
  8
치수문자_일반주서
 62
     0
370
    -2
100
AcDbLine
 10
38.87034758152057
 20
-4.051999999999964
 30
0.0
 11
38.87034758152058
 21
-7.353999999999964
 31
0.0
  0
LINE
  5
109
330
101
100
AcDbEntity
  8
치수문자_일반주서
 62
     0
370
    -2
100
AcDbLine
 10
38.87034758152053
 20
4.052000000000048
 30
0.0
 11
38.87034758152052
 21
7.354000000000047
 31
0.0
  0
SOLID
  5
10A
330
101
100
AcDbEntity
  8
치수문자_일반주서
 62
     0
100
AcDbTrace
 10
39.4206809148539
 20
-4.051999999999961
 30
0.0
 11
38.32001424818723
 21
-4.051999999999967
 31
0.0
 12
38.87034758152056
 22
-0.7499999999999645
 32
0.0
 13
38.87034758152056
 23
-0.7499999999999645
 33
0.0
  0
SOLID
  5
10B
330
101
100
AcDbEntity
  8
치수문자_일반주서
 62
     0
100
AcDbTrace
 10
38.3200142481872
 20
4.052000000000045
 30
0.0
 11
39.42068091485387
 21
4.05200000000005
 31
0.0
 12
38.87034758152055
 22
0.750000000000048
 32
0.0
 13
38.87034758152055
 23
0.750000000000048
 33
0.0
  0
MTEXT
  5
10C
330
101
100
AcDbEntity
  8
치수문자_일반주서
 62
     0
100
AcDbMText
 10
34.4953475815205
 20
11.72900000000003
 30
0.0
 40
3.5
 41
0.0
 71
     2
 72
     1
  1
\A1;%%c1.5
  7
SLDTEXTSTYLE0
 11
-4.736951571733964E-15
 21
1.0
 31
0.0
 73
     1
 44
1.0
  0
POINT
  5
165
330
101
100
AcDbEntity
  8
Defpoints
 62
     0
100
AcDbPoint
 10
27.39711431702997
 20
-0.7500000000000063
 30
0.0
  0
POINT
  5
166
330
101
100
AcDbEntity
  8
Defpoints
 62
     0
100
AcDbPoint
 10
27.39711431702997
 20
0.7500000000000054
 30
0.0
  0
POINT
  5
167
330
101
100
AcDbEntity
  8
Defpoints
 62
     0
100
AcDbPoint
 10
38.87034758152055
 20
0.7500000000000483
 30
0.0
  0
ENDBLK
  5
103
330
101
100
AcDbEntity
  8
0
100
AcDbBlockEnd
  0
BLOCK
  5
110
330
10F
100
AcDbEntity
  8
0
100
AcDbBlockBegin
  2
_D_1
 70
     0
 10
0.0
 20
0.0
 30
0.0
  3
_D_1
  1

  0
LINE
  5
112
330
10F
100
AcDbEntity
  8
치수문자_일반주서
 62
     0
370
    -2
100
AcDbLine
 10
-32.60288568297004
 20
2.562499999999995
 30
0.0
 11
-32.60288568297004
 21
20.38913260158165
 31
0.0
  0
LINE
  5
113
330
10F
100
AcDbEntity
  8
치수문자_일반주서
 62
     0
370
    -2
100
AcDbLine
 10
27.39711431702995
 20
0.812500000000002
 30
0.0
 11
27.39711431702995
 21
20.38913260158165
 31
0.0
  0
LINE
  5
114
330
10F
100
AcDbEntity
  8
치수문자_일반주서
 62
     0
370
    -2
100
AcDbLine
 10
-29.30088568297004
 20
20.38913260158165
 30
0.0
 11
24.09511431702995
 21
20.38913260158165
 31
0.0
  0
SOLID
  5
115
330
10F
100
AcDbEntity
  8
치수문자_일반주서
 62
     0
100
AcDbTrace
 10
-29.30088568297004
 20
20.93946593491498
 30
0.0
 11
-29.30088568297004
 21
19.83879926824831
 31
0.0
 12
-32.60288568297004
 22
20.38913260158165
 32
0.0
 13
-32.60288568297004
 23
20.38913260158165
 33
0.0
  0
SOLID
  5
116
330
10F
100
AcDbEntity
  8
치수문자_일반주서
 62
     0
100
AcDbTrace
 10
24.09511431702995
 20
19.83879926824831
 30
0.0
 11
24.09511431702995
 21
20.93946593491498
 31
0.0
 12
27.39711431702995
 22
20.38913260158165
 32
0.0
 13
27.39711431702995
 23
20.38913260158165
 33
0.0
  0
MTEXT
  5
117
330
10F
100
AcDbEntity
  8
치수문자_일반주서
 62
     0
100
AcDbMText
 10
-2.602885682970044
 20
24.76413260158165
 30
0.0
 40
3.5
 41
0.0
 71
     2
 72
     1
  1
\A1;60
  7
SLDTEXTSTYLE0
 73
     1
 44
1.0
  0
POINT
  5
15E
330
10F
100
AcDbEntity
  8
Defpoints
 62
     0
100
AcDbPoint
 10
-32.60288568297004
 20
2.499999999999995
 30
0.0
  0
POINT
  5
15F
330
10F
100
AcDbEntity
  8
Defpoints
 62
     0
100
AcDbPoint
 10
27.39711431702995
 20
0.750000000000002
 30
0.0
  0
POINT
  5
160
330
10F
100
AcDbEntity
  8
Defpoints
 62
     0
100
AcDbPoint
 10
27.39711431702995
 20
20.38913260158165
 30
0.0
  0
ENDBLK
  5
111
330
10F
100
AcDbEntity
  8
0
100
AcDbBlockEnd
  0
BLOCK
  5
11B
330
11A
100
AcDbEntity
  8
0
100
AcDbBlockBegin
  2
_D_2
 70
     0
 10
0.0
 20
0.0
 30
0.0
  3
_D_2
  1

  0
LINE
  5
11D
330
11A
100
AcDbEntity
  8
치수문자_일반주서
 62
     0
370
    -2
100
AcDbLine
 10
-32.16538568297003
 20
3.000000000000003
 30
0.0
 11
-39.86076969120141
 21
2.999999999999973
 31
0.0
  0
LINE
  5
11E
330
11A
100
AcDbEntity
  8
치수문자_일반주서
 62
     0
370
    -2
100
AcDbLine
 10
-32.16538568297003
 20
-3.000000000000003
 30
0.0
 11
-39.86076969120139
 21
-3.000000000000032
 31
0.0
  0
LINE
  5
11F
330
11A
100
AcDbEntity
  8
치수문자_일반주서
 62
     0
370
    -2
100
AcDbLine
 10
-39.86076969120141
 20
2.999999999999973
 30
0.0
 11
-39.86076969120146
 21
15.72899999999997
 31
0.0
  0
LINE
  5
120
330
11A
100
AcDbEntity
  8
치수문자_일반주서
 62
     0
370
    -2
100
AcDbLine
 10
-39.86076969120141
 20
2.999999999999973
 30
0.0
 11
-39.86076969120139
 21
-3.000000000000032
 31
0.0
  0
LINE
  5
121
330
11A
100
AcDbEntity
  8
치수문자_일반주서
 62
     0
370
    -2
100
AcDbLine
 10
-39.86076969120143
 20
6.301999999999973
 30
0.0
 11
-39.86076969120144
 21
9.603999999999973
 31
0.0
  0
LINE
  5
122
330
11A
100
AcDbEntity
  8
치수문자_일반주서
 62
     0
370
    -2
100
AcDbLine
 10
-39.86076969120138
 20
-6.302000000000032
 30
0.0
 11
-39.86076969120136
 21
-9.604000000000031
 31
0.0
  0
SOLID
  5
123
330
11A
100
AcDbEntity
  8
치수문자_일반주서
 62
     0
100
AcDbTrace
 10
-40.41110302453476
 20
6.301999999999971
 30
0.0
 11
-39.31043635786809
 21
6.301999999999975
 31
0.0
 12
-39.86076969120141
 22
2.999999999999973
 32
0.0
 13
-39.86076969120141
 23
2.999999999999973
 33
0.0
  0
SOLID
  5
124
330
11A
100
AcDbEntity
  8
치수문자_일반주서
 62
     0
100
AcDbTrace
 10
-39.31043635786804
 20
-6.30200000000003
 30
0.0
 11
-40.41110302453471
 21
-6.302000000000033
 31
0.0
 12
-39.86076969120139
 22
-3.000000000000032
 32
0.0
 13
-39.86076969120139
 23
-3.000000000000032
 33
0.0
  0
MTEXT
  5
125
330
11A
100
AcDbEntity
  8
치수문자_일반주서
 62
     0
100
AcDbMText
 10
-44.23576969120145
 20
12.66649999999996
 30
0.0
 40
3.5
 41
0.0
 71
     2
 72
     1
  1
\A1;%%c6
  7
SLDTEXTSTYLE0
 11
-3.552713678800498E-15
 21
1.0
 31
0.0
 73
     1
 44
1.0
  0
POINT
  5
162
330
11A
100
AcDbEntity
  8
Defpoints
 62
     0
100
AcDbPoint
 10
-32.10288568297003
 20
3.000000000000003
 30
0.0
  0
POINT
  5
163
330
11A
100
AcDbEntity
  8
Defpoints
 62
     0
100
AcDbPoint
 10
-32.10288568297003
 20
-3.000000000000002
 30
0.0
  0
POINT
  5
164
330
11A
100
AcDbEntity
  8
Defpoints
 62
     0
100
AcDbPoint
 10
-39.86076969120138
 20
-3.000000000000031
 30
0.0
  0
ENDBLK
  5
11C
330
11A
100
AcDbEntity
  8
0
100
AcDbBlockEnd
  0
BLOCK
  5
128
330
127
100
AcDbEntity
  8
0
100
AcDbBlockBegin
  2
_D_3
 70
     0
 10
0.0
 20
0.0
 30
0.0
  3
_D_3
  1

  0
LINE
  5
12A
330
127
100
AcDbEntity
  8
치수문자_일반주서
 62
     0
370
    -2
100
AcDbLine
 10
11.39711431702995
 20
0.8122459596150142
 30
0.0
 11
11.39711431702995
 21
11.59566426220266
 31
0.0
  0
LINE
  5
12B
330
127
100
AcDbEntity
  8
치수문자_일반주서
 62
     0
370
    -2
100
AcDbLine
 10
27.39711431702995
 20
0.812500000000002
 30
0.0
 11
27.39711431702995
 21
11.59566426220266
 31
0.0
  0
LINE
  5
12C
330
127
100
AcDbEntity
  8
치수문자_일반주서
 62
     0
370
    -2
100
AcDbLine
 10
14.69911431702995
 20
11.59566426220266
 30
0.0
 11
24.09511431702995
 21
11.59566426220266
 31
0.0
  0
SOLID
  5
12D
330
127
100
AcDbEntity
  8
치수문자_일반주서
 62
     0
100
AcDbTrace
 10
14.69911431702995
 20
12.145997595536
 30
0.0
 11
14.69911431702995
 21
11.04533092886933
 31
0.0
 12
11.39711431702995
 22
11.59566426220266
 32
0.0
 13
11.39711431702995
 23
11.59566426220266
 33
0.0
  0
SOLID
  5
12E
330
127
100
AcDbEntity
  8
치수문자_일반주서
 62
     0
100
AcDbTrace
 10
24.09511431702995
 20
11.04533092886933
 30
0.0
 11
24.09511431702995
 21
12.145997595536
 31
0.0
 12
27.39711431702995
 22
11.59566426220266
 32
0.0
 13
27.39711431702995
 23
11.59566426220266
 33
0.0
  0
MTEXT
  5
12F
330
127
100
AcDbEntity
  8
치수문자_일반주서
 62
     0
100
AcDbMText
 10
19.39711431702995
 20
15.97066426220266
 30
0.0
 40
3.5
 41
0.0
 71
     2
 72
     1
  1
\A1;16
  7
SLDTEXTSTYLE0
 73
     1
 44
1.0
  0
POINT
  5
130
330
127
100
AcDbEntity
  8
Defpoints
 62
     0
100
AcDbPoint
 10
11.39711431702995
 20
0.7497459596150142
 30
0.0
  0
POINT
  5
131
330
127
100
AcDbEntity
  8
Defpoints
 62
     0
100
AcDbPoint
 10
27.39711431702995
 20
0.750000000000002
 30
0.0
  0
POINT
  5
161
330
127
100
AcDbEntity
  8
Defpoints
 62
     0
100
AcDbPoint
 10
27.39711431702995
 20
11.59566426220266
 30
0.0
  0
ENDBLK
  5
129
330
127
100
AcDbEntity
  8
0
100
AcDbBlockEnd
  0
BLOCK
  5
133
330
132
100
AcDbEntity
  8
0
100
AcDbBlockBegin
  2
SW_DOWELSYMBOL_0
 70
     0
 10
0.0
 20
0.0
 30
0.0
  3
SW_DOWELSYMBOL_0
  1

  0
CIRCLE
  5
135
330
132
100
AcDbEntity
  8
해칭선
 62
     0
100
AcDbCircle
 10
0.0
 20
0.0
 30
0.0
 40
3.000000000000003
  0
HATCH
  5
136
330
132
100
AcDbEntity
  8
0
  6
Continuous
 62
     0
370
    18
100
AcDbHatch
 10
0.0
 20
0.0
 30
0.0
210
0.0
220
0.0
230
1.0
  2
SOLID
 70
     1
 71
     0
 91
        1
 92
        0
 93
        3
 72
     2
 10
0.0
 20
0.0
 40
3.000000000000003
 50
0.0
 51
90.0
 73
     1
 72
     1
 10
0.0
 20
3.000000000000003
 11
0.0
 21
0.0
 72
     1
 10
0.0
 20
0.0
 11
3.000000000000003
 21
0.0
 97
        0
 75
     0
 76
     1
 98
        1
 10
0.0
 20
0.0
  0
HATCH
  5
137
330
132
100
AcDbEntity
  8
0
  6
Continuous
 62
     0
370
    18
100
AcDbHatch
 10
0.0
 20
0.0
 30
0.0
210
0.0
220
0.0
230
1.0
  2
SOLID
 70
     1
 71
     0
 91
        1
 92
        0
 93
        3
 72
     2
 10
0.0
 20
0.0
 40
3.000000000000003
 50
180.0
 51
270.0000000000008
 73
     1
 72
     1
 10
0.0
 20
-3.000000000000003
 11
0.0
 21
0.0
 72
     1
 10
0.0
 20
0.0
 11
-3.000000000000003
 21
0.0
 97
        0
 75
     0
 76
     1
 98
        1
 10
0.0
 20
0.0
  0
ENDBLK
  5
134
330
132
100
AcDbEntity
  8
0
100
AcDbBlockEnd
  0
ENDSEC
  0
SECTION
  2
ENTITIES
  0
LINE
  5
99
330
1F
100
AcDbEntity
  8
0
  6
Continuous
 62
     4
370
    25
100
AcDbLine
 10
2.0
 20
2.999999999999998
 30
0.0
 11
-32.10288568297004
 21
2.999999999999996
 31
0.0
  0
LINE
  5
9A
330
1F
100
AcDbEntity
  8
0
  6
Continuous
 62
     4
370
    25
100
AcDbLine
 10
-32.10288568297004
 20
-3.0
 30
0.0
 11
1.999999999999997
 21
-2.999999999999998
 31
0.0
  0
LINE
  5
9B
330
1F
100
AcDbEntity
  8
0
  6
Continuous
 62
     4
370
    25
100
AcDbLine
 10
2.0
 20
-2.999999999999998
 30
0.0
 11
9.897151122228856
 21
-0.8839647342922377
 31
0.0
  0
LINE
  5
9C
330
1F
100
AcDbEntity
  8
0
  6
Continuous
 62
     4
370
    25
100
AcDbLine
 10
9.897151122228856
 20
0.8839647342922384
 30
0.0
 11
2.0
 21
2.999999999999999
 31
0.0
  0
LINE
  5
9D
330
1F
100
AcDbEntity
  8
0
  6
Continuous
 62
     4
370
    25
100
AcDbLine
 10
-32.10288568297004
 20
2.999999999999995
 30
0.0
 11
-32.60288568297004
 21
2.499999999999994
 31
0.0
  0
LINE
  5
9E
330
1F
100
AcDbEntity
  8
0
  6
Continuous
 62
     4
370
    25
100
AcDbLine
 10
-32.60288568297004
 20
-2.499999999999999
 30
0.0
 11
-32.10288568297004
 21
-2.999999999999999
 31
0.0
  0
LINE
  5
9F
330
1F
100
AcDbEntity
  8
0
  6
Continuous
 62
     4
370
    25
100
AcDbLine
 10
10.78424144915318
 20
-0.7499999999999996
 30
0.0
 11
11.36367706340206
 21
-0.7499999999999994
 31
0.0
  0
LINE
  5
A0
330
1F
100
AcDbEntity
  8
0
  6
Continuous
 62
     4
370
    25
100
AcDbLine
 10
11.36367706340205
 20
0.7500000000000006
 30
0.0
 11
10.78424144915318
 21
0.7500000000000004
 31
0.0
  0
LINE
  5
A1
330
1F
100
AcDbEntity
  8
0
  6
Continuous
 62
     1
370
    25
100
AcDbLine
 10
25.06632250423327
 20
-0.7500000000000011
 30
0.0
 11
25.64647676180493
 21
-0.7500000000000011
 31
0.0
  0
LINE
  5
A2
330
1F
100
AcDbEntity
  8
0
  6
Continuous
 62
     1
370
    25
100
AcDbLine
 10
16.90422536517929
 20
-0.7500000000000011
 30
0.0
 11
17.48437962275096
 21
-0.7500000000000011
 31
0.0
  0
LINE
  5
A3
330
1F
100
AcDbEntity
  8
0
  6
Continuous
 62
     1
370
    25
100
AcDbLine
 10
13.40366708113226
 20
0.750000000000002
 30
0.0
 11
12.82345115860979
 21
0.750000000000002
 31
0.0
  0
LINE
  5
A4
330
1F
100
AcDbEntity
  8
0
  6
Continuous
 62
     1
370
    25
100
AcDbLine
 10
21.56576422018625
 20
0.750000000000002
 30
0.0
 11
20.98554829766376
 21
0.750000000000002
 31
0.0
  0
LINE
  5
A5
330
1F
100
AcDbEntity
  8
0
  6
Continuous
 62
     1
370
    25
100
AcDbLine
 10
15.09294088874397
 20
-0.128995775202772
 30
0.0
 11
15.05172861899612
 21
-0.107561595488198
 31
0.0
  0
LINE
  5
A6
330
1F
100
AcDbEntity
  8
0
  6
Continuous
 62
     1
370
    25
100
AcDbLine
 10
23.25503802779795
 20
-0.1289957752027719
 30
0.0
 11
23.2138257580501
 21
-0.1075615954881975
 31
0.0
  0
LINE
  5
A7
330
1F
100
AcDbEntity
  8
0
  6
Continuous
 62
     1
370
    25
100
AcDbLine
 10
17.25850702425931
 20
0.1274398323905923
 30
0.0
 11
17.2998705879029
 21
0.1067368633887406
 31
0.0
  0
SPLINE
  5
A8
330
1F
100
AcDbEntity
  8
0
  6
Continuous
 62
     1
370
    25
100
AcDbSpline
210
0.0
220
0.0
230
1.0
 70
     8
 71
     3
 72
     9
 73
     5
 74
     0
 42
0.000000001
 43
0.00000001
 40
0.0
 40
0.0
 40
0.0
 40
0.0
 40
0.6483296510676072
 40
1.0
 40
1.0
 40
1.0
 40
1.0
 10
19.31020214647225
 20
-0.2045036863088271
 30
0.0
 10
19.25114465233307
 20
-0.1746087948927788
 30
0.0
 10
19.16005288436915
 20
-0.1284981606393242
 30
0.0
 10
19.0891891203912
 20
-0.0839873238008709
 30
0.0
 10
19.06426843578642
 20
-0.0683341822786193
 30
0.0
  0
SPLINE
  5
A9
330
1F
100
AcDbEntity
  8
0
  6
Continuous
 62
     1
370
    25
100
AcDbSpline
210
0.0
220
0.0
230
1.0
 70
     8
 71
     3
 72
     9
 73
     5
 74
     0
 42
0.000000001
 43
0.00000001
 40
0.0
 40
0.0
 40
0.0
 40
0.0
 40
0.4993011539146278
 40
1.0
 40
1.0
 40
1.0
 40
1.0
 10
27.39711431702996
 20
-0.1669836202479829
 30
0.0
 10
27.36897324191762
 20
-0.1512050398235699
 30
0.0
 10
27.3126123164687
 20
-0.1196037100435251
 30
0.0
 10
27.25514126432971
 20
-0.085439941677444
 30
0.0
 10
27.2263655748404
 20
-0.0683341822786193
 30
0.0
  0
LINE
  5
AA
330
1F
100
AcDbEntity
  8
0
  6
Continuous
 62
     1
370
    25
100
AcDbLine
 10
25.42060416331329
 20
0.1274398323905929
 30
0.0
 11
25.46196772695688
 21
0.1067368633887411
 31
0.0
  0
LINE
  5
AB
330
1F
100
AcDbEntity
  8
0
  6
Continuous
 62
     1
370
    25
100
AcDbLine
 10
23.02505809901133
 20
-0.7500000000000011
 30
0.0
 11
23.60539248692669
 21
-0.7500000000000011
 31
0.0
  0
LINE
  5
AC
330
1F
100
AcDbEntity
  8
0
  6
Continuous
 62
     1
370
    25
100
AcDbLine
 10
14.86296095995734
 20
-0.7500000000000011
 30
0.0
 11
15.44329534787271
 21
-0.7500000000000011
 31
0.0
  0
LINE
  5
AD
330
1F
100
AcDbEntity
  8
0
  6
Continuous
 62
     1
370
    25
100
AcDbLine
 10
19.52393976028757
 20
0.750000000000002
 30
0.0
 11
18.94587544165127
 21
0.750000000000002
 31
0.0
  0
LINE
  5
AE
330
1F
100
AcDbEntity
  8
0
  6
Continuous
 62
     1
370
    25
100
AcDbLine
 10
27.39711431702995
 20
0.750000000000002
 30
0.0
 11
27.10797258070525
 21
0.750000000000002
 31
0.0
  0
LINE
  5
AF
330
1F
100
AcDbEntity
  8
0
  6
Continuous
 62
     1
370
    25
100
AcDbLine
 10
27.10797258070527
 20
-0.7500000000000011
 30
0.0
 11
27.39711431702995
 21
-0.7500000000000011
 31
0.0
  0
LINE
  5
B0
330
1F
100
AcDbEntity
  8
0
  6
Continuous
 62
     1
370
    25
100
AcDbLine
 10
18.94587544165127
 20
-0.7500000000000011
 30
0.0
 11
19.52393976028758
 21
-0.7500000000000011
 31
0.0
  0
LINE
  5
B1
330
1F
100
AcDbEntity
  8
0
  6
Continuous
 62
     1
370
    25
100
AcDbLine
 10
15.44329534787272
 20
0.750000000000002
 30
0.0
 11
14.86296095995734
 21
0.750000000000002
 31
0.0
  0
LINE
  5
B2
330
1F
100
AcDbEntity
  8
0
  6
Continuous
 62
     1
370
    25
100
AcDbLine
 10
23.6053924869267
 20
0.750000000000002
 30
0.0
 11
23.02505809901132
 21
0.750000000000002
 31
0.0
  0
LINE
  5
B3
330
1F
100
AcDbEntity
  8
0
  6
Continuous
 62
     1
370
    25
100
AcDbLine
 10
20.98554829766378
 20
-0.7500000000000011
 30
0.0
 11
21.56576422018626
 21
-0.7500000000000011
 31
0.0
  0
LINE
  5
B4
330
1F
100
AcDbEntity
  8
0
  6
Continuous
 62
     1
370
    25
100
AcDbLine
 10
12.82345115860979
 20
-0.7500000000000011
 30
0.0
 11
13.40366708113227
 21
-0.7500000000000011
 31
0.0
  0
LINE
  5
B5
330
1F
100
AcDbEntity
  8
0
  6
Continuous
 62
     1
370
    25
100
AcDbLine
 10
17.48437962275096
 20
0.750000000000002
 30
0.0
 11
16.90422536517932
 21
0.750000000000002
 31
0.0
  0
LINE
  5
B6
330
1F
100
AcDbEntity
  8
0
  6
Continuous
 62
     1
370
    25
100
AcDbLine
 10
25.64647676180493
 20
0.750000000000002
 30
0.0
 11
25.06632250423329
 21
0.750000000000002
 31
0.0
  0
LINE
  5
B7
330
1F
100
AcDbEntity
  8
0
  6
Continuous
 62
     4
370
    25
100
AcDbLine
 10
2.0
 20
2.999999999999999
 30
0.0
 11
2.0
 21
-2.999999999999999
 31
0.0
  0
LINE
  5
B8
330
1F
100
AcDbEntity
  8
0
  6
Continuous
 62
     4
370
    25
100
AcDbLine
 10
-32.10288568297004
 20
2.999999999999995
 30
0.0
 11
-32.10288568297004
 21
-2.999999999999999
 31
0.0
  0
SPLINE
  5
B9
330
1F
100
AcDbEntity
  8
0
  6
Continuous
 62
     4
370
    25
100
AcDbSpline
210
0.0
220
0.0
230
1.0
 70
     8
 71
     3
 72
     8
 73
     4
 74
     0
 42
0.000000001
 43
0.00000001
 40
0.0
 40
0.0
 40
0.0
 40
0.0
 40
1.0
 40
1.0
 40
1.0
 40
1.0
 10
10.12698883106219
 20
0.7173432655541175
 30
0.0
 10
10.21655093433595
 20
0.7239277738057336
 30
0.0
 10
10.30655418338606
 20
0.7238231892769476
 30
0.0
 10
10.39711431702995
 20
0.7170322617965181
 30
0.0
  0
SPLINE
  5
BA
330
1F
100
AcDbEntity
  8
0
  6
Continuous
 62
     4
370
    25
100
AcDbSpline
210
0.0
220
0.0
230
1.0
 70
     8
 71
     3
 72
    11
 73
     7
 74
     0
 42
0.000000001
 43
0.00000001
 40
0.0
 40
0.0
 40
0.0
 40
0.0
 40
0.0548347531388685
 40
0.4333979828734716
 40
0.8124710614252034
 40
1.0
 40
1.0
 40
1.0
 40
1.0
 10
9.99677754573225
 20
0.7418162626561859
 30
0.0
 10
9.998967688582784
 20
0.7407173503057201
 30
0.0
 10
10.01627794237789
 20
0.7320318658495316
 30
0.0
 10
10.05447386467421
 20
0.7219694264794826
 30
0.0
 10
10.09696025331575
 20
0.7160538682142121
 30
0.0
 10
10.11952165673507
 20
0.7170226324959921
 30
0.0
 10
10.12698883106219
 20
0.7173432655541174
 30
0.0
  0
LINE
  5
BB
330
1F
100
AcDbEntity
  8
0
  6
Continuous
 62
     4
370
    25
100
AcDbLine
 10
9.897151122228856
 20
0.8839647342922384
 30
0.0
 11
9.897151122228856
 21
0.8288010373732809
 31
0.0
  0
SPLINE
  5
BC
330
1F
100
AcDbEntity
  8
0
  6
Continuous
 62
     4
370
    25
100
AcDbSpline
210
0.0
220
0.0
230
1.0
 70
     8
 71
     3
 72
    14
 73
    10
 74
     0
 42
0.000000001
 43
0.00000001
 40
0.0
 40
0.0
 40
0.0
 40
0.0
 40
0.0000509057710825
 40
0.0000509057710825
 40
0.0000509057710825
 40
0.0001019535026239
 40
0.0001019535026239
 40
0.0001019535026239
 40
0.0001487512355856
 40
0.0001487512355856
 40
0.0001487512355856
 40
0.0001487512355856
 10
9.963680488623943
 20
0.7607427975778038
 30
0.0
 10
9.95006775473487
 20
0.7684648356329499
 30
0.0
 10
9.9377429615807
 20
0.7769284837405596
 30
0.0
 10
9.927709946626276
 20
0.7852792987430046
 30
0.0
 10
9.91766086441785
 20
0.7936434870600888
 30
0.0
 10
9.90963454903816
 20
0.8021269838019115
 30
0.0
 10
9.904436757996507
 20
0.8097945874449686
 30
0.0
 10
9.89966405990852
 20
0.8168351084958139
 30
0.0
 10
9.897151122228792
 20
0.8233744527288811
 30
0.0
 10
9.897151122228792
 20
0.828801037373289
 30
0.0
  0
SPLINE
  5
BD
330
1F
100
AcDbEntity
  8
0
  6
Continuous
 62
     4
370
    25
100
AcDbSpline
210
0.0
220
0.0
230
1.0
 70
     8
 71
     3
 72
     8
 73
     4
 74
     0
 42
0.000000001
 43
0.00000001
 40
0.0
 40
0.0
 40
0.0
 40
0.0
 40
1.0
 40
1.0
 40
1.0
 40
1.0
 10
10.39711431702995
 20
0.5080688790145629
 30
0.0
 10
10.24712908308312
 20
0.5949305942460739
 30
0.0
 10
10.10359140788261
 20
0.6813761213722878
 30
0.0
 10
9.963680488623947
 20
0.7607427975778008
 30
0.0
  0
LINE
  5
BE
330
1F
100
AcDbEntity
  8
0
  6
Continuous
 62
     4
370
    25
100
AcDbLine
 10
10.39711431702995
 20
0.5080688790145631
 30
0.0
 11
10.39711431702995
 21
0.219919838902654
 31
0.0
  0
SPLINE
  5
BF
330
1F
100
AcDbEntity
  8
0
  6
Continuous
 62
     4
370
    25
100
AcDbSpline
210
0.0
220
0.0
230
1.0
 70
     8
 71
     3
 72
     8
 73
     4
 74
     0
 42
0.000000001
 43
0.00000001
 40
0.0
 40
0.0
 40
0.0
 40
0.0
 40
1.0
 40
1.0
 40
1.0
 40
1.0
 10
10.12698883106219
 20
0.4021533897169994
 30
0.0
 10
10.21655093433595
 20
0.3413335559444161
 30
0.0
 10
10.30655418338606
 20
0.2805320237004212
 30
0.0
 10
10.39711431702995
 20
0.2199198389026548
 30
0.0
  0
SPLINE
  5
C0
330
1F
100
AcDbEntity
  8
0
  6
Continuous
 62
     4
370
    25
100
AcDbSpline
210
0.0
220
0.0
230
1.0
 70
     8
 71
     3
 72
    26
 73
    22
 74
     0
 42
0.000000001
 43
0.00000001
 40
0.0
 40
0.0
 40
0.0
 40
0.0
 40
0.0000472025260397
 40
0.0000472025260397
 40
0.0000472025260397
 40
0.0000943037526538
 40
0.0000943037526538
 40
0.0000943037526538
 40
0.0001428927763117
 40
0.0001428927763117
 40
0.0001428927763117
 40
0.0001942312230128
 40
0.0001942312230128
 40
0.0001942312230128
 40
0.0002472330015083
 40
0.0002472330015083
 40
0.0002472330015083
 40
0.0003003208062714
 40
0.0003003208062714
 40
0.0003003208062714
 40
0.0003262934057954
 40
0.0003262934057954
 40
0.0003262934057954
 40
0.0003262934057954
 10
9.897151122228856
 20
0.3136168463815995
 30
0.0
 10
9.897151122228856
 20
0.3283274847464202
 30
0.0
 10
9.89970684466035
 20
0.3428407616374569
 30
0.0
 10
9.904557243565112
 20
0.3559592273893348
 30
0.0
 10
9.90940178221092
 20
0.369061843391973
 30
0.0
 10
9.91664930514564
 20
0.3811334045885478
 30
0.0
 10
9.92567047908571
 20
0.3913623645991691
 30
0.0
 10
9.93497792390285
 20
0.4019159224252374
 30
0.0
 10
9.94640737167608
 20
0.4107925257067446
 30
0.0
 10
9.959093895305799
 20
0.4174897073871485
 30
0.0
 10
9.972486309202637
 20
0.4245595266397776
 30
0.0
 10
9.987636105763507
 20
0.4293912704414315
 30
0.0
 10
10.00339703362159
 20
0.4317224279081796
 30
0.0
 10
10.01965455063049
 20
0.4341270345726689
 30
0.0
 10
10.03701307204146
 20
0.4339338319858944
 30
0.0
 10
10.0540600942895
 20
0.4311700072732599
 30
0.0
 10
10.07113007546076
 20
0.4284024602425295
 30
0.0
 10
10.08836414055763
 20
0.422974045852834
 30
0.0
 10
10.10426875106848
 20
0.4152681800120189
 30
0.0
 10
10.1121368242615
 20
0.4114560579603815
 30
0.0
 10
10.11976685958405
 20
0.4070576861633216
 30
0.0
 10
10.12698883106222
 20
0.4021533897169832
 30
0.0
  0
LINE
  5
C1
330
1F
100
AcDbEntity
  8
0
  6
Continuous
 62
     4
370
    25
100
AcDbLine
 10
9.897151122228856
 20
0.3136168463815996
 30
0.0
 11
9.897151122228856
 21
-0.3073800447675855
 31
0.0
  0
SPLINE
  5
C2
330
1F
100
AcDbEntity
  8
0
  6
Continuous
 62
     4
370
    25
100
AcDbSpline
210
0.0
220
0.0
230
1.0
 70
     8
 71
     3
 72
    14
 73
    10
 74
     0
 42
0.000000001
 43
0.00000001
 40
0.0
 40
0.0
 40
0.0
 40
0.0
 40
0.0000509057710825
 40
0.0000509057710825
 40
0.0000509057710825
 40
0.0001019535026239
 40
0.0001019535026239
 40
0.0001019535026239
 40
0.0001487512355856
 40
0.0001487512355856
 40
0.0001487512355856
 40
0.0001487512355856
 10
9.963680488623943
 20
-0.4140843563354106
 30
0.0
 10
9.95006775473487
 20
-0.4075271722466642
 30
0.0
 10
9.9377429615807
 20
-0.3985538259869796
 30
0.0
 10
9.927709946626276
 20
-0.3877124442229789
 30
0.0
 10
9.91766086441785
 20
-0.3768537006554404
 30
0.0
 10
9.90963454903816
 20
-0.3637903945226052
 30
0.0
 10
9.904436757996507
 20
-0.3495409442187813
 30
0.0
 10
9.89966405990852
 20
-0.3364568622164617
 30
0.0
 10
9.897151122228792
 20
-0.3220119607271515
 30
0.0
 10
9.897151122228792
 20
-0.3073800447676138
 30
0.0
  0
SPLINE
  5
C3
330
1F
100
AcDbEntity
  8
0
  6
Continuous
 62
     4
370
    25
100
AcDbSpline
210
0.0
220
0.0
230
1.0
 70
     8
 71
     3
 72
     8
 73
     4
 74
     0
 42
0.000000001
 43
0.00000001
 40
0.0
 40
0.0
 40
0.0
 40
0.0
 40
1.0
 40
1.0
 40
1.0
 40
1.0
 10
10.39711431702995
 20
-0.5516937684774837
 30
0.0
 10
10.24712908308312
 20
-0.5263347407852176
 30
0.0
 10
10.10359140788261
 20
-0.4814787284784835
 30
0.0
 10
9.963680488623947
 20
-0.4140843563354114
 30
0.0
  0
LINE
  5
C4
330
1F
100
AcDbEntity
  8
0
  6
Continuous
 62
     4
370
    25
100
AcDbLine
 10
10.39711431702995
 20
-0.5516937684774842
 30
0.0
 11
10.39711431702995
 21
-0.7170322617965156
 31
0.0
  0
SPLINE
  5
C5
330
1F
100
AcDbEntity
  8
0
  6
Continuous
 62
     4
370
    25
100
AcDbSpline
210
0.0
220
0.0
230
1.0
 70
     8
 71
     3
 72
     8
 73
     4
 74
     0
 42
0.000000001
 43
0.00000001
 40
0.0
 40
0.0
 40
0.0
 40
0.0
 40
1.0
 40
1.0
 40
1.0
 40
1.0
 10
10.12698883106219
 20
-0.7173432655541171
 30
0.0
 10
10.21655093433595
 20
-0.7239277738057331
 30
0.0
 10
10.30655418338606
 20
-0.7238231892769468
 30
0.0
 10
10.39711431702995
 20
-0.7170322617965172
 30
0.0
  0
SPLINE
  5
C6
330
1F
100
AcDbEntity
  8
0
  6
Continuous
 62
     4
370
    25
100
AcDbSpline
210
0.0
220
0.0
230
1.0
 70
     8
 71
     3
 72
    26
 73
    22
 74
     0
 42
0.000000001
 43
0.00000001
 40
0.0
 40
0.0
 40
0.0
 40
0.0
 40
0.0000472025260397
 40
0.0000472025260397
 40
0.0000472025260397
 40
0.0000943037526538
 40
0.0000943037526538
 40
0.0000943037526538
 40
0.0001428927763117
 40
0.0001428927763117
 40
0.0001428927763117
 40
0.0001942312230128
 40
0.0001942312230128
 40
0.0001942312230128
 40
0.0002472330015083
 40
0.0002472330015083
 40
0.0002472330015083
 40
0.0003003208062714
 40
0.0003003208062714
 40
0.0003003208062714
 40
0.0003262934057954
 40
0.0003262934057954
 40
0.0003262934057954
 40
0.0003262934057954
 10
9.897151122228856
 20
-0.8264612060695924
 30
0.0
 10
9.897151122228856
 20
-0.8208789670263642
 30
0.0
 10
9.89970684466035
 20
-0.814165828701392
 30
0.0
 10
9.904557243565112
 20
-0.8069586267049317
 30
0.0
 10
9.90940178221092
 20
-0.799760132460317
 30
0.0
 10
9.91664930514564
 20
-0.791884732690681
 30
0.0
 10
9.92567047908571
 20
-0.7840774784974861
 30
0.0
 10
9.93497792390285
 20
-0.7760224750068925
 30
0.0
 10
9.946407371676077
 20
-0.7678374125733993
 30
0.0
 10
9.959093895305795
 20
-0.7602816817167586
 30
0.0
 10
9.972486309202637
 20
-0.7523055427933867
 30
0.0
 10
9.987636105763507
 20
-0.7448269760329468
 30
0.0
 10
10.00339703362159
 20
-0.7385726379951006
 30
0.0
 10
10.01965455063048
 20
-0.7321212407204437
 30
0.0
 10
10.03701307204146
 20
-0.7268046686001182
 30
0.0
 10
10.05406009428949
 20
-0.7231345426167592
 30
0.0
 10
10.07113007546076
 20
-0.7194594737090896
 30
0.0
 10
10.08836414055763
 20
-0.7173371424153673
 30
0.0
 10
10.10426875106848
 20
-0.716875946825245
 30
0.0
 10
10.1121368242615
 20
-0.7166477915581353
 30
0.0
 10
10.11976685958405
 20
-0.716812314079637
 30
0.0
 10
10.12698883106222
 20
-0.7173432655541184
 30
0.0
  0
LINE
  5
C7
330
1F
100
AcDbEntity
  8
0
  6
Continuous
 62
     4
370
    25
100
AcDbLine
 10
9.897151122228856
 20
-0.8264612060695924
 30
0.0
 11
9.897151122228856
 21
-0.8839647342922377
 31
0.0
  0
LINE
  5
C8
330
1F
100
AcDbEntity
  8
0
  6
Continuous
 62
     4
370
    25
100
AcDbLine
 10
-32.60288568297004
 20
2.499999999999995
 30
0.0
 11
-32.60288568297004
 21
-2.500000000000001
 31
0.0
  0
SPLINE
  5
C9
330
1F
100
AcDbEntity
  8
0
  6
Continuous
 62
     4
370
    25
100
AcDbSpline
210
0.0
220
0.0
230
1.0
 70
     8
 71
     3
 72
    14
 73
    10
 74
     0
 42
0.000000001
 43
0.00000001
 40
0.0
 40
0.0
 40
0.0
 40
0.0
 40
0.2499999999999999
 40
0.2499999999999999
 40
0.4999999999999998
 40
0.4999999999999998
 40
0.7499999999999999
 40
0.7499999999999999
 40
1.0
 40
1.0
 40
1.0
 40
1.0
 10
11.3971143170286
 20
0.6677617549886364
 30
0.0
 10
11.31268280548835
 20
0.6897760876044442
 30
0.0
 10
11.22795546235549
 20
0.7076123255391209
 30
0.0
 10
11.06256827362601
 20
0.7341203572853944
 30
0.0
 10
10.98143987820815
 20
0.7428977863663042
 30
0.0
 10
10.81349295550953
 20
0.7513463051548875
 30
0.0
 10
10.72843663886771
 20
0.7509038323269153
 30
0.0
 10
10.56087689234178
 20
0.740731227931253
 30
0.0
 10
10.48012485288909
 20
0.7311309650661358
 30
0.0
 10
10.39711431702992
 20
0.7170322617965106
 30
0.0
  0
SPLINE
  5
CA
330
1F
100
AcDbEntity
  8
0
  6
Continuous
 62
     4
370
    25
100
AcDbSpline
210
0.0
220
0.0
230
1.0
 70
    24
 71
     3
 72
    16
 73
    12
 74
     0
 42
0.000000001
 43
0.00000001
 40
0.0
 40
0.0
 40
0.0
 40
0.0
 40
0.125
 40
0.125
 40
0.2499999999999999
 40
0.2499999999999999
 40
0.5
 40
0.5
 40
0.7500000000000001
 40
0.7500000000000001
 40
1.0
 40
1.0
 40
1.0
 40
1.0
 10
11.39711431702995
 20
0.6677617550089816
 30
0.0
 10
11.39711431702995
 20
0.642794254049693
 30
0.0
 10
11.39711431702995
 20
0.6199437644079006
 30
0.0
 10
11.39711431702995
 20
0.5688030797315488
 30
0.0
 10
11.39711431702995
 20
0.5410725331527748
 30
0.0
 10
11.39711431702995
 20
0.4515102463837415
 30
0.0
 10
11.39711431702995
 20
0.3826184682205392
 30
0.0
 10
11.39711431702995
 20
0.2387010373980399
 30
0.0
 10
11.39711431702995
 20
0.1638042675156283
 30
0.0
 10
11.39711431702995
 20
0.0420341039448929
 30
0.0
 10
11.39711431702995
 20
-0.0030707468043219
 30
0.0
 10
11.39711431702995
 20
-0.0195191198818638
 30
0.0
  0
SPLINE
  5
CB
330
1F
100
AcDbEntity
  8
0
  6
Continuous
 62
     4
370
    25
100
AcDbSpline
210
0.0
220
0.0
230
1.0
 70
     8
 71
     3
 72
    14
 73
    10
 74
     0
 42
0.000000001
 43
0.00000001
 40
0.0
 40
0.0
 40
0.0
 40
0.0
 40
0.25
 40
0.25
 40
0.5
 40
0.5
 40
0.75
 40
0.75
 40
1.0
 40
1.0
 40
1.0
 40
1.0
 10
11.39711431702995
 20
-0.0195191198818638
 30
0.0
 10
11.31268280548959
 20
0.0288180381596187
 30
0.0
 10
11.2279554623566
 20
0.0773296164132723
 30
0.0
 10
11.06256827362688
 20
0.1720337542534319
 30
0.0
 10
10.98143987820892
 20
0.2183320517338455
 30
0.0
 10
10.8134929555101
 20
0.3087091811499569
 30
0.0
 10
10.72843663886816
 20
0.3524365639332119
 30
0.0
 10
10.56087689234201
 20
0.4345523420420986
 30
0.0
 10
10.4801248528892
 20
0.4727006886035365
 30
0.0
 10
10.39711431702992
 20
0.5080688790145782
 30
0.0
  0
SPLINE
  5
CC
330
1F
100
AcDbEntity
  8
0
  6
Continuous
 62
     4
370
    25
100
AcDbSpline
210
0.0
220
0.0
230
1.0
 70
     8
 71
     3
 72
    14
 73
    10
 74
     0
 42
0.000000001
 43
0.00000001
 40
0.0
 40
0.0
 40
0.0
 40
0.0
 40
0.2499999999999999
 40
0.2499999999999999
 40
0.4999999999999998
 40
0.4999999999999998
 40
0.7499999999999999
 40
0.7499999999999999
 40
1.0
 40
1.0
 40
1.0
 40
1.0
 10
11.3971143170286
 20
-0.3414589852009984
 30
0.0
 10
11.31268280548835
 20
-0.298407462120467
 30
0.0
 10
11.22795546235549
 20
-0.2531614967498769
 30
0.0
 10
11.06256827362601
 20
-0.1608516326018622
 30
0.0
 10
10.98143987820815
 20
-0.1137210870719318
 30
0.0
 10
10.81349295550953
 20
-0.017559509186631
 30
0.0
 10
10.72843663886771
 20
0.0311362345995424
 30
0.0
 10
10.56087689234178
 20
0.1270562020357257
 30
0.0
 10
10.48012485288909
 20
0.173952066534984
 30
0.0
 10
10.39711431702992
 20
0.2199198389026735
 30
0.0
  0
SPLINE
  5
CD
330
1F
100
AcDbEntity
  8
0
  6
Continuous
 62
     4
370
    25
100
AcDbSpline
210
0.0
220
0.0
230
1.0
 70
    24
 71
     3
 72
    14
 73
    10
 74
     0
 42
0.000000001
 43
0.00000001
 40
0.0
 40
0.0
 40
0.0
 40
0.0
 40
0.1421625551977164
 40
0.2966597100251016
 40
0.455637292807859
 40
0.6101344476340452
 40
0.769112030416529
 40
0.8836637078071763
 40
1.0
 40
1.0
 40
1.0
 40
1.0
 10
11.39711431702995
 20
-0.3414589852015921
 30
0.0
 10
11.39711431702995
 20
-0.3508631871464958
 30
0.0
 10
11.39711431702995
 20
-0.3704875377225852
 30
0.0
 10
11.39711431702995
 20
-0.4173201175674585
 30
0.0
 10
11.39711431702995
 20
-0.4760526671291649
 30
0.0
 10
11.39711431702995
 20
-0.5459840616557811
 30
0.0
 10
11.39711431702995
 20
-0.6168962777026655
 30
0.0
 10
11.39711431702995
 20
-0.6857174165290946
 30
0.0
 10
11.39711431702995
 20
-0.7282934169297234
 30
0.0
 10
11.39711431702995
 20
-0.7497459596150133
 30
0.0
  0
SPLINE
  5
CE
330
1F
100
AcDbEntity
  8
0
  6
Continuous
 62
     4
370
    25
100
AcDbSpline
210
0.0
220
0.0
230
1.0
 70
     8
 71
     3
 72
    14
 73
    10
 74
     0
 42
0.000000001
 43
0.00000001
 40
0.0
 40
0.0
 40
0.0
 40
0.0
 40
0.2500000000000001
 40
0.2500000000000001
 40
0.5000000000000001
 40
0.5000000000000001
 40
0.75
 40
0.75
 40
1.0
 40
1.0
 40
1.0
 40
1.0
 10
11.39711431702995
 20
-0.7497459596150133
 30
0.0
 10
11.31268280548959
 20
-0.7510043842459976
 30
0.0
 10
11.2279554623566
 20
-0.7475467056424666
 30
0.0
 10
11.06256827362688
 20
-0.7315807092105415
 30
0.0
 10
10.98143987820892
 20
-0.7191388751962131
 30
0.0
 10
10.8134929555101
 20
-0.6852213132313594
 30
0.0
 10
10.72843663886816
 20
-0.6637879924428027
 30
0.0
 10
10.56087689234201
 20
-0.6131804730534256
 30
0.0
 10
10.4801248528892
 20
-0.5842652381616448
 30
0.0
 10
10.39711431702992
 20
-0.5516937684774703
 30
0.0
  0
LINE
  5
CF
330
1F
100
AcDbEntity
  8
0
  6
Continuous
 62
     4
370
    25
100
AcDbLine
 10
11.39711431702995
 20
-0.0195191198818638
 30
0.0
 11
11.39711431702995
 21
-0.3414589852087594
 31
0.0
  0
LINE
  5
D0
330
1F
100
AcDbEntity
  8
0
  6
Continuous
 62
     4
370
    25
100
AcDbLine
 10
10.39711431702995
 20
-0.7170322617965156
 30
0.0
 11
10.78424144915318
 21
-0.7403130110453606
 31
0.0
  0
LINE
  5
D1
330
1F
100
AcDbEntity
  8
0
  6
Continuous
 62
     4
370
    25
100
AcDbLine
 10
11.39711431702859
 20
0.7497459596150343
 30
0.0
 11
11.36367706340205
 21
0.7465627742061669
 31
0.0
  0
LINE
  5
D2
330
1F
100
AcDbEntity
  8
0
  6
Continuous
 62
     4
370
    25
100
AcDbLine
 10
11.39711431702995
 20
0.7497459596150142
 30
0.0
 11
11.39711431702995
 21
0.6677617550089809
 31
0.0
  0
SPLINE
  5
D3
330
1F
100
AcDbEntity
  8
0
  6
Continuous
 62
     1
370
    25
100
AcDbSpline
210
0.0
220
0.0
230
1.0
 70
     8
 71
     3
 72
    17
 73
    13
 74
     0
 42
0.000000001
 43
0.00000001
 40
0.0
 40
0.0
 40
0.0
 40
0.0
 40
0.0010825934979782
 40
0.1144076682002672
 40
0.2277122064104348
 40
0.3410035246642032
 40
0.4542889885832221
 40
0.5675759855658875
 40
0.6808718973056159
 40
0.7941840723543488
 40
0.9075197989484324
 40
1.0
 40
1.0
 40
1.0
 40
1.0
 10
12.0805661924819
 20
0.6301204737981704
 30
0.0
 10
12.08230732555005
 20
0.6307648816310572
 30
0.0
 10
12.26630896118224
 20
0.6988654176755053
 30
0.0
 10
12.63239817191273
 20
0.7592260957891701
 30
0.0
 10
13.17896737636041
 20
0.745088924611904
 30
0.0
 10
13.7254323423418
 20
0.593334288606361
 30
0.0
 10
14.27187086629553
 20
0.3399779993285184
 30
0.0
 10
14.81831633693364
 20
0.0270043935935271
 30
0.0
 10
15.3648136379724
 20
-0.2915532161796607
 30
0.0
 10
15.91140586888773
 20
-0.5555179361631917
 30
0.0
 10
16.42454656486758
 20
-0.7254011253446685
 30
0.0
 10
16.75551142750017
 20
-0.7355367741851359
 30
0.0
 10
16.90422536517929
 20
-0.7400910710914879
 30
0.0
  0
SPLINE
  5
D4
330
1F
100
AcDbEntity
  8
0
  6
Continuous
 62
     1
370
    25
100
AcDbSpline
210
0.0
220
0.0
230
1.0
 70
     8
 71
     3
 72
    17
 73
    13
 74
     0
 42
0.000000001
 43
0.00000001
 40
0.0
 40
0.0
 40
0.0
 40
0.0
 40
0.0010825934979785
 40
0.1144076682002675
 40
0.2277122064104352
 40
0.3410035246642036
 40
0.4542889885832225
 40
0.5675759855658881
 40
0.6808718973056165
 40
0.7941840723543493
 40
0.9075197989484328
 40
1.0
 40
1.0
 40
1.0
 40
1.0
 10
20.24266333153588
 20
0.6301204737981705
 30
0.0
 10
20.24440446460403
 20
0.6307648816310573
 30
0.0
 10
20.42840610023618
 20
0.698865417675502
 30
0.0
 10
20.79449531096672
 20
0.7592260957891721
 30
0.0
 10
21.34106451541439
 20
0.7450889246119046
 30
0.0
 10
21.88752948139577
 20
0.5933342886063614
 30
0.0
 10
22.43396800534951
 20
0.3399779993285187
 30
0.0
 10
22.98041347598763
 20
0.0270043935935278
 30
0.0
 10
23.52691077702639
 20
-0.29155321617966
 30
0.0
 10
24.07350300794171
 20
-0.5555179361631912
 30
0.0
 10
24.58664370392156
 20
-0.7254011253446678
 30
0.0
 10
24.91760856655415
 20
-0.7355367741851351
 30
0.0
 10
25.06632250423327
 20
-0.7400910710914869
 30
0.0
  0
SPLINE
  5
D5
330
1F
100
AcDbEntity
  8
0
  6
Continuous
 62
     1
370
    25
100
AcDbSpline
210
0.0
220
0.0
230
1.0
 70
     8
 71
     3
 72
    17
 73
    13
 74
     0
 42
0.000000001
 43
0.00000001
 40
0.0
 40
0.0
 40
0.0
 40
0.0
 40
0.0421029726088864
 40
0.1425387659185311
 40
0.2427351795013922
 40
0.3563872852467864
 40
0.4700167792129072
 40
0.5836309801934918
 40
0.6972372637228094
 40
0.8108430347755372
 40
0.9244557002334763
 40
1.0
 40
1.0
 40
1.0
 40
1.0
 10
26.37582979206708
 20
-0.6247045859602344
 30
0.0
 10
26.30834681402666
 20
-0.6479062904976358
 30
0.0
 10
26.07988455080972
 20
-0.7264551939845492
 30
0.0
 10
25.69037163980819
 20
-0.7636889225200139
 30
0.0
 10
25.18668494783615
 20
-0.7234157583027294
 30
0.0
 10
24.66152106332668
 20
-0.5608543967100413
 30
0.0
 10
24.1149675836933
 20
-0.2952158431535306
 30
0.0
 10
23.56847380060946
 20
0.0220117413790645
 30
0.0
 10
23.02203349911031
 20
0.3366163682953053
 30
0.0
 10
22.4755934061008
 20
0.5874810735644871
 30
0.0
 10
21.99017454313736
 20
0.7358576480455254
 30
0.0
 10
21.68688861550078
 20
0.7354365497388337
 30
0.0
 10
21.56576422018625
 20
0.7352683741885749
 30
0.0
  0
SPLINE
  5
D6
330
1F
100
AcDbEntity
  8
0
  6
Continuous
 62
     1
370
    25
100
AcDbSpline
210
0.0
220
0.0
230
1.0
 70
     8
 71
     3
 72
    17
 73
    13
 74
     0
 42
0.000000001
 43
0.00000001
 40
0.0
 40
0.0
 40
0.0
 40
0.0
 40
0.0421029726088864
 40
0.1425387659185312
 40
0.2427351795013922
 40
0.3563872852467864
 40
0.4700167792129072
 40
0.5836309801934918
 40
0.6972372637228094
 40
0.8108430347755372
 40
0.9244557002334763
 40
1.0
 40
1.0
 40
1.0
 40
1.0
 10
18.2137326530131
 20
-0.624704585960235
 30
0.0
 10
18.14624967497269
 20
-0.6479062904976365
 30
0.0
 10
17.91778741175574
 20
-0.7264551939845505
 30
0.0
 10
17.52827450075421
 20
-0.7636889225200147
 30
0.0
 10
17.02458780878216
 20
-0.7234157583027303
 30
0.0
 10
16.4994239242727
 20
-0.5608543967100423
 30
0.0
 10
15.95287044463932
 20
-0.2952158431535316
 30
0.0
 10
15.40637666155548
 20
0.0220117413790635
 30
0.0
 10
14.85993636005632
 20
0.3366163682953045
 30
0.0
 10
14.31349626704682
 20
0.587481073564486
 30
0.0
 10
13.82807740408337
 20
0.7358576480455246
 30
0.0
 10
13.5247914764468
 20
0.7354365497388327
 30
0.0
 10
13.40366708113227
 20
0.7352683741885738
 30
0.0
  0
SPLINE
  5
D7
330
1F
100
AcDbEntity
  8
0
  6
Continuous
 62
     1
370
    25
100
AcDbSpline
210
0.0
220
0.0
230
1.0
 70
     8
 71
     3
 72
    17
 73
    13
 74
     0
 42
0.000000001
 43
0.00000001
 40
0.0
 40
0.0
 40
0.0
 40
0.0
 40
0.0460960856699186
 40
0.1596397202387683
 40
0.273175442273924
 40
0.3867106521507921
 40
0.5002527521507181
 40
0.6138091189297046
 40
0.7273870761901117
 40
0.8242500919908257
 40
0.9213354097237908
 40
0.9999999999999999
 40
0.9999999999999999
 40
0.9999999999999999
 40
0.9999999999999999
 10
24.33680378615364
 20
-0.6209915553359654
 30
0.0
 10
24.26284916902934
 20
-0.6470283676787628
 30
0.0
 10
24.00672992991156
 20
-0.7371989185597446
 30
0.0
 10
23.56847589114441
 20
-0.7679285273411635
 30
0.0
 10
23.0220324946124
 20
-0.6968128085698023
 30
0.0
 10
22.47559533368952
 20
-0.4974982470384313
 30
0.0
 10
21.92911001716397
 20
-0.2130351825975839
 30
0.0
 10
21.3825726377057
 20
0.1088355736070437
 30
0.0
 10
20.86266604781731
 20
0.3976814239724854
 30
0.0
 10
20.36951851253448
 20
0.6084791642052866
 30
0.0
 10
19.93180908780025
 20
0.7322172375242518
 30
0.0
 10
19.65005235902408
 20
0.7394883766969741
 30
0.0
 10
19.52393976028756
 20
0.742742894382603
 30
0.0
  0
SPLINE
  5
D8
330
1F
100
AcDbEntity
  8
0
  6
Continuous
 62
     1
370
    25
100
AcDbSpline
210
0.0
220
0.0
230
1.0
 70
     8
 71
     3
 72
    17
 73
    13
 74
     0
 42
0.000000001
 43
0.00000001
 40
0.0
 40
0.0
 40
0.0
 40
0.0
 40
0.0464321291396808
 40
0.1608035042070002
 40
0.2751669090577392
 40
0.3895297980165233
 40
0.5038996273278115
 40
0.6182838274239097
 40
0.7326897753974456
 40
0.8302589288983189
 40
0.9280520049270223
 40
0.9999999999999999
 40
0.9999999999999999
 40
0.9999999999999999
 40
0.9999999999999999
 10
16.17470664709966
 20
-0.6209915553359658
 30
0.0
 10
16.10075202947529
 20
-0.6470283749210575
 30
0.0
 10
15.84463278862565
 20
-0.7371989508835142
 30
0.0
 10
15.40637877768487
 20
-0.7679281566694987
 30
0.0
 10
14.85993526228996
 20
-0.6968141593306385
 30
0.0
 10
14.31349854212493
 20
-0.4974932145221752
 30
0.0
 10
13.76701158126619
 20
-0.2130539641427499
 30
0.0
 10
13.22048033955182
 20
0.1089056819606123
 30
0.0
 10
12.7005519625364
 20
0.3974360001786598
 30
0.0
 10
12.20747440190572
 20
0.6092471485685305
 30
0.0
 10
11.78115501360082
 20
0.7263658368128508
 30
0.0
 10
11.51143871979161
 20
0.7427859717810759
 30
0.0
 10
11.3971143170284
 20
0.7497459596150384
 30
0.0
  0
SPLINE
  5
D9
330
1F
100
AcDbEntity
  8
0
  6
Continuous
 62
     1
370
    25
100
AcDbSpline
210
0.0
220
0.0
230
1.0
 70
     8
 71
     3
 72
    14
 73
    10
 74
     0
 42
0.000000001
 43
0.00000001
 40
0.0
 40
0.0
 40
0.0
 40
0.0
 40
0.136167125154858
 40
0.2726213471375389
 40
0.4094665233790331
 40
0.5459855413872832
 40
0.7008381285819307
 40
0.855659906910358
 40
1.0
 40
1.0
 40
1.0
 40
1.0
 10
27.13536903202933
 20
-0.6832760216477064
 30
0.0
 10
26.97524636028492
 20
-0.6359768721774146
 30
0.0
 10
26.65466341173121
 20
-0.541278846994126
 30
0.0
 10
26.17298061261252
 20
-0.3007227770829604
 30
0.0
 10
25.69038474635974
 20
-0.0267238671936449
 30
0.0
 10
25.18668087555948
 20
0.266657199691856
 30
0.0
 10
24.66152236727246
 20
0.529013035299153
 30
0.0
 10
24.12727611210226
 20
0.7165524340993286
 30
0.0
 10
23.77524231188388
 20
0.7363243587042334
 30
0.0
 10
23.6053924869267
 20
0.7458639481729904
 30
0.0
  0
SPLINE
  5
DA
330
1F
100
AcDbEntity
  8
0
  6
Continuous
 62
     1
370
    25
100
AcDbSpline
210
0.0
220
0.0
230
1.0
 70
     8
 71
     3
 72
    17
 73
    13
 74
     0
 42
0.000000001
 43
0.00000001
 40
0.0
 40
0.0
 40
0.0
 40
0.0
 40
0.0708714955580394
 40
0.1678228466261166
 40
0.2645599086941735
 40
0.3647026716509141
 40
0.4650565771249225
 40
0.5656980060347289
 40
0.6660995651036979
 40
0.779984365969073
 40
0.8938465087590618
 40
1.0
 40
1.0
 40
1.0
 40
1.0
 10
20.24266333153589
 20
-0.6301204737981688
 30
0.0
 10
20.12921228161698
 20
-0.6635035013435958
 30
0.0
 10
19.86056156386092
 20
-0.742554107903515
 30
0.0
 10
19.43752498993402
 20
-0.7627306136590768
 30
0.0
 10
18.96786002310449
 20
-0.6977241134367279
 30
0.0
 10
18.4925571028578
 20
-0.5369039884814915
 30
0.0
 10
18.01088594008786
 20
-0.3018995414585425
 30
0.0
 10
17.52828695013917
 20
-0.026410337479161
 30
0.0
 10
17.02458393886634
 20
0.2665606547068519
 30
0.0
 10
16.49942517129424
 20
0.5290401934709182
 30
0.0
 10
15.96517898615983
 20
0.7165461786680668
 30
0.0
 10
15.61314517709712
 20
0.736322322840578
 30
0.0
 10
15.44329534787272
 20
0.7458639481729901
 30
0.0
  0
SPLINE
  5
DB
330
1F
100
AcDbEntity
  8
0
  6
Continuous
 62
     1
370
    25
100
AcDbSpline
210
0.0
220
0.0
230
1.0
 70
     8
 71
     3
 72
     9
 73
     5
 74
     0
 42
0.000000001
 43
0.00000001
 40
0.0
 40
0.0
 40
0.0
 40
0.0
 40
0.4973804565548183
 40
1.0
 40
1.0
 40
1.0
 40
1.0
 10
12.08056619248191
 20
-0.6301204737981697
 30
0.0
 10
11.96707281373087
 20
-0.6643208002773406
 30
0.0
 10
11.7388905897304
 20
-0.7330816975511598
 30
0.0
 10
11.51143695770963
 20
-0.7441718381902668
 30
0.0
 10
11.3971143170284
 20
-0.7497459596150376
 30
0.0
  0
SPLINE
  5
DC
330
1F
100
AcDbEntity
  8
0
  6
Continuous
 62
     4
370
    25
100
AcDbSpline
210
0.0
220
0.0
230
1.0
 70
    24
 71
     3
 72
    10
 73
     6
 74
     0
 42
0.000000001
 43
0.00000001
 40
0.0
 40
0.0
 40
0.0
 40
0.0
 40
0.5
 40
0.5
 40
1.0
 40
1.0
 40
1.0
 40
1.0
 10
11.39711431702995
 20
-0.3721672949945988
 30
0.0
 10
11.39711431702995
 20
-0.4049254040915474
 30
0.0
 10
11.39711431702995
 20
-0.454371389283757
 30
0.0
 10
11.39711431702995
 20
-0.5847963256777939
 30
0.0
 10
11.39711431702995
 20
-0.6656250213275157
 30
0.0
 10
11.39711431702995
 20
-0.7497459596119153
 30
0.0
  0
SPLINE
  5
DD
330
1F
100
AcDbEntity
  8
0
  6
Continuous
 62
     1
370
    25
100
AcDbSpline
210
0.0
220
0.0
230
1.0
 70
     8
 71
     3
 72
    11
 73
     7
 74
     0
 42
0.000000001
 43
0.00000001
 40
0.0
 40
0.0
 40
0.0
 40
0.0
 40
0.2402434302155087
 40
0.4830288931237723
 40
0.8661347764820135
 40
0.9999999999999999
 40
0.9999999999999999
 40
0.9999999999999999
 40
0.9999999999999999
 10
11.39711431702725
 20
-0.3414589852003067
 30
0.0
 10
11.51110456358461
 20
-0.3982643773097486
 30
0.0
 10
11.74029119554418
 20
-0.5124762233921658
 30
0.0
 10
12.15265526290046
 20
-0.6603913162832363
 30
0.0
 10
12.51389248756555
 20
-0.7548239038977952
 30
0.0
 10
12.75978055702219
 20
-0.739051144360286
 30
0.0
 10
12.82345115860979
 20
-0.7349669238827775
 30
0.0
  0
SPLINE
  5
DE
330
1F
100
AcDbEntity
  8
0
  6
Continuous
 62
     1
370
    25
100
AcDbSpline
210
0.0
220
0.0
230
1.0
 70
     8
 71
     3
 72
    18
 73
    14
 74
     0
 42
0.000000001
 43
0.00000001
 40
0.0
 40
0.0
 40
0.0
 40
0.0
 40
0.0588968508298444
 40
0.1725550531491228
 40
0.2862511938053953
 40
0.3999922407143515
 40
0.5137839002851773
 40
0.6088191071408383
 40
0.7034326643118461
 40
0.7746810183274425
 40
0.8466832562059612
 40
0.9602999473199714
 40
1.0
 40
1.0
 40
1.0
 40
1.0
 10
16.17470664709967
 20
0.6209915553359672
 30
0.0
 10
16.26916654166691
 20
0.652526288638779
 30
0.0
 10
16.54591363251902
 20
0.7449162467509838
 30
0.0
 10
17.00503820950975
 20
0.7665796326366054
 30
0.0
 10
17.5521659978364
 20
0.6791372583688803
 30
0.0
 10
18.09953025586021
 20
0.4675284872528295
 30
0.0
 10
18.61708410571278
 20
0.1915513215370189
 30
0.0
 10
19.10373967099712
 20
-0.0927383065498736
 30
0.0
 10
19.52196197148488
 20
-0.3271301144510159
 30
0.0
 10
19.90235717736418
 20
-0.5114651480160313
 30
0.0
 10
20.31476659390919
 20
-0.6608518557524227
 30
0.0
 10
20.67598837701792
 20
-0.7547833533982665
 30
0.0
 10
20.9218774390558
 20
-0.7390428038583349
 30
0.0
 10
20.98554829766378
 20
-0.7349669238827771
 30
0.0
  0
SPLINE
  5
DF
330
1F
100
AcDbEntity
  8
0
  6
Continuous
 62
     1
370
    25
100
AcDbSpline
210
0.0
220
0.0
230
1.0
 70
     8
 71
     3
 72
    14
 73
    10
 74
     0
 42
0.000000001
 43
0.00000001
 40
0.0
 40
0.0
 40
0.0
 40
0.0
 40
0.0925956053015028
 40
0.2712851259286633
 40
0.4500342919057629
 40
0.628854057950447
 40
0.8077533954831765
 40
0.9571644824897907
 40
1.0
 40
1.0
 40
1.0
 40
1.0
 10
24.33680378615365
 20
0.6209915553359677
 30
0.0
 10
24.43126355443494
 20
0.6525262569678466
 30
0.0
 10
24.70801027529651
 20
0.7449161222910582
 30
0.0
 10
25.16713963320851
 20
0.7665807071718258
 30
0.0
 10
25.71424740099192
 20
0.6791333120027424
 30
0.0
 10
26.26168608772947
 20
0.4675432066753935
 30
0.0
 10
26.77897738064362
 20
0.1915001949696581
 30
0.0
 10
27.1582317755798
 20
-0.0295127263648614
 30
0.0
 10
27.35358630563148
 20
-0.141217793115829
 30
0.0
 10
27.39711431702995
 20
-0.1661074100472502
 30
0.0
  0
LINE
  5
E0
330
1F
100
AcDbEntity
  8
0
  6
Continuous
 62
     1
370
    25
100
AcDbLine
 10
27.39711431702995
 20
-0.4999999999999992
 30
0.0
 11
27.39711431702995
 21
-0.1667178101604088
 31
0.0
  0
SPLINE
  5
E1
330
1F
100
AcDbEntity
  8
0
  6
Continuous
 62
     1
370
    25
100
AcDbSpline
210
0.0
220
0.0
230
1.0
 70
    24
 71
     3
 72
     8
 73
     4
 74
     0
 42
0.000000001
 43
0.00000001
 40
0.0
 40
0.0
 40
0.0
 40
0.0
 40
1.0
 40
1.0
 40
1.0
 40
1.0
 10
27.39711431702995
 20
-0.4999999999999993
 30
0.0
 10
27.30325346593157
 20
-0.5657220754818647
 30
0.0
 10
27.21398742250284
 20
-0.6282268319968218
 30
0.0
 10
27.13536903202996
 20
-0.6832760216478461
 30
0.0
  0
SPLINE
  5
E2
330
1F
100
AcDbEntity
  8
0
  6
Continuous
 62
     1
370
    25
100
AcDbSpline
210
0.0
220
0.0
230
1.0
 70
     8
 71
     3
 72
    11
 73
     7
 74
     0
 42
0.000000001
 43
0.00000001
 40
0.0
 40
0.0
 40
0.0
 40
0.0
 40
0.3228069694861004
 40
0.6462945500729582
 40
0.9707089531902299
 40
0.9999999999999999
 40
0.9999999999999999
 40
0.9999999999999999
 40
0.9999999999999999
 10
27.13536903202919
 20
0.3092472768535389
 30
0.0
 10
26.97524500629846
 20
0.3900210919268188
 30
0.0
 10
26.65465934691736
 20
0.5517390268077434
 30
0.0
 10
26.17299693133222
 20
0.6982574887941037
 30
0.0
 10
25.83655986336562
 20
0.7637706568093248
 30
0.0
 10
25.66101405672276
 20
0.7471696743625204
 30
0.0
 10
25.64647676180493
 20
0.7457949142223026
 30
0.0
  0
SPLINE
  5
E3
330
1F
100
AcDbEntity
  8
0
  6
Continuous
 62
     1
370
    25
100
AcDbSpline
210
0.0
220
0.0
230
1.0
 70
     8
 71
     3
 72
    18
 73
    14
 74
     0
 42
0.000000001
 43
0.00000001
 40
0.0
 40
0.0
 40
0.0
 40
0.0
 40
0.0754223205678146
 40
0.1890922449156484
 40
0.3027837813356126
 40
0.3997436611774915
 40
0.4969260652559081
 40
0.5937159206755924
 40
0.6902918440448051
 40
0.7902677952938305
 40
0.890454537351794
 40
0.9909283239065498
 40
1.0
 40
1.0
 40
1.0
 40
1.0
 10
22.29177406598209
 20
-0.6230943281572622
 30
0.0
 10
22.1708942459444
 20
-0.6603952467649487
 30
0.0
 10
21.86783493453836
 20
-0.7539128471761094
 30
0.0
 10
21.38257208331744
 20
-0.7619739730987917
 30
0.0
 10
20.86266778424228
 20
-0.6594843745217168
 30
0.0
 10
20.36951311917008
 20
-0.4631833795065847
 30
0.0
 10
19.90288251495859
 20
-0.2204845679427509
 30
0.0
 10
19.43752737493918
 20
0.0513059184686246
 30
0.0
 10
18.96786041524962
 20
0.3185858442860004
 30
0.0
 10
18.49255288239596
 20
0.5499360519203423
 30
0.0
 10
18.01090243606041
 20
0.6987686345261184
 30
0.0
 10
17.67446268117304
 20
0.7637623164460275
 30
0.0
 10
17.49891691436961
 20
0.7471690365029741
 30
0.0
 10
17.48437962275096
 20
0.7457949142223029
 30
0.0
  0
SPLINE
  5
E4
330
1F
100
AcDbEntity
  8
0
  6
Continuous
 62
     1
370
    25
100
AcDbSpline
210
0.0
220
0.0
230
1.0
 70
     8
 71
     3
 72
    13
 73
     9
 74
     0
 42
0.000000001
 43
0.00000001
 40
0.0
 40
0.0
 40
0.0
 40
0.0
 40
0.1326865460136246
 40
0.332660102035187
 40
0.5326716790455177
 40
0.7032481272542072
 40
0.8742160507201976
 40
1.0
 40
1.0
 40
1.0
 40
1.0
 10
14.12967692692811
 20
-0.6230943281572621
 30
0.0
 10
14.00879686943066
 20
-0.6603955033390155
 30
0.0
 10
13.70573696268629
 20
-0.7539137470102341
 30
0.0
 10
13.22048032815838
 20
-0.7619681558275809
 30
0.0
 10
12.7005519650945
 20
-0.6595045582685373
 30
0.0
 10
12.20747440126178
 20
-0.4631202557543528
 30
0.0
 10
11.78115501371382
 20
-0.2417936525263992
 30
0.0
 10
11.51143871982612
 20
-0.0856876364496761
 30
0.0
 10
11.39711431702995
 20
-0.019519119881334
 30
0.0
  0
SPLINE
  5
E5
330
1F
100
AcDbEntity
  8
0
  6
Continuous
 62
     4
370
    25
100
AcDbSpline
210
0.0
220
0.0
230
1.0
 70
    24
 71
     3
 72
    16
 73
    12
 74
     0
 42
0.000000001
 43
0.00000001
 40
0.0
 40
0.0
 40
0.0
 40
0.0
 40
0.1249999999999999
 40
0.1249999999999999
 40
0.2499999999999998
 40
0.2499999999999998
 40
0.4999999999999998
 40
0.4999999999999998
 40
0.7499999999999999
 40
0.7499999999999999
 40
1.0
 40
1.0
 40
1.0
 40
1.0
 10
11.39711431702995
 20
0.6677617550089815
 30
0.0
 10
11.39711431702995
 20
0.6427942540497601
 30
0.0
 10
11.39711431702995
 20
0.6199437644080265
 30
0.0
 10
11.39711431702995
 20
0.5688030797318345
 30
0.0
 10
11.39711431702995
 20
0.541072533153153
 30
0.0
 10
11.39711431702995
 20
0.4515102463844277
 30
0.0
 10
11.39711431702995
 20
0.3826184682214817
 30
0.0
 10
11.39711431702995
 20
0.2387010373994152
 30
0.0
 10
11.39711431702995
 20
0.1638042675171695
 30
0.0
 10
11.39711431702995
 20
0.0420341039462931
 30
0.0
 10
11.39711431702995
 20
-0.0030707468032565
 30
0.0
 10
11.39711431702995
 20
-0.019519119881334
 30
0.0
  0
SPLINE
  5
E6
330
1F
100
AcDbEntity
  8
0
  6
Continuous
 62
     1
370
    25
100
AcDbSpline
210
0.0
220
0.0
230
1.0
 70
     8
 71
     3
 72
    15
 73
    11
 74
     0
 42
0.000000001
 43
0.00000001
 40
0.0
 40
0.0
 40
0.0
 40
0.0
 40
0.098889599292973
 40
0.1988255564162129
 40
0.3565205546023955
 40
0.514186975687735
 40
0.671835000835495
 40
0.8294748795133751
 40
0.9871168914920238
 40
1.0
 40
1.0
 40
1.0
 40
1.0
 10
11.39711431702725
 20
0.6677617549889904
 30
0.0
 10
11.51110470689624
 20
0.633047633388551
 30
0.0
 10
11.74029162699548
 20
0.5632520776167125
 30
0.0
 10
12.15265309458802
 20
0.378433476291657
 30
0.0
 10
12.63237806700451
 20
0.113569954289022
 30
0.0
 10
13.17897281553042
 20
-0.2079557939643819
 30
0.0
 10
13.72543068663786
 20
-0.4965730602436498
 30
0.0
 10
14.27187205048656
 20
-0.6848868638339046
 30
0.0
 10
14.6510412424131
 20
-0.7680551156533456
 30
0.0
 10
14.84807512451218
 20
-0.7466859852435709
 30
0.0
 10
14.86296095995734
 20
-0.7450715555043946
 30
0.0
  0
SPLINE
  5
E7
330
1F
100
AcDbEntity
  8
0
  6
Continuous
 62
     1
370
    25
100
AcDbSpline
210
0.0
220
0.0
230
1.0
 70
     8
 71
     3
 72
    18
 73
    14
 74
     0
 42
0.000000001
 43
0.00000001
 40
0.0
 40
0.0
 40
0.0
 40
0.0
 40
0.0900342860415792
 40
0.1850520708444421
 40
0.2796482832603536
 40
0.3508835758787425
 40
0.4228726141564879
 40
0.5364684768211598
 40
0.65004375392218
 40
0.7636057794779838
 40
0.8771619367102241
 40
0.9907196306693357
 40
1.0
 40
1.0
 40
1.0
 40
1.0
 10
18.21373265301309
 20
0.6247045859602366
 30
0.0
 10
18.35820899853575
 20
0.6663570001757382
 30
0.0
 10
18.65515861742491
 20
0.7519673364723957
 30
0.0
 10
19.10373997714902
 20
0.758193583142962
 30
0.0
 10
19.52196173116628
 20
0.6885044287187008
 30
0.0
 10
19.90235771365964
 20
0.5610557253740142
 30
0.0
 10
20.3147640993008
 20
0.3794142018003742
 30
0.0
 10
20.79447081104287
 20
0.1132590924684965
 30
0.0
 10
21.34107113231884
 20
-0.2078724921732664
 30
0.0
 10
21.88752750890367
 20
-0.4965954668413739
 30
0.0
 10
22.43396927908434
 20
-0.6848805303529176
 30
0.0
 10
22.81313838015528
 20
-0.7680552084373768
 30
0.0
 10
23.01017226347402
 20
-0.7466859917609812
 30
0.0
 10
23.02505809901133
 20
-0.7450715555043944
 30
0.0
  0
SPLINE
  5
E8
330
1F
100
AcDbEntity
  8
0
  6
Continuous
 62
     1
370
    25
100
AcDbSpline
210
0.0
220
0.0
230
1.0
 70
     8
 71
     3
 72
    10
 73
     6
 74
     0
 42
0.000000001
 43
0.00000001
 40
0.0
 40
0.0
 40
0.0
 40
0.0
 40
0.4241033614794548
 40
0.8716813199098209
 40
1.0
 40
1.0
 40
1.0
 40
1.0
 10
26.37582979206707
 20
0.6247045859602367
 30
0.0
 10
26.52025805731589
 20
0.6662703429527803
 30
0.0
 10
26.81710885436026
 20
0.7517025682289916
 30
0.0
 10
27.15823228647893
 20
0.7574847667366599
 30
0.0
 10
27.35358639872502
 20
0.7361320004246119
 30
0.0
 10
27.39711431702995
 20
0.7313742737664485
 30
0.0
  0
LINE
  5
E9
330
1F
100
AcDbEntity
  8
0
  6
Continuous
 62
     1
370
    25
100
AcDbLine
 10
27.39711431702995
 20
0.1997949506173568
 30
0.0
 11
27.39711431702995
 21
0.7313742737664485
 31
0.0
  0
SPLINE
  5
EA
330
1F
100
AcDbEntity
  8
0
  6
Continuous
 62
     1
370
    25
100
AcDbSpline
210
0.0
220
0.0
230
1.0
 70
     8
 71
     3
 72
     8
 73
     4
 74
     0
 42
0.000000001
 43
0.00000001
 40
0.0
 40
0.0
 40
0.0
 40
0.0
 40
1.0
 40
1.0
 40
1.0
 40
1.0
 10
27.39711431702995
 20
0.1997949506173556
 30
0.0
 10
27.30325346593157
 20
0.2054337308953754
 30
0.0
 10
27.21398742250284
 20
0.2469303809541911
 30
0.0
 10
27.13536903202996
 20
0.3092472768531427
 30
0.0
  0
SPLINE
  5
EB
330
1F
100
AcDbEntity
  8
0
  6
Continuous
 62
     1
370
    25
100
AcDbSpline
210
0.0
220
0.0
230
1.0
 70
     8
 71
     3
 72
    17
 73
    13
 74
     0
 42
0.000000001
 43
0.00000001
 40
0.0
 40
0.0
 40
0.0
 40
0.0
 40
0.0295276014258859
 40
0.1430005371329794
 40
0.2564824022289877
 40
0.3699805573270811
 40
0.4835023026258379
 40
0.5970548511672834
 40
0.7106453027792086
 40
0.8242806189001056
 40
0.9379665006346275
 40
1.0
 40
1.0
 40
1.0
 40
1.0
 10
14.12967692692811
 20
0.6230943281572631
 30
0.0
 10
14.17707406099465
 20
0.6407871541102307
 30
0.0
 10
14.40661575428427
 20
0.7264725295724117
 30
0.0
 10
14.81831630446069
 20
0.7667441311266547
 30
0.0
 10
15.36481382852526
 20
0.7170068142792129
 30
0.0
 10
15.91140513897454
 20
0.5339072552404531
 30
0.0
 10
16.45813329857384
 20
0.2596865805683289
 30
0.0
 10
17.00503692991713
 20
-0.0601754818472043
 30
0.0
 10
17.55216796724939
 20
-0.3706435075670189
 30
0.0
 10
18.09952365444077
 20
-0.6118485558301657
 30
0.0
 10
18.56424586944341
 20
-0.7403406659825182
 30
0.0
 10
18.84630223026038
 20
-0.7397574116668914
 30
0.0
 10
18.94587544165127
 20
-0.7395515077649321
 30
0.0
  0
SPLINE
  5
EC
330
1F
100
AcDbEntity
  8
0
  6
Continuous
 62
     1
370
    25
100
AcDbSpline
210
0.0
220
0.0
230
1.0
 70
     8
 71
     3
 72
    17
 73
    13
 74
     0
 42
0.000000001
 43
0.00000001
 40
0.0
 40
0.0
 40
0.0
 40
0.0
 40
0.0295276014258856
 40
0.143000537132979
 40
0.256482402228987
 40
0.36998055732708
 40
0.4835023026258365
 40
0.597054851167282
 40
0.7106453027792065
 40
0.8242806189001033
 40
0.9379665006346247
 40
1.0
 40
1.0
 40
1.0
 40
1.0
 10
22.29177406598209
 20
0.6230943281572643
 30
0.0
 10
22.33917120004863
 20
0.6407871541102317
 30
0.0
 10
22.56871289333825
 20
0.7264725295724133
 30
0.0
 10
22.98041344351467
 20
0.7667441311266555
 30
0.0
 10
23.52691096757925
 20
0.7170068142792144
 30
0.0
 10
24.07350227802853
 20
0.5339072552404541
 30
0.0
 10
24.62023043762782
 20
0.2596865805683293
 30
0.0
 10
25.16713406897111
 20
-0.0601754818472021
 30
0.0
 10
25.71426510630337
 20
-0.3706435075670189
 30
0.0
 10
26.26162079349474
 20
-0.6118485558301647
 30
0.0
 10
26.72634300849741
 20
-0.7403406659825182
 30
0.0
 10
27.00839936931437
 20
-0.7397574116668909
 30
0.0
 10
27.10797258070527
 20
-0.7395515077649315
 30
0.0
  0
LINE
  5
ED
330
1F
100
AcDbEntity
  8
0
  6
Continuous
 62
     1
370
    25
100
AcDbLine
 10
27.39711431702995
 20
0.7313742737664485
 30
0.0
 11
27.39711431702995
 21
0.7500000000000032
 31
0.0
  0
LINE
  5
EE
330
1F
100
AcDbEntity
  8
0
  6
Continuous
 62
     1
370
    25
100
AcDbLine
 10
27.13536903202995
 20
-0.6832760216478518
 30
0.0
 11
27.11737298322208
 21
-0.6958769906811091
 31
0.0
  0
ELLIPSE
  5
EF
330
1F
100
AcDbEntity
  8
0
  6
Continuous
 62
     1
370
    25
100
AcDbEllipse
 10
27.15288662405185
 20
0.0000000000000014
 30
0.0
 11
1.041992479244978
 21
-0.4127557545313234
 31
0.0
210
0.0
220
0.0
230
1.0
 40
0.6009688174887243
 41
4.912933762914531
 42
5.176132609328194
  0
LINE
  5
F0
330
1F
100
AcDbEntity
  8
0
  6
Continuous
 62
     1
370
    25
100
AcDbLine
 10
27.39711431702995
 20
-0.7500000000000024
 30
0.0
 11
27.39711431702995
 21
-0.744693308602195
 31
0.0
  0
ELLIPSE
  5
F1
330
1F
100
AcDbEntity
  8
0
  6
Continuous
 62
     1
370
    25
100
AcDbEllipse
 10
28.11118832040101
 20
0.0000000000000004
 30
0.0
 11
1.071111005056586
 21
0.0
 31
0.0
210
0.0
220
0.0
230
1.0
 40
0.7002075382097109
 41
2.716582861747933
 42
2.759364833374626
  0
ELLIPSE
  5
F2
330
1F
100
AcDbEntity
  8
0
  6
Continuous
 62
     1
370
    25
100
AcDbEllipse
 10
27.15288662405185
 20
0.0000000000000004
 30
0.0
 11
1.064326924485592
 21
-0.7291305528055565
 31
0.0
210
0.0
220
0.0
230
1.0
 40
0.1650759015746635
 41
1.45336835794725
 42
1.71656720436091
  0
LINE
  5
F3
330
1F
100
AcDbEntity
  8
0
  6
Continuous
 62
     1
370
    25
100
AcDbLine
 10
27.39711431702995
 20
-0.1661074100472502
 30
0.0
 11
27.39711431702995
 21
0.089061080855313
 31
0.0
  0
LINE
  5
F4
330
1F
100
AcDbEntity
  8
0
  6
Continuous
 62
     1
370
    25
100
AcDbLine
 10
27.39711431702995
 20
0.089061080855312
 30
0.0
 11
27.39711431702995
 21
0.1997949506173568
 31
0.0
  0
LINE
  5
F5
330
1F
100
AcDbEntity
  8
0
  6
Continuous
 62
     1
370
    25
100
AcDbLine
 10
27.39711431702995
 20
-0.4999999999999985
 30
0.0
 11
27.39711431702995
 21
-0.744693308602195
 31
0.0
  0
LINE
  5
F6
330
1F
100
AcDbEntity
  8
중심선
100
AcDbLine
 10
-35.60288568297004
 20
-0.0000000000000043
 30
0.0
 11
28.89711431702995
 21
0.0000000000000036
 31
0.0
  0
CIRCLE
  5
F7
330
1F
100
AcDbEntity
  8
해칭선
100
AcDbCircle
 10
0.0002104883823333
 20
-0.0000000000000042
 30
0.0
 40
3.000000000000003
  0
INSERT
  5
F8
330
1F
100
AcDbEntity
  8
0
  6
Continuous
 62
     7
100
AcDbBlockReference
 66
     1
  2
블럭10
 10
-16.44009924894177
 20
-52.04717430164393
 30
0.0
  0
ATTRIB
  5
F9
330
F8
100
AcDbEntity
  8
FORMAT
 62
     2
100
AcDbText
 10
-32.55936028837733
 20
-49.97180738881174
 30
0.0
 40
4.233333333333333
  1
SEME7201516E [ 4 FLUTE ]
 41
0.75
  7
SLDTEXTSTYLE0
 11
-32.55936028837733
 21
-52.08847405547841
 31
0.0
100
AcDbAttribute
  2
AUTOATTR0
 70
     0
 74
     1
  0
SEQEND
  5
FA
330
F8
100
AcDbEntity
  8
0
  6
Continuous
 62
     7
  0
HATCH
  5
FB
330
1F
100
AcDbEntity
  8
중심선
100
AcDbHatch
 10
0.0
 20
0.0
 30
0.0
210
0.0
220
0.0
230
1.0
  2
SOLID
 70
     1
 71
     0
 91
        1
 92
        0
 93
        4
 72
     1
 10
-10.72518994456093
 20
-35.8
 11
-14.17146518839821
 21
-35.8
 72
     1
 10
-14.17146518839821
 20
-35.8
 11
-16.29969504760223
 21
-38.33632558057262
 72
     1
 10
-16.29969504760223
 20
-38.33632558057262
 11
-12.85338671865177
 21
-38.33628615127013
 72
     1
 10
-12.85338671865177
 20
-38.33628615127013
 11
-10.72518994456093
 21
-35.8
 97
        0
 75
     0
 76
     1
 98
        1
 10
0.0
 20
0.0
  0
HATCH
  5
FC
330
1F
100
AcDbEntity
  8
중심선
100
AcDbHatch
 10
0.0
 20
0.0
 30
0.0
210
0.0
220
0.0
230
1.0
  2
SOLID
 70
     1
 71
     0
 91
        1
 92
        0
 93
        4
 72
     1
 10
-5.712425953524974
 20
-35.8
 11
-9.158701197362229
 21
-35.8
 72
     1
 10
-9.158701197362229
 20
-35.8
 11
-13.68983920571964
 21
-41.20000000000002
 72
     1
 10
-13.68983920571964
 20
-41.20000000000002
 11
-10.24356396188236
 21
-41.20000000000002
 72
     1
 10
-10.24356396188236
 20
-41.20000000000002
 11
-5.712425953524974
 21
-35.8
 97
        0
 75
     0
 76
     1
 98
        1
 10
0.0
 20
0.0
  0
HATCH
  5
FD
330
1F
100
AcDbEntity
  8
중심선
100
AcDbHatch
 10
0.0
 20
0.0
 30
0.0
210
0.0
220
0.0
230
1.0
  2
SOLID
 70
     1
 71
     0
 91
        1
 92
        0
 93
        4
 72
     1
 10
-0.699661962489051
 20
-35.79999999999997
 11
-4.145937206326167
 21
-35.8
 72
     1
 10
-4.145937206326167
 20
-35.8
 11
-11.19437410821544
 21
-44.20000000000002
 72
     1
 10
-11.19437410821544
 20
-44.20000000000002
 11
-7.748098864378161
 21
-44.20000000000002
 72
     1
 10
-7.748098864378161
 20
-44.20000000000002
 11
-0.699661962489051
 21
-35.79999999999997
 97
        0
 75
     0
 76
     1
 98
        1
 10
0.0
 20
0.0
  0
HATCH
  5
FE
330
1F
100
AcDbEntity
  8
중심선
100
AcDbHatch
 10
0.0
 20
0.0
 30
0.0
210
0.0
220
0.0
230
1.0
  2
SOLID
 70
     1
 71
     0
 91
        1
 92
        0
 93
        6
 72
     3
 10
4.10022846852312
 20
-40.00000000005127
 11
3.960054785062284
 21
1.540850780301639E-10
 40
0.3939339440162633
 50
17.09539180608433
 51
320.0019657685081
 73
     0
 72
     1
 10
5.783228124223688
 20
-38.58789400463833
 11
8.088529997924754
 21
-36.6535672945904
 72
     3
 10
4.100228468470274
 20
-40.00000000000015
 11
6.600054785286829
 21
-1.249000902703301E-13
 40
0.6363583540795982
 50
39.9987384933739
 51
368.4976242363725
 73
     1
 72
     1
 10
10.52556096037088
 20
-39.03999999993002
 11
2.780295775306197
 21
-39.03999999993002
 72
     1
 10
2.780295775306196
 20
-39.03999999993002
 11
2.780270730860263
 21
-40.95999999992991
 72
     1
 10
2.780270730860263
 20
-40.95999999992991
 11
7.221650500332299
 21
-40.95999999992988
 97
        0
 75
     0
 76
     1
 98
        1
 10
0.0
 20
0.0
  0
DIMENSION
  5
FF
330
1F
100
AcDbEntity
  8
치수문자_일반주서
100
AcDbDimension
  2
_D
 10
38.87034758152055
 20
0.750000000000048
 30
0.0
 11
38.8703475815205
 21
11.72900000000005
 31
0.0
 70
   160
  1
%%c<>
 71
     2
 42
1.500000000000012
 52
-270.0
  3
SLDDIMSTYLE0
100
AcDbAlignedDimension
 13
27.39711431702997
 23
-0.7500000000000063
 33
0.0
 14
27.39711431702997
 24
0.7500000000000054
 34
0.0
 50
90.0000000000002
100
AcDbRotatedDimension
  0
DIMENSION
  5
10D
330
1F
100
AcDbEntity
  8
치수문자_일반주서
100
AcDbDimension
  2
_D_1
 10
27.39711431702995
 20
20.38913260158165
 30
0.0
 11
-2.602885682970044
 21
20.38913260158165
 31
0.0
 70
   160
  1
<>
 71
     2
 42
59.99999999999999
  3
SLDDIMSTYLE1
100
AcDbAlignedDimension
 13
-32.60288568297004
 23
2.499999999999995
 33
0.0
 14
27.39711431702995
 24
0.750000000000002
 34
0.0
 50
-0.0000000000000068
100
AcDbRotatedDimension
  0
DIMENSION
  5
118
330
1F
100
AcDbEntity
  8
치수문자_일반주서
100
AcDbDimension
  2
_D_2
 10
-39.86076969120139
 20
-3.000000000000032
 30
0.0
 11
-39.86076969120145
 21
12.66649999999997
 31
0.0
 70
   160
  1
%%c<>
 71
     2
 42
6.000000000000005
 52
-270.0
  3
SLDDIMSTYLE2
100
AcDbAlignedDimension
 13
-32.10288568297003
 23
3.000000000000003
 33
0.0
 14
-32.10288568297003
 24
-3.000000000000002
 34
0.0
 50
90.0000000000002
100
AcDbRotatedDimension
  0
DIMENSION
  5
126
330
1F
100
AcDbEntity
  8
치수문자_일반주서
100
AcDbDimension
  2
_D_3
 10
27.39711431702995
 20
11.59566426220266
 30
0.0
 11
19.39711431702995
 21
11.59566426220266
 31
0.0
 70
   160
  1
<>
 71
     2
 42
16.0
  3
SLDDIMSTYLE2
100
AcDbAlignedDimension
 13
11.39711431702995
 23
0.7497459596150142
 33
0.0
 14
27.39711431702995
 24
0.750000000000002
 34
0.0
100
AcDbRotatedDimension
  0
INSERT
  5
138
330
1F
100
AcDbEntity
  8
해칭선
100
AcDbBlockReference
  2
SW_DOWELSYMBOL_0
 10
0.0002104883823333
 20
-0.0000000000000042
 30
0.0
  0
ENDSEC
  0
SECTION
  2
OBJECTS
  0
DICTIONARY
  5
C
330
0
100
AcDbDictionary
281
     1
  3
ACAD_GROUP
350
D
  3
ACAD_IMAGE_VARS
350
15C
  3
ACAD_LAYOUT
350
1A
  3
ACAD_MLINESTYLE
350
17
  3
ACAD_PLOTSETTINGS
350
19
  3
ACAD_PLOTSTYLENAME
350
E
  3
ACAD_SCALELIST
350
47
  3
APPDATA
350
15A
  3
DWGPROPS
350
169
  0
DICTIONARY
  5
D
102
{ACAD_REACTORS
330
C
102
}
330
C
100
AcDbDictionary
281
     1
  0
RASTERVARIABLES
  5
15C
102
{ACAD_REACTORS
330
C
102
}
330
C
100
AcDbRasterVariables
 90
        0
 70
     1
 71
     1
 72
     1
  0
DICTIONARY
  5
1A
102
{ACAD_REACTORS
330
C
102
}
330
C
100
AcDbDictionary
281
     1
  3
Layout1
350
1E
  3
Layout2
350
26
  3
Model
350
22
  0
DICTIONARY
  5
17
102
{ACAD_REACTORS
330
C
102
}
330
C
100
AcDbDictionary
281
     1
  3
Standard
350
18
  0
DICTIONARY
  5
19
102
{ACAD_REACTORS
330
C
102
}
330
C
100
AcDbDictionary
281
     1
  0
ACDBDICTIONARYWDFLT
  5
E
102
{ACAD_REACTORS
330
C
102
}
330
C
100
AcDbDictionary
281
     1
  3
Normal
350
F
100
AcDbDictionaryWithDefault
340
F
  0
DICTIONARY
  5
47
102
{ACAD_REACTORS
330
C
102
}
330
C
100
AcDbDictionary
281
     1
  3
A0
350
48
  3
A1
350
49
  3
A2
350
4A
  3
A3
350
4B
  3
A4
350
4C
  3
A5
350
4D
  3
A6
350
4E
  3
A7
350
4F
  3
A8
350
50
  3
A9
350
51
  3
B0
350
52
  3
B1
350
53
  3
B2
350
54
  3
B3
350
55
  3
B4
350
56
  3
B5
350
57
  3
B6
350
58
  3
B7
350
59
  3
B8
350
5A
  3
B9
350
5B
  3
C0
350
5C
  3
C1
350
5D
  3
C2
350
5E
  3
C3
350
5F
  3
C4
350
60
  3
C5
350
61
  3
C6
350
62
  3
C7
350
63
  3
C8
350
64
  3
C9
350
65
  3
D0
350
66
  3
D1
350
67
  3
D2
350
68
  0
DICTIONARY
  5
15A
102
{ACAD_REACTORS
330
C
102
}
330
C
100
AcDbDictionary
281
     1
  0
XRECORD
  5
169
102
{ACAD_REACTORS
330
C
102
}
330
C
100
AcDbXrecord
280
     1
  1
DWGPROPS COOKIE
  2

  3

  4

  6

  7

  8
12014102
  9

300
=
301
=
302
=
303
=
304
=
305
=
306
=
307
=
308
=
309
=
 40
0.0
 41
2458260.192572129
 42
2458268.098399387
  1

 90
        0
  0
LAYOUT
  5
1E
102
{ACAD_REACTORS
330
1A
102
}
330
1A
100
AcDbPlotSettings
  1

  2
none_device
  4

  6

 40
0.0
 41
0.0
 42
0.0
 43
0.0
 44
0.0
 45
0.0
 46
0.0
 47
0.0
 48
0.0
 49
0.0
140
0.0
141
0.0
142
1.0
143
1.0
 70
   688
 72
     1
 73
     0
 74
     5
  7

 75
    16
147
1.0
148
0.0
149
0.0
100
AcDbLayout
  1
Layout1
 70
     1
 71
     1
 10
0.0
 20
0.0
 11
420.0
 21
297.0
 12
0.0
 22
0.0
 32
0.0
 14
1.000000000000000E+20
 24
1.000000000000000E+20
 34
1.000000000000000E+20
 15
-1.000000000000000E+20
 25
-1.000000000000000E+20
 35
-1.000000000000000E+20
146
0.0
 13
0.0
 23
0.0
 33
0.0
 16
1.0
 26
0.0
 36
0.0
 17
0.0
 27
1.0
 37
0.0
 76
     0
330
1B
  0
LAYOUT
  5
26
102
{ACAD_REACTORS
330
1A
102
}
330
1A
100
AcDbPlotSettings
  1

  2
none_device
  4

  6

 40
0.0
 41
0.0
 42
0.0
 43
0.0
 44
0.0
 45
0.0
 46
0.0
 47
0.0
 48
0.0
 49
0.0
140
0.0
141
0.0
142
1.0
143
1.0
 70
   688
 72
     1
 73
     0
 74
     5
  7

 75
    16
147
1.0
148
0.0
149
0.0
100
AcDbLayout
  1
Layout2
 70
     1
 71
     2
 10
0.0
 20
0.0
 11
0.0
 21
0.0
 12
0.0
 22
0.0
 32
0.0
 14
0.0
 24
0.0
 34
0.0
 15
0.0
 25
0.0
 35
0.0
146
0.0
 13
0.0
 23
0.0
 33
0.0
 16
1.0
 26
0.0
 36
0.0
 17
0.0
 27
1.0
 37
0.0
 76
     0
330
23
  0
LAYOUT
  5
22
102
{ACAD_REACTORS
330
1A
102
}
330
1A
100
AcDbPlotSettings
  1

  2
none_device
  4
ANSI_A_(11.00_x_8.50_Inches)
  6

 40
6.35
 41
19.05
 42
6.35000508
 43
19.05000254
 44
279.4
 45
215.9
 46
142.1869779282097
 47
125.3847137330092
 48
0.0
 49
0.0
140
0.0
141
0.0
142
0.1112850254374008
143
1.0
 70
  1696
 72
     0
 73
     0
 74
     0
  7

 75
     0
147
0.0235690232323232
148
0.0
149
0.0
100
AcDbLayout
  1
Model
 70
     1
 71
     0
 10
0.0
 20
0.0
 11
420.0
 21
297.0
 12
0.0
 22
0.0
 32
0.0
 14
-44.23576969120145
 24
-49.97180738881174
 34
0.0
 15
39.4206809148539
 25
24.76413260158165
 35
0.0
146
0.0
 13
0.0
 23
0.0
 33
0.0
 16
1.0
 26
0.0
 36
0.0
 17
0.0
 27
1.0
 37
0.0
 76
     0
330
1F
331
29
  0
MLINESTYLE
  5
18
102
{ACAD_REACTORS
330
17
102
}
330
17
100
AcDbMlineStyle
  2
Standard
 70
     0
  3

 62
   256
 51
90.0
 52
90.0
 71
     2
 49
0.5
 62
   256
  6
BYLAYER
 49
-0.5
 62
   256
  6
BYLAYER
  0
ACDBPLACEHOLDER
  5
F
102
{ACAD_REACTORS
330
E
102
}
330
E
  0
SCALE
  5
48
102
{ACAD_REACTORS
330
47
102
}
330
47
100
AcDbScale
 70
     0
300
1:1
140
1.0
141
1.0
290
     1
  0
SCALE
  5
49
102
{ACAD_REACTORS
330
47
102
}
330
47
100
AcDbScale
 70
     0
300
1:2
140
1.0
141
2.0
290
     0
  0
SCALE
  5
4A
102
{ACAD_REACTORS
330
47
102
}
330
47
100
AcDbScale
 70
     0
300
1:4
140
1.0
141
4.0
290
     0
  0
SCALE
  5
4B
102
{ACAD_REACTORS
330
47
102
}
330
47
100
AcDbScale
 70
     0
300
1:5
140
1.0
141
5.0
290
     0
  0
SCALE
  5
4C
102
{ACAD_REACTORS
330
47
102
}
330
47
100
AcDbScale
 70
     0
300
1:8
140
1.0
141
8.0
290
     0
  0
SCALE
  5
4D
102
{ACAD_REACTORS
330
47
102
}
330
47
100
AcDbScale
 70
     0
300
1:10
140
1.0
141
10.0
290
     0
  0
SCALE
  5
4E
102
{ACAD_REACTORS
330
47
102
}
330
47
100
AcDbScale
 70
     0
300
1:16
140
1.0
141
16.0
290
     0
  0
SCALE
  5
4F
102
{ACAD_REACTORS
330
47
102
}
330
47
100
AcDbScale
 70
     0
300
1:20
140
1.0
141
20.0
290
     0
  0
SCALE
  5
50
102
{ACAD_REACTORS
330
47
102
}
330
47
100
AcDbScale
 70
     0
300
1:30
140
1.0
141
30.0
290
     0
  0
SCALE
  5
51
102
{ACAD_REACTORS
330
47
102
}
330
47
100
AcDbScale
 70
     0
300
1:40
140
1.0
141
40.0
290
     0
  0
SCALE
  5
52
102
{ACAD_REACTORS
330
47
102
}
330
47
100
AcDbScale
 70
     0
300
1:50
140
1.0
141
50.0
290
     0
  0
SCALE
  5
53
102
{ACAD_REACTORS
330
47
102
}
330
47
100
AcDbScale
 70
     0
300
1:100
140
1.0
141
100.0
290
     0
  0
SCALE
  5
54
102
{ACAD_REACTORS
330
47
102
}
330
47
100
AcDbScale
 70
     0
300
2:1
140
2.0
141
1.0
290
     0
  0
SCALE
  5
55
102
{ACAD_REACTORS
330
47
102
}
330
47
100
AcDbScale
 70
     0
300
4:1
140
4.0
141
1.0
290
     0
  0
SCALE
  5
56
102
{ACAD_REACTORS
330
47
102
}
330
47
100
AcDbScale
 70
     0
300
8:1
140
8.0
141
1.0
290
     0
  0
SCALE
  5
57
102
{ACAD_REACTORS
330
47
102
}
330
47
100
AcDbScale
 70
     0
300
10:1
140
10.0
141
1.0
290
     0
  0
SCALE
  5
58
102
{ACAD_REACTORS
330
47
102
}
330
47
100
AcDbScale
 70
     0
300
100:1
140
100.0
141
1.0
290
     0
  0
SCALE
  5
59
102
{ACAD_REACTORS
330
47
102
}
330
47
100
AcDbScale
 70
     0
300
1/128" = 1'-0"
140
0.0078125
141
12.0
290
     0
  0
SCALE
  5
5A
102
{ACAD_REACTORS
330
47
102
}
330
47
100
AcDbScale
 70
     0
300
1/64" = 1'-0"
140
0.015625
141
12.0
290
     0
  0
SCALE
  5
5B
102
{ACAD_REACTORS
330
47
102
}
330
47
100
AcDbScale
 70
     0
300
1/32" = 1'-0"
140
0.03125
141
12.0
290
     0
  0
SCALE
  5
5C
102
{ACAD_REACTORS
330
47
102
}
330
47
100
AcDbScale
 70
     0
300
1/16" = 1'-0"
140
0.0625
141
12.0
290
     0
  0
SCALE
  5
5D
102
{ACAD_REACTORS
330
47
102
}
330
47
100
AcDbScale
 70
     0
300
3/32" = 1'-0"
140
0.09375
141
12.0
290
     0
  0
SCALE
  5
5E
102
{ACAD_REACTORS
330
47
102
}
330
47
100
AcDbScale
 70
     0
300
1/8" = 1'-0"
140
0.125
141
12.0
290
     0
  0
SCALE
  5
5F
102
{ACAD_REACTORS
330
47
102
}
330
47
100
AcDbScale
 70
     0
300
3/16" = 1'-0"
140
0.1875
141
12.0
290
     0
  0
SCALE
  5
60
102
{ACAD_REACTORS
330
47
102
}
330
47
100
AcDbScale
 70
     0
300
1/4" = 1'-0"
140
0.25
141
12.0
290
     0
  0
SCALE
  5
61
102
{ACAD_REACTORS
330
47
102
}
330
47
100
AcDbScale
 70
     0
300
3/8" = 1'-0"
140
0.375
141
12.0
290
     0
  0
SCALE
  5
62
102
{ACAD_REACTORS
330
47
102
}
330
47
100
AcDbScale
 70
     0
300
1/2" = 1'-0"
140
0.5
141
12.0
290
     0
  0
SCALE
  5
63
102
{ACAD_REACTORS
330
47
102
}
330
47
100
AcDbScale
 70
     0
300
3/4" = 1'-0"
140
0.75
141
12.0
290
     0
  0
SCALE
  5
64
102
{ACAD_REACTORS
330
47
102
}
330
47
100
AcDbScale
 70
     0
300
1" = 1'-0"
140
1.0
141
12.0
290
     0
  0
SCALE
  5
65
102
{ACAD_REACTORS
330
47
102
}
330
47
100
AcDbScale
 70
     0
300
1-1/2" = 1'-0"
140
1.5
141
12.0
290
     0
  0
SCALE
  5
66
102
{ACAD_REACTORS
330
47
102
}
330
47
100
AcDbScale
 70
     0
300
3" = 1'-0"
140
3.0
141
12.0
290
     0
  0
SCALE
  5
67
102
{ACAD_REACTORS
330
47
102
}
330
47
100
AcDbScale
 70
     0
300
6" = 1'-0"
140
6.0
141
12.0
290
     0
  0
SCALE
  5
68
102
{ACAD_REACTORS
330
47
102
}
330
47
100
AcDbScale
 70
     0
300
1'-0" = 1'-0"
140
12.0
141
12.0
290
     0
  0
ENDSEC
  0
EOF
