  0
SECTION
  2
HEADER
  9
$ACADVER
  1
AC1015
  9
$ACADMAINTVER
 70
     6
  9
$DWGCODEPAGE
  3
ANSI_949
  9
$INSBASE
 10
0.0
 20
0.0
 30
0.0
  9
$EXTMIN
 10
-46.11299764500095
 20
-49.97180738881174
 30
0.0
  9
$EXTMAX
 10
37.74636821175733
 20
24.76413260158165
 30
0.0
  9
$LIMMIN
 10
0.0
 20
0.0
  9
$LIMMAX
 10
420.0
 20
297.0
  9
$ORTHOMODE
 70
     0
  9
$REGENMODE
 70
     1
  9
$FILLMODE
 70
     1
  9
$QTEXTMODE
 70
     0
  9
$MIRRTEXT
 70
     1
  9
$LTSCALE
 40
1.0
  9
$ATTMODE
 70
     1
  9
$TEXTSIZE
 40
3.5
  9
$TRACEWID
 40
1.0
  9
$TEXTSTYLE
  7
Standard
  9
$CLAYER
  8
0
  9
$CELTYPE
  6
ByLayer
  9
$CECOLOR
 62
   256
  9
$CELTSCALE
 40
1.0
  9
$DISPSILH
 70
     0
  9
$DIMSCALE
 40
1.0
  9
$DIMASZ
 40
3.302
  9
$DIMEXO
 40
1.0
  9
$DIMDLI
 40
3.75
  9
$DIMRND
 40
0.0
  9
$DIMDLE
 40
0.0
  9
$DIMEXE
 40
1.0
  9
$DIMTP
 40
0.0
  9
$DIMTM
 40
0.0
  9
$DIMTXT
 40
3.5
  9
$DIMCEN
 40
2.5
  9
$DIMTSZ
 40
0.0
  9
$DIMTOL
 70
     0
  9
$DIMLIM
 70
     0
  9
$DIMTIH
 70
     1
  9
$DIMTOH
 70
     1
  9
$DIMSE1
 70
     0
  9
$DIMSE2
 70
     0
  9
$DIMTAD
 70
     1
  9
$DIMZIN
 70
     0
  9
$DIMBLK
  1

  9
$DIMASO
 70
     1
  9
$DIMSHO
 70
     1
  9
$DIMPOST
  1

  9
$DIMAPOST
  1

  9
$DIMALT
 70
     0
  9
$DIMALTD
 70
     3
  9
$DIMALTF
 40
0.0393700787401575
  9
$DIMLFAC
 40
1.0
  9
$DIMTOFL
 70
     1
  9
$DIMTVP
 40
0.0
  9
$DIMTIX
 70
     0
  9
$DIMSOXD
 70
     0
  9
$DIMSAH
 70
     0
  9
$DIMBLK1
  1

  9
$DIMBLK2
  1

  9
$DIMSTYLE
  2
ISO-25
  9
$DIMCLRD
 70
     0
  9
$DIMCLRE
 70
     0
  9
$DIMCLRT
 70
     0
  9
$DIMTFAC
 40
1.0
  9
$DIMGAP
 40
1.524
  9
$DIMJUST
 70
     0
  9
$DIMSD1
 70
     0
  9
$DIMSD2
 70
     0
  9
$DIMTOLJ
 70
     0
  9
$DIMTZIN
 70
     0
  9
$DIMALTZ
 70
     0
  9
$DIMALTTZ
 70
     0
  9
$DIMUPT
 70
     0
  9
$DIMDEC
 70
     2
  9
$DIMTDEC
 70
     2
  9
$DIMALTU
 70
     2
  9
$DIMALTTD
 70
     3
  9
$DIMTXSTY
  7
Standard
  9
$DIMAUNIT
 70
     0
  9
$DIMADEC
 70
     2
  9
$DIMALTRND
 40
0.0
  9
$DIMAZIN
 70
     0
  9
$DIMDSEP
 70
    44
  9
$DIMATFIT
 70
     3
  9
$DIMFRAC
 70
     0
  9
$DIMLDRBLK
  1

  9
$DIMLUNIT
 70
     2
  9
$DIMLWD
 70
    -2
  9
$DIMLWE
 70
    -2
  9
$DIMTMOVE
 70
     0
  9
$LUNITS
 70
     2
  9
$LUPREC
 70
     2
  9
$SKETCHINC
 40
1.0
  9
$FILLETRAD
 40
10.0
  9
$AUNITS
 70
     0
  9
$AUPREC
 70
     2
  9
$MENU
  1
.
  9
$ELEVATION
 40
0.0
  9
$PELEVATION
 40
0.0
  9
$THICKNESS
 40
0.0
  9
$LIMCHECK
 70
     0
  9
$CHAMFERA
 40
0.0
  9
$CHAMFERB
 40
0.0
  9
$CHAMFERC
 40
0.0
  9
$CHAMFERD
 40
0.0
  9
$SKPOLY
 70
     0
  9
$TDCREATE
 40
2458260.567383275
  9
$TDUCREATE
 40
2458260.192383275
  9
$TDUPDATE
 40
2458268.472390879
  9
$TDUUPDATE
 40
2458268.097390879
  9
$TDINDWG
 40
0.0011702431
  9
$TDUSRTIMER
 40
2458268.096220683
  9
$USRTIMER
 70
     1
  9
$ANGBASE
 50
0.0
  9
$ANGDIR
 70
     0
  9
$PDMODE
 70
     0
  9
$PDSIZE
 40
-1.0
  9
$PLINEWID
 40
0.0
  9
$SPLFRAME
 70
     0
  9
$SPLINETYPE
 70
     6
  9
$SPLINESEGS
 70
     8
  9
$HANDSEED
  5
15F
  9
$SURFTAB1
 70
     6
  9
$SURFTAB2
 70
     6
  9
$SURFTYPE
 70
     6
  9
$SURFU
 70
     6
  9
$SURFV
 70
     6
  9
$UCSBASE
  2

  9
$UCSNAME
  2

  9
$UCSORG
 10
0.0
 20
0.0
 30
0.0
  9
$UCSXDIR
 10
1.0
 20
0.0
 30
0.0
  9
$UCSYDIR
 10
0.0
 20
1.0
 30
0.0
  9
$UCSORTHOREF
  2

  9
$UCSORTHOVIEW
 70
     0
  9
$UCSORGTOP
 10
0.0
 20
0.0
 30
0.0
  9
$UCSORGBOTTOM
 10
0.0
 20
0.0
 30
0.0
  9
$UCSORGLEFT
 10
0.0
 20
0.0
 30
0.0
  9
$UCSORGRIGHT
 10
0.0
 20
0.0
 30
0.0
  9
$UCSORGFRONT
 10
0.0
 20
0.0
 30
0.0
  9
$UCSORGBACK
 10
0.0
 20
0.0
 30
0.0
  9
$PUCSBASE
  2

  9
$PUCSNAME
  2

  9
$PUCSORG
 10
0.0
 20
0.0
 30
0.0
  9
$PUCSXDIR
 10
1.0
 20
0.0
 30
0.0
  9
$PUCSYDIR
 10
0.0
 20
1.0
 30
0.0
  9
$PUCSORTHOREF
  2

  9
$PUCSORTHOVIEW
 70
     0
  9
$PUCSORGTOP
 10
0.0
 20
0.0
 30
0.0
  9
$PUCSORGBOTTOM
 10
0.0
 20
0.0
 30
0.0
  9
$PUCSORGLEFT
 10
0.0
 20
0.0
 30
0.0
  9
$PUCSORGRIGHT
 10
0.0
 20
0.0
 30
0.0
  9
$PUCSORGFRONT
 10
0.0
 20
0.0
 30
0.0
  9
$PUCSORGBACK
 10
0.0
 20
0.0
 30
0.0
  9
$USERI1
 70
     0
  9
$USERI2
 70
     0
  9
$USERI3
 70
     0
  9
$USERI4
 70
     0
  9
$USERI5
 70
     0
  9
$USERR1
 40
0.0
  9
$USERR2
 40
0.0
  9
$USERR3
 40
0.0
  9
$USERR4
 40
0.0
  9
$USERR5
 40
0.0
  9
$WORLDVIEW
 70
     1
  9
$SHADEDGE
 70
     3
  9
$SHADEDIF
 70
    70
  9
$TILEMODE
 70
     1
  9
$MAXACTVP
 70
    64
  9
$PINSBASE
 10
0.0
 20
0.0
 30
0.0
  9
$PLIMCHECK
 70
     0
  9
$PEXTMIN
 10
1.000000000000000E+20
 20
1.000000000000000E+20
 30
1.000000000000000E+20
  9
$PEXTMAX
 10
-1.000000000000000E+20
 20
-1.000000000000000E+20
 30
-1.000000000000000E+20
  9
$PLIMMIN
 10
0.0
 20
0.0
  9
$PLIMMAX
 10
0.0
 20
0.0
  9
$UNITMODE
 70
     0
  9
$VISRETAIN
 70
     1
  9
$PLINEGEN
 70
     0
  9
$PSLTSCALE
 70
     1
  9
$TREEDEPTH
 70
  3020
  9
$CMLSTYLE
  2
Standard
  9
$CMLJUST
 70
     0
  9
$CMLSCALE
 40
20.0
  9
$PROXYGRAPHICS
 70
     1
  9
$MEASUREMENT
 70
     1
  9
$CELWEIGHT
370
    -1
  9
$ENDCAPS
280
     0
  9
$JOINSTYLE
280
     0
  9
$LWDISPLAY
290
     1
  9
$INSUNITS
 70
     4
  9
$HYPERLINKBASE
  1

  9
$STYLESHEET
  1

  9
$XEDIT
290
     1
  9
$CEPSNTYPE
380
     0
  9
$PSTYLEMODE
290
     1
  9
$FINGERPRINTGUID
  2
{BC84F7C8-6379-4100-B5FC-ADFC3F6EC154}
  9
$VERSIONGUID
  2
{FAEB1C32-E019-11D5-929B-00C0DF256EC4}
  9
$EXTNAMES
290
     1
  9
$PSVPSCALE
 40
0.0
  9
$OLESTARTUP
290
     0
  0
ENDSEC
  0
SECTION
  2
CLASSES
  0
CLASS
  1
ACDBDICTIONARYWDFLT
  2
AcDbDictionaryWithDefault
  3
ObjectDBX Classes
 90
        0
280
     0
281
     0
  0
CLASS
  1
VISUALSTYLE
  2
AcDbVisualStyle
  3
ObjectDBX Classes
 90
     4095
280
     0
281
     0
  0
CLASS
  1
MATERIAL
  2
AcDbMaterial
  3
ObjectDBX Classes
 90
     1153
280
     0
281
     0
  0
CLASS
  1
SCALE
  2
AcDbScale
  3
ObjectDBX Classes
 90
     1153
280
     0
281
     0
  0
CLASS
  1
TABLESTYLE
  2
AcDbTableStyle
  3
ObjectDBX Classes
 90
     4095
280
     0
281
     0
  0
CLASS
  1
MLEADERSTYLE
  2
AcDbMLeaderStyle
  3
ACDB_MLEADERSTYLE_CLASS
 90
     4095
280
     0
281
     0
  0
CLASS
  1
SUN
  2
AcDbSun
  3
SCENEOE
 90
     1153
280
     0
281
     0
  0
CLASS
  1
ACDBPLACEHOLDER
  2
AcDbPlaceHolder
  3
ObjectDBX Classes
 90
        0
280
     0
281
     0
  0
CLASS
  1
LAYOUT
  2
AcDbLayout
  3
ObjectDBX Classes
 90
        0
280
     0
281
     0
  0
CLASS
  1
RASTERVARIABLES
  2
AcDbRasterVariables
  3
ISM
 90
        0
280
     0
281
     0
  0
ENDSEC
  0
SECTION
  2
TABLES
  0
TABLE
  2
VPORT
  5
8
330
0
100
AcDbSymbolTable
 70
     1
  0
VPORT
  5
29
330
8
100
AcDbSymbolTableRecord
100
AcDbViewportTableRecord
  2
*Active
 70
     0
 10
0.0
 20
0.0
 11
1.0
 21
1.0
 12
-4.183314716621808
 22
-12.60383739361504
 13
0.0
 23
0.0
 14
10.0
 24
10.0
 15
10.0
 25
10.0
 16
0.0
 26
0.0
 36
1.0
 17
0.0
 27
0.0
 37
0.0
 40
76.23065879020126
 41
1.737726098191214
 42
50.0
 43
0.0
 44
0.0
 50
0.0
 51
0.0
 71
    16
 72
  2000
 73
     1
 74
     3
 75
     0
 76
     0
 77
     0
 78
     0
281
     0
 65
     1
110
0.0
120
0.0
130
0.0
111
1.0
121
0.0
131
0.0
112
0.0
122
1.0
132
0.0
 79
     0
146
0.0
  0
ENDTAB
  0
TABLE
  2
LTYPE
  5
5
330
0
100
AcDbSymbolTable
 70
     6
  0
LTYPE
  5
14
330
5
100
AcDbSymbolTableRecord
100
AcDbLinetypeTableRecord
  2
ByBlock
 70
     0
  3

 72
    65
 73
     0
 40
0.0
  0
LTYPE
  5
15
330
5
100
AcDbSymbolTableRecord
100
AcDbLinetypeTableRecord
  2
ByLayer
 70
     0
  3

 72
    65
 73
     0
 40
0.0
  0
LTYPE
  5
16
330
5
100
AcDbSymbolTableRecord
100
AcDbLinetypeTableRecord
  2
Continuous
 70
     0
  3
Solid line
 72
    65
 73
     0
 40
0.0
  0
LTYPE
  5
6E
330
5
100
AcDbSymbolTableRecord
100
AcDbLinetypeTableRecord
  2
HIDDEN
 70
     0
  3
Hidden __ __ __ __ __ __ __ __ __ __ __ __ __ __
 72
    65
 73
     2
 40
1.905
 49
1.27
 74
     0
 49
-0.635
 74
     0
  0
LTYPE
  5
6F
330
5
100
AcDbSymbolTableRecord
100
AcDbLinetypeTableRecord
  2
PHANTOM
 70
     0
  3
Phantom ______  __  __  ______  __  __  ______
 72
    65
 73
     6
 40
12.7
 49
6.35
 74
     0
 49
-1.27
 74
     0
 49
1.27
 74
     0
 49
-1.27
 74
     0
 49
1.27
 74
     0
 49
-1.27
 74
     0
  0
LTYPE
  5
70
330
5
100
AcDbSymbolTableRecord
100
AcDbLinetypeTableRecord
  2
CENTER
 70
     0
  3
Center ____ _ ____ _ ____ _ ____ _ ____ _ ____
 72
    65
 73
     4
 40
10.16
 49
6.35
 74
     0
 49
-1.27
 74
     0
 49
1.27
 74
     0
 49
-1.27
 74
     0
  0
LTYPE
  5
71
330
5
100
AcDbSymbolTableRecord
100
AcDbLinetypeTableRecord
  2
CENTERX2
 70
     0
  3
Center (2x) ________  __  ________  __  _____
 72
    65
 73
     4
 40
20.32
 49
12.7
 74
     0
 49
-2.54
 74
     0
 49
2.54
 74
     0
 49
-2.54
 74
     0
  0
LTYPE
  5
72
330
5
100
AcDbSymbolTableRecord
100
AcDbLinetypeTableRecord
  2
DOT2
 70
     0
  3
Dot (.5x) ........................................
 72
    65
 73
     2
 40
0.635
 49
0.0
 74
     0
 49
-0.635
 74
     0
  0
ENDTAB
  0
TABLE
  2
LAYER
  5
2
330
0
100
AcDbSymbolTable
 70
    17
  0
LAYER
  5
10
330
2
100
AcDbSymbolTableRecord
100
AcDbLayerTableRecord
  2
0
 70
     0
 62
     7
  6
Continuous
370
    -3
390
F
  0
LAYER
  5
73
330
2
100
AcDbSymbolTableRecord
100
AcDbLayerTableRecord
  2
FORMAT
 70
     0
 62
     2
  6
Continuous
370
    -3
390
F
  0
LAYER
  5
74
330
2
100
AcDbSymbolTableRecord
100
AcDbLayerTableRecord
  2
외형선
 70
     0
 62
   100
  6
Continuous
370
    35
390
F
  0
LAYER
  5
75
330
2
100
AcDbSymbolTableRecord
100
AcDbLayerTableRecord
  2
숨은선
 70
     0
 62
     2
  6
HIDDEN
370
    25
390
F
  0
LAYER
  5
76
330
2
100
AcDbSymbolTableRecord
100
AcDbLayerTableRecord
  2
중심선
 70
     0
 62
     1
  6
CENTERX2
370
    -3
390
F
  0
LAYER
  5
77
330
2
100
AcDbSymbolTableRecord
100
AcDbLayerTableRecord
  2
파단선
 70
     0
 62
     4
  6
Continuous
370
    -3
390
F
  0
LAYER
  5
78
330
2
100
AcDbSymbolTableRecord
100
AcDbLayerTableRecord
  2
해칭선
 70
     0
 62
   100
  6
Continuous
370
    -3
390
F
  0
LAYER
  5
79
330
2
100
AcDbSymbolTableRecord
100
AcDbLayerTableRecord
  2
가는실선
 70
     0
 62
     4
  6
Continuous
370
    -3
390
F
  0
LAYER
  5
7A
330
2
100
AcDbSymbolTableRecord
100
AcDbLayerTableRecord
  2
치수_보조선
 70
     0
 62
     4
  6
Continuous
370
    -3
390
F
  0
LAYER
  5
7B
330
2
100
AcDbSymbolTableRecord
100
AcDbLayerTableRecord
  2
치수문자_일반주서
 70
     0
 62
     7
  6
Continuous
370
    25
390
F
  0
LAYER
  5
7C
330
2
100
AcDbSymbolTableRecord
100
AcDbLayerTableRecord
  2
개별주서
 70
     0
 62
   100
  6
Continuous
370
    35
390
F
  0
LAYER
  5
7D
330
2
100
AcDbSymbolTableRecord
100
AcDbLayerTableRecord
  2
중간선
 70
     0
 62
     2
  6
Continuous
370
    25
390
F
  0
LAYER
  5
7E
330
2
100
AcDbSymbolTableRecord
100
AcDbLayerTableRecord
  2
윤곽선
 70
     0
 62
     3
  6
Continuous
370
    50
390
F
  0
LAYER
  5
7F
330
2
100
AcDbSymbolTableRecord
100
AcDbLayerTableRecord
  2
중심마크
 70
     0
 62
   100
  6
Continuous
370
    35
390
F
  0
LAYER
  5
80
330
2
100
AcDbSymbolTableRecord
100
AcDbLayerTableRecord
  2
가상선
 70
     0
 62
     4
  6
PHANTOM
370
    -3
390
F
  0
LAYER
  5
81
330
2
100
AcDbSymbolTableRecord
100
AcDbLayerTableRecord
  2
특수지정선
 70
     0
 62
     5
  6
CENTERX2
370
    70
390
F
  0
LAYER
  5
153
330
2
100
AcDbSymbolTableRecord
100
AcDbLayerTableRecord
  2
Defpoints
 70
     0
 62
     7
  6
Continuous
290
     0
370
    -3
390
F
  0
ENDTAB
  0
TABLE
  2
STYLE
  5
3
330
0
100
AcDbSymbolTable
 70
     2
  0
STYLE
  5
11
330
3
100
AcDbSymbolTableRecord
100
AcDbTextStyleTableRecord
  2
Standard
 70
     0
 40
0.0
 41
1.0
 50
0.0
 71
     0
 42
3.5
  3
txt
  4

  0
STYLE
  5
97
330
3
100
AcDbSymbolTableRecord
100
AcDbTextStyleTableRecord
  2
SLDTEXTSTYLE0
 70
     0
 40
0.0
 41
0.75
 50
0.0
 71
     0
 42
3.5
  3
TXT
  4

  0
ENDTAB
  0
TABLE
  2
VIEW
  5
6
330
0
100
AcDbSymbolTable
 70
     0
  0
ENDTAB
  0
TABLE
  2
UCS
  5
7
330
0
100
AcDbSymbolTable
 70
     0
  0
ENDTAB
  0
TABLE
  2
APPID
  5
9
330
0
100
AcDbSymbolTable
 70
     1
  0
APPID
  5
12
330
9
100
AcDbSymbolTableRecord
100
AcDbRegAppTableRecord
  2
ACAD
 70
     0
  0
ENDTAB
  0
TABLE
  2
DIMSTYLE
  5
A
330
0
100
AcDbSymbolTable
 70
     4
100
AcDbDimStyleTable
  0
DIMSTYLE
105
27
330
A
100
AcDbSymbolTableRecord
100
AcDbDimStyleTableRecord
  2
ISO-25
 70
     0
 41
2.5
 42
0.625
 43
3.75
 44
1.25
 73
     0
 74
     0
 77
     1
 78
     8
140
2.5
141
2.5
143
0.03937007874016
147
0.625
171
     3
172
     1
178
     0
271
     2
272
     2
274
     3
278
    44
283
     0
284
     8
340
11
  0
DIMSTYLE
105
F6
102
{ACAD_REACTORS
330
F5
102
}
330
A
100
AcDbSymbolTableRecord
100
AcDbDimStyleTableRecord
  2
SLDDIMSTYLE0
 70
     0
 41
3.302
 44
0.0
 45
0.000000001
 73
     0
 74
     0
 77
     1
 78
    12
 79
     3
140
3.5
147
0.875
172
     1
173
     1
178
     0
271
     1
272
     1
276
     2
284
    12
289
     0
340
97
  0
DIMSTYLE
105
104
102
{ACAD_REACTORS
330
103
102
}
330
A
100
AcDbSymbolTableRecord
100
AcDbDimStyleTableRecord
  2
SLDDIMSTYLE1
 70
     0
 41
3.302
 44
0.0
 45
0.000000001
 73
     0
 74
     0
 77
     1
 78
    12
 79
     3
140
3.5
147
0.875
173
     1
178
     0
271
     2
272
     2
276
     2
284
    12
340
97
  0
DIMSTYLE
105
10F
102
{ACAD_REACTORS
330
10E
330
11C
102
}
330
A
100
AcDbSymbolTableRecord
100
AcDbDimStyleTableRecord
  2
SLDDIMSTYLE2
 70
     0
 41
3.302
 44
0.0
 45
0.000000001
 73
     0
 74
     0
 77
     1
 78
    12
 79
     3
140
3.5
147
0.875
172
     1
173
     1
178
     0
271
     2
272
     2
276
     2
284
    12
289
     0
340
97
  0
ENDTAB
  0
TABLE
  2
BLOCK_RECORD
  5
1
330
0
100
AcDbSymbolTable
 70
     7
  0
BLOCK_RECORD
  5
1F
330
1
100
AcDbSymbolTableRecord
100
AcDbBlockTableRecord
  2
*Model_Space
340
22
  0
BLOCK_RECORD
  5
1B
330
1
100
AcDbSymbolTableRecord
100
AcDbBlockTableRecord
  2
*Paper_Space
340
1E
  0
BLOCK_RECORD
  5
23
330
1
100
AcDbSymbolTableRecord
100
AcDbBlockTableRecord
  2
*Paper_Space0
340
26
  0
BLOCK_RECORD
  5
82
330
1
100
AcDbSymbolTableRecord
100
AcDbBlockTableRecord
  2
블럭10
340
0
102
{BLKREFS
331
EE
102
}
  0
BLOCK_RECORD
  5
F7
330
1
100
AcDbSymbolTableRecord
100
AcDbBlockTableRecord
  2
_D
340
0
  0
BLOCK_RECORD
  5
105
330
1
100
AcDbSymbolTableRecord
100
AcDbBlockTableRecord
  2
_D_1
340
0
  0
BLOCK_RECORD
  5
110
330
1
100
AcDbSymbolTableRecord
100
AcDbBlockTableRecord
  2
_D_2
340
0
  0
BLOCK_RECORD
  5
11D
330
1
100
AcDbSymbolTableRecord
100
AcDbBlockTableRecord
  2
_D_3
340
0
  0
BLOCK_RECORD
  5
128
330
1
100
AcDbSymbolTableRecord
100
AcDbBlockTableRecord
  2
SW_DOWELSYMBOL_0
340
0
102
{BLKREFS
331
12E
102
}
  0
ENDTAB
  0
ENDSEC
  0
SECTION
  2
BLOCKS
  0
BLOCK
  5
20
330
1F
100
AcDbEntity
  8
0
100
AcDbBlockBegin
  2
*Model_Space
 70
     0
 10
0.0
 20
0.0
 30
0.0
  3
*Model_Space
  1

  0
ENDBLK
  5
21
330
1F
100
AcDbEntity
  8
0
100
AcDbBlockEnd
  0
BLOCK
  5
1C
330
1B
100
AcDbEntity
 67
     1
  8
0
100
AcDbBlockBegin
  2
*Paper_Space
 70
     0
 10
0.0
 20
0.0
 30
0.0
  3
*Paper_Space
  1

  0
ENDBLK
  5
1D
330
1B
100
AcDbEntity
 67
     1
  8
0
100
AcDbBlockEnd
  0
BLOCK
  5
24
330
23
100
AcDbEntity
  8
0
100
AcDbBlockBegin
  2
*Paper_Space0
 70
     0
 10
0.0
 20
0.0
 30
0.0
  3
*Paper_Space0
  1

  0
ENDBLK
  5
25
330
23
100
AcDbEntity
  8
0
100
AcDbBlockEnd
  0
BLOCK
  5
83
330
82
100
AcDbEntity
  8
0
100
AcDbBlockBegin
  2
블럭10
 70
     2
 10
0.0
 20
0.0
 30
0.0
  3
블럭10
  1

  0
ELLIPSE
  5
85
330
82
100
AcDbEntity
  8
중심선
100
AcDbEllipse
 10
20.54032771741204
 20
12.0471743016438
 30
0.0
 11
6.600054785286829
 21
-1.261213355974178E-13
 31
0.0
210
0.0
220
0.0
230
1.0
 40
0.636358354079598
 41
0.9219305317359503
 42
6.513795318482858
  0
ELLIPSE
  5
86
330
82
100
AcDbEntity
  8
중심선
100
AcDbEllipse
 10
20.54032771746488
 20
12.04717430159265
 30
0.0
 11
3.960054785062283
 21
1.540847449632565E-10
 31
0.0
210
0.0
220
0.0
230
1.0
 40
0.3939339440162632
 41
1.131841032648279
 42
5.62031148352944
  0
LINE
  5
87
330
82
100
AcDbEntity
  8
중심선
100
AcDbLine
 10
2.268634060543552
 20
16.24717430164393
 30
0.0
 11
5.714909304380834
 21
16.24717430164393
 31
0.0
  0
LINE
  5
88
330
82
100
AcDbEntity
  8
중심선
100
AcDbLine
 10
5.245725140726316
 20
7.84717430164391
 30
0.0
 11
8.692000384563599
 21
7.84717430164391
 31
0.0
  0
LINE
  5
89
330
82
100
AcDbEntity
  8
중심선
100
AcDbLine
 10
15.74043728645272
 20
16.24717430164393
 30
0.0
 11
8.692000384563599
 21
7.84717430164391
 31
0.0
  0
LINE
  5
8A
330
82
100
AcDbEntity
  8
중심선
100
AcDbLine
 10
0.1404042013395286
 20
13.71084872107135
 30
0.0
 11
3.58671253028996
 21
13.71088815037384
 31
0.0
  0
LINE
  5
8B
330
82
100
AcDbEntity
  8
중심선
100
AcDbLine
 10
2.750260043222114
 20
10.84717430164391
 30
0.0
 11
6.196535287059397
 21
10.84717430164391
 31
0.0
  0
LINE
  5
8C
330
82
100
AcDbEntity
  8
중심선
100
AcDbLine
 10
12.29416204261559
 20
16.24717430164393
 30
0.0
 11
5.245725140726316
 21
7.84717430164391
 31
0.0
  0
LINE
  5
8D
330
82
100
AcDbEntity
  8
중심선
100
AcDbLine
 10
10.72767329541681
 20
16.24717430164393
 30
0.0
 11
6.196535287059397
 21
10.84717430164391
 31
0.0
  0
LINE
  5
8E
330
82
100
AcDbEntity
  8
중심선
100
AcDbLine
 10
7.28139805157953
 20
16.24717430164393
 30
0.0
 11
2.750260043222114
 21
10.84717430164391
 31
0.0
  0
LINE
  5
8F
330
82
100
AcDbEntity
  8
중심선
100
AcDbLine
 10
5.714909304380834
 20
16.24717430164393
 30
0.0
 11
3.58671253028996
 21
13.71088815037384
 31
0.0
  0
LINE
  5
90
330
82
100
AcDbEntity
  8
중심선
100
AcDbLine
 10
2.268634060543552
 20
16.24717430164393
 30
0.0
 11
0.1404042013395286
 21
13.71084872107135
 31
0.0
  0
LINE
  5
91
330
82
100
AcDbEntity
  8
중심선
100
AcDbLine
 10
7.28139805157953
 20
16.24717430164393
 30
0.0
 11
10.72767329541681
 21
16.24717430164393
 31
0.0
  0
LINE
  5
92
330
82
100
AcDbEntity
  8
중심선
100
AcDbLine
 10
12.29416204261559
 20
16.24717430164393
 30
0.0
 11
15.74043728645272
 21
16.24717430164393
 31
0.0
  0
LINE
  5
93
330
82
100
AcDbEntity
  8
중심선
100
AcDbLine
 10
19.22036997980202
 20
11.08717430171403
 30
0.0
 11
23.66174974927406
 21
11.08717430171406
 31
0.0
  0
LINE
  5
94
330
82
100
AcDbEntity
  8
중심선
100
AcDbLine
 10
19.22039502424796
 20
13.00717430171391
 30
0.0
 11
19.22036997980202
 21
11.08717430171403
 31
0.0
  0
LINE
  5
95
330
82
100
AcDbEntity
  8
중심선
100
AcDbLine
 10
19.22039502424796
 20
13.00717430171391
 30
0.0
 11
26.96566020931264
 21
13.00717430171391
 31
0.0
  0
LINE
  5
96
330
82
100
AcDbEntity
  8
중심선
100
AcDbLine
 10
22.22332737316547
 20
13.45928029700563
 30
0.0
 11
24.52862924686651
 21
15.39360700705356
 31
0.0
  0
ATTDEF
  5
98
330
82
100
AcDbEntity
  8
FORMAT
 62
     2
100
AcDbText
 10
-16.11926103943555
 20
2.075366912832191
 30
0.0
 40
4.233333333333333
  1
SEME7201514E [ 4 FLUTE ]
 41
0.75
  7
SLDTEXTSTYLE0
 11
-16.11926103943555
 21
-0.0412997538344756
 31
0.0
100
AcDbAttributeDefinition
  3

  2
AUTOATTR0
 70
     0
 74
     1
  0
ENDBLK
  5
84
330
82
100
AcDbEntity
  8
0
100
AcDbBlockEnd
  0
BLOCK
  5
F8
330
F7
100
AcDbEntity
  8
0
100
AcDbBlockBegin
  2
_D
 70
     0
 10
0.0
 20
0.0
 30
0.0
  3
_D
  1

  0
LINE
  5
FA
330
F7
100
AcDbEntity
  8
치수문자_일반주서
 62
     0
370
    -2
100
AcDbLine
 10
25.45961431702997
 20
-0.7500000000000061
 30
0.0
 11
37.19603487842398
 21
-0.7499999999999627
 31
0.0
  0
LINE
  5
FB
330
F7
100
AcDbEntity
  8
치수문자_일반주서
 62
     0
370
    -2
100
AcDbLine
 10
25.45961431702997
 20
0.7500000000000057
 30
0.0
 11
37.19603487842397
 21
0.7500000000000497
 31
0.0
  0
LINE
  5
FC
330
F7
100
AcDbEntity
  8
치수문자_일반주서
 62
     0
370
    -2
100
AcDbLine
 10
37.19603487842398
 20
-0.7499999999999627
 30
0.0
 11
37.1960348784239
 21
16.10400000000005
 31
0.0
  0
LINE
  5
FD
330
F7
100
AcDbEntity
  8
치수문자_일반주서
 62
     0
370
    -2
100
AcDbLine
 10
37.19603487842398
 20
-0.7499999999999627
 30
0.0
 11
37.19603487842397
 21
0.7500000000000497
 31
0.0
  0
LINE
  5
FE
330
F7
100
AcDbEntity
  8
치수문자_일반주서
 62
     0
370
    -2
100
AcDbLine
 10
37.19603487842399
 20
-4.051999999999962
 30
0.0
 11
37.19603487842401
 21
-7.353999999999962
 31
0.0
  0
LINE
  5
FF
330
F7
100
AcDbEntity
  8
치수문자_일반주서
 62
     0
370
    -2
100
AcDbLine
 10
37.19603487842396
 20
4.052000000000049
 30
0.0
 11
37.19603487842394
 21
7.354000000000049
 31
0.0
  0
SOLID
  5
100
330
F7
100
AcDbEntity
  8
치수문자_일반주서
 62
     0
100
AcDbTrace
 10
37.74636821175733
 20
-4.05199999999996
 30
0.0
 11
36.64570154509066
 21
-4.051999999999965
 31
0.0
 12
37.19603487842398
 22
-0.7499999999999627
 32
0.0
 13
37.19603487842398
 23
-0.7499999999999627
 33
0.0
  0
SOLID
  5
101
330
F7
100
AcDbEntity
  8
치수문자_일반주서
 62
     0
100
AcDbTrace
 10
36.64570154509062
 20
4.052000000000047
 30
0.0
 11
37.74636821175729
 21
4.052000000000052
 31
0.0
 12
37.19603487842397
 22
0.7500000000000497
 32
0.0
 13
37.19603487842397
 23
0.7500000000000497
 33
0.0
  0
MTEXT
  5
102
330
F7
100
AcDbEntity
  8
치수문자_일반주서
 62
     0
100
AcDbMText
 10
32.82103487842392
 20
11.72900000000003
 30
0.0
 40
3.5
 41
0.0
 71
     2
 72
     1
  1
\A1;%%c1.5
  7
SLDTEXTSTYLE0
 11
-4.736951571733964E-15
 21
1.0
 31
0.0
 73
     1
 44
1.0
  0
POINT
  5
15B
330
F7
100
AcDbEntity
  8
Defpoints
 62
     0
100
AcDbPoint
 10
25.39711431702997
 20
-0.7500000000000063
 30
0.0
  0
POINT
  5
15C
330
F7
100
AcDbEntity
  8
Defpoints
 62
     0
100
AcDbPoint
 10
25.39711431702997
 20
0.7500000000000054
 30
0.0
  0
POINT
  5
15D
330
F7
100
AcDbEntity
  8
Defpoints
 62
     0
100
AcDbPoint
 10
37.19603487842398
 20
0.7500000000000495
 30
0.0
  0
ENDBLK
  5
F9
330
F7
100
AcDbEntity
  8
0
100
AcDbBlockEnd
  0
BLOCK
  5
106
330
105
100
AcDbEntity
  8
0
100
AcDbBlockBegin
  2
_D_1
 70
     0
 10
0.0
 20
0.0
 30
0.0
  3
_D_1
  1

  0
LINE
  5
108
330
105
100
AcDbEntity
  8
치수문자_일반주서
 62
     0
370
    -2
100
AcDbLine
 10
-34.60288568297005
 20
2.562499999999995
 30
0.0
 11
-34.60288568297005
 21
20.38913260158165
 31
0.0
  0
LINE
  5
109
330
105
100
AcDbEntity
  8
치수문자_일반주서
 62
     0
370
    -2
100
AcDbLine
 10
25.39711431702995
 20
0.8125000000000018
 30
0.0
 11
25.39711431702994
 21
20.38913260158165
 31
0.0
  0
LINE
  5
10A
330
105
100
AcDbEntity
  8
치수문자_일반주서
 62
     0
370
    -2
100
AcDbLine
 10
-31.30088568297005
 20
20.38913260158165
 30
0.0
 11
22.09511431702994
 21
20.38913260158165
 31
0.0
  0
SOLID
  5
10B
330
105
100
AcDbEntity
  8
치수문자_일반주서
 62
     0
100
AcDbTrace
 10
-31.30088568297005
 20
20.93946593491498
 30
0.0
 11
-31.30088568297005
 21
19.83879926824831
 31
0.0
 12
-34.60288568297005
 22
20.38913260158165
 32
0.0
 13
-34.60288568297005
 23
20.38913260158165
 33
0.0
  0
SOLID
  5
10C
330
105
100
AcDbEntity
  8
치수문자_일반주서
 62
     0
100
AcDbTrace
 10
22.09511431702994
 20
19.83879926824831
 30
0.0
 11
22.09511431702994
 21
20.93946593491498
 31
0.0
 12
25.39711431702994
 22
20.38913260158165
 32
0.0
 13
25.39711431702994
 23
20.38913260158165
 33
0.0
  0
MTEXT
  5
10D
330
105
100
AcDbEntity
  8
치수문자_일반주서
 62
     0
100
AcDbMText
 10
-4.602885682970046
 20
24.76413260158165
 30
0.0
 40
3.5
 41
0.0
 71
     2
 72
     1
  1
\A1;60
  7
SLDTEXTSTYLE0
 73
     1
 44
1.0
  0
POINT
  5
154
330
105
100
AcDbEntity
  8
Defpoints
 62
     0
100
AcDbPoint
 10
-34.60288568297005
 20
2.499999999999995
 30
0.0
  0
POINT
  5
155
330
105
100
AcDbEntity
  8
Defpoints
 62
     0
100
AcDbPoint
 10
25.39711431702995
 20
0.7500000000000018
 30
0.0
  0
POINT
  5
156
330
105
100
AcDbEntity
  8
Defpoints
 62
     0
100
AcDbPoint
 10
25.39711431702995
 20
20.38913260158165
 30
0.0
  0
ENDBLK
  5
107
330
105
100
AcDbEntity
  8
0
100
AcDbBlockEnd
  0
BLOCK
  5
111
330
110
100
AcDbEntity
  8
0
100
AcDbBlockBegin
  2
_D_2
 70
     0
 10
0.0
 20
0.0
 30
0.0
  3
_D_2
  1

  0
LINE
  5
113
330
110
100
AcDbEntity
  8
치수문자_일반주서
 62
     0
370
    -2
100
AcDbLine
 10
-34.16538568297003
 20
3.000000000000003
 30
0.0
 11
-41.73799764500091
 21
2.999999999999975
 31
0.0
  0
LINE
  5
114
330
110
100
AcDbEntity
  8
치수문자_일반주서
 62
     0
370
    -2
100
AcDbLine
 10
-34.16538568297003
 20
-3.000000000000003
 30
0.0
 11
-41.73799764500089
 21
-3.00000000000003
 31
0.0
  0
LINE
  5
115
330
110
100
AcDbEntity
  8
치수문자_일반주서
 62
     0
370
    -2
100
AcDbLine
 10
-41.73799764500091
 20
2.999999999999975
 30
0.0
 11
-41.73799764500096
 21
15.72899999999997
 31
0.0
  0
LINE
  5
116
330
110
100
AcDbEntity
  8
치수문자_일반주서
 62
     0
370
    -2
100
AcDbLine
 10
-41.73799764500091
 20
2.999999999999975
 30
0.0
 11
-41.73799764500089
 21
-3.00000000000003
 31
0.0
  0
LINE
  5
117
330
110
100
AcDbEntity
  8
치수문자_일반주서
 62
     0
370
    -2
100
AcDbLine
 10
-41.73799764500092
 20
6.301999999999975
 30
0.0
 11
-41.73799764500094
 21
9.603999999999974
 31
0.0
  0
LINE
  5
118
330
110
100
AcDbEntity
  8
치수문자_일반주서
 62
     0
370
    -2
100
AcDbLine
 10
-41.73799764500087
 20
-6.30200000000003
 30
0.0
 11
-41.73799764500086
 21
-9.60400000000003
 31
0.0
  0
SOLID
  5
119
330
110
100
AcDbEntity
  8
치수문자_일반주서
 62
     0
100
AcDbTrace
 10
-42.28833097833426
 20
6.301999999999973
 30
0.0
 11
-41.18766431166759
 21
6.301999999999977
 31
0.0
 12
-41.73799764500091
 22
2.999999999999975
 32
0.0
 13
-41.73799764500091
 23
2.999999999999975
 33
0.0
  0
SOLID
  5
11A
330
110
100
AcDbEntity
  8
치수문자_일반주서
 62
     0
100
AcDbTrace
 10
-41.18766431166754
 20
-6.302000000000028
 30
0.0
 11
-42.28833097833421
 21
-6.302000000000032
 31
0.0
 12
-41.73799764500089
 22
-3.00000000000003
 32
0.0
 13
-41.73799764500089
 23
-3.00000000000003
 33
0.0
  0
MTEXT
  5
11B
330
110
100
AcDbEntity
  8
치수문자_일반주서
 62
     0
100
AcDbMText
 10
-46.11299764500095
 20
12.66649999999996
 30
0.0
 40
3.5
 41
0.0
 71
     2
 72
     1
  1
\A1;%%c6
  7
SLDTEXTSTYLE0
 11
-3.552713678800498E-15
 21
1.0
 31
0.0
 73
     1
 44
1.0
  0
POINT
  5
158
330
110
100
AcDbEntity
  8
Defpoints
 62
     0
100
AcDbPoint
 10
-34.10288568297003
 20
3.000000000000003
 30
0.0
  0
POINT
  5
159
330
110
100
AcDbEntity
  8
Defpoints
 62
     0
100
AcDbPoint
 10
-34.10288568297003
 20
-3.000000000000002
 30
0.0
  0
POINT
  5
15A
330
110
100
AcDbEntity
  8
Defpoints
 62
     0
100
AcDbPoint
 10
-41.7379976450009
 20
-3.000000000000031
 30
0.0
  0
ENDBLK
  5
112
330
110
100
AcDbEntity
  8
0
100
AcDbBlockEnd
  0
BLOCK
  5
11E
330
11D
100
AcDbEntity
  8
0
100
AcDbBlockBegin
  2
_D_3
 70
     0
 10
0.0
 20
0.0
 30
0.0
  3
_D_3
  1

  0
LINE
  5
120
330
11D
100
AcDbEntity
  8
치수문자_일반주서
 62
     0
370
    -2
100
AcDbLine
 10
11.39711431702995
 20
0.8125000000000006
 30
0.0
 11
11.39711431702995
 21
11.52397051155407
 31
0.0
  0
LINE
  5
121
330
11D
100
AcDbEntity
  8
치수문자_일반주서
 62
     0
370
    -2
100
AcDbLine
 10
25.39711431702995
 20
0.8125000000000018
 30
0.0
 11
25.39711431702995
 21
11.52397051155407
 31
0.0
  0
LINE
  5
122
330
11D
100
AcDbEntity
  8
치수문자_일반주서
 62
     0
370
    -2
100
AcDbLine
 10
14.69911431702995
 20
11.52397051155407
 30
0.0
 11
22.09511431702995
 21
11.52397051155407
 31
0.0
  0
SOLID
  5
123
330
11D
100
AcDbEntity
  8
치수문자_일반주서
 62
     0
100
AcDbTrace
 10
14.69911431702995
 20
12.0743038448874
 30
0.0
 11
14.69911431702995
 21
10.97363717822074
 31
0.0
 12
11.39711431702995
 22
11.52397051155407
 32
0.0
 13
11.39711431702995
 23
11.52397051155407
 33
0.0
  0
SOLID
  5
124
330
11D
100
AcDbEntity
  8
치수문자_일반주서
 62
     0
100
AcDbTrace
 10
22.09511431702995
 20
10.97363717822074
 30
0.0
 11
22.09511431702995
 21
12.0743038448874
 31
0.0
 12
25.39711431702995
 22
11.52397051155407
 32
0.0
 13
25.39711431702995
 23
11.52397051155407
 33
0.0
  0
MTEXT
  5
125
330
11D
100
AcDbEntity
  8
치수문자_일반주서
 62
     0
100
AcDbMText
 10
18.39711431702995
 20
15.89897051155407
 30
0.0
 40
3.5
 41
0.0
 71
     2
 72
     1
  1
\A1;14
  7
SLDTEXTSTYLE0
 73
     1
 44
1.0
  0
POINT
  5
126
330
11D
100
AcDbEntity
  8
Defpoints
 62
     0
100
AcDbPoint
 10
11.39711431702995
 20
0.7500000000000006
 30
0.0
  0
POINT
  5
127
330
11D
100
AcDbEntity
  8
Defpoints
 62
     0
100
AcDbPoint
 10
25.39711431702995
 20
0.7500000000000018
 30
0.0
  0
POINT
  5
157
330
11D
100
AcDbEntity
  8
Defpoints
 62
     0
100
AcDbPoint
 10
25.39711431702995
 20
11.52397051155407
 30
0.0
  0
ENDBLK
  5
11F
330
11D
100
AcDbEntity
  8
0
100
AcDbBlockEnd
  0
BLOCK
  5
129
330
128
100
AcDbEntity
  8
0
100
AcDbBlockBegin
  2
SW_DOWELSYMBOL_0
 70
     0
 10
0.0
 20
0.0
 30
0.0
  3
SW_DOWELSYMBOL_0
  1

  0
CIRCLE
  5
12B
330
128
100
AcDbEntity
  8
해칭선
 62
     0
100
AcDbCircle
 10
0.0
 20
0.0
 30
0.0
 40
3.0
  0
HATCH
  5
12C
330
128
100
AcDbEntity
  8
0
  6
Continuous
 62
     0
370
    18
100
AcDbHatch
 10
0.0
 20
0.0
 30
0.0
210
0.0
220
0.0
230
1.0
  2
SOLID
 70
     1
 71
     0
 91
        1
 92
        0
 93
        3
 72
     2
 10
0.0
 20
0.0
 40
3.0
 50
0.0
 51
90.0
 73
     1
 72
     1
 10
0.0
 20
3.0
 11
0.0
 21
0.0
 72
     1
 10
0.0
 20
0.0
 11
3.0
 21
0.0
 97
        0
 75
     0
 76
     1
 98
        1
 10
0.0
 20
0.0
  0
HATCH
  5
12D
330
128
100
AcDbEntity
  8
0
  6
Continuous
 62
     0
370
    18
100
AcDbHatch
 10
0.0
 20
0.0
 30
0.0
210
0.0
220
0.0
230
1.0
  2
SOLID
 70
     1
 71
     0
 91
        1
 92
        0
 93
        3
 72
     2
 10
0.0
 20
0.0
 40
3.0
 50
180.0
 51
270.0000000000008
 73
     1
 72
     1
 10
0.0
 20
-3.0
 11
0.0
 21
0.0
 72
     1
 10
0.0
 20
0.0
 11
-3.0
 21
0.0
 97
        0
 75
     0
 76
     1
 98
        1
 10
0.0
 20
0.0
  0
ENDBLK
  5
12A
330
128
100
AcDbEntity
  8
0
100
AcDbBlockEnd
  0
ENDSEC
  0
SECTION
  2
ENTITIES
  0
LINE
  5
99
330
1F
100
AcDbEntity
  8
0
  6
Continuous
 62
     4
370
    25
100
AcDbLine
 10
2.0
 20
2.999999999999998
 30
0.0
 11
-34.10288568297004
 21
2.999999999999996
 31
0.0
  0
LINE
  5
9A
330
1F
100
AcDbEntity
  8
0
  6
Continuous
 62
     4
370
    25
100
AcDbLine
 10
-34.10288568297004
 20
-3.0
 30
0.0
 11
1.999999999999997
 21
-2.999999999999998
 31
0.0
  0
LINE
  5
9B
330
1F
100
AcDbEntity
  8
0
  6
Continuous
 62
     4
370
    25
100
AcDbLine
 10
2.0
 20
-2.999999999999998
 30
0.0
 11
9.89702089664705
 21
-0.8839996281317166
 31
0.0
  0
LINE
  5
9C
330
1F
100
AcDbEntity
  8
0
  6
Continuous
 62
     4
370
    25
100
AcDbLine
 10
9.89702089664705
 20
0.8839996281317173
 30
0.0
 11
2.0
 21
2.999999999999999
 31
0.0
  0
LINE
  5
9D
330
1F
100
AcDbEntity
  8
0
  6
Continuous
 62
     4
370
    25
100
AcDbLine
 10
-34.10288568297004
 20
2.999999999999995
 30
0.0
 11
-34.60288568297005
 21
2.499999999999995
 31
0.0
  0
LINE
  5
9E
330
1F
100
AcDbEntity
  8
0
  6
Continuous
 62
     4
370
    25
100
AcDbLine
 10
-34.60288568297005
 20
-2.5
 30
0.0
 11
-34.10288568297004
 21
-2.999999999999999
 31
0.0
  0
LINE
  5
9F
330
1F
100
AcDbEntity
  8
0
  6
Continuous
 62
     4
370
    25
100
AcDbLine
 10
10.82304986079136
 20
-0.7499999999999996
 30
0.0
 11
11.39711431702995
 21
-0.7499999999999994
 31
0.0
  0
LINE
  5
A0
330
1F
100
AcDbEntity
  8
0
  6
Continuous
 62
     4
370
    25
100
AcDbLine
 10
11.39711431702995
 20
0.7500000000000006
 30
0.0
 11
10.82304986079135
 21
0.7500000000000004
 31
0.0
  0
LINE
  5
A1
330
1F
100
AcDbEntity
  8
0
  6
Continuous
 62
     1
370
    25
100
AcDbLine
 10
23.066738699162
 20
-0.7500000000000009
 30
0.0
 11
23.64677909329561
 21
-0.7500000000000009
 31
0.0
  0
LINE
  5
A2
330
1F
100
AcDbEntity
  8
0
  6
Continuous
 62
     1
370
    25
100
AcDbLine
 10
14.90464156010802
 20
-0.7500000000000009
 30
0.0
 11
15.48468195424164
 21
-0.7500000000000009
 31
0.0
  0
LINE
  5
A3
330
1F
100
AcDbEntity
  8
0
  6
Continuous
 62
     1
370
    25
100
AcDbLine
 10
19.5655526531426
 20
0.7500000000000018
 30
0.0
 11
18.98508345367948
 21
0.7500000000000018
 31
0.0
  0
LINE
  5
A4
330
1F
100
AcDbEntity
  8
0
  6
Continuous
 62
     1
370
    25
100
AcDbLine
 10
21.02495908724425
 20
-0.7500000000000009
 30
0.0
 11
21.60494304215029
 21
-0.7500000000000009
 31
0.0
  0
LINE
  5
A5
330
1F
100
AcDbEntity
  8
0
  6
Continuous
 62
     1
370
    25
100
AcDbLine
 10
12.86286194819028
 20
-0.7500000000000009
 30
0.0
 11
13.44284590309631
 21
-0.7500000000000009
 31
0.0
  0
LINE
  5
A6
330
1F
100
AcDbEntity
  8
0
  6
Continuous
 62
     1
370
    25
100
AcDbLine
 10
17.52549295142886
 20
0.7500000000000018
 30
0.0
 11
16.94530841539046
 21
0.7500000000000018
 31
0.0
  0
LINE
  5
A7
330
1F
100
AcDbEntity
  8
0
  6
Continuous
 62
     1
370
    25
100
AcDbLine
 10
25.39711431702995
 20
0.7500000000000018
 30
0.0
 11
25.10740555444445
 21
0.7500000000000018
 31
0.0
  0
LINE
  5
A8
330
1F
100
AcDbEntity
  8
0
  6
Continuous
 62
     1
370
    25
100
AcDbLine
 10
25.10740555444444
 20
-0.7500000000000009
 30
0.0
 11
25.39711431702995
 21
-0.7500000000000009
 31
0.0
  0
LINE
  5
A9
330
1F
100
AcDbEntity
  8
0
  6
Continuous
 62
     1
370
    25
100
AcDbLine
 10
16.94530841539046
 20
-0.7500000000000009
 30
0.0
 11
17.52549295142887
 21
-0.7500000000000009
 31
0.0
  0
LINE
  5
AA
330
1F
100
AcDbEntity
  8
0
  6
Continuous
 62
     1
370
    25
100
AcDbLine
 10
13.44284590309632
 20
0.7500000000000018
 30
0.0
 11
12.86286194819028
 21
0.7500000000000018
 31
0.0
  0
LINE
  5
AB
330
1F
100
AcDbEntity
  8
0
  6
Continuous
 62
     1
370
    25
100
AcDbLine
 10
21.6049430421503
 20
0.7500000000000018
 30
0.0
 11
21.02495908724426
 21
0.7500000000000018
 31
0.0
  0
LINE
  5
AC
330
1F
100
AcDbEntity
  8
0
  6
Continuous
 62
     1
370
    25
100
AcDbLine
 10
18.98508345367949
 20
-0.7500000000000009
 30
0.0
 11
19.5655526531426
 21
-0.7500000000000009
 31
0.0
  0
LINE
  5
AD
330
1F
100
AcDbEntity
  8
0
  6
Continuous
 62
     1
370
    25
100
AcDbLine
 10
15.48468195424163
 20
0.7500000000000018
 30
0.0
 11
14.90464156010801
 21
0.7500000000000018
 31
0.0
  0
LINE
  5
AE
330
1F
100
AcDbEntity
  8
0
  6
Continuous
 62
     1
370
    25
100
AcDbLine
 10
23.64677909329561
 20
0.7500000000000018
 30
0.0
 11
23.06673869916201
 21
0.7500000000000018
 31
0.0
  0
LINE
  5
AF
330
1F
100
AcDbEntity
  8
0
  6
Continuous
 62
     4
370
    25
100
AcDbLine
 10
2.0
 20
2.999999999999999
 30
0.0
 11
2.0
 21
-2.999999999999999
 31
0.0
  0
LINE
  5
B0
330
1F
100
AcDbEntity
  8
0
  6
Continuous
 62
     4
370
    25
100
AcDbLine
 10
-34.10288568297004
 20
2.999999999999995
 30
0.0
 11
-34.10288568297004
 21
-2.999999999999999
 31
0.0
  0
SPLINE
  5
B1
330
1F
100
AcDbEntity
  8
0
  6
Continuous
 62
     4
370
    25
100
AcDbSpline
210
0.0
220
0.0
230
1.0
 70
     8
 71
     3
 72
     8
 73
     4
 74
     0
 42
0.000000001
 43
0.00000001
 40
0.0
 40
0.0
 40
0.0
 40
0.0
 40
1.0
 40
1.0
 40
1.0
 40
1.0
 10
10.12731228394142
 20
0.4249269966367283
 30
0.0
 10
10.21686545748961
 20
0.3639690459776075
 30
0.0
 10
10.30620389399555
 20
0.3019040838985547
 30
0.0
 10
10.39711431702995
 20
0.2412009244166863
 30
0.0
  0
SPLINE
  5
B2
330
1F
100
AcDbEntity
  8
0
  6
Continuous
 62
     4
370
    25
100
AcDbSpline
210
0.0
220
0.0
230
1.0
 70
     8
 71
     3
 72
    26
 73
    22
 74
     0
 42
0.000000001
 43
0.00000001
 40
0.0
 40
0.0
 40
0.0
 40
0.0
 40
0.0000472073084879
 40
0.0000472073084879
 40
0.0000472073084879
 40
0.0000943130673762
 40
0.0000943130673762
 40
0.0000943130673762
 40
0.0001429101012448
 40
0.0001429101012448
 40
0.0001429101012448
 40
0.0001942571918544
 40
0.0001942571918544
 40
0.0001942571918544
 40
0.0002472644943587
 40
0.0002472644943587
 40
0.0002472644943587
 40
0.0003003528803928
 40
0.0003003528803928
 40
0.0003003528803928
 40
0.0003268479343387
 40
0.0003268479343387
 40
0.0003268479343387
 40
0.0003268479343387
 10
9.89702089664705
 20
0.3402595151219216
 30
0.0
 10
9.89702089664705
 20
0.3547829140788949
 30
0.0
 10
9.899577140019318
 20
0.3690723105371712
 30
0.0
 10
9.90442815969842
 20
0.3819514455085496
 30
0.0
 10
9.909273302520674
 20
0.3948149778154216
 30
0.0
 10
9.916521515130306
 20
0.4066259470642248
 30
0.0
 10
9.925543398266019
 20
0.4165974853852594
 30
0.0
 10
9.934852196886137
 20
0.4268861402887916
 30
0.0
 10
9.94628331925745
 20
0.4354942727890122
 30
0.0
 10
9.958971784409204
 20
0.4419441533183744
 30
0.0
 10
9.972366277641555
 20
0.4487529264888688
 30
0.0
 10
9.987518557775896
 20
0.4533405308194836
 30
0.0
 10
10.00328214262352
 20
0.4554678849677049
 30
0.0
 10
10.0195413559262
 20
0.4576621260112637
 30
0.0
 10
10.03690178666264
 20
0.4572963311409741
 30
0.0
 10
10.05395054488837
 20
0.4544140766189018
 30
0.0
 10
10.07102069298305
 20
0.4515282059363054
 30
0.0
 10
10.08825486175622
 20
0.4460330695241635
 30
0.0
 10
10.10415924974773
 20
0.4383153857606149
 30
0.0
 10
10.11218424299321
 20
0.4344212176790644
 30
0.0
 10
10.11996203076097
 20
0.4299302405526477
 30
0.0
 10
10.12731228394142
 20
0.4249269966367283
 30
0.0
  0
LINE
  5
B3
330
1F
100
AcDbEntity
  8
0
  6
Continuous
 62
     4
370
    25
100
AcDbLine
 10
9.89702089664705
 20
0.340259515121946
 30
0.0
 11
9.89702089664705
 21
-0.2807775822575098
 31
0.0
  0
SPLINE
  5
B4
330
1F
100
AcDbEntity
  8
0
  6
Continuous
 62
     4
370
    25
100
AcDbSpline
210
0.0
220
0.0
230
1.0
 70
     8
 71
     3
 72
    14
 73
    10
 74
     0
 42
0.000000001
 43
0.00000001
 40
0.0
 40
0.0
 40
0.0
 40
0.0
 40
0.0000509532285874
 40
0.0000509532285874
 40
0.0000509532285874
 40
0.0001020475003685
 40
0.0001020475003685
 40
0.0001020475003685
 40
0.0001499328668815
 40
0.0001499328668815
 40
0.0001499328668815
 40
0.0001499328668815
 10
9.964497640456841
 20
-0.3900567448204915
 30
0.0
 10
9.9508047110921
 20
-0.3833575049805773
 30
0.0
 10
9.938384857109263
 20
-0.3742112054088779
 30
0.0
 10
9.928248388849948
 20
-0.3631860486714377
 30
0.0
 10
9.918095820955621
 20
-0.3521433808053758
 30
0.0
 10
9.9099542344692
 20
-0.3388802470582878
 30
0.0
 10
9.904638647072844
 20
-0.3244361831235742
 30
0.0
 10
9.899652166364959
 20
-0.3108864019266344
 30
0.0
 10
9.897020896646978
 20
-0.2959093798549092
 30
0.0
 10
9.897020896646975
 20
-0.2807775822575432
 30
0.0
  0
SPLINE
  5
B5
330
1F
100
AcDbEntity
  8
0
  6
Continuous
 62
     4
370
    25
100
AcDbSpline
210
0.0
220
0.0
230
1.0
 70
     8
 71
     3
 72
     8
 73
     4
 74
     0
 42
0.000000001
 43
0.00000001
 40
0.0
 40
0.0
 40
0.0
 40
0.0
 40
1.0
 40
1.0
 40
1.0
 40
1.0
 10
10.39711431702966
 20
-0.5363000337734082
 30
0.0
 10
10.24689174460759
 20
-0.5087082203752731
 30
0.0
 10
10.10495869749261
 20
-0.4587770517895307
 30
0.0
 10
9.964497640456841
 20
-0.390056744820491
 30
0.0
  0
LINE
  5
B6
330
1F
100
AcDbEntity
  8
0
  6
Continuous
 62
     4
370
    25
100
AcDbLine
 10
10.39711431702995
 20
-0.5363000337740721
 30
0.0
 11
10.39711431702995
 21
-0.7101564011262128
 31
0.0
  0
SPLINE
  5
B7
330
1F
100
AcDbEntity
  8
0
  6
Continuous
 62
     4
370
    25
100
AcDbSpline
210
0.0
220
0.0
230
1.0
 70
     8
 71
     3
 72
     8
 73
     4
 74
     0
 42
0.000000001
 43
0.00000001
 40
0.0
 40
0.0
 40
0.0
 40
0.0
 40
1.0
 40
1.0
 40
1.0
 40
1.0
 10
10.12731228394142
 20
-0.7039909196514806
 30
0.0
 10
10.21686545748961
 20
-0.7127569086164308
 30
0.0
 10
10.30620389399555
 20
-0.7152649555783551
 30
0.0
 10
10.39711431702995
 20
-0.7101564011262155
 30
0.0
  0
SPLINE
  5
B8
330
1F
100
AcDbEntity
  8
0
  6
Continuous
 62
     4
370
    25
100
AcDbSpline
210
0.0
220
0.0
230
1.0
 70
     8
 71
     3
 72
    26
 73
    22
 74
     0
 42
0.000000001
 43
0.00000001
 40
0.0
 40
0.0
 40
0.0
 40
0.0
 40
0.0000472073084879
 40
0.0000472073084879
 40
0.0000472073084879
 40
0.0000943130673762
 40
0.0000943130673762
 40
0.0000943130673762
 40
0.0001429101012448
 40
0.0001429101012448
 40
0.0001429101012448
 40
0.0001942571918544
 40
0.0001942571918544
 40
0.0001942571918544
 40
0.0002472644943587
 40
0.0002472644943587
 40
0.0002472644943587
 40
0.0003003528803928
 40
0.0003003528803928
 40
0.0003003528803928
 40
0.0003268479343387
 40
0.0003268479343387
 40
0.0003268479343387
 40
0.0003268479343387
 10
9.89702089664705
 20
-0.8158914173503101
 30
0.0
 10
9.89702089664705
 20
-0.809834576229134
 30
0.0
 10
9.899577140019318
 20
-0.8026536329268096
 30
0.0
 10
9.90442815969842
 20
-0.7950240895530188
 30
0.0
 10
9.909273302520674
 20
-0.7874037891296176
 30
0.0
 10
9.916521515130306
 20
-0.7791403309534692
 30
0.0
 10
9.925543398266019
 20
-0.7710046749185447
 30
0.0
 10
9.934852196886137
 20
-0.7626102873464081
 30
0.0
 10
9.94628331925745
 20
-0.7541402076618906
 30
0.0
 10
9.958971784409204
 20
-0.7463698931615085
 30
0.0
 10
9.972366277641555
 20
-0.7381672127156217
 30
0.0
 10
9.987518557775896
 20
-0.7305344732333587
 30
0.0
 10
10.00328214262352
 20
-0.7242067908285664
 30
0.0
 10
10.0195413559262
 20
-0.7176801575198576
 30
0.0
 10
10.03690178666264
 20
-0.7123721966493565
 30
0.0
 10
10.05395054488838
 20
-0.7087936347655708
 30
0.0
 10
10.07102069298305
 20
-0.7052105831137523
 30
0.0
 10
10.08825486175623
 20
-0.7032658828793255
 30
0.0
 10
10.10415924974773
 20
-0.7030554912165972
 30
0.0
 10
10.11218424299321
 20
-0.7029493323582244
 30
0.0
 10
10.11996203076097
 20
-0.703271433834099
 30
0.0
 10
10.12731228394142
 20
-0.7039909196514809
 30
0.0
  0
LINE
  5
B9
330
1F
100
AcDbEntity
  8
0
  6
Continuous
 62
     4
370
    25
100
AcDbLine
 10
9.89702089664705
 20
-0.8158914173503689
 30
0.0
 11
9.89702089664705
 21
-0.8839996281317166
 31
0.0
  0
SPLINE
  5
BA
330
1F
100
AcDbEntity
  8
0
  6
Continuous
 62
     4
370
    25
100
AcDbSpline
210
0.0
220
0.0
230
1.0
 70
     8
 71
     3
 72
    14
 73
    10
 74
     0
 42
0.000000001
 43
0.00000001
 40
0.0
 40
0.0
 40
0.0
 40
0.0
 40
0.0000509532285874
 40
0.0000509532285874
 40
0.0000509532285874
 40
0.0001020475003685
 40
0.0001020475003685
 40
0.0001020475003685
 40
0.0001499328668815
 40
0.0001499328668815
 40
0.0001499328668815
 40
0.0001499328668815
 10
9.964497640456841
 20
-0.7730924595998399
 30
0.0
 10
9.9508047110921
 20
-0.7805820549182316
 30
0.0
 10
9.938384857109263
 20
-0.7887502715053729
 30
0.0
 10
9.928248388849948
 20
-0.7967607706906046
 30
0.0
 10
9.918095820955621
 20
-0.8047839928588193
 30
0.0
 10
9.9099542344692
 20
-0.8128712516975409
 30
0.0
 10
9.904638647072844
 20
-0.8201169945919033
 30
0.0
 10
9.899652166364959
 20
-0.8269141280905955
 30
0.0
 10
9.897020896646978
 20
-0.833155234056093
 30
0.0
 10
9.897020896646975
 20
-0.8382238912359014
 30
0.0
  0
SPLINE
  5
BB
330
1F
100
AcDbEntity
  8
0
  6
Continuous
 62
     4
370
    25
100
AcDbSpline
210
0.0
220
0.0
230
1.0
 70
     8
 71
     3
 72
     9
 73
     5
 74
     0
 42
0.000000001
 43
0.00000001
 40
0.0
 40
0.0
 40
0.0
 40
0.0
 40
0.5329371500274136
 40
1.0
 40
1.0
 40
1.0
 40
1.0
 10
10.08520947078495
 20
-0.7052211824491108
 30
0.0
 10
10.06357491791663
 20
-0.7176492235757879
 30
0.0
 10
10.02297997559142
 20
-0.7409691237291881
 30
0.0
 10
9.983116424322525
 20
-0.7628654834326939
 30
0.0
 10
9.964497640456841
 20
-0.7730924595998384
 30
0.0
  0
SPLINE
  5
BC
330
1F
100
AcDbEntity
  8
0
  6
Continuous
 62
     4
370
    25
100
AcDbSpline
210
0.0
220
0.0
230
1.0
 70
     8
 71
     3
 72
     8
 73
     4
 74
     0
 42
0.000000001
 43
0.00000001
 40
0.0
 40
0.0
 40
0.0
 40
0.0
 40
1.0
 40
1.0
 40
1.0
 40
1.0
 10
10.12731228394142
 20
0.7039909196514846
 30
0.0
 10
10.21686545748961
 20
0.7127569086164344
 30
0.0
 10
10.30620389399555
 20
0.715264955578358
 30
0.0
 10
10.39711431702995
 20
0.7101564011262179
 30
0.0
  0
LINE
  5
BD
330
1F
100
AcDbEntity
  8
0
  6
Continuous
 62
     4
370
    25
100
AcDbLine
 10
9.89702089664705
 20
0.8839996281317173
 30
0.0
 11
9.89702089664705
 21
0.8382238912358896
 31
0.0
  0
SPLINE
  5
BE
330
1F
100
AcDbEntity
  8
0
  6
Continuous
 62
     4
370
    25
100
AcDbSpline
210
0.0
220
0.0
230
1.0
 70
     8
 71
     3
 72
    14
 73
    10
 74
     0
 42
0.000000001
 43
0.00000001
 40
0.0
 40
0.0
 40
0.0
 40
0.0
 40
0.0000509532285874
 40
0.0000509532285874
 40
0.0000509532285874
 40
0.0001020475003685
 40
0.0001020475003685
 40
0.0001020475003685
 40
0.0001499328668815
 40
0.0001499328668815
 40
0.0001499328668815
 40
0.0001499328668815
 10
9.964497640456841
 20
0.7730924595998384
 30
0.0
 10
9.9508047110921
 20
0.7805820549182303
 30
0.0
 10
9.938384857109263
 20
0.7887502715053714
 30
0.0
 10
9.928248388849948
 20
0.796760770690603
 30
0.0
 10
9.918095820955621
 20
0.8047839928588177
 30
0.0
 10
9.9099542344692
 20
0.8128712516975395
 30
0.0
 10
9.904638647072844
 20
0.820116994591902
 30
0.0
 10
9.899652166364959
 20
0.8269141280905943
 30
0.0
 10
9.897020896646978
 20
0.8331552340560919
 30
0.0
 10
9.897020896646975
 20
0.8382238912359004
 30
0.0
  0
SPLINE
  5
BF
330
1F
100
AcDbEntity
  8
0
  6
Continuous
 62
     4
370
    25
100
AcDbSpline
210
0.0
220
0.0
230
1.0
 70
     8
 71
     3
 72
     8
 73
     4
 74
     0
 42
0.000000001
 43
0.00000001
 40
0.0
 40
0.0
 40
0.0
 40
0.0
 40
1.0
 40
1.0
 40
1.0
 40
1.0
 10
10.39711431702966
 20
0.5242921645175757
 30
0.0
 10
10.24689174460759
 20
0.6100964282962341
 30
0.0
 10
10.10495869749261
 20
0.6962647445675636
 30
0.0
 10
9.964497640456841
 20
0.773092459599836
 30
0.0
  0
LINE
  5
C0
330
1F
100
AcDbEntity
  8
0
  6
Continuous
 62
     4
370
    25
100
AcDbLine
 10
10.39711431702995
 20
0.5242921645170023
 30
0.0
 11
10.39711431702995
 21
0.241200924416685
 31
0.0
  0
LINE
  5
C1
330
1F
100
AcDbEntity
  8
0
  6
Continuous
 62
     4
370
    25
100
AcDbLine
 10
-34.60288568297005
 20
2.499999999999995
 30
0.0
 11
-34.60288568297005
 21
-2.500000000000001
 31
0.0
  0
SPLINE
  5
C2
330
1F
100
AcDbEntity
  8
0
  6
Continuous
 62
     4
370
    25
100
AcDbSpline
210
0.0
220
0.0
230
1.0
 70
     8
 71
     3
 72
    12
 73
     8
 74
     0
 42
0.000000001
 43
0.00000001
 40
0.0
 40
0.0
 40
0.0
 40
0.0
 40
0.5
 40
0.5
 40
0.75
 40
0.75
 40
1.0
 40
1.0
 40
1.0
 40
1.0
 10
11.39711431702995
 20
0.678052208966419
 30
0.0
 10
11.23453899519408
 20
0.7187987785439561
 30
0.0
 10
11.06150184785821
 20
0.7433345144352232
 30
0.0
 10
10.8139272797537
 20
0.7515108568885034
 30
0.0
 10
10.73305219293601
 20
0.7496765539679043
 30
0.0
 10
10.56556798069738
 20
0.7367553935411745
 30
0.0
 10
10.48072200887635
 20
0.7256307801998599
 30
0.0
 10
10.39711431702996
 20
0.7101564011262175
 30
0.0
  0
SPLINE
  5
C3
330
1F
100
AcDbEntity
  8
0
  6
Continuous
 62
     4
370
    25
100
AcDbSpline
210
0.0
220
0.0
230
1.0
 70
    24
 71
     3
 72
    16
 73
    12
 74
     0
 42
0.000000001
 43
0.00000001
 40
0.0
 40
0.0
 40
0.0
 40
0.0
 40
0.1249999999999999
 40
0.1249999999999999
 40
0.2499999999999997
 40
0.2499999999999997
 40
0.4999999999999998
 40
0.4999999999999998
 40
0.7499999999999999
 40
0.7499999999999999
 40
1.0
 40
1.0
 40
1.0
 40
1.0
 10
11.39711431702995
 20
0.678052208966422
 30
0.0
 10
11.39711431702995
 20
0.6528315359637333
 30
0.0
 10
11.39711431702995
 20
0.6298062903805981
 30
0.0
 10
11.39711431702995
 20
0.5783933807845977
 30
0.0
 10
11.39711431702995
 20
0.5505758490131016
 30
0.0
 10
11.39711431702995
 20
0.4609865543284868
 30
0.0
 10
11.39711431702995
 20
0.3923894252272923
 30
0.0
 10
11.39711431702995
 20
0.2502498888176512
 30
0.0
 10
11.39711431702995
 20
0.1768697197584868
 30
0.0
 10
11.39711431702995
 20
0.0594825278576304
 30
0.0
 10
11.39711431702995
 20
0.0172445587158182
 30
0.0
 10
11.39711431702995
 20
0.0037935942941953
 30
0.0
  0
SPLINE
  5
C4
330
1F
100
AcDbEntity
  8
0
  6
Continuous
 62
     4
370
    25
100
AcDbSpline
210
0.0
220
0.0
230
1.0
 70
     8
 71
     3
 72
    12
 73
     8
 74
     0
 42
0.000000001
 43
0.00000001
 40
0.0
 40
0.0
 40
0.0
 40
0.0
 40
0.5
 40
0.5
 40
0.75
 40
0.75
 40
1.0
 40
1.0
 40
1.0
 40
1.0
 10
11.39711431702995
 20
0.0037935942941954
 30
0.0
 10
11.23453899519408
 20
0.0991315827345507
 30
0.0
 10
11.06150184785821
 20
0.1963273624973439
 30
0.0
 10
10.8139272797537
 20
0.3292752695791263
 30
0.0
 10
10.73305219293601
 20
0.3715721203089294
 30
0.0
 10
10.56556798069738
 20
0.4520441988564665
 30
0.0
 10
10.48072200887635
 20
0.4898855384234302
 30
0.0
 10
10.39711431702996
 20
0.5242921645169983
 30
0.0
  0
SPLINE
  5
C5
330
1F
100
AcDbEntity
  8
0
  6
Continuous
 62
     4
370
    25
100
AcDbSpline
210
0.0
220
0.0
230
1.0
 70
     8
 71
     3
 72
    12
 73
     8
 74
     0
 42
0.000000001
 43
0.00000001
 40
0.0
 40
0.0
 40
0.0
 40
0.0
 40
0.5
 40
0.5
 40
0.75
 40
0.75
 40
1.0
 40
1.0
 40
1.0
 40
1.0
 10
11.39711431702995
 20
-0.3205389241819979
 30
0.0
 10
11.23453899519408
 20
-0.2343456433492294
 30
0.0
 10
11.06150184785821
 20
-0.138328501048793
 30
0.0
 10
10.8139272797537
 20
0.0051648443316472
 30
0.0
 10
10.73305219293601
 20
0.0529410507401965
 30
0.0
 10
10.56556798069738
 20
0.1483549140091391
 30
0.0
 10
10.48072200887635
 20
0.1956404466565815
 30
0.0
 10
10.39711431702996
 20
0.2412009244166791
 30
0.0
  0
SPLINE
  5
C6
330
1F
100
AcDbEntity
  8
0
  6
Continuous
 62
     4
370
    25
100
AcDbSpline
210
0.0
220
0.0
230
1.0
 70
    24
 71
     3
 72
    11
 73
     7
 74
     0
 42
0.000000001
 43
0.00000001
 40
0.0
 40
0.0
 40
0.0
 40
0.0
 40
0.2293234700924621
 40
0.5185471033577022
 40
0.8077707366221467
 40
1.0
 40
1.0
 40
1.0
 40
1.0
 10
11.39711431702995
 20
-0.3205389241819901
 30
0.0
 10
11.39711431702995
 20
-0.3345236095623481
 30
0.0
 10
11.39711431702995
 20
-0.3661458333688759
 30
0.0
 10
11.39711431702995
 20
-0.4790941470149121
 30
0.0
 10
11.39711431702995
 20
-0.6153010323017091
 30
0.0
 10
11.39711431702995
 20
-0.7115579807827163
 30
0.0
 10
11.39711431702995
 20
-0.7499904057001872
 30
0.0
  0
SPLINE
  5
C7
330
1F
100
AcDbEntity
  8
0
  6
Continuous
 62
     4
370
    25
100
AcDbSpline
210
0.0
220
0.0
230
1.0
 70
     8
 71
     3
 72
    12
 73
     8
 74
     0
 42
0.000000001
 43
0.00000001
 40
0.0
 40
0.0
 40
0.0
 40
0.0
 40
0.5
 40
0.5
 40
0.75
 40
0.75
 40
1.0
 40
1.0
 40
1.0
 40
1.0
 10
11.39711431702995
 20
-0.749990405700187
 30
0.0
 10
11.23453899519408
 20
-0.7495081679992521
 30
0.0
 10
11.06150184785821
 20
-0.7301619966061592
 30
0.0
 10
10.8139272797537
 20
-0.6755538768165381
 30
0.0
 10
10.73305219293601
 20
-0.6532624662658887
 30
0.0
 10
10.56556798069738
 20
-0.6003946474635492
 30
0.0
 10
10.48072200887635
 20
-0.569936288356009
 30
0.0
 10
10.39711431702996
 20
-0.5363000337740764
 30
0.0
  0
LINE
  5
C8
330
1F
100
AcDbEntity
  8
0
  6
Continuous
 62
     4
370
    25
100
AcDbLine
 10
11.39711431702995
 20
0.0037935942941954
 30
0.0
 11
11.39711431702995
 21
-0.3205389241819983
 31
0.0
  0
LINE
  5
C9
330
1F
100
AcDbEntity
  8
0
  6
Continuous
 62
     4
370
    25
100
AcDbLine
 10
10.39711431702995
 20
-0.7101564011262128
 30
0.0
 11
10.82304986079136
 21
-0.7431069749215332
 31
0.0
  0
LINE
  5
CA
330
1F
100
AcDbEntity
  8
0
  6
Continuous
 62
     4
370
    25
100
AcDbLine
 10
11.39711431702995
 20
0.749990405700188
 30
0.0
 11
11.39711431702995
 21
0.6780522089664212
 31
0.0
  0
SPLINE
  5
CB
330
1F
100
AcDbEntity
  8
0
  6
Continuous
 62
     1
370
    25
100
AcDbSpline
210
0.0
220
0.0
230
1.0
 70
     8
 71
     3
 72
    15
 73
    11
 74
     0
 42
0.000000001
 43
0.00000001
 40
0.0
 40
0.0
 40
0.0
 40
0.0
 40
0.1252268510077353
 40
0.2631144265429982
 40
0.4009184079185427
 40
0.5388450046125276
 40
0.6770970966913981
 40
0.8156284295834528
 40
0.9537694576047291
 40
0.9999999999999999
 40
0.9999999999999999
 40
0.9999999999999999
 40
0.9999999999999999
 10
11.39711431702982
 20
0.6780522089664525
 30
0.0
 10
11.543568347794
 20
0.6344713714029561
 30
0.0
 10
11.85128325086256
 20
0.542903572711966
 30
0.0
 10
12.3198311409002
 20
0.3112621836670247
 30
0.0
 10
12.80320342630688
 20
0.0357197807848924
 30
0.0
 10
13.28707603166245
 20
-0.2460504154410564
 30
0.0
 10
13.77203806573092
 20
-0.495477573008787
 30
0.0
 10
14.25758850027955
 20
-0.6695986019609551
 30
0.0
 10
14.63512299834272
 20
-0.7542674782186077
 30
0.0
 10
14.85060914408167
 20
-0.7416125905255517
 30
0.0
 10
14.90464156010802
 20
-0.7384394206020135
 30
0.0
  0
SPLINE
  5
CC
330
1F
100
AcDbEntity
  8
0
  6
Continuous
 62
     1
370
    25
100
AcDbSpline
210
0.0
220
0.0
230
1.0
 70
     8
 71
     3
 72
    18
 73
    14
 74
     0
 42
0.000000001
 43
0.00000001
 40
0.0
 40
0.0
 40
0.0
 40
0.0
 40
0.0718724063676587
 40
0.1711537992786616
 40
0.2708295208268967
 40
0.3621412437815457
 40
0.4626847933066109
 40
0.5631673884381779
 40
0.6637393910402462
 40
0.7645487352680801
 40
0.8655616936534682
 40
0.9662900532492074
 40
1.0
 40
1.0
 40
1.0
 40
1.0
 10
18.25644260238402
 20
0.6261958712686363
 30
0.0
 10
18.37162754305939
 20
0.6607926198354098
 30
0.0
 10
18.64592391370587
 20
0.743179800940792
 30
0.0
 10
19.08004895568395
 20
0.7631383380388393
 30
0.0
 10
19.54584213959129
 20
0.69598110059958
 30
0.0
 10
20.0133672842379
 20
0.5389001027656896
 30
0.0
 10
20.4819319308053
 20
0.3123774309679577
 30
0.0
 10
20.96529958647058
 20
0.0354207533254421
 30
0.0
 10
21.44917343382134
 20
-0.2459700432143858
 30
0.0
 10
21.93413513390107
 20
-0.495499226317634
 30
0.0
 10
22.41968565884217
 20
-0.6695926425374232
 30
0.0
 10
22.79722013603749
 20
-0.7542678934275971
 30
0.0
 10
23.01270628286316
 20
-0.7416126737656242
 30
0.0
 10
23.066738699162
 20
-0.738439420602013
 30
0.0
  0
SPLINE
  5
CD
330
1F
100
AcDbEntity
  8
0
  6
Continuous
 62
     1
370
    25
100
AcDbSpline
210
0.0
220
0.0
230
1.0
 70
     8
 71
     3
 72
    18
 73
    14
 74
     0
 42
0.000000001
 43
0.00000001
 40
0.0
 40
0.0
 40
0.0
 40
0.0
 40
0.0698131894198148
 40
0.1863722948459359
 40
0.2875180344450484
 40
0.3889638242604782
 40
0.4903479617176617
 40
0.5914544022083652
 40
0.6924304420417058
 40
0.7934269114561698
 40
0.8945940850409415
 40
0.9960636624227895
 40
1.0
 40
1.0
 40
1.0
 40
1.0
 10
24.35338562731551
 20
-0.6274608089900471
 30
0.0
 10
24.24194253321879
 20
-0.6623003235724508
 30
0.0
 10
23.94443563854536
 20
-0.7553073948436875
 30
0.0
 10
23.48532429781976
 20
-0.7616148123830112
 30
0.0
 10
22.97626670786061
 20
-0.6679657899029804
 30
0.0
 10
22.49082196993844
 20
-0.4831469854205626
 30
0.0
 10
22.00559297544491
 20
-0.2330505438581685
 30
0.0
 10
21.52144407941709
 20
0.0497562077032572
 30
0.0
 10
21.03802728662367
 20
0.3246346194771002
 30
0.0
 10
20.5544805980037
 20
0.5580896538159741
 30
0.0
 10
20.07004702829261
 20
0.7032720702263633
 30
0.0
 10
19.74009302691539
 20
0.7658197464175266
 30
0.0
 10
19.57183613291447
 20
0.7487100724289388
 30
0.0
 10
19.5655526531426
 20
0.7480711191720816
 30
0.0
  0
SPLINE
  5
CE
330
1F
100
AcDbEntity
  8
0
  6
Continuous
 62
     1
370
    25
100
AcDbSpline
210
0.0
220
0.0
230
1.0
 70
     8
 71
     3
 72
    18
 73
    14
 74
     0
 42
0.000000001
 43
0.00000001
 40
0.0
 40
0.0
 40
0.0
 40
0.0
 40
0.0697187514124371
 40
0.1861201844882523
 40
0.2871291017736749
 40
0.3884376633901549
 40
0.4896846560470402
 40
0.5906543273849181
 40
0.6914937744615891
 40
0.7923536234837899
 40
0.8933839457605957
 40
0.9947162627654714
 40
1.0
 40
1.0
 40
1.0
 40
1.0
 10
16.19128848826153
 20
-0.6274608089900482
 30
0.0
 10
16.07984539604464
 20
-0.6623002897299293
 30
0.0
 10
15.78233850638959
 20
-0.7553072706556495
 30
0.0
 10
15.323227111403
 20
-0.76161566505279
 30
0.0
 10
14.81416971830851
 20
-0.6679630984284671
 30
0.0
 10
14.32872426906873
 20
-0.4831570997598005
 30
0.0
 10
13.84349792964365
 20
-0.2330128591393066
 30
0.0
 10
13.35933915604265
 20
0.0496160669915414
 30
0.0
 10
12.87595916253865
 20
0.3251569744367311
 30
0.0
 10
12.39227506645677
 20
0.55613826946856
 30
0.0
 10
11.90835568758913
 20
0.710577636579057
 30
0.0
 10
11.57492175442069
 20
0.7498375940322811
 30
0.0
 10
11.40551011263527
 20
0.7499831901666385
 30
0.0
 10
11.39711431702972
 20
0.7499904057001884
 30
0.0
  0
SPLINE
  5
CF
330
1F
100
AcDbEntity
  8
0
  6
Continuous
 62
     1
370
    25
100
AcDbSpline
210
0.0
220
0.0
230
1.0
 70
     8
 71
     3
 72
    18
 73
    14
 74
     0
 42
0.000000001
 43
0.00000001
 40
0.0
 40
0.0
 40
0.0
 40
0.0
 40
0.0676258403082352
 40
0.1683570546958529
 40
0.2689583523688741
 40
0.3695800038047813
 40
0.4703717258938798
 40
0.5714647294994387
 40
0.6724418544710684
 40
0.7731552786312206
 40
0.8737522319882238
 40
0.9743831032731024
 40
0.9999999999999999
 40
0.9999999999999999
 40
0.9999999999999999
 40
0.9999999999999999
 10
22.33028181169547
 20
-0.626323586277806
 30
0.0
 10
22.22191154033847
 20
-0.6595044886664206
 30
0.0
 10
21.95211970308964
 20
-0.7421095841866524
 30
0.0
 10
21.52144979493244
 20
-0.7638266824445553
 30
0.0
 10
21.03802461094273
 20
-0.6958543638588631
 30
0.0
 10
20.55448559297144
 20
-0.528933810858846
 30
0.0
 10
20.07002967352198
 20
-0.2900349351229036
 30
0.0
 10
19.58455600167494
 20
-0.0113295632787663
 30
0.0
 10
19.09940531611773
 20
0.2687521625499424
 30
0.0
 10
18.61536885383931
 20
0.5133318008897254
 30
0.0
 10
18.13192616550301
 20
0.6821167688660643
 30
0.0
 10
17.76886996011602
 20
0.7529102938248126
 30
0.0
 10
17.56654637032634
 20
0.7456238704964075
 30
0.0
 10
17.52549295142886
 20
0.7441453845251165
 30
0.0
  0
SPLINE
  5
D0
330
1F
100
AcDbEntity
  8
0
  6
Continuous
 62
     1
370
    25
100
AcDbSpline
210
0.0
220
0.0
230
1.0
 70
     8
 71
     3
 72
    14
 73
    10
 74
     0
 42
0.000000001
 43
0.00000001
 40
0.0
 40
0.0
 40
0.0
 40
0.0
 40
0.1172561478400895
 40
0.2919135585652007
 40
0.4663457072688095
 40
0.6408131472725958
 40
0.815575472035861
 40
0.9908601874988135
 40
1.0
 40
1.0
 40
1.0
 40
1.0
 10
14.16818467264149
 20
-0.6263235862778065
 30
0.0
 10
14.05981476957182
 20
-0.6595040442839927
 30
0.0
 10
13.79002384918804
 20
-0.7421080334975751
 30
0.0
 10
13.35934446622676
 20
-0.763836564232642
 30
0.0
 10
12.8759577397921
 20
-0.6958178420362792
 30
0.0
 10
12.39227545001044
 20
-0.5290701635026211
 30
0.0
 10
11.90835557834399
 20
-0.2895244824098426
 30
0.0
 10
11.5749217554186
 20
-0.1005472150048067
 30
0.0
 10
11.40551011268239
 20
-0.0011332193477043
 30
0.0
 10
11.39711431702972
 20
0.0037935942943312
 30
0.0
  0
SPLINE
  5
D1
330
1F
100
AcDbEntity
  8
0
  6
Continuous
 62
     4
370
    25
100
AcDbSpline
210
0.0
220
0.0
230
1.0
 70
    24
 71
     3
 72
    16
 73
    12
 74
     0
 42
0.000000001
 43
0.00000001
 40
0.0
 40
0.0
 40
0.0
 40
0.0
 40
0.1250000000000001
 40
0.1250000000000001
 40
0.2500000000000002
 40
0.2500000000000002
 40
0.5000000000000001
 40
0.5000000000000001
 40
0.75
 40
0.75
 40
1.0
 40
1.0
 40
1.0
 40
1.0
 10
11.39711431702995
 20
0.6780522089664225
 30
0.0
 10
11.39711431702995
 20
0.6528315359637682
 30
0.0
 10
11.39711431702995
 20
0.6298062903806632
 30
0.0
 10
11.39711431702995
 20
0.5783933807847451
 30
0.0
 10
11.39711431702995
 20
0.5505758490132968
 30
0.0
 10
11.39711431702995
 20
0.4609865543288388
 30
0.0
 10
11.39711431702995
 20
0.392389425227774
 30
0.0
 10
11.39711431702995
 20
0.2502498888183466
 30
0.0
 10
11.39711431702995
 20
0.1768697197592602
 30
0.0
 10
11.39711431702995
 20
0.0594825278583148
 30
0.0
 10
11.39711431702995
 20
0.0172445587163214
 30
0.0
 10
11.39711431702995
 20
0.003793594294418
 30
0.0
  0
SPLINE
  5
D2
330
1F
100
AcDbEntity
  8
0
  6
Continuous
 62
     1
370
    25
100
AcDbSpline
210
0.0
220
0.0
230
1.0
 70
     8
 71
     3
 72
    18
 73
    14
 74
     0
 42
0.000000001
 43
0.00000001
 40
0.0
 40
0.0
 40
0.0
 40
0.0
 40
0.038792096226852
 40
0.1392371065907642
 40
0.239771490982978
 40
0.3405431282250869
 40
0.4415183034643883
 40
0.5422089863661017
 40
0.6427032988864888
 40
0.7431502061666435
 40
0.843699962173101
 40
0.9445000297755568
 40
1.0
 40
1.0
 40
1.0
 40
1.0
 10
12.13331083327121
 20
0.6241061747063678
 30
0.0
 10
12.19551725435787
 20
0.6458791667288065
 30
0.0
 10
12.41879578080881
 20
0.7240293237427421
 30
0.0
 10
12.80319657687227
 20
0.7633207719625275
 30
0.0
 10
13.28707819568591
 20
0.7279290533762499
 30
0.0
 10
13.77203627302982
 20
0.5869924198251023
 30
0.0
 10
14.25759350423522
 20
0.3671998330812467
 30
0.0
 10
14.74225058256713
 20
0.0960554605033629
 30
0.0
 10
15.22590343195685
 20
-0.1876499573691547
 30
0.0
 10
15.70927807434241
 20
-0.4468616290714353
 30
0.0
 10
16.19323380995601
 20
-0.639897670224088
 30
0.0
 10
16.60535633735092
 20
-0.7446229106578351
 30
0.0
 10
16.85622753960334
 20
-0.7390729805094071
 30
0.0
 10
16.94530841539046
 20
-0.7371022774803611
 30
0.0
  0
SPLINE
  5
D3
330
1F
100
AcDbEntity
  8
0
  6
Continuous
 62
     1
370
    25
100
AcDbSpline
210
0.0
220
0.0
230
1.0
 70
     8
 71
     3
 72
    18
 73
    14
 74
     0
 42
0.000000001
 43
0.00000001
 40
0.0
 40
0.0
 40
0.0
 40
0.0
 40
0.0387920962268522
 40
0.1392371065907644
 40
0.2397714909829782
 40
0.340543128225087
 40
0.4415183034643883
 40
0.5422089863661019
 40
0.6427032988864888
 40
0.7431502061666436
 40
0.843699962173101
 40
0.9445000297755568
 40
1.0
 40
1.0
 40
1.0
 40
1.0
 10
20.29540797232518
 20
0.6241061747063685
 30
0.0
 10
20.35761439341185
 20
0.6458791667288074
 30
0.0
 10
20.58089291986279
 20
0.7240293237427429
 30
0.0
 10
20.96529371592625
 20
0.7633207719625283
 30
0.0
 10
21.44917533473989
 20
0.727929053376251
 30
0.0
 10
21.93413341208379
 20
0.5869924198251034
 30
0.0
 10
22.4196906432892
 20
0.3671998330812472
 30
0.0
 10
22.9043477216211
 20
0.0960554605033646
 30
0.0
 10
23.38800057101083
 20
-0.1876499573691543
 30
0.0
 10
23.87137521339639
 20
-0.4468616290714341
 30
0.0
 10
24.35533094900999
 20
-0.6398976702240875
 30
0.0
 10
24.7674534764049
 20
-0.7446229106578344
 30
0.0
 10
25.01832467865733
 20
-0.7390729805094061
 30
0.0
 10
25.10740555444445
 20
-0.73710227748036
 30
0.0
  0
SPLINE
  5
D4
330
1F
100
AcDbEntity
  8
0
  6
Continuous
 62
     1
370
    25
100
AcDbSpline
210
0.0
220
0.0
230
1.0
 70
     8
 71
     3
 72
    14
 73
    10
 74
     0
 42
0.000000001
 43
0.00000001
 40
0.0
 40
0.0
 40
0.0
 40
0.0
 40
0.1580816105750096
 40
0.3161701861868043
 40
0.4742688824098356
 40
0.61146116353342
 40
0.749060427430489
 40
0.8865760671660462
 40
1.0
 40
1.0
 40
1.0
 40
1.0
 10
25.13536903202933
 20
-0.6832760216477057
 30
0.0
 10
24.9493175067719
 20
-0.626648038324396
 30
0.0
 10
24.57720625887272
 20
-0.5133895766627935
 30
0.0
 10
24.01906173006238
 20
-0.2167212247290942
 30
0.0
 10
23.48532597108497
 20
0.0957283470249616
 30
0.0
 10
22.97626554649863
 20
0.380002488646549
 30
0.0
 10
22.49082508357884
 20
0.5944039016953768
 30
0.0
 10
22.03349549590628
 20
0.7300272170932792
 30
0.0
 10
21.73834856715429
 20
0.7386838487888319
 30
0.0
 10
21.6049430421503
 20
0.7425966203056981
 30
0.0
  0
SPLINE
  5
D5
330
1F
100
AcDbEntity
  8
0
  6
Continuous
 62
     1
370
    25
100
AcDbSpline
210
0.0
220
0.0
230
1.0
 70
     8
 71
     3
 72
    18
 73
    14
 74
     0
 42
0.000000001
 43
0.00000001
 40
0.0
 40
0.0
 40
0.0
 40
0.0
 40
0.025862562163699
 40
0.1263242397294072
 40
0.1968408268596457
 40
0.2667157469305141
 40
0.3826345026650312
 40
0.4985583657513449
 40
0.6144896501225098
 40
0.7150905895131161
 40
0.8159899629627894
 40
0.9168280161316499
 40
1.0
 40
1.0
 40
1.0
 40
1.0
 10
18.25644260238403
 20
-0.6261958712686341
 30
0.0
 10
18.21496432047847
 20
-0.6413891605754758
 30
0.0
 10
18.01236597025172
 20
-0.7155999332177024
 30
0.0
 10
17.69688128200826
 20
-0.7533333130839145
 30
0.0
 10
17.30985675872232
 20
-0.7488468658848856
 30
0.0
 10
16.89979038804125
 20
-0.6781751919719837
 30
0.0
 10
16.4149739466972
 20
-0.5077869046536165
 30
0.0
 10
15.85700098440054
 20
-0.2182296624802268
 30
0.0
 10
15.32322050556345
 20
0.0960734634660435
 30
0.0
 10
14.81417051075805
 20
0.3799153102564164
 30
0.0
 10
14.32872737970344
 20
0.5944273124827287
 30
0.0
 10
13.87139846956324
 20
0.7300225454361927
 30
0.0
 10
13.57625146318647
 20
0.7386823945330903
 30
0.0
 10
13.44284590309632
 20
0.7425966203056978
 30
0.0
  0
SPLINE
  5
D6
330
1F
100
AcDbEntity
  8
0
  6
Continuous
 62
     1
370
    25
100
AcDbSpline
210
0.0
220
0.0
230
1.0
 70
     8
 71
     3
 72
    18
 73
    14
 74
     0
 42
0.000000001
 43
0.00000001
 40
0.0
 40
0.0
 40
0.0
 40
0.0
 40
0.0186272213049603
 40
0.119208712828845
 40
0.2195940469201278
 40
0.3199320271785513
 40
0.4203727446316661
 40
0.5210635022369151
 40
0.6219171972866001
 40
0.7224750414911548
 40
0.8214844079375153
 40
0.9204666286181624
 40
1.0
 40
1.0
 40
1.0
 40
1.0
 10
14.16818467264149
 20
0.6263235862778084
 30
0.0
 10
14.19811571566154
 20
0.6375368427223547
 30
0.0
 10
14.38966554768585
 20
0.7092983709443961
 30
0.0
 10
14.74224216208881
 20
0.7569091704839795
 30
0.0
 10
15.22590589005389
 20
0.745454838621496
 30
0.0
 10
15.70927665017929
 20
0.6243410129157554
 30
0.0
 10
16.19323705392405
 20
0.4193247468084568
 30
0.0
 10
16.67829171791165
 20
0.1560462241269073
 30
0.0
 10
17.16381264484477
 20
-0.1279587268375903
 30
0.0
 10
17.64618784800858
 20
-0.3944737641306484
 30
0.0
 10
18.12536926097803
 20
-0.6030739339969172
 30
0.0
 10
18.57075073081592
 20
-0.7320243953646519
 30
0.0
 10
18.85738180402622
 20
-0.7389266656023152
 30
0.0
 10
18.98508345367949
 20
-0.7420018077557117
 30
0.0
  0
SPLINE
  5
D7
330
1F
100
AcDbEntity
  8
0
  6
Continuous
 62
     1
370
    25
100
AcDbSpline
210
0.0
220
0.0
230
1.0
 70
     8
 71
     3
 72
    15
 73
    11
 74
     0
 42
0.000000001
 43
0.00000001
 40
0.0
 40
0.0
 40
0.0
 40
0.0
 40
0.0292569204989829
 40
0.1872356470629829
 40
0.3449062781619122
 40
0.5025025327716915
 40
0.6602601519719354
 40
0.8184104977486656
 40
0.9768167618816617
 40
1.0
 40
1.0
 40
1.0
 40
1.0
 10
22.33028181169547
 20
0.6263235862778089
 30
0.0
 10
22.36021286235083
 20
0.6375368475392449
 30
0.0
 10
22.55176274323881
 20
0.7092984065879566
 30
0.0
 10
22.90433771950964
 20
0.7569081726776682
 30
0.0
 10
23.38800867528471
 20
0.7454584006300969
 30
0.0
 10
23.87135278305512
 20
0.6243277607294826
 30
0.0
 10
24.35541274517268
 20
0.4193743031012821
 30
0.0
 10
24.84009469682903
 20
0.15586064706019
 30
0.0
 10
25.18872382852153
 20
-0.0468573879172552
 30
0.0
 10
25.37352149745852
 20
-0.1526065815010975
 30
0.0
 10
25.39711431702995
 20
-0.1661074100472503
 30
0.0
  0
LINE
  5
D8
330
1F
100
AcDbEntity
  8
0
  6
Continuous
 62
     1
370
    25
100
AcDbLine
 10
25.39711431702995
 20
-0.4999999999999988
 30
0.0
 11
25.39711431702995
 21
-0.1667178101613296
 31
0.0
  0
SPLINE
  5
D9
330
1F
100
AcDbEntity
  8
0
  6
Continuous
 62
     1
370
    25
100
AcDbSpline
210
0.0
220
0.0
230
1.0
 70
    24
 71
     3
 72
     8
 73
     4
 74
     0
 42
0.000000001
 43
0.00000001
 40
0.0
 40
0.0
 40
0.0
 40
0.0
 40
1.0
 40
1.0
 40
1.0
 40
1.0
 10
25.39711431702995
 20
-0.4999999999999988
 30
0.0
 10
25.30325346593157
 20
-0.5657220754818665
 30
0.0
 10
25.21398742250283
 20
-0.6282268319968252
 30
0.0
 10
25.13536903202995
 20
-0.6832760216478508
 30
0.0
  0
SPLINE
  5
DA
330
1F
100
AcDbEntity
  8
0
  6
Continuous
 62
     1
370
    25
100
AcDbSpline
210
0.0
220
0.0
230
1.0
 70
     8
 71
     3
 72
    10
 73
     6
 74
     0
 42
0.000000001
 43
0.00000001
 40
0.0
 40
0.0
 40
0.0
 40
0.0
 40
0.3749541986516986
 40
0.7499249176929389
 40
1.0
 40
1.0
 40
1.0
 40
1.0
 10
25.13536903202919
 20
0.3092472768535417
 30
0.0
 10
24.94931988756162
 20
0.4005150547504587
 30
0.0
 10
24.57721340134704
 20
0.5830546317800833
 30
0.0
 10
24.0810177419838
 20
0.7346663878279586
 30
0.0
 10
23.77086739679721
 20
0.7346811102941248
 30
0.0
 10
23.64677909329561
 20
0.7346870006175704
 30
0.0
  0
SPLINE
  5
DB
330
1F
100
AcDbEntity
  8
0
  6
Continuous
 62
     1
370
    25
100
AcDbSpline
210
0.0
220
0.0
230
1.0
 70
     8
 71
     3
 72
    18
 73
    14
 74
     0
 42
0.000000001
 43
0.00000001
 40
0.0
 40
0.0
 40
0.0
 40
0.0
 40
0.0467674992539428
 40
0.1477458908818547
 40
0.2486085352506995
 40
0.3492077777730834
 40
0.4496906815385391
 40
0.550207464778163
 40
0.6207627319718007
 40
0.6906759801360784
 40
0.8066583201278771
 40
0.9226457702729786
 40
0.9999999999999999
 40
0.9999999999999999
 40
0.9999999999999999
 40
0.9999999999999999
 10
20.29540797232518
 20
-0.6241061747063668
 30
0.0
 10
20.22042595391038
 20
-0.6494809031704002
 30
0.0
 10
19.98354595631501
 20
-0.7296436641178489
 30
0.0
 10
19.58454609540958
 20
-0.7644392532316407
 30
0.0
 10
19.09940682731709
 20
-0.7197465160934511
 30
0.0
 10
18.61537266823057
 20
-0.5711861381174291
 30
0.0
 10
18.13190941708287
 20
-0.3457874569374665
 30
0.0
 10
17.69687493387857
 20
-0.0988821951888747
 30
0.0
 10
17.30985835528805
 20
0.1239981975032885
 30
0.0
 10
16.89978873256528
 20
0.3547255058241238
 30
0.0
 10
16.41498076263188
 20
0.5800568558301279
 30
0.0
 10
15.91894169040191
 20
0.7351329241727147
 30
0.0
 10
15.60877628371222
 20
0.7348144280071324
 30
0.0
 10
15.48468195424163
 20
0.7346870006175705
 30
0.0
  0
SPLINE
  5
DC
330
1F
100
AcDbEntity
  8
0
  6
Continuous
 62
     1
370
    25
100
AcDbSpline
210
0.0
220
0.0
230
1.0
 70
     8
 71
     3
 72
    10
 73
     6
 74
     0
 42
0.000000001
 43
0.00000001
 40
0.0
 40
0.0
 40
0.0
 40
0.0
 40
0.3056476084925317
 40
0.9655889011176993
 40
1.0
 40
1.0
 40
1.0
 40
1.0
 10
12.13331083327121
 20
-0.6241061747063666
 30
0.0
 10
12.0583693687287
 20
-0.6495374906447513
 30
0.0
 10
11.82161748719872
 20
-0.7298790203299806
 30
0.0
 10
11.57492011092475
 20
-0.7497251567611004
 30
0.0
 10
11.40551003503208
 20
-0.7499778810489074
 30
0.0
 10
11.39711431702995
 20
-0.7499904056985869
 30
0.0
  0
SPLINE
  5
DD
330
1F
100
AcDbEntity
  8
0
  6
Continuous
 62
     4
370
    25
100
AcDbSpline
210
0.0
220
0.0
230
1.0
 70
    24
 71
     3
 72
    11
 73
     7
 74
     0
 42
0.000000001
 43
0.00000001
 40
0.0
 40
0.0
 40
0.0
 40
0.0
 40
0.2293234700930655
 40
0.5185471033590677
 40
0.8077707366242729
 40
1.0
 40
1.0
 40
1.0
 40
1.0
 10
11.39711431702995
 20
-0.3205389241819899
 30
0.0
 10
11.39711431702995
 20
-0.3345236095623478
 30
0.0
 10
11.39711431702995
 20
-0.3661458333688756
 30
0.0
 10
11.39711431702995
 20
-0.4790941470149116
 30
0.0
 10
11.39711431702995
 20
-0.6153010323012418
 30
0.0
 10
11.39711431702995
 20
-0.7115579807816651
 30
0.0
 10
11.39711431702995
 20
-0.7499904056985869
 30
0.0
  0
SPLINE
  5
DE
330
1F
100
AcDbEntity
  8
0
  6
Continuous
 62
     1
370
    25
100
AcDbSpline
210
0.0
220
0.0
230
1.0
 70
     8
 71
     3
 72
    11
 73
     7
 74
     0
 42
0.000000001
 43
0.00000001
 40
0.0
 40
0.0
 40
0.0
 40
0.0
 40
0.2996082578856061
 40
0.6295076042138004
 40
0.959206949500995
 40
0.9999999999999999
 40
0.9999999999999999
 40
0.9999999999999999
 40
0.9999999999999999
 10
11.39711431702982
 20
-0.3205389241819285
 30
0.0
 10
11.54356774957409
 20
-0.3936977475523021
 30
0.0
 10
11.85128139572142
 20
-0.5474119206929117
 30
0.0
 10
12.31983944277568
 20
-0.6942421093211609
 30
0.0
 10
12.66192246347661
 20
-0.7626458141166684
 30
0.0
 10
12.84293191025384
 20
-0.7462106610345889
 30
0.0
 10
12.86286194819028
 20
-0.7444010691583145
 30
0.0
  0
SPLINE
  5
DF
330
1F
100
AcDbEntity
  8
0
  6
Continuous
 62
     1
370
    25
100
AcDbSpline
210
0.0
220
0.0
230
1.0
 70
     8
 71
     3
 72
    19
 73
    15
 74
     0
 42
0.000000001
 43
0.00000001
 40
0.0
 40
0.0
 40
0.0
 40
0.0
 40
0.000329296678454
 40
0.1006771319844287
 40
0.201187349819131
 40
0.3014027243872979
 40
0.4000748948446821
 40
0.4987200119866294
 40
0.5975190171652973
 40
0.6967104350199933
 40
0.7875784932185368
 40
0.8876335224536037
 40
0.9876278934599502
 40
1.0
 40
1.0
 40
1.0
 40
1.0
 10
16.19128848826153
 20
0.6274608089900523
 30
0.0
 10
16.19181895724559
 20
0.6276718933725434
 30
0.0
 10
16.35400126704526
 20
0.6922075283375994
 30
0.0
 10
16.67830809285735
 20
0.7454044105143844
 30
0.0
 10
17.16380775192445
 20
0.7584596725666369
 30
0.0
 10
17.64619103659718
 20
0.6580709299156616
 30
0.0
 10
18.1253614476635
 20
0.4717463075467664
 30
0.0
 10
18.60223884519414
 20
0.222584607344282
 30
0.0
 10
19.08004821982535
 20
-0.0566532712205236
 30
0.0
 10
19.54584286030562
 20
-0.3198129556765603
 30
0.0
 10
20.01336519364751
 20
-0.5456897947879871
 30
0.0
 10
20.48194048517488
 20
-0.6947459686636098
 30
0.0
 10
20.8240195132019
 20
-0.7626342832132472
 30
0.0
 10
21.00502904044781
 20
-0.7462095173502459
 30
0.0
 10
21.02495908724425
 20
-0.7444010691583149
 30
0.0
  0
SPLINE
  5
E0
330
1F
100
AcDbEntity
  8
0
  6
Continuous
 62
     1
370
    25
100
AcDbSpline
210
0.0
220
0.0
230
1.0
 70
     8
 71
     3
 72
    11
 73
     7
 74
     0
 42
0.000000001
 43
0.00000001
 40
0.0
 40
0.0
 40
0.0
 40
0.0
 40
0.0015252466768451
 40
0.4663194955821073
 40
0.9318658729737003
 40
1.0
 40
1.0
 40
1.0
 40
1.0
 10
24.35338562731551
 20
0.6274608089900522
 30
0.0
 10
24.35391609686356
 20
0.6276718947085593
 30
0.0
 10
24.51609857909709
 20
0.6922079381388874
 30
0.0
 10
24.84008969858904
 20
0.7446569678160985
 30
0.0
 10
25.18872396611095
 20
0.7564145312135876
 30
0.0
 10
25.37352151303564
 20
0.734209193345556
 30
0.0
 10
25.39711431702995
 20
0.7313742737664483
 30
0.0
  0
LINE
  5
E1
330
1F
100
AcDbEntity
  8
0
  6
Continuous
 62
     1
370
    25
100
AcDbLine
 10
25.39711431702995
 20
0.1997949506173566
 30
0.0
 11
25.39711431702995
 21
0.7313742737664483
 31
0.0
  0
SPLINE
  5
E2
330
1F
100
AcDbEntity
  8
0
  6
Continuous
 62
     1
370
    25
100
AcDbSpline
210
0.0
220
0.0
230
1.0
 70
     8
 71
     3
 72
     8
 73
     4
 74
     0
 42
0.000000001
 43
0.00000001
 40
0.0
 40
0.0
 40
0.0
 40
0.0
 40
1.0
 40
1.0
 40
1.0
 40
1.0
 10
25.39711431702995
 20
0.1997949506173559
 30
0.0
 10
25.30325346593157
 20
0.2054337308953761
 30
0.0
 10
25.21398742250283
 20
0.2469303809541936
 30
0.0
 10
25.13536903202995
 20
0.3092472768531481
 30
0.0
  0
LINE
  5
E3
330
1F
100
AcDbEntity
  8
0
  6
Continuous
 62
     1
370
    25
100
AcDbLine
 10
25.39711431702995
 20
0.7313742737664483
 30
0.0
 11
25.39711431702995
 21
0.750000000000003
 31
0.0
  0
LINE
  5
E4
330
1F
100
AcDbEntity
  8
0
  6
Continuous
 62
     1
370
    25
100
AcDbLine
 10
25.13536903202995
 20
-0.6832760216478505
 30
0.0
 11
25.11737298322208
 21
-0.6958769906811083
 31
0.0
  0
ELLIPSE
  5
E5
330
1F
100
AcDbEntity
  8
0
  6
Continuous
 62
     1
370
    25
100
AcDbEllipse
 10
25.15288662405185
 20
0.0000000000000013
 30
0.0
 11
1.041992479244975
 21
-0.4127557545313217
 31
0.0
210
0.0
220
0.0
230
1.0
 40
0.6009688174887268
 41
4.912933762914529
 42
5.176132609328191
  0
LINE
  5
E6
330
1F
100
AcDbEntity
  8
0
  6
Continuous
 62
     1
370
    25
100
AcDbLine
 10
25.39711431702995
 20
-0.7500000000000022
 30
0.0
 11
25.39711431702995
 21
-0.744693308602195
 31
0.0
  0
ELLIPSE
  5
E7
330
1F
100
AcDbEntity
  8
0
  6
Continuous
 62
     1
370
    25
100
AcDbEllipse
 10
26.11118832040101
 20
0.0000000000000004
 30
0.0
 11
1.071111005056586
 21
0.0
 31
0.0
210
0.0
220
0.0
230
1.0
 40
0.7002075382097107
 41
2.71658286174793
 42
2.759364833374625
  0
ELLIPSE
  5
E8
330
1F
100
AcDbEntity
  8
0
  6
Continuous
 62
     1
370
    25
100
AcDbEllipse
 10
25.15288662405185
 20
0.0000000000000004
 30
0.0
 11
1.064326924485588
 21
-0.7291305528055567
 31
0.0
210
0.0
220
0.0
230
1.0
 40
0.1650759015746641
 41
1.453368357947251
 42
1.716567204360914
  0
LINE
  5
E9
330
1F
100
AcDbEntity
  8
0
  6
Continuous
 62
     1
370
    25
100
AcDbLine
 10
25.39711431702995
 20
-0.1661074100472503
 30
0.0
 11
25.39711431702995
 21
0.0890610808553129
 31
0.0
  0
LINE
  5
EA
330
1F
100
AcDbEntity
  8
0
  6
Continuous
 62
     1
370
    25
100
AcDbLine
 10
25.39711431702995
 20
0.0890610808553125
 30
0.0
 11
25.39711431702995
 21
0.1997949506173566
 31
0.0
  0
LINE
  5
EB
330
1F
100
AcDbEntity
  8
0
  6
Continuous
 62
     1
370
    25
100
AcDbLine
 10
25.39711431702995
 20
-0.4999999999999987
 30
0.0
 11
25.39711431702995
 21
-0.744693308602195
 31
0.0
  0
LINE
  5
EC
330
1F
100
AcDbEntity
  8
중심선
100
AcDbLine
 10
-37.60288568297004
 20
-0.0000000000000043
 30
0.0
 11
26.89711431702995
 21
0.0000000000000036
 31
0.0
  0
CIRCLE
  5
ED
330
1F
100
AcDbEntity
  8
해칭선
100
AcDbCircle
 10
0.0000802628005257
 20
-0.0000000000000044
 30
0.0
 40
2.999999999999999
  0
INSERT
  5
EE
330
1F
100
AcDbEntity
  8
0
  6
Continuous
 62
     7
100
AcDbBlockReference
 66
     1
  2
블럭10
 10
-18.44009924894177
 20
-52.04717430164393
 30
0.0
  0
ATTRIB
  5
EF
330
EE
100
AcDbEntity
  8
FORMAT
 62
     2
100
AcDbText
 10
-34.55936028837733
 20
-49.97180738881174
 30
0.0
 40
4.233333333333333
  1
SEME7201514E [ 4 FLUTE ]
 41
0.75
  7
SLDTEXTSTYLE0
 11
-34.55936028837733
 21
-52.08847405547841
 31
0.0
100
AcDbAttribute
  2
AUTOATTR0
 70
     0
 74
     1
  0
SEQEND
  5
F0
330
EE
100
AcDbEntity
  8
0
  6
Continuous
 62
     7
  0
HATCH
  5
F1
330
1F
100
AcDbEntity
  8
중심선
100
AcDbHatch
 10
0.0
 20
0.0
 30
0.0
210
0.0
220
0.0
230
1.0
  2
SOLID
 70
     1
 71
     0
 91
        1
 92
        0
 93
        4
 72
     1
 10
-12.72518994456093
 20
-35.8
 11
-16.17146518839821
 21
-35.8
 72
     1
 10
-16.17146518839821
 20
-35.8
 11
-18.29969504760223
 21
-38.33632558057259
 72
     1
 10
-18.29969504760223
 20
-38.33632558057259
 11
-14.85338671865177
 21
-38.3362861512701
 72
     1
 10
-14.85338671865177
 20
-38.3362861512701
 11
-12.72518994456093
 21
-35.8
 97
        0
 75
     0
 76
     1
 98
        1
 10
0.0
 20
0.0
  0
HATCH
  5
F2
330
1F
100
AcDbEntity
  8
중심선
100
AcDbHatch
 10
0.0
 20
0.0
 30
0.0
210
0.0
220
0.0
230
1.0
  2
SOLID
 70
     1
 71
     0
 91
        1
 92
        0
 93
        4
 72
     1
 10
-7.712425953524976
 20
-35.8
 11
-11.15870119736226
 21
-35.8
 72
     1
 10
-11.15870119736226
 20
-35.8
 11
-15.68983920571965
 21
-41.20000000000002
 72
     1
 10
-15.68983920571965
 20
-41.20000000000002
 11
-12.24356396188236
 21
-41.20000000000002
 72
     1
 10
-12.24356396188236
 20
-41.20000000000002
 11
-7.712425953524976
 21
-35.8
 97
        0
 75
     0
 76
     1
 98
        1
 10
0.0
 20
0.0
  0
HATCH
  5
F3
330
1F
100
AcDbEntity
  8
중심선
100
AcDbHatch
 10
0.0
 20
0.0
 30
0.0
210
0.0
220
0.0
230
1.0
  2
SOLID
 70
     1
 71
     0
 91
        1
 92
        0
 93
        4
 72
     1
 10
-2.699661962489053
 20
-35.8
 11
-6.145937206326169
 21
-35.8
 72
     1
 10
-6.145937206326169
 20
-35.8
 11
-13.19437410821545
 21
-44.20000000000002
 72
     1
 10
-13.19437410821545
 20
-44.20000000000002
 11
-9.748098864378163
 21
-44.20000000000002
 72
     1
 10
-9.748098864378163
 20
-44.20000000000002
 11
-2.699661962489053
 21
-35.8
 97
        0
 75
     0
 76
     1
 98
        1
 10
0.0
 20
0.0
  0
HATCH
  5
F4
330
1F
100
AcDbEntity
  8
중심선
100
AcDbHatch
 10
0.0
 20
0.0
 30
0.0
210
0.0
220
0.0
230
1.0
  2
SOLID
 70
     1
 71
     0
 91
        1
 92
        0
 93
        6
 72
     3
 10
2.100228468523119
 20
-40.00000000005127
 11
3.960054785062284
 21
1.540850780301639E-10
 40
0.3939339440162633
 50
17.09539180608433
 51
320.0019657685086
 73
     0
 72
     1
 10
3.783228124223714
 20
-38.58789400463833
 11
6.088529997924752
 21
-36.6535672945904
 72
     3
 10
2.100228468470272
 20
-40.00000000000015
 11
6.600054785286829
 21
-1.249000902703301E-13
 40
0.6363583540795982
 50
39.9987384933739
 51
368.4976242363725
 73
     1
 72
     1
 10
8.525560960370882
 20
-39.03999999993002
 11
0.780295775306195
 21
-39.03999999993002
 72
     1
 10
0.7802957753061945
 20
-39.03999999993002
 11
0.7802707308602608
 21
-40.95999999992991
 72
     1
 10
0.7802707308602608
 20
-40.95999999992991
 11
5.221650500332298
 21
-40.95999999992988
 97
        0
 75
     0
 76
     1
 98
        1
 10
0.0
 20
0.0
  0
DIMENSION
  5
F5
330
1F
100
AcDbEntity
  8
치수문자_일반주서
100
AcDbDimension
  2
_D
 10
37.19603487842397
 20
0.7500000000000497
 30
0.0
 11
37.19603487842392
 21
11.72900000000005
 31
0.0
 70
   160
  1
%%c<>
 71
     2
 42
1.500000000000012
 52
-270.0
  3
SLDDIMSTYLE0
100
AcDbAlignedDimension
 13
25.39711431702997
 23
-0.7500000000000063
 33
0.0
 14
25.39711431702997
 24
0.7500000000000054
 34
0.0
 50
90.0000000000002
100
AcDbRotatedDimension
  0
DIMENSION
  5
103
330
1F
100
AcDbEntity
  8
치수문자_일반주서
100
AcDbDimension
  2
_D_1
 10
25.39711431702994
 20
20.38913260158165
 30
0.0
 11
-4.602885682970046
 21
20.38913260158165
 31
0.0
 70
   160
  1
<>
 71
     2
 42
60.0
  3
SLDDIMSTYLE1
100
AcDbAlignedDimension
 13
-34.60288568297005
 23
2.499999999999995
 33
0.0
 14
25.39711431702995
 24
0.7500000000000018
 34
0.0
 50
-0.0000000000000068
100
AcDbRotatedDimension
  0
DIMENSION
  5
10E
330
1F
100
AcDbEntity
  8
치수문자_일반주서
100
AcDbDimension
  2
_D_2
 10
-41.73799764500089
 20
-3.00000000000003
 30
0.0
 11
-41.73799764500095
 21
12.66649999999997
 31
0.0
 70
   160
  1
%%c<>
 71
     2
 42
6.000000000000005
 52
-270.0
  3
SLDDIMSTYLE2
100
AcDbAlignedDimension
 13
-34.10288568297003
 23
3.000000000000003
 33
0.0
 14
-34.10288568297003
 24
-3.000000000000002
 34
0.0
 50
90.0000000000002
100
AcDbRotatedDimension
  0
DIMENSION
  5
11C
330
1F
100
AcDbEntity
  8
치수문자_일반주서
100
AcDbDimension
  2
_D_3
 10
25.39711431702995
 20
11.52397051155407
 30
0.0
 11
18.39711431702995
 21
11.52397051155407
 31
0.0
 70
   160
  1
<>
 71
     2
 42
14.0
  3
SLDDIMSTYLE2
100
AcDbAlignedDimension
 13
11.39711431702995
 23
0.7500000000000006
 33
0.0
 14
25.39711431702995
 24
0.7500000000000018
 34
0.0
100
AcDbRotatedDimension
  0
INSERT
  5
12E
330
1F
100
AcDbEntity
  8
해칭선
100
AcDbBlockReference
  2
SW_DOWELSYMBOL_0
 10
0.0000802628005257
 20
-0.0000000000000044
 30
0.0
  0
ENDSEC
  0
SECTION
  2
OBJECTS
  0
DICTIONARY
  5
C
330
0
100
AcDbDictionary
281
     1
  3
ACAD_GROUP
350
D
  3
ACAD_IMAGE_VARS
350
152
  3
ACAD_LAYOUT
350
1A
  3
ACAD_MLINESTYLE
350
17
  3
ACAD_PLOTSETTINGS
350
19
  3
ACAD_PLOTSTYLENAME
350
E
  3
ACAD_SCALELIST
350
47
  3
APPDATA
350
150
  3
DWGPROPS
350
15E
  0
DICTIONARY
  5
D
102
{ACAD_REACTORS
330
C
102
}
330
C
100
AcDbDictionary
281
     1
  0
RASTERVARIABLES
  5
152
102
{ACAD_REACTORS
330
C
102
}
330
C
100
AcDbRasterVariables
 90
        0
 70
     1
 71
     1
 72
     1
  0
DICTIONARY
  5
1A
102
{ACAD_REACTORS
330
C
102
}
330
C
100
AcDbDictionary
281
     1
  3
Layout1
350
1E
  3
Layout2
350
26
  3
Model
350
22
  0
DICTIONARY
  5
17
102
{ACAD_REACTORS
330
C
102
}
330
C
100
AcDbDictionary
281
     1
  3
Standard
350
18
  0
DICTIONARY
  5
19
102
{ACAD_REACTORS
330
C
102
}
330
C
100
AcDbDictionary
281
     1
  0
ACDBDICTIONARYWDFLT
  5
E
102
{ACAD_REACTORS
330
C
102
}
330
C
100
AcDbDictionary
281
     1
  3
Normal
350
F
100
AcDbDictionaryWithDefault
340
F
  0
DICTIONARY
  5
47
102
{ACAD_REACTORS
330
C
102
}
330
C
100
AcDbDictionary
281
     1
  3
A0
350
48
  3
A1
350
49
  3
A2
350
4A
  3
A3
350
4B
  3
A4
350
4C
  3
A5
350
4D
  3
A6
350
4E
  3
A7
350
4F
  3
A8
350
50
  3
A9
350
51
  3
B0
350
52
  3
B1
350
53
  3
B2
350
54
  3
B3
350
55
  3
B4
350
56
  3
B5
350
57
  3
B6
350
58
  3
B7
350
59
  3
B8
350
5A
  3
B9
350
5B
  3
C0
350
5C
  3
C1
350
5D
  3
C2
350
5E
  3
C3
350
5F
  3
C4
350
60
  3
C5
350
61
  3
C6
350
62
  3
C7
350
63
  3
C8
350
64
  3
C9
350
65
  3
D0
350
66
  3
D1
350
67
  3
D2
350
68
  0
DICTIONARY
  5
150
102
{ACAD_REACTORS
330
C
102
}
330
C
100
AcDbDictionary
281
     1
  0
XRECORD
  5
15E
102
{ACAD_REACTORS
330
C
102
}
330
C
100
AcDbXrecord
280
     1
  1
DWGPROPS COOKIE
  2

  3

  4

  6

  7

  8
12014102
  9

300
=
301
=
302
=
303
=
304
=
305
=
306
=
307
=
308
=
309
=
 40
0.0
 41
2458260.192383275
 42
2458268.097390879
  1

 90
        0
  0
LAYOUT
  5
1E
102
{ACAD_REACTORS
330
1A
102
}
330
1A
100
AcDbPlotSettings
  1

  2
none_device
  4

  6

 40
0.0
 41
0.0
 42
0.0
 43
0.0
 44
0.0
 45
0.0
 46
0.0
 47
0.0
 48
0.0
 49
0.0
140
0.0
141
0.0
142
1.0
143
1.0
 70
   688
 72
     1
 73
     0
 74
     5
  7

 75
    16
147
1.0
148
0.0
149
0.0
100
AcDbLayout
  1
Layout1
 70
     1
 71
     1
 10
0.0
 20
0.0
 11
420.0
 21
297.0
 12
0.0
 22
0.0
 32
0.0
 14
1.000000000000000E+20
 24
1.000000000000000E+20
 34
1.000000000000000E+20
 15
-1.000000000000000E+20
 25
-1.000000000000000E+20
 35
-1.000000000000000E+20
146
0.0
 13
0.0
 23
0.0
 33
0.0
 16
1.0
 26
0.0
 36
0.0
 17
0.0
 27
1.0
 37
0.0
 76
     0
330
1B
  0
LAYOUT
  5
26
102
{ACAD_REACTORS
330
1A
102
}
330
1A
100
AcDbPlotSettings
  1

  2
none_device
  4

  6

 40
0.0
 41
0.0
 42
0.0
 43
0.0
 44
0.0
 45
0.0
 46
0.0
 47
0.0
 48
0.0
 49
0.0
140
0.0
141
0.0
142
1.0
143
1.0
 70
   688
 72
     1
 73
     0
 74
     5
  7

 75
    16
147
1.0
148
0.0
149
0.0
100
AcDbLayout
  1
Layout2
 70
     1
 71
     2
 10
0.0
 20
0.0
 11
0.0
 21
0.0
 12
0.0
 22
0.0
 32
0.0
 14
0.0
 24
0.0
 34
0.0
 15
0.0
 25
0.0
 35
0.0
146
0.0
 13
0.0
 23
0.0
 33
0.0
 16
1.0
 26
0.0
 36
0.0
 17
0.0
 27
1.0
 37
0.0
 76
     0
330
23
  0
LAYOUT
  5
22
102
{ACAD_REACTORS
330
1A
102
}
330
1A
100
AcDbPlotSettings
  1

  2
none_device
  4
ANSI_A_(11.00_x_8.50_Inches)
  6

 40
6.35
 41
19.05
 42
6.35000508
 43
19.05000254
 44
279.4
 45
215.9
 46
147.8402572204297
 47
125.3847137330092
 48
0.0
 49
0.0
140
0.0
141
0.0
142
0.1112850254374008
143
1.0
 70
  1696
 72
     0
 73
     0
 74
     0
  7

 75
     0
147
0.0235690232323232
148
0.0
149
0.0
100
AcDbLayout
  1
Model
 70
     1
 71
     0
 10
0.0
 20
0.0
 11
420.0
 21
297.0
 12
0.0
 22
0.0
 32
0.0
 14
-46.11299764500095
 24
-49.97180738881174
 34
0.0
 15
37.74636821175733
 25
24.76413260158165
 35
0.0
146
0.0
 13
0.0
 23
0.0
 33
0.0
 16
1.0
 26
0.0
 36
0.0
 17
0.0
 27
1.0
 37
0.0
 76
     0
330
1F
331
29
  0
MLINESTYLE
  5
18
102
{ACAD_REACTORS
330
17
102
}
330
17
100
AcDbMlineStyle
  2
Standard
 70
     0
  3

 62
   256
 51
90.0
 52
90.0
 71
     2
 49
0.5
 62
   256
  6
BYLAYER
 49
-0.5
 62
   256
  6
BYLAYER
  0
ACDBPLACEHOLDER
  5
F
102
{ACAD_REACTORS
330
E
102
}
330
E
  0
SCALE
  5
48
102
{ACAD_REACTORS
330
47
102
}
330
47
100
AcDbScale
 70
     0
300
1:1
140
1.0
141
1.0
290
     1
  0
SCALE
  5
49
102
{ACAD_REACTORS
330
47
102
}
330
47
100
AcDbScale
 70
     0
300
1:2
140
1.0
141
2.0
290
     0
  0
SCALE
  5
4A
102
{ACAD_REACTORS
330
47
102
}
330
47
100
AcDbScale
 70
     0
300
1:4
140
1.0
141
4.0
290
     0
  0
SCALE
  5
4B
102
{ACAD_REACTORS
330
47
102
}
330
47
100
AcDbScale
 70
     0
300
1:5
140
1.0
141
5.0
290
     0
  0
SCALE
  5
4C
102
{ACAD_REACTORS
330
47
102
}
330
47
100
AcDbScale
 70
     0
300
1:8
140
1.0
141
8.0
290
     0
  0
SCALE
  5
4D
102
{ACAD_REACTORS
330
47
102
}
330
47
100
AcDbScale
 70
     0
300
1:10
140
1.0
141
10.0
290
     0
  0
SCALE
  5
4E
102
{ACAD_REACTORS
330
47
102
}
330
47
100
AcDbScale
 70
     0
300
1:16
140
1.0
141
16.0
290
     0
  0
SCALE
  5
4F
102
{ACAD_REACTORS
330
47
102
}
330
47
100
AcDbScale
 70
     0
300
1:20
140
1.0
141
20.0
290
     0
  0
SCALE
  5
50
102
{ACAD_REACTORS
330
47
102
}
330
47
100
AcDbScale
 70
     0
300
1:30
140
1.0
141
30.0
290
     0
  0
SCALE
  5
51
102
{ACAD_REACTORS
330
47
102
}
330
47
100
AcDbScale
 70
     0
300
1:40
140
1.0
141
40.0
290
     0
  0
SCALE
  5
52
102
{ACAD_REACTORS
330
47
102
}
330
47
100
AcDbScale
 70
     0
300
1:50
140
1.0
141
50.0
290
     0
  0
SCALE
  5
53
102
{ACAD_REACTORS
330
47
102
}
330
47
100
AcDbScale
 70
     0
300
1:100
140
1.0
141
100.0
290
     0
  0
SCALE
  5
54
102
{ACAD_REACTORS
330
47
102
}
330
47
100
AcDbScale
 70
     0
300
2:1
140
2.0
141
1.0
290
     0
  0
SCALE
  5
55
102
{ACAD_REACTORS
330
47
102
}
330
47
100
AcDbScale
 70
     0
300
4:1
140
4.0
141
1.0
290
     0
  0
SCALE
  5
56
102
{ACAD_REACTORS
330
47
102
}
330
47
100
AcDbScale
 70
     0
300
8:1
140
8.0
141
1.0
290
     0
  0
SCALE
  5
57
102
{ACAD_REACTORS
330
47
102
}
330
47
100
AcDbScale
 70
     0
300
10:1
140
10.0
141
1.0
290
     0
  0
SCALE
  5
58
102
{ACAD_REACTORS
330
47
102
}
330
47
100
AcDbScale
 70
     0
300
100:1
140
100.0
141
1.0
290
     0
  0
SCALE
  5
59
102
{ACAD_REACTORS
330
47
102
}
330
47
100
AcDbScale
 70
     0
300
1/128" = 1'-0"
140
0.0078125
141
12.0
290
     0
  0
SCALE
  5
5A
102
{ACAD_REACTORS
330
47
102
}
330
47
100
AcDbScale
 70
     0
300
1/64" = 1'-0"
140
0.015625
141
12.0
290
     0
  0
SCALE
  5
5B
102
{ACAD_REACTORS
330
47
102
}
330
47
100
AcDbScale
 70
     0
300
1/32" = 1'-0"
140
0.03125
141
12.0
290
     0
  0
SCALE
  5
5C
102
{ACAD_REACTORS
330
47
102
}
330
47
100
AcDbScale
 70
     0
300
1/16" = 1'-0"
140
0.0625
141
12.0
290
     0
  0
SCALE
  5
5D
102
{ACAD_REACTORS
330
47
102
}
330
47
100
AcDbScale
 70
     0
300
3/32" = 1'-0"
140
0.09375
141
12.0
290
     0
  0
SCALE
  5
5E
102
{ACAD_REACTORS
330
47
102
}
330
47
100
AcDbScale
 70
     0
300
1/8" = 1'-0"
140
0.125
141
12.0
290
     0
  0
SCALE
  5
5F
102
{ACAD_REACTORS
330
47
102
}
330
47
100
AcDbScale
 70
     0
300
3/16" = 1'-0"
140
0.1875
141
12.0
290
     0
  0
SCALE
  5
60
102
{ACAD_REACTORS
330
47
102
}
330
47
100
AcDbScale
 70
     0
300
1/4" = 1'-0"
140
0.25
141
12.0
290
     0
  0
SCALE
  5
61
102
{ACAD_REACTORS
330
47
102
}
330
47
100
AcDbScale
 70
     0
300
3/8" = 1'-0"
140
0.375
141
12.0
290
     0
  0
SCALE
  5
62
102
{ACAD_REACTORS
330
47
102
}
330
47
100
AcDbScale
 70
     0
300
1/2" = 1'-0"
140
0.5
141
12.0
290
     0
  0
SCALE
  5
63
102
{ACAD_REACTORS
330
47
102
}
330
47
100
AcDbScale
 70
     0
300
3/4" = 1'-0"
140
0.75
141
12.0
290
     0
  0
SCALE
  5
64
102
{ACAD_REACTORS
330
47
102
}
330
47
100
AcDbScale
 70
     0
300
1" = 1'-0"
140
1.0
141
12.0
290
     0
  0
SCALE
  5
65
102
{ACAD_REACTORS
330
47
102
}
330
47
100
AcDbScale
 70
     0
300
1-1/2" = 1'-0"
140
1.5
141
12.0
290
     0
  0
SCALE
  5
66
102
{ACAD_REACTORS
330
47
102
}
330
47
100
AcDbScale
 70
     0
300
3" = 1'-0"
140
3.0
141
12.0
290
     0
  0
SCALE
  5
67
102
{ACAD_REACTORS
330
47
102
}
330
47
100
AcDbScale
 70
     0
300
6" = 1'-0"
140
6.0
141
12.0
290
     0
  0
SCALE
  5
68
102
{ACAD_REACTORS
330
47
102
}
330
47
100
AcDbScale
 70
     0
300
1'-0" = 1'-0"
140
12.0
141
12.0
290
     0
  0
ENDSEC
  0
EOF
