  0
SECTION
  2
HEADER
  9
$ACADVER
  1
AC1015
  9
$ACADMAINTVER
 70
     6
  9
$DWGCODEPAGE
  3
ANSI_949
  9
$INSBASE
 10
0.0
 20
0.0
 30
0.0
  9
$EXTMIN
 10
-53.51596529273791
 20
-49.97180738881174
 30
0.0
  9
$EXTMAX
 10
34.8582648921597
 20
24.76413260158165
 30
0.0
  9
$LIMMIN
 10
0.0
 20
0.0
  9
$LIMMAX
 10
420.0
 20
297.0
  9
$ORTHOMODE
 70
     0
  9
$REGENMODE
 70
     1
  9
$FILLMODE
 70
     1
  9
$QTEXTMODE
 70
     0
  9
$MIRRTEXT
 70
     1
  9
$LTSCALE
 40
1.0
  9
$ATTMODE
 70
     1
  9
$TEXTSIZE
 40
3.5
  9
$TRACEWID
 40
1.0
  9
$TEXTSTYLE
  7
Standard
  9
$CLAYER
  8
0
  9
$CELTYPE
  6
ByLayer
  9
$CECOLOR
 62
   256
  9
$CELTSCALE
 40
1.0
  9
$DISPSILH
 70
     0
  9
$DIMSCALE
 40
1.0
  9
$DIMASZ
 40
3.302
  9
$DIMEXO
 40
1.0
  9
$DIMDLI
 40
3.75
  9
$DIMRND
 40
0.0
  9
$DIMDLE
 40
0.0
  9
$DIMEXE
 40
1.0
  9
$DIMTP
 40
0.0
  9
$DIMTM
 40
0.0
  9
$DIMTXT
 40
3.5
  9
$DIMCEN
 40
2.5
  9
$DIMTSZ
 40
0.0
  9
$DIMTOL
 70
     0
  9
$DIMLIM
 70
     0
  9
$DIMTIH
 70
     1
  9
$DIMTOH
 70
     1
  9
$DIMSE1
 70
     0
  9
$DIMSE2
 70
     0
  9
$DIMTAD
 70
     1
  9
$DIMZIN
 70
     0
  9
$DIMBLK
  1

  9
$DIMASO
 70
     1
  9
$DIMSHO
 70
     1
  9
$DIMPOST
  1

  9
$DIMAPOST
  1

  9
$DIMALT
 70
     0
  9
$DIMALTD
 70
     3
  9
$DIMALTF
 40
0.0393700787401575
  9
$DIMLFAC
 40
1.0
  9
$DIMTOFL
 70
     1
  9
$DIMTVP
 40
0.0
  9
$DIMTIX
 70
     0
  9
$DIMSOXD
 70
     0
  9
$DIMSAH
 70
     0
  9
$DIMBLK1
  1

  9
$DIMBLK2
  1

  9
$DIMSTYLE
  2
ISO-25
  9
$DIMCLRD
 70
     0
  9
$DIMCLRE
 70
     0
  9
$DIMCLRT
 70
     0
  9
$DIMTFAC
 40
1.0
  9
$DIMGAP
 40
1.524
  9
$DIMJUST
 70
     0
  9
$DIMSD1
 70
     0
  9
$DIMSD2
 70
     0
  9
$DIMTOLJ
 70
     0
  9
$DIMTZIN
 70
     0
  9
$DIMALTZ
 70
     0
  9
$DIMALTTZ
 70
     0
  9
$DIMUPT
 70
     0
  9
$DIMDEC
 70
     2
  9
$DIMTDEC
 70
     2
  9
$DIMALTU
 70
     2
  9
$DIMALTTD
 70
     3
  9
$DIMTXSTY
  7
Standard
  9
$DIMAUNIT
 70
     0
  9
$DIMADEC
 70
     2
  9
$DIMALTRND
 40
0.0
  9
$DIMAZIN
 70
     0
  9
$DIMDSEP
 70
    44
  9
$DIMATFIT
 70
     3
  9
$DIMFRAC
 70
     0
  9
$DIMLDRBLK
  1

  9
$DIMLUNIT
 70
     2
  9
$DIMLWD
 70
    -2
  9
$DIMLWE
 70
    -2
  9
$DIMTMOVE
 70
     0
  9
$LUNITS
 70
     2
  9
$LUPREC
 70
     2
  9
$SKETCHINC
 40
1.0
  9
$FILLETRAD
 40
10.0
  9
$AUNITS
 70
     0
  9
$AUPREC
 70
     2
  9
$MENU
  1
.
  9
$ELEVATION
 40
0.0
  9
$PELEVATION
 40
0.0
  9
$THICKNESS
 40
0.0
  9
$LIMCHECK
 70
     0
  9
$CHAMFERA
 40
0.0
  9
$CHAMFERB
 40
0.0
  9
$CHAMFERC
 40
0.0
  9
$CHAMFERD
 40
0.0
  9
$SKPOLY
 70
     0
  9
$TDCREATE
 40
2458260.567005185
  9
$TDUCREATE
 40
2458260.192005185
  9
$TDUPDATE
 40
2458268.469712639
  9
$TDUUPDATE
 40
2458268.094712639
  9
$TDINDWG
 40
0.001073206
  9
$TDUSRTIMER
 40
2458268.093639456
  9
$USRTIMER
 70
     1
  9
$ANGBASE
 50
0.0
  9
$ANGDIR
 70
     0
  9
$PDMODE
 70
     0
  9
$PDSIZE
 40
-1.0
  9
$PLINEWID
 40
0.0
  9
$SPLFRAME
 70
     0
  9
$SPLINETYPE
 70
     6
  9
$SPLINESEGS
 70
     8
  9
$HANDSEED
  5
165
  9
$SURFTAB1
 70
     6
  9
$SURFTAB2
 70
     6
  9
$SURFTYPE
 70
     6
  9
$SURFU
 70
     6
  9
$SURFV
 70
     6
  9
$UCSBASE
  2

  9
$UCSNAME
  2

  9
$UCSORG
 10
0.0
 20
0.0
 30
0.0
  9
$UCSXDIR
 10
1.0
 20
0.0
 30
0.0
  9
$UCSYDIR
 10
0.0
 20
1.0
 30
0.0
  9
$UCSORTHOREF
  2

  9
$UCSORTHOVIEW
 70
     0
  9
$UCSORGTOP
 10
0.0
 20
0.0
 30
0.0
  9
$UCSORGBOTTOM
 10
0.0
 20
0.0
 30
0.0
  9
$UCSORGLEFT
 10
0.0
 20
0.0
 30
0.0
  9
$UCSORGRIGHT
 10
0.0
 20
0.0
 30
0.0
  9
$UCSORGFRONT
 10
0.0
 20
0.0
 30
0.0
  9
$UCSORGBACK
 10
0.0
 20
0.0
 30
0.0
  9
$PUCSBASE
  2

  9
$PUCSNAME
  2

  9
$PUCSORG
 10
0.0
 20
0.0
 30
0.0
  9
$PUCSXDIR
 10
1.0
 20
0.0
 30
0.0
  9
$PUCSYDIR
 10
0.0
 20
1.0
 30
0.0
  9
$PUCSORTHOREF
  2

  9
$PUCSORTHOVIEW
 70
     0
  9
$PUCSORGTOP
 10
0.0
 20
0.0
 30
0.0
  9
$PUCSORGBOTTOM
 10
0.0
 20
0.0
 30
0.0
  9
$PUCSORGLEFT
 10
0.0
 20
0.0
 30
0.0
  9
$PUCSORGRIGHT
 10
0.0
 20
0.0
 30
0.0
  9
$PUCSORGFRONT
 10
0.0
 20
0.0
 30
0.0
  9
$PUCSORGBACK
 10
0.0
 20
0.0
 30
0.0
  9
$USERI1
 70
     0
  9
$USERI2
 70
     0
  9
$USERI3
 70
     0
  9
$USERI4
 70
     0
  9
$USERI5
 70
     0
  9
$USERR1
 40
0.0
  9
$USERR2
 40
0.0
  9
$USERR3
 40
0.0
  9
$USERR4
 40
0.0
  9
$USERR5
 40
0.0
  9
$WORLDVIEW
 70
     1
  9
$SHADEDGE
 70
     3
  9
$SHADEDIF
 70
    70
  9
$TILEMODE
 70
     1
  9
$MAXACTVP
 70
    64
  9
$PINSBASE
 10
0.0
 20
0.0
 30
0.0
  9
$PLIMCHECK
 70
     0
  9
$PEXTMIN
 10
1.000000000000000E+20
 20
1.000000000000000E+20
 30
1.000000000000000E+20
  9
$PEXTMAX
 10
-1.000000000000000E+20
 20
-1.000000000000000E+20
 30
-1.000000000000000E+20
  9
$PLIMMIN
 10
0.0
 20
0.0
  9
$PLIMMAX
 10
0.0
 20
0.0
  9
$UNITMODE
 70
     0
  9
$VISRETAIN
 70
     1
  9
$PLINEGEN
 70
     0
  9
$PSLTSCALE
 70
     1
  9
$TREEDEPTH
 70
  3020
  9
$CMLSTYLE
  2
Standard
  9
$CMLJUST
 70
     0
  9
$CMLSCALE
 40
20.0
  9
$PROXYGRAPHICS
 70
     1
  9
$MEASUREMENT
 70
     1
  9
$CELWEIGHT
370
    -1
  9
$ENDCAPS
280
     0
  9
$JOINSTYLE
280
     0
  9
$LWDISPLAY
290
     1
  9
$INSUNITS
 70
     4
  9
$HYPERLINKBASE
  1

  9
$STYLESHEET
  1

  9
$XEDIT
290
     1
  9
$CEPSNTYPE
380
     0
  9
$PSTYLEMODE
290
     1
  9
$FINGERPRINTGUID
  2
{6F2CDE11-068C-4CA7-90BE-B942758DD81A}
  9
$VERSIONGUID
  2
{FAEB1C32-E019-11D5-929B-00C0DF256EC4}
  9
$EXTNAMES
290
     1
  9
$PSVPSCALE
 40
0.0
  9
$OLESTARTUP
290
     0
  0
ENDSEC
  0
SECTION
  2
CLASSES
  0
CLASS
  1
ACDBDICTIONARYWDFLT
  2
AcDbDictionaryWithDefault
  3
ObjectDBX Classes
 90
        0
280
     0
281
     0
  0
CLASS
  1
VISUALSTYLE
  2
AcDbVisualStyle
  3
ObjectDBX Classes
 90
     4095
280
     0
281
     0
  0
CLASS
  1
MATERIAL
  2
AcDbMaterial
  3
ObjectDBX Classes
 90
     1153
280
     0
281
     0
  0
CLASS
  1
SCALE
  2
AcDbScale
  3
ObjectDBX Classes
 90
     1153
280
     0
281
     0
  0
CLASS
  1
TABLESTYLE
  2
AcDbTableStyle
  3
ObjectDBX Classes
 90
     4095
280
     0
281
     0
  0
CLASS
  1
MLEADERSTYLE
  2
AcDbMLeaderStyle
  3
ACDB_MLEADERSTYLE_CLASS
 90
     4095
280
     0
281
     0
  0
CLASS
  1
SUN
  2
AcDbSun
  3
SCENEOE
 90
     1153
280
     0
281
     0
  0
CLASS
  1
ACDBPLACEHOLDER
  2
AcDbPlaceHolder
  3
ObjectDBX Classes
 90
        0
280
     0
281
     0
  0
CLASS
  1
LAYOUT
  2
AcDbLayout
  3
ObjectDBX Classes
 90
        0
280
     0
281
     0
  0
CLASS
  1
RASTERVARIABLES
  2
AcDbRasterVariables
  3
ISM
 90
        0
280
     0
281
     0
  0
ENDSEC
  0
SECTION
  2
TABLES
  0
TABLE
  2
VPORT
  5
8
330
0
100
AcDbSymbolTable
 70
     1
  0
VPORT
  5
29
330
8
100
AcDbSymbolTableRecord
100
AcDbViewportTableRecord
  2
*Active
 70
     0
 10
0.0
 20
0.0
 11
1.0
 21
1.0
 12
-9.328850200289104
 22
-12.60383739361504
 13
0.0
 23
0.0
 14
10.0
 24
10.0
 15
10.0
 25
10.0
 16
0.0
 26
0.0
 36
1.0
 17
0.0
 27
0.0
 37
0.0
 40
76.23065879020126
 41
1.737726098191214
 42
50.0
 43
0.0
 44
0.0
 50
0.0
 51
0.0
 71
    16
 72
  2000
 73
     1
 74
     3
 75
     0
 76
     0
 77
     0
 78
     0
281
     0
 65
     1
110
0.0
120
0.0
130
0.0
111
1.0
121
0.0
131
0.0
112
0.0
122
1.0
132
0.0
 79
     0
146
0.0
  0
ENDTAB
  0
TABLE
  2
LTYPE
  5
5
330
0
100
AcDbSymbolTable
 70
     6
  0
LTYPE
  5
14
330
5
100
AcDbSymbolTableRecord
100
AcDbLinetypeTableRecord
  2
ByBlock
 70
     0
  3

 72
    65
 73
     0
 40
0.0
  0
LTYPE
  5
15
330
5
100
AcDbSymbolTableRecord
100
AcDbLinetypeTableRecord
  2
ByLayer
 70
     0
  3

 72
    65
 73
     0
 40
0.0
  0
LTYPE
  5
16
330
5
100
AcDbSymbolTableRecord
100
AcDbLinetypeTableRecord
  2
Continuous
 70
     0
  3
Solid line
 72
    65
 73
     0
 40
0.0
  0
LTYPE
  5
6E
330
5
100
AcDbSymbolTableRecord
100
AcDbLinetypeTableRecord
  2
HIDDEN
 70
     0
  3
Hidden __ __ __ __ __ __ __ __ __ __ __ __ __ __
 72
    65
 73
     2
 40
1.905
 49
1.27
 74
     0
 49
-0.635
 74
     0
  0
LTYPE
  5
6F
330
5
100
AcDbSymbolTableRecord
100
AcDbLinetypeTableRecord
  2
PHANTOM
 70
     0
  3
Phantom ______  __  __  ______  __  __  ______
 72
    65
 73
     6
 40
12.7
 49
6.35
 74
     0
 49
-1.27
 74
     0
 49
1.27
 74
     0
 49
-1.27
 74
     0
 49
1.27
 74
     0
 49
-1.27
 74
     0
  0
LTYPE
  5
70
330
5
100
AcDbSymbolTableRecord
100
AcDbLinetypeTableRecord
  2
CENTER
 70
     0
  3
Center ____ _ ____ _ ____ _ ____ _ ____ _ ____
 72
    65
 73
     4
 40
10.16
 49
6.35
 74
     0
 49
-1.27
 74
     0
 49
1.27
 74
     0
 49
-1.27
 74
     0
  0
LTYPE
  5
71
330
5
100
AcDbSymbolTableRecord
100
AcDbLinetypeTableRecord
  2
CENTERX2
 70
     0
  3
Center (2x) ________  __  ________  __  _____
 72
    65
 73
     4
 40
20.32
 49
12.7
 74
     0
 49
-2.54
 74
     0
 49
2.54
 74
     0
 49
-2.54
 74
     0
  0
LTYPE
  5
72
330
5
100
AcDbSymbolTableRecord
100
AcDbLinetypeTableRecord
  2
DOT2
 70
     0
  3
Dot (.5x) ........................................
 72
    65
 73
     2
 40
0.635
 49
0.0
 74
     0
 49
-0.635
 74
     0
  0
ENDTAB
  0
TABLE
  2
LAYER
  5
2
330
0
100
AcDbSymbolTable
 70
    17
  0
LAYER
  5
10
330
2
100
AcDbSymbolTableRecord
100
AcDbLayerTableRecord
  2
0
 70
     0
 62
     7
  6
Continuous
370
    -3
390
F
  0
LAYER
  5
73
330
2
100
AcDbSymbolTableRecord
100
AcDbLayerTableRecord
  2
FORMAT
 70
     0
 62
     2
  6
Continuous
370
    -3
390
F
  0
LAYER
  5
74
330
2
100
AcDbSymbolTableRecord
100
AcDbLayerTableRecord
  2
외형선
 70
     0
 62
   100
  6
Continuous
370
    35
390
F
  0
LAYER
  5
75
330
2
100
AcDbSymbolTableRecord
100
AcDbLayerTableRecord
  2
숨은선
 70
     0
 62
     2
  6
HIDDEN
370
    25
390
F
  0
LAYER
  5
76
330
2
100
AcDbSymbolTableRecord
100
AcDbLayerTableRecord
  2
중심선
 70
     0
 62
     1
  6
CENTERX2
370
    -3
390
F
  0
LAYER
  5
77
330
2
100
AcDbSymbolTableRecord
100
AcDbLayerTableRecord
  2
파단선
 70
     0
 62
     4
  6
Continuous
370
    -3
390
F
  0
LAYER
  5
78
330
2
100
AcDbSymbolTableRecord
100
AcDbLayerTableRecord
  2
해칭선
 70
     0
 62
   100
  6
Continuous
370
    -3
390
F
  0
LAYER
  5
79
330
2
100
AcDbSymbolTableRecord
100
AcDbLayerTableRecord
  2
가는실선
 70
     0
 62
     4
  6
Continuous
370
    -3
390
F
  0
LAYER
  5
7A
330
2
100
AcDbSymbolTableRecord
100
AcDbLayerTableRecord
  2
치수_보조선
 70
     0
 62
     4
  6
Continuous
370
    -3
390
F
  0
LAYER
  5
7B
330
2
100
AcDbSymbolTableRecord
100
AcDbLayerTableRecord
  2
치수문자_일반주서
 70
     0
 62
     7
  6
Continuous
370
    25
390
F
  0
LAYER
  5
7C
330
2
100
AcDbSymbolTableRecord
100
AcDbLayerTableRecord
  2
개별주서
 70
     0
 62
   100
  6
Continuous
370
    35
390
F
  0
LAYER
  5
7D
330
2
100
AcDbSymbolTableRecord
100
AcDbLayerTableRecord
  2
중간선
 70
     0
 62
     2
  6
Continuous
370
    25
390
F
  0
LAYER
  5
7E
330
2
100
AcDbSymbolTableRecord
100
AcDbLayerTableRecord
  2
윤곽선
 70
     0
 62
     3
  6
Continuous
370
    50
390
F
  0
LAYER
  5
7F
330
2
100
AcDbSymbolTableRecord
100
AcDbLayerTableRecord
  2
중심마크
 70
     0
 62
   100
  6
Continuous
370
    35
390
F
  0
LAYER
  5
80
330
2
100
AcDbSymbolTableRecord
100
AcDbLayerTableRecord
  2
가상선
 70
     0
 62
     4
  6
PHANTOM
370
    -3
390
F
  0
LAYER
  5
81
330
2
100
AcDbSymbolTableRecord
100
AcDbLayerTableRecord
  2
특수지정선
 70
     0
 62
     5
  6
CENTERX2
370
    70
390
F
  0
LAYER
  5
157
330
2
100
AcDbSymbolTableRecord
100
AcDbLayerTableRecord
  2
Defpoints
 70
     0
 62
     7
  6
Continuous
290
     0
370
    -3
390
F
  0
ENDTAB
  0
TABLE
  2
STYLE
  5
3
330
0
100
AcDbSymbolTable
 70
     2
  0
STYLE
  5
11
330
3
100
AcDbSymbolTableRecord
100
AcDbTextStyleTableRecord
  2
Standard
 70
     0
 40
0.0
 41
1.0
 50
0.0
 71
     0
 42
3.5
  3
txt
  4

  0
STYLE
  5
97
330
3
100
AcDbSymbolTableRecord
100
AcDbTextStyleTableRecord
  2
SLDTEXTSTYLE0
 70
     0
 40
0.0
 41
0.75
 50
0.0
 71
     0
 42
3.5
  3
TXT
  4

  0
ENDTAB
  0
TABLE
  2
VIEW
  5
6
330
0
100
AcDbSymbolTable
 70
     0
  0
ENDTAB
  0
TABLE
  2
UCS
  5
7
330
0
100
AcDbSymbolTable
 70
     0
  0
ENDTAB
  0
TABLE
  2
APPID
  5
9
330
0
100
AcDbSymbolTable
 70
     1
  0
APPID
  5
12
330
9
100
AcDbSymbolTableRecord
100
AcDbRegAppTableRecord
  2
ACAD
 70
     0
  0
ENDTAB
  0
TABLE
  2
DIMSTYLE
  5
A
330
0
100
AcDbSymbolTable
 70
     4
100
AcDbDimStyleTable
  0
DIMSTYLE
105
27
330
A
100
AcDbSymbolTableRecord
100
AcDbDimStyleTableRecord
  2
ISO-25
 70
     0
 41
2.5
 42
0.625
 43
3.75
 44
1.25
 73
     0
 74
     0
 77
     1
 78
     8
140
2.5
141
2.5
143
0.03937007874016
147
0.625
171
     3
172
     1
178
     0
271
     2
272
     2
274
     3
278
    44
283
     0
284
     8
340
11
  0
DIMSTYLE
105
FA
102
{ACAD_REACTORS
330
F9
102
}
330
A
100
AcDbSymbolTableRecord
100
AcDbDimStyleTableRecord
  2
SLDDIMSTYLE0
 70
     0
 41
3.302
 44
0.0
 45
0.000000001
 73
     0
 74
     0
 77
     1
 78
    12
 79
     3
140
3.5
147
0.875
172
     1
173
     1
178
     0
271
     1
272
     1
276
     2
284
    12
289
     0
340
97
  0
DIMSTYLE
105
108
102
{ACAD_REACTORS
330
107
102
}
330
A
100
AcDbSymbolTableRecord
100
AcDbDimStyleTableRecord
  2
SLDDIMSTYLE1
 70
     0
 41
3.302
 44
0.0
 45
0.000000001
 73
     0
 74
     0
 77
     1
 78
    12
 79
     3
140
3.5
147
0.875
173
     1
178
     0
271
     2
272
     2
276
     2
284
    12
340
97
  0
DIMSTYLE
105
113
102
{ACAD_REACTORS
330
112
330
120
102
}
330
A
100
AcDbSymbolTableRecord
100
AcDbDimStyleTableRecord
  2
SLDDIMSTYLE2
 70
     0
 41
3.302
 44
0.0
 45
0.000000001
 73
     0
 74
     0
 77
     1
 78
    12
 79
     3
140
3.5
147
0.875
172
     1
173
     1
178
     0
271
     2
272
     2
276
     2
284
    12
289
     0
340
97
  0
ENDTAB
  0
TABLE
  2
BLOCK_RECORD
  5
1
330
0
100
AcDbSymbolTable
 70
     7
  0
BLOCK_RECORD
  5
1F
330
1
100
AcDbSymbolTableRecord
100
AcDbBlockTableRecord
  2
*Model_Space
340
22
  0
BLOCK_RECORD
  5
1B
330
1
100
AcDbSymbolTableRecord
100
AcDbBlockTableRecord
  2
*Paper_Space
340
1E
  0
BLOCK_RECORD
  5
23
330
1
100
AcDbSymbolTableRecord
100
AcDbBlockTableRecord
  2
*Paper_Space0
340
26
  0
BLOCK_RECORD
  5
82
330
1
100
AcDbSymbolTableRecord
100
AcDbBlockTableRecord
  2
블럭10
340
0
102
{BLKREFS
331
F2
102
}
  0
BLOCK_RECORD
  5
FB
330
1
100
AcDbSymbolTableRecord
100
AcDbBlockTableRecord
  2
_D
340
0
  0
BLOCK_RECORD
  5
109
330
1
100
AcDbSymbolTableRecord
100
AcDbBlockTableRecord
  2
_D_1
340
0
  0
BLOCK_RECORD
  5
114
330
1
100
AcDbSymbolTableRecord
100
AcDbBlockTableRecord
  2
_D_2
340
0
  0
BLOCK_RECORD
  5
121
330
1
100
AcDbSymbolTableRecord
100
AcDbBlockTableRecord
  2
_D_3
340
0
  0
BLOCK_RECORD
  5
12C
330
1
100
AcDbSymbolTableRecord
100
AcDbBlockTableRecord
  2
SW_DOWELSYMBOL_0
340
0
102
{BLKREFS
331
132
102
}
  0
ENDTAB
  0
ENDSEC
  0
SECTION
  2
BLOCKS
  0
BLOCK
  5
20
330
1F
100
AcDbEntity
  8
0
100
AcDbBlockBegin
  2
*Model_Space
 70
     0
 10
0.0
 20
0.0
 30
0.0
  3
*Model_Space
  1

  0
ENDBLK
  5
21
330
1F
100
AcDbEntity
  8
0
100
AcDbBlockEnd
  0
BLOCK
  5
1C
330
1B
100
AcDbEntity
 67
     1
  8
0
100
AcDbBlockBegin
  2
*Paper_Space
 70
     0
 10
0.0
 20
0.0
 30
0.0
  3
*Paper_Space
  1

  0
ENDBLK
  5
1D
330
1B
100
AcDbEntity
 67
     1
  8
0
100
AcDbBlockEnd
  0
BLOCK
  5
24
330
23
100
AcDbEntity
  8
0
100
AcDbBlockBegin
  2
*Paper_Space0
 70
     0
 10
0.0
 20
0.0
 30
0.0
  3
*Paper_Space0
  1

  0
ENDBLK
  5
25
330
23
100
AcDbEntity
  8
0
100
AcDbBlockEnd
  0
BLOCK
  5
83
330
82
100
AcDbEntity
  8
0
100
AcDbBlockBegin
  2
블럭10
 70
     2
 10
0.0
 20
0.0
 30
0.0
  3
블럭10
  1

  0
ELLIPSE
  5
85
330
82
100
AcDbEntity
  8
중심선
100
AcDbEllipse
 10
20.54032771741204
 20
12.0471743016438
 30
0.0
 11
6.600054785286829
 21
-1.261213355974178E-13
 31
0.0
210
0.0
220
0.0
230
1.0
 40
0.636358354079598
 41
0.9219305317359503
 42
6.513795318482858
  0
ELLIPSE
  5
86
330
82
100
AcDbEntity
  8
중심선
100
AcDbEllipse
 10
20.54032771746488
 20
12.04717430159265
 30
0.0
 11
3.960054785062283
 21
1.540847449632565E-10
 31
0.0
210
0.0
220
0.0
230
1.0
 40
0.3939339440162632
 41
1.131841032648279
 42
5.62031148352944
  0
LINE
  5
87
330
82
100
AcDbEntity
  8
중심선
100
AcDbLine
 10
2.268634060543552
 20
16.24717430164393
 30
0.0
 11
5.714909304380834
 21
16.24717430164393
 31
0.0
  0
LINE
  5
88
330
82
100
AcDbEntity
  8
중심선
100
AcDbLine
 10
5.245725140726316
 20
7.84717430164391
 30
0.0
 11
8.692000384563599
 21
7.84717430164391
 31
0.0
  0
LINE
  5
89
330
82
100
AcDbEntity
  8
중심선
100
AcDbLine
 10
15.74043728645272
 20
16.24717430164393
 30
0.0
 11
8.692000384563599
 21
7.84717430164391
 31
0.0
  0
LINE
  5
8A
330
82
100
AcDbEntity
  8
중심선
100
AcDbLine
 10
0.1404042013395286
 20
13.71084872107135
 30
0.0
 11
3.58671253028996
 21
13.71088815037384
 31
0.0
  0
LINE
  5
8B
330
82
100
AcDbEntity
  8
중심선
100
AcDbLine
 10
2.750260043222114
 20
10.84717430164391
 30
0.0
 11
6.196535287059397
 21
10.84717430164391
 31
0.0
  0
LINE
  5
8C
330
82
100
AcDbEntity
  8
중심선
100
AcDbLine
 10
12.29416204261559
 20
16.24717430164393
 30
0.0
 11
5.245725140726316
 21
7.84717430164391
 31
0.0
  0
LINE
  5
8D
330
82
100
AcDbEntity
  8
중심선
100
AcDbLine
 10
10.72767329541681
 20
16.24717430164393
 30
0.0
 11
6.196535287059397
 21
10.84717430164391
 31
0.0
  0
LINE
  5
8E
330
82
100
AcDbEntity
  8
중심선
100
AcDbLine
 10
7.28139805157953
 20
16.24717430164393
 30
0.0
 11
2.750260043222114
 21
10.84717430164391
 31
0.0
  0
LINE
  5
8F
330
82
100
AcDbEntity
  8
중심선
100
AcDbLine
 10
5.714909304380834
 20
16.24717430164393
 30
0.0
 11
3.58671253028996
 21
13.71088815037384
 31
0.0
  0
LINE
  5
90
330
82
100
AcDbEntity
  8
중심선
100
AcDbLine
 10
2.268634060543552
 20
16.24717430164393
 30
0.0
 11
0.1404042013395286
 21
13.71084872107135
 31
0.0
  0
LINE
  5
91
330
82
100
AcDbEntity
  8
중심선
100
AcDbLine
 10
7.28139805157953
 20
16.24717430164393
 30
0.0
 11
10.72767329541681
 21
16.24717430164393
 31
0.0
  0
LINE
  5
92
330
82
100
AcDbEntity
  8
중심선
100
AcDbLine
 10
12.29416204261559
 20
16.24717430164393
 30
0.0
 11
15.74043728645272
 21
16.24717430164393
 31
0.0
  0
LINE
  5
93
330
82
100
AcDbEntity
  8
중심선
100
AcDbLine
 10
19.22036997980202
 20
11.08717430171403
 30
0.0
 11
23.66174974927406
 21
11.08717430171406
 31
0.0
  0
LINE
  5
94
330
82
100
AcDbEntity
  8
중심선
100
AcDbLine
 10
19.22039502424796
 20
13.00717430171391
 30
0.0
 11
19.22036997980202
 21
11.08717430171403
 31
0.0
  0
LINE
  5
95
330
82
100
AcDbEntity
  8
중심선
100
AcDbLine
 10
19.22039502424796
 20
13.00717430171391
 30
0.0
 11
26.96566020931264
 21
13.00717430171391
 31
0.0
  0
LINE
  5
96
330
82
100
AcDbEntity
  8
중심선
100
AcDbLine
 10
22.22332737316547
 20
13.45928029700563
 30
0.0
 11
24.52862924686651
 21
15.39360700705356
 31
0.0
  0
ATTDEF
  5
98
330
82
100
AcDbEntity
  8
FORMAT
 62
     2
100
AcDbText
 10
-16.11926103943555
 20
2.075366912832191
 30
0.0
 40
4.233333333333333
  1
SEME7201510E [ 4 FLUTE ]
 41
0.75
  7
SLDTEXTSTYLE0
 11
-16.11926103943555
 21
-0.0412997538344756
 31
0.0
100
AcDbAttributeDefinition
  3

  2
AUTOATTR0
 70
     0
 74
     1
  0
ENDBLK
  5
84
330
82
100
AcDbEntity
  8
0
100
AcDbBlockEnd
  0
BLOCK
  5
FC
330
FB
100
AcDbEntity
  8
0
100
AcDbBlockBegin
  2
_D
 70
     0
 10
0.0
 20
0.0
 30
0.0
  3
_D
  1

  0
LINE
  5
FE
330
FB
100
AcDbEntity
  8
치수문자_일반주서
 62
     0
370
    -2
100
AcDbLine
 10
21.45961431702997
 20
-0.7500000000000061
 30
0.0
 11
34.30793155882636
 21
-0.7499999999999591
 31
0.0
  0
LINE
  5
FF
330
FB
100
AcDbEntity
  8
치수문자_일반주서
 62
     0
370
    -2
100
AcDbLine
 10
21.45961431702997
 20
0.7500000000000057
 30
0.0
 11
34.30793155882635
 21
0.7500000000000533
 31
0.0
  0
LINE
  5
100
330
FB
100
AcDbEntity
  8
치수문자_일반주서
 62
     0
370
    -2
100
AcDbLine
 10
34.30793155882636
 20
-0.7499999999999591
 30
0.0
 11
34.30793155882628
 21
16.10400000000005
 31
0.0
  0
LINE
  5
101
330
FB
100
AcDbEntity
  8
치수문자_일반주서
 62
     0
370
    -2
100
AcDbLine
 10
34.30793155882636
 20
-0.7499999999999591
 30
0.0
 11
34.30793155882635
 21
0.7500000000000533
 31
0.0
  0
LINE
  5
102
330
FB
100
AcDbEntity
  8
치수문자_일반주서
 62
     0
370
    -2
100
AcDbLine
 10
34.30793155882638
 20
-4.051999999999959
 30
0.0
 11
34.30793155882639
 21
-7.353999999999958
 31
0.0
  0
LINE
  5
103
330
FB
100
AcDbEntity
  8
치수문자_일반주서
 62
     0
370
    -2
100
AcDbLine
 10
34.30793155882634
 20
4.052000000000053
 30
0.0
 11
34.30793155882633
 21
7.354000000000052
 31
0.0
  0
SOLID
  5
104
330
FB
100
AcDbEntity
  8
치수문자_일반주서
 62
     0
100
AcDbTrace
 10
34.85826489215971
 20
-4.051999999999956
 30
0.0
 11
33.75759822549304
 21
-4.051999999999961
 31
0.0
 12
34.30793155882636
 22
-0.7499999999999591
 32
0.0
 13
34.30793155882636
 23
-0.7499999999999591
 33
0.0
  0
SOLID
  5
105
330
FB
100
AcDbEntity
  8
치수문자_일반주서
 62
     0
100
AcDbTrace
 10
33.75759822549301
 20
4.05200000000005
 30
0.0
 11
34.85826489215967
 21
4.052000000000056
 31
0.0
 12
34.30793155882635
 22
0.7500000000000533
 32
0.0
 13
34.30793155882635
 23
0.7500000000000533
 33
0.0
  0
MTEXT
  5
106
330
FB
100
AcDbEntity
  8
치수문자_일반주서
 62
     0
100
AcDbMText
 10
29.9329315588263
 20
11.72900000000003
 30
0.0
 40
3.5
 41
0.0
 71
     2
 72
     1
  1
\A1;%%c1.5
  7
SLDTEXTSTYLE0
 11
-4.736951571733964E-15
 21
1.0
 31
0.0
 73
     1
 44
1.0
  0
POINT
  5
15F
330
FB
100
AcDbEntity
  8
Defpoints
 62
     0
100
AcDbPoint
 10
21.39711431702997
 20
-0.7500000000000063
 30
0.0
  0
POINT
  5
160
330
FB
100
AcDbEntity
  8
Defpoints
 62
     0
100
AcDbPoint
 10
21.39711431702997
 20
0.7500000000000054
 30
0.0
  0
POINT
  5
161
330
FB
100
AcDbEntity
  8
Defpoints
 62
     0
100
AcDbPoint
 10
34.30793155882636
 20
0.7500000000000537
 30
0.0
  0
ENDBLK
  5
FD
330
FB
100
AcDbEntity
  8
0
100
AcDbBlockEnd
  0
BLOCK
  5
10A
330
109
100
AcDbEntity
  8
0
100
AcDbBlockBegin
  2
_D_1
 70
     0
 10
0.0
 20
0.0
 30
0.0
  3
_D_1
  1

  0
LINE
  5
10C
330
109
100
AcDbEntity
  8
치수문자_일반주서
 62
     0
370
    -2
100
AcDbLine
 10
-38.60288568297005
 20
2.562499999999994
 30
0.0
 11
-38.60288568297004
 21
20.38913260158165
 31
0.0
  0
LINE
  5
10D
330
109
100
AcDbEntity
  8
치수문자_일반주서
 62
     0
370
    -2
100
AcDbLine
 10
21.39711431702996
 20
0.8125000000000024
 30
0.0
 11
21.39711431702997
 21
20.38913260158165
 31
0.0
  0
LINE
  5
10E
330
109
100
AcDbEntity
  8
치수문자_일반주서
 62
     0
370
    -2
100
AcDbLine
 10
-35.30088568297004
 20
20.38913260158165
 30
0.0
 11
18.09511431702997
 21
20.38913260158165
 31
0.0
  0
SOLID
  5
10F
330
109
100
AcDbEntity
  8
치수문자_일반주서
 62
     0
100
AcDbTrace
 10
-35.30088568297004
 20
20.93946593491498
 30
0.0
 11
-35.30088568297004
 21
19.83879926824831
 31
0.0
 12
-38.60288568297004
 22
20.38913260158165
 32
0.0
 13
-38.60288568297004
 23
20.38913260158165
 33
0.0
  0
SOLID
  5
110
330
109
100
AcDbEntity
  8
치수문자_일반주서
 62
     0
100
AcDbTrace
 10
18.09511431702997
 20
19.83879926824831
 30
0.0
 11
18.09511431702997
 21
20.93946593491498
 31
0.0
 12
21.39711431702997
 22
20.38913260158165
 32
0.0
 13
21.39711431702997
 23
20.38913260158165
 33
0.0
  0
MTEXT
  5
111
330
109
100
AcDbEntity
  8
치수문자_일반주서
 62
     0
100
AcDbMText
 10
-8.602885682970049
 20
24.76413260158165
 30
0.0
 40
3.5
 41
0.0
 71
     2
 72
     1
  1
\A1;60
  7
SLDTEXTSTYLE0
 73
     1
 44
1.0
  0
POINT
  5
158
330
109
100
AcDbEntity
  8
Defpoints
 62
     0
100
AcDbPoint
 10
-38.60288568297005
 20
2.499999999999994
 30
0.0
  0
POINT
  5
159
330
109
100
AcDbEntity
  8
Defpoints
 62
     0
100
AcDbPoint
 10
21.39711431702996
 20
0.7500000000000024
 30
0.0
  0
POINT
  5
15A
330
109
100
AcDbEntity
  8
Defpoints
 62
     0
100
AcDbPoint
 10
21.39711431702996
 20
20.38913260158165
 30
0.0
  0
ENDBLK
  5
10B
330
109
100
AcDbEntity
  8
0
100
AcDbBlockEnd
  0
BLOCK
  5
115
330
114
100
AcDbEntity
  8
0
100
AcDbBlockBegin
  2
_D_2
 70
     0
 10
0.0
 20
0.0
 30
0.0
  3
_D_2
  1

  0
LINE
  5
117
330
114
100
AcDbEntity
  8
치수문자_일반주서
 62
     0
370
    -2
100
AcDbLine
 10
-38.16538568297003
 20
3.000000000000003
 30
0.0
 11
-49.14096529273787
 21
2.999999999999963
 31
0.0
  0
LINE
  5
118
330
114
100
AcDbEntity
  8
치수문자_일반주서
 62
     0
370
    -2
100
AcDbLine
 10
-38.16538568297003
 20
-3.000000000000003
 30
0.0
 11
-49.14096529273785
 21
-3.000000000000043
 31
0.0
  0
LINE
  5
119
330
114
100
AcDbEntity
  8
치수문자_일반주서
 62
     0
370
    -2
100
AcDbLine
 10
-49.14096529273787
 20
2.999999999999963
 30
0.0
 11
-49.14096529273792
 21
15.72899999999996
 31
0.0
  0
LINE
  5
11A
330
114
100
AcDbEntity
  8
치수문자_일반주서
 62
     0
370
    -2
100
AcDbLine
 10
-49.14096529273787
 20
2.999999999999963
 30
0.0
 11
-49.14096529273785
 21
-3.000000000000043
 31
0.0
  0
LINE
  5
11B
330
114
100
AcDbEntity
  8
치수문자_일반주서
 62
     0
370
    -2
100
AcDbLine
 10
-49.14096529273788
 20
6.301999999999962
 30
0.0
 11
-49.1409652927379
 21
9.603999999999962
 31
0.0
  0
LINE
  5
11C
330
114
100
AcDbEntity
  8
치수문자_일반주서
 62
     0
370
    -2
100
AcDbLine
 10
-49.14096529273783
 20
-6.302000000000042
 30
0.0
 11
-49.14096529273782
 21
-9.604000000000042
 31
0.0
  0
SOLID
  5
11D
330
114
100
AcDbEntity
  8
치수문자_일반주서
 62
     0
100
AcDbTrace
 10
-49.69129862607122
 20
6.301999999999961
 30
0.0
 11
-48.59063195940455
 21
6.301999999999964
 31
0.0
 12
-49.14096529273787
 22
2.999999999999963
 32
0.0
 13
-49.14096529273787
 23
2.999999999999963
 33
0.0
  0
SOLID
  5
11E
330
114
100
AcDbEntity
  8
치수문자_일반주서
 62
     0
100
AcDbTrace
 10
-48.5906319594045
 20
-6.30200000000004
 30
0.0
 11
-49.69129862607117
 21
-6.302000000000044
 31
0.0
 12
-49.14096529273785
 22
-3.000000000000043
 32
0.0
 13
-49.14096529273785
 23
-3.000000000000043
 33
0.0
  0
MTEXT
  5
11F
330
114
100
AcDbEntity
  8
치수문자_일반주서
 62
     0
100
AcDbMText
 10
-53.5159652927379
 20
12.66649999999995
 30
0.0
 40
3.5
 41
0.0
 71
     2
 72
     1
  1
\A1;%%c6
  7
SLDTEXTSTYLE0
 11
-3.552713678800498E-15
 21
1.0
 31
0.0
 73
     1
 44
1.0
  0
POINT
  5
15C
330
114
100
AcDbEntity
  8
Defpoints
 62
     0
100
AcDbPoint
 10
-38.10288568297003
 20
3.000000000000003
 30
0.0
  0
POINT
  5
15D
330
114
100
AcDbEntity
  8
Defpoints
 62
     0
100
AcDbPoint
 10
-38.10288568297003
 20
-3.000000000000002
 30
0.0
  0
POINT
  5
15E
330
114
100
AcDbEntity
  8
Defpoints
 62
     0
100
AcDbPoint
 10
-49.14096529273785
 20
-3.000000000000044
 30
0.0
  0
ENDBLK
  5
116
330
114
100
AcDbEntity
  8
0
100
AcDbBlockEnd
  0
BLOCK
  5
122
330
121
100
AcDbEntity
  8
0
100
AcDbBlockBegin
  2
_D_3
 70
     0
 10
0.0
 20
0.0
 30
0.0
  3
_D_3
  1

  0
LINE
  5
124
330
121
100
AcDbEntity
  8
치수문자_일반주서
 62
     0
370
    -2
100
AcDbLine
 10
11.39711431702995
 20
0.8125000000000004
 30
0.0
 11
11.39711431702995
 21
11.54279888169175
 31
0.0
  0
LINE
  5
125
330
121
100
AcDbEntity
  8
치수문자_일반주서
 62
     0
370
    -2
100
AcDbLine
 10
21.39711431702996
 20
0.8125000000000024
 30
0.0
 11
21.39711431702996
 21
11.54279888169175
 31
0.0
  0
LINE
  5
126
330
121
100
AcDbEntity
  8
치수문자_일반주서
 62
     0
370
    -2
100
AcDbLine
 10
14.69911431702995
 20
11.54279888169175
 30
0.0
 11
18.09511431702996
 21
11.54279888169175
 31
0.0
  0
SOLID
  5
127
330
121
100
AcDbEntity
  8
치수문자_일반주서
 62
     0
100
AcDbTrace
 10
14.69911431702995
 20
12.09313221502508
 30
0.0
 11
14.69911431702995
 21
10.99246554835842
 31
0.0
 12
11.39711431702995
 22
11.54279888169175
 32
0.0
 13
11.39711431702995
 23
11.54279888169175
 33
0.0
  0
SOLID
  5
128
330
121
100
AcDbEntity
  8
치수문자_일반주서
 62
     0
100
AcDbTrace
 10
18.09511431702996
 20
10.99246554835842
 30
0.0
 11
18.09511431702996
 21
12.09313221502508
 31
0.0
 12
21.39711431702996
 22
11.54279888169175
 32
0.0
 13
21.39711431702996
 23
11.54279888169175
 33
0.0
  0
MTEXT
  5
129
330
121
100
AcDbEntity
  8
치수문자_일반주서
 62
     0
100
AcDbMText
 10
16.39711431702996
 20
15.91779888169175
 30
0.0
 40
3.5
 41
0.0
 71
     2
 72
     1
  1
\A1;10
  7
SLDTEXTSTYLE0
 73
     1
 44
1.0
  0
POINT
  5
12A
330
121
100
AcDbEntity
  8
Defpoints
 62
     0
100
AcDbPoint
 10
11.39711431702995
 20
0.7500000000000004
 30
0.0
  0
POINT
  5
12B
330
121
100
AcDbEntity
  8
Defpoints
 62
     0
100
AcDbPoint
 10
21.39711431702996
 20
0.7500000000000024
 30
0.0
  0
POINT
  5
15B
330
121
100
AcDbEntity
  8
Defpoints
 62
     0
100
AcDbPoint
 10
21.39711431702996
 20
11.54279888169175
 30
0.0
  0
ENDBLK
  5
123
330
121
100
AcDbEntity
  8
0
100
AcDbBlockEnd
  0
BLOCK
  5
12D
330
12C
100
AcDbEntity
  8
0
100
AcDbBlockBegin
  2
SW_DOWELSYMBOL_0
 70
     0
 10
0.0
 20
0.0
 30
0.0
  3
SW_DOWELSYMBOL_0
  1

  0
CIRCLE
  5
12F
330
12C
100
AcDbEntity
  8
해칭선
 62
     0
100
AcDbCircle
 10
0.0
 20
0.0
 30
0.0
 40
3.0
  0
HATCH
  5
130
330
12C
100
AcDbEntity
  8
0
  6
Continuous
 62
     0
370
    18
100
AcDbHatch
 10
0.0
 20
0.0
 30
0.0
210
0.0
220
0.0
230
1.0
  2
SOLID
 70
     1
 71
     0
 91
        1
 92
        0
 93
        3
 72
     2
 10
0.0
 20
0.0
 40
3.0
 50
0.0
 51
90.0
 73
     1
 72
     1
 10
0.0
 20
3.0
 11
0.0
 21
0.0
 72
     1
 10
0.0
 20
0.0
 11
3.0
 21
0.0
 97
        0
 75
     0
 76
     1
 98
        1
 10
0.0
 20
0.0
  0
HATCH
  5
131
330
12C
100
AcDbEntity
  8
0
  6
Continuous
 62
     0
370
    18
100
AcDbHatch
 10
0.0
 20
0.0
 30
0.0
210
0.0
220
0.0
230
1.0
  2
SOLID
 70
     1
 71
     0
 91
        1
 92
        0
 93
        3
 72
     2
 10
0.0
 20
0.0
 40
3.0
 50
180.0
 51
270.0000000000008
 73
     1
 72
     1
 10
0.0
 20
-3.0
 11
0.0
 21
0.0
 72
     1
 10
0.0
 20
0.0
 11
-3.0
 21
0.0
 97
        0
 75
     0
 76
     1
 98
        1
 10
0.0
 20
0.0
  0
ENDBLK
  5
12E
330
12C
100
AcDbEntity
  8
0
100
AcDbBlockEnd
  0
ENDSEC
  0
SECTION
  2
ENTITIES
  0
LINE
  5
99
330
1F
100
AcDbEntity
  8
0
  6
Continuous
 62
     4
370
    25
100
AcDbLine
 10
2.0
 20
2.999999999999998
 30
0.0
 11
-38.10288568297005
 21
2.999999999999996
 31
0.0
  0
LINE
  5
9A
330
1F
100
AcDbEntity
  8
0
  6
Continuous
 62
     4
370
    25
100
AcDbLine
 10
-38.10288568297005
 20
-3.000000000000001
 30
0.0
 11
2.0
 21
-2.999999999999998
 31
0.0
  0
LINE
  5
9B
330
1F
100
AcDbEntity
  8
0
  6
Continuous
 62
     4
370
    25
100
AcDbLine
 10
2.0
 20
-2.999999999999999
 30
0.0
 11
9.89691271962445
 21
-0.8840286140775631
 31
0.0
  0
LINE
  5
9C
330
1F
100
AcDbEntity
  8
0
  6
Continuous
 62
     4
370
    25
100
AcDbLine
 10
9.89691271962445
 20
0.8840286140775637
 30
0.0
 11
2.0
 21
2.999999999999999
 31
0.0
  0
LINE
  5
9D
330
1F
100
AcDbEntity
  8
0
  6
Continuous
 62
     4
370
    25
100
AcDbLine
 10
-38.10288568297005
 20
2.999999999999994
 30
0.0
 11
-38.60288568297005
 21
2.499999999999994
 31
0.0
  0
LINE
  5
9E
330
1F
100
AcDbEntity
  8
0
  6
Continuous
 62
     4
370
    25
100
AcDbLine
 10
-38.60288568297005
 20
-2.5
 30
0.0
 11
-38.10288568297005
 21
-2.999999999999999
 31
0.0
  0
LINE
  5
9F
330
1F
100
AcDbEntity
  8
0
  6
Continuous
 62
     4
370
    25
100
AcDbLine
 10
10.90459655901712
 20
-0.7499999999999996
 30
0.0
 11
11.39711431702995
 21
-0.7499999999999994
 31
0.0
  0
LINE
  5
A0
330
1F
100
AcDbEntity
  8
0
  6
Continuous
 62
     4
370
    25
100
AcDbLine
 10
11.39711431702995
 20
0.7500000000000006
 30
0.0
 11
10.90459655901713
 21
0.7500000000000004
 31
0.0
  0
LINE
  5
A1
330
1F
100
AcDbEntity
  8
0
  6
Continuous
 62
     1
370
    25
100
AcDbLine
 10
19.06657388147881
 20
-0.7500000000000004
 30
0.0
 11
19.64694392132668
 21
-0.7500000000000004
 31
0.0
  0
LINE
  5
A2
330
1F
100
AcDbEntity
  8
0
  6
Continuous
 62
     1
370
    25
100
AcDbLine
 10
11.39711431702995
 20
-0.7500000000000004
 30
0.0
 11
11.4850262672844
 21
-0.7500000000000004
 31
0.0
  0
LINE
  5
A3
330
1F
100
AcDbEntity
  8
0
  6
Continuous
 62
     1
370
    25
100
AcDbLine
 10
15.56532620090693
 20
0.7500000000000013
 30
0.0
 11
14.98523837591468
 21
0.7500000000000013
 31
0.0
  0
LINE
  5
A4
330
1F
100
AcDbEntity
  8
0
  6
Continuous
 62
     1
370
    25
100
AcDbLine
 10
15.33819049820599
 20
0.1285784434121659
 30
0.0
 11
15.38091915742988
 21
0.1067368633887411
 31
0.0
  0
LINE
  5
A5
330
1F
100
AcDbEntity
  8
0
  6
Continuous
 62
     1
370
    25
100
AcDbLine
 10
17.25427878806137
 20
-0.1286009005457761
 30
0.0
 11
17.2138257581038
 21
-0.1075615955189382
 31
0.0
  0
SPLINE
  5
A6
330
1F
100
AcDbEntity
  8
0
  6
Continuous
 62
     1
370
    25
100
AcDbSpline
210
0.0
220
0.0
230
1.0
 70
     8
 71
     3
 72
     9
 73
     5
 74
     0
 42
0.000000001
 43
0.00000001
 40
0.0
 40
0.0
 40
0.0
 40
0.0
 40
0.1663995726981577
 40
1.0
 40
1.0
 40
1.0
 40
1.0
 10
13.21217567550921
 20
-0.1533720831528631
 30
0.0
 10
13.20288626005949
 20
-0.1489019440868311
 30
0.0
 10
13.14706030270219
 20
-0.122038058599933
 30
0.0
 10
13.10190768075804
 20
-0.0927493021696218
 30
0.0
 10
13.0642684358116
 20
-0.0683341822941748
 30
0.0
  0
LINE
  5
A7
330
1F
100
AcDbEntity
  8
0
  6
Continuous
 62
     1
370
    25
100
AcDbLine
 10
21.24526612484132
 20
-0.0794648834425804
 30
0.0
 11
21.22636557486559
 21
-0.0683341822941748
 31
0.0
  0
SPLINE
  5
A8
330
1F
100
AcDbEntity
  8
0
  6
Continuous
 62
     1
370
    25
100
AcDbSpline
210
0.0
220
0.0
230
1.0
 70
     8
 71
     3
 72
     9
 73
     5
 74
     0
 42
0.000000001
 43
0.00000001
 40
0.0
 40
0.0
 40
0.0
 40
0.0
 40
0.5609987602500587
 40
1.0
 40
1.0
 40
1.0
 40
1.0
 10
21.39711431702995
 20
-0.1669836202489046
 30
0.0
 10
21.36898464132657
 20
-0.1512313523862533
 30
0.0
 10
21.31884250609112
 20
-0.123152381488653
 30
0.0
 10
21.26771233384569
 20
-0.0927927842629659
 30
0.0
 10
21.24526612484132
 20
-0.0794648834425804
 30
0.0
  0
LINE
  5
A9
330
1F
100
AcDbEntity
  8
0
  6
Continuous
 62
     1
370
    25
100
AcDbLine
 10
19.31951978892117
 20
-0.1420946492864191
 30
0.0
 11
19.25121233757603
 21
-0.106736863388736
 31
0.0
  0
LINE
  5
AA
330
1F
100
AcDbEntity
  8
0
  6
Continuous
 62
     1
370
    25
100
AcDbLine
 10
17.39052513800102
 20
0.1215784468831329
 30
0.0
 11
17.41830573690212
 21
0.1075615955189396
 31
0.0
  0
LINE
  5
AB
330
1F
100
AcDbEntity
  8
0
  6
Continuous
 62
     1
370
    25
100
AcDbLine
 10
13.2034014972957
 20
0.1812414838518532
 30
0.0
 11
13.23501717797597
 21
0.1666553510930548
 31
0.0
  0
SPLINE
  5
AC
330
1F
100
AcDbEntity
  8
0
  6
Continuous
 62
     1
370
    25
100
AcDbSpline
210
0.0
220
0.0
230
1.0
 70
     8
 71
     3
 72
     9
 73
     5
 74
     0
 42
0.000000001
 43
0.00000001
 40
0.0
 40
0.0
 40
0.0
 40
0.0
 40
0.4982218604203234
 40
1.0
 40
1.0
 40
1.0
 40
1.0
 10
13.23501717797855
 20
0.1666553510917207
 30
0.0
 10
13.26318914748228
 20
0.1509462188071116
 30
0.0
 10
13.31973417639763
 20
0.1194158233496418
 30
0.0
 10
13.37702076319686
 20
0.0854017171969413
 30
0.0
 10
13.40576592014384
 20
0.0683341822921736
 30
0.0
  0
LINE
  5
AD
330
1F
100
AcDbEntity
  8
0
  6
Continuous
 62
     1
370
    25
100
AcDbLine
 10
17.02694411579617
 20
-0.7500000000000004
 30
0.0
 11
17.6054085746098
 21
-0.7500000000000004
 31
0.0
  0
LINE
  5
AE
330
1F
100
AcDbEntity
  8
0
  6
Continuous
 62
     1
370
    25
100
AcDbLine
 10
13.52437434246819
 20
0.7500000000000013
 30
0.0
 11
12.94385175694428
 21
0.7500000000000013
 31
0.0
  0
LINE
  5
AF
330
1F
100
AcDbEntity
  8
0
  6
Continuous
 62
     1
370
    25
100
AcDbLine
 10
21.39711431702996
 20
0.7500000000000013
 30
0.0
 11
21.10611655200013
 21
0.7500000000000013
 31
0.0
  0
LINE
  5
B0
330
1F
100
AcDbEntity
  8
0
  6
Continuous
 62
     1
370
    25
100
AcDbLine
 10
21.10611655200014
 20
-0.7500000000000004
 30
0.0
 11
21.39711431702996
 21
-0.7500000000000004
 31
0.0
  0
LINE
  5
B1
330
1F
100
AcDbEntity
  8
0
  6
Continuous
 62
     1
370
    25
100
AcDbLine
 10
12.94385175694427
 20
-0.7500000000000004
 30
0.0
 11
13.5243743424682
 21
-0.7500000000000004
 31
0.0
  0
LINE
  5
B2
330
1F
100
AcDbEntity
  8
0
  6
Continuous
 62
     1
370
    25
100
AcDbLine
 10
17.6054085746098
 20
0.7500000000000013
 30
0.0
 11
17.02694411579618
 21
0.7500000000000013
 31
0.0
  0
LINE
  5
B3
330
1F
100
AcDbEntity
  8
0
  6
Continuous
 62
     1
370
    25
100
AcDbLine
 10
14.98523837591469
 20
-0.7500000000000004
 30
0.0
 11
15.56532620090693
 21
-0.7500000000000004
 31
0.0
  0
LINE
  5
B4
330
1F
100
AcDbEntity
  8
0
  6
Continuous
 62
     1
370
    25
100
AcDbLine
 10
11.48502626728442
 20
0.7500000000000013
 30
0.0
 11
11.39711431702995
 21
0.7500000000000013
 31
0.0
  0
LINE
  5
B5
330
1F
100
AcDbEntity
  8
0
  6
Continuous
 62
     1
370
    25
100
AcDbLine
 10
19.64694392132668
 20
0.7500000000000013
 30
0.0
 11
19.06657388147883
 21
0.7500000000000013
 31
0.0
  0
LINE
  5
B6
330
1F
100
AcDbEntity
  8
0
  6
Continuous
 62
     4
370
    25
100
AcDbLine
 10
2.0
 20
3.0
 30
0.0
 11
2.0
 21
-3.0
 31
0.0
  0
LINE
  5
B7
330
1F
100
AcDbEntity
  8
0
  6
Continuous
 62
     4
370
    25
100
AcDbLine
 10
-38.10288568297005
 20
2.999999999999994
 30
0.0
 11
-38.10288568297005
 21
-2.999999999999999
 31
0.0
  0
SPLINE
  5
B8
330
1F
100
AcDbEntity
  8
0
  6
Continuous
 62
     4
370
    25
100
AcDbSpline
210
0.0
220
0.0
230
1.0
 70
     8
 71
     3
 72
    10
 73
     6
 74
     0
 42
0.000000001
 43
0.00000001
 40
0.0
 40
0.0
 40
0.0
 40
0.0
 40
0.1468258901260981
 40
0.7151852700742906
 40
1.0
 40
1.0
 40
1.0
 40
1.0
 10
10.17529670634197
 20
0.6819334363882923
 30
0.0
 10
10.18614887710256
 20
0.6831858153877796
 30
0.0
 10
10.23900953178437
 20
0.6892861224399924
 30
0.0
 10
10.31280474405657
 20
0.6937123613466536
 30
0.0
 10
10.3760133998533
 20
0.6937211273165059
 30
0.0
 10
10.39711431702995
 20
0.6937240536562846
 30
0.0
  0
LINE
  5
B9
330
1F
100
AcDbEntity
  8
0
  6
Continuous
 62
     4
370
    25
100
AcDbLine
 10
9.89691271962445
 20
0.8840286140775637
 30
0.0
 11
9.89691271962445
 21
0.854032064956403
 31
0.0
  0
SPLINE
  5
BA
330
1F
100
AcDbEntity
  8
0
  6
Continuous
 62
     4
370
    25
100
AcDbSpline
210
0.0
220
0.0
230
1.0
 70
     8
 71
     3
 72
    14
 73
    10
 74
     0
 42
0.000000001
 43
0.00000001
 40
0.0
 40
0.0
 40
0.0
 40
0.0
 40
0.0000509511620655
 40
0.0000509511620655
 40
0.0000509511620655
 40
0.0001020434260603
 40
0.0001020434260603
 40
0.0001020434260603
 40
0.0001498506604653
 40
0.0001498506604653
 40
0.0001498506604653
 40
0.0001498506604653
 10
9.964322537077107
 20
0.7958274239931974
 30
0.0
 10
9.950635008325628
 20
0.8028888644626981
 30
0.0
 10
9.938221678013514
 20
0.8104750770848952
 30
0.0
 10
9.928092405029757
 20
0.8177865094595931
 30
0.0
 10
9.91794703577865
 20
0.8251095603157361
 30
0.0
 10
9.909813551621301
 20
0.8323579664343544
 30
0.0
 10
9.904506336073691
 20
0.8386925499993199
 30
0.0
 10
9.899535398292869
 20
0.8446257593228085
 30
0.0
 10
9.896912719624376
 20
0.8499168188291764
 30
0.0
 10
9.896912719624373
 20
0.8540320649564153
 30
0.0
  0
SPLINE
  5
BB
330
1F
100
AcDbEntity
  8
0
  6
Continuous
 62
     4
370
    25
100
AcDbSpline
210
0.0
220
0.0
230
1.0
 70
     8
 71
     3
 72
     8
 73
     4
 74
     0
 42
0.000000001
 43
0.00000001
 40
0.0
 40
0.0
 40
0.0
 40
0.0
 40
1.0
 40
1.0
 40
1.0
 40
1.0
 10
10.39711431702995
 20
0.5567311001471624
 30
0.0
 10
10.24724682454116
 20
0.640933880141641
 30
0.0
 10
10.10474136060044
 20
0.7233848975802086
 30
0.0
 10
9.964322537077104
 20
0.7958274239931954
 30
0.0
  0
LINE
  5
BC
330
1F
100
AcDbEntity
  8
0
  6
Continuous
 62
     4
370
    25
100
AcDbLine
 10
10.39711431702995
 20
0.5567311001471628
 30
0.0
 11
10.39711431702995
 21
0.2850384840310057
 31
0.0
  0
SPLINE
  5
BD
330
1F
100
AcDbEntity
  8
0
  6
Continuous
 62
     4
370
    25
100
AcDbSpline
210
0.0
220
0.0
230
1.0
 70
     8
 71
     3
 72
     8
 73
     4
 74
     0
 42
0.000000001
 43
0.00000001
 40
0.0
 40
0.0
 40
0.0
 40
0.0
 40
1.0
 40
1.0
 40
1.0
 40
1.0
 10
10.12682994294119
 20
0.4682102457886764
 30
0.0
 10
10.21668218848151
 20
0.4080285073008418
 30
0.0
 10
10.30626953940496
 20
0.3463043967477176
 30
0.0
 10
10.39711431702995
 20
0.2850384840310071
 30
0.0
  0
SPLINE
  5
BE
330
1F
100
AcDbEntity
  8
0
  6
Continuous
 62
     4
370
    25
100
AcDbSpline
210
0.0
220
0.0
230
1.0
 70
     8
 71
     3
 72
    26
 73
    22
 74
     0
 42
0.000000001
 43
0.00000001
 40
0.0
 40
0.0
 40
0.0
 40
0.0
 40
0.0000472050073804
 40
0.0000472050073804
 40
0.0000472050073804
 40
0.0000943085966799
 40
0.0000943085966799
 40
0.0000943085966799
 40
0.0001429016241613
 40
0.0001429016241613
 40
0.0001429016241613
 40
0.0001942441568633
 40
0.0001942441568633
 40
0.0001942441568633
 40
0.0002472483625737
 40
0.0002472483625737
 40
0.0002472483625737
 40
0.0003003362769892
 40
0.0003003362769892
 40
0.0003003362769892
 40
0.0003263929944589
 40
0.0003263929944589
 40
0.0003263929944589
 40
0.0003263929944589
 10
9.89691271962445
 20
0.3904381575465202
 30
0.0
 10
9.89691271962445
 20
0.4045553432691046
 30
0.0
 10
9.899468711695649
 20
0.41836900905668
 30
0.0
 10
9.904319440658576
 20
0.4307472957993678
 30
0.0
 10
9.909164301412734
 20
0.4431106078091105
 30
0.0
 10
9.916412201934081
 20
0.4543833954175219
 30
0.0
 10
9.925433777199595
 20
0.4638282828046129
 30
0.0
 10
9.93474192758023
 20
0.4735731920405091
 30
0.0
 10
9.946172251074971
 20
0.4816362455632136
 30
0.0
 10
9.958859785674523
 20
0.4875889999359245
 30
0.0
 10
9.972253221624296
 20
0.4938729500438093
 30
0.0
 10
9.98740423171719
 20
0.4979757495620377
 30
0.0
 10
10.00316644331043
 20
0.4997046946110252
 30
0.0
 10
10.01942473601732
 20
0.5014880544215637
 30
0.0
 10
10.03678411540941
 20
0.5007924578326854
 30
0.0
 10
10.05383189742725
 20
0.4976933041524551
 30
0.0
 10
10.07090190349185
 20
0.4945901103140247
 30
0.0
 10
10.08813594385706
 20
0.4889848438725098
 30
0.0
 10
10.10404037224328
 20
0.4812694640111176
 30
0.0
 10
10.11193364431922
 20
0.4774403674264251
 30
0.0
 10
10.11958739021937
 20
0.4730612031717437
 30
0.0
 10
10.12682994294119
 20
0.4682102457886763
 30
0.0
  0
LINE
  5
BF
330
1F
100
AcDbEntity
  8
0
  6
Continuous
 62
     4
370
    25
100
AcDbLine
 10
9.89691271962445
 20
0.3904381575465202
 30
0.0
 11
9.89691271962445
 21
-0.2283327014122134
 31
0.0
  0
SPLINE
  5
C0
330
1F
100
AcDbEntity
  8
0
  6
Continuous
 62
     4
370
    25
100
AcDbSpline
210
0.0
220
0.0
230
1.0
 70
     8
 71
     3
 72
    14
 73
    10
 74
     0
 42
0.000000001
 43
0.00000001
 40
0.0
 40
0.0
 40
0.0
 40
0.0
 40
0.0000509511620655
 40
0.0000509511620655
 40
0.0000509511620655
 40
0.0001020434260603
 40
0.0001020434260603
 40
0.0001020434260603
 40
0.0001498506604653
 40
0.0001498506604653
 40
0.0001498506604653
 40
0.0001498506604653
 10
9.964322537077104
 20
-0.3414032578866577
 30
0.0
 10
9.950635008325628
 20
-0.3342454381349245
 30
0.0
 10
9.938221678013514
 20
-0.324603813195008
 30
0.0
 10
9.928092405029757
 20
-0.3130978341460171
 30
0.0
 10
9.91794703577865
 20
-0.3015735711278617
 30
0.0
 10
9.909813551621301
 20
-0.287830102833941
 30
0.0
 10
9.904506336073691
 20
-0.2729616549195054
 30
0.0
 10
9.899535398292869
 20
-0.2590353071356292
 30
0.0
 10
9.896912719624376
 20
-0.243724943198511
 30
0.0
 10
9.896912719624373
 20
-0.2283327014122457
 30
0.0
  0
SPLINE
  5
C1
330
1F
100
AcDbEntity
  8
0
  6
Continuous
 62
     4
370
    25
100
AcDbSpline
210
0.0
220
0.0
230
1.0
 70
     8
 71
     3
 72
     8
 73
     4
 74
     0
 42
0.000000001
 43
0.00000001
 40
0.0
 40
0.0
 40
0.0
 40
0.0
 40
1.0
 40
1.0
 40
1.0
 40
1.0
 10
10.39711431702995
 20
-0.5025440101413293
 30
0.0
 10
10.24724682454116
 20
-0.4691924014951062
 30
0.0
 10
10.10474136060045
 20
-0.4148345285550022
 30
0.0
 10
9.964322537077107
 20
-0.3414032578866568
 30
0.0
  0
LINE
  5
C2
330
1F
100
AcDbEntity
  8
0
  6
Continuous
 62
     4
370
    25
100
AcDbLine
 10
10.39711431702995
 20
-0.5025440101413293
 30
0.0
 11
10.39711431702995
 21
-0.693724053656284
 31
0.0
  0
SPLINE
  5
C3
330
1F
100
AcDbEntity
  8
0
  6
Continuous
 62
     4
370
    25
100
AcDbSpline
210
0.0
220
0.0
230
1.0
 70
     8
 71
     3
 72
     8
 73
     4
 74
     0
 42
0.000000001
 43
0.00000001
 40
0.0
 40
0.0
 40
0.0
 40
0.0
 40
1.0
 40
1.0
 40
1.0
 40
1.0
 10
10.12682994294119
 20
-0.6761345287436592
 30
0.0
 10
10.21668218848151
 20
-0.6885243667848785
 30
0.0
 10
10.30626953940496
 20
-0.6948674415973192
 30
0.0
 10
10.39711431702995
 20
-0.6937240536562864
 30
0.0
  0
SPLINE
  5
C4
330
1F
100
AcDbEntity
  8
0
  6
Continuous
 62
     4
370
    25
100
AcDbSpline
210
0.0
220
0.0
230
1.0
 70
     8
 71
     3
 72
    26
 73
    22
 74
     0
 42
0.000000001
 43
0.00000001
 40
0.0
 40
0.0
 40
0.0
 40
0.0
 40
0.0000472050073804
 40
0.0000472050073804
 40
0.0000472050073804
 40
0.0000943085966799
 40
0.0000943085966799
 40
0.0000943085966799
 40
0.0001429016241613
 40
0.0001429016241613
 40
0.0001429016241613
 40
0.0001942441568633
 40
0.0001942441568633
 40
0.0001942441568633
 40
0.0002472483625737
 40
0.0002472483625737
 40
0.0002472483625737
 40
0.0003003362769892
 40
0.0003003362769892
 40
0.0003003362769892
 40
0.0003263929944589
 40
0.0003263929944589
 40
0.0003263929944589
 40
0.0003263929944589
 10
9.89691271962445
 20
-0.7931359502882103
 30
0.0
 10
9.89691271962445
 20
-0.7861864632787449
 30
0.0
 10
9.899468711695649
 20
-0.7781297470380325
 30
0.0
 10
9.904319440658576
 20
-0.7697131712340192
 30
0.0
 10
9.909164301412734
 20
-0.761306777450959
 30
0.0
 10
9.916412201934085
 20
-0.7523240717735263
 30
0.0
 10
9.925433777199595
 20
-0.7435835398682481
 30
0.0
 10
9.93474192758023
 20
-0.7345653603389921
 30
0.0
 10
9.946172251074971
 20
-0.7255763607555886
 30
0.0
 10
9.958859785674523
 20
-0.7174201568156653
 30
0.0
 10
9.972253221624296
 20
-0.7088101629507798
 30
0.0
 10
9.98740423171719
 20
-0.7009073237459973
 30
0.0
 10
10.00316644331043
 20
-0.6944600309373751
 30
0.0
 10
10.01942473601732
 20
-0.6878098236977612
 30
0.0
 10
10.03678411540941
 20
-0.6825352571585932
 30
0.0
 10
10.05383189742725
 20
-0.6791431950976476
 30
0.0
 10
10.07090190349185
 20
-0.6757467110335477
 30
0.0
 10
10.08813594385706
 20
-0.6741478233729552
 30
0.0
 10
10.10404037224328
 20
-0.6744181830300362
 30
0.0
 10
10.11193364431921
 20
-0.6745523609004931
 30
0.0
 10
10.11958739021937
 20
-0.675135844128837
 30
0.0
 10
10.12682994294119
 20
-0.6761345287436593
 30
0.0
  0
LINE
  5
C5
330
1F
100
AcDbEntity
  8
0
  6
Continuous
 62
     4
370
    25
100
AcDbLine
 10
9.89691271962445
 20
-0.7931359502882105
 30
0.0
 11
9.89691271962445
 21
-0.8840286140775631
 31
0.0
  0
SPLINE
  5
C6
330
1F
100
AcDbEntity
  8
0
  6
Continuous
 62
     4
370
    25
100
AcDbSpline
210
0.0
220
0.0
230
1.0
 70
     8
 71
     3
 72
    14
 73
    10
 74
     0
 42
0.000000001
 43
0.00000001
 40
0.0
 40
0.0
 40
0.0
 40
0.0
 40
0.0000509511620655
 40
0.0000509511620655
 40
0.0000509511620655
 40
0.0001020434260603
 40
0.0001020434260603
 40
0.0001020434260603
 40
0.0001498506604654
 40
0.0001498506604654
 40
0.0001498506604654
 40
0.0001498506604654
 10
9.964322537077107
 20
-0.7958274239931928
 30
0.0
 10
9.950635008325632
 20
-0.8028888644626936
 30
0.0
 10
9.938221678013518
 20
-0.8104750770848906
 30
0.0
 10
9.928092405029757
 20
-0.8177865094595888
 30
0.0
 10
9.91794703577865
 20
-0.8251095603157318
 30
0.0
 10
9.909813551621305
 20
-0.8323579664343506
 30
0.0
 10
9.904506336073691
 20
-0.8386925499993161
 30
0.0
 10
9.899535398292869
 20
-0.8446257593228053
 30
0.0
 10
9.896912719624376
 20
-0.8499168188291737
 30
0.0
 10
9.896912719624373
 20
-0.8540320649564129
 30
0.0
  0
SPLINE
  5
C7
330
1F
100
AcDbEntity
  8
0
  6
Continuous
 62
     4
370
    25
100
AcDbSpline
210
0.0
220
0.0
230
1.0
 70
     8
 71
     3
 72
    10
 73
     6
 74
     0
 42
0.000000001
 43
0.00000001
 40
0.0
 40
0.0
 40
0.0
 40
0.0
 40
0.1392970370782783
 40
0.7312945290249238
 40
1.0
 40
1.0
 40
1.0
 40
1.0
 10
10.17529670634196
 20
-0.6819334363882934
 30
0.0
 10
10.16531676079171
 20
-0.6875425701615823
 30
0.0
 10
10.11292311528466
 20
-0.7169899218570106
 30
0.0
 10
10.04270251940002
 20
-0.7549951788381488
 30
0.0
 10
9.982970467651194
 20
-0.7861127385560548
 30
0.0
 10
9.964322537077107
 20
-0.7958274239931902
 30
0.0
  0
LINE
  5
C8
330
1F
100
AcDbEntity
  8
0
  6
Continuous
 62
     4
370
    25
100
AcDbLine
 10
-38.60288568297005
 20
2.499999999999994
 30
0.0
 11
-38.60288568297005
 21
-2.500000000000001
 31
0.0
  0
SPLINE
  5
C9
330
1F
100
AcDbEntity
  8
0
  6
Continuous
 62
     4
370
    25
100
AcDbSpline
210
0.0
220
0.0
230
1.0
 70
     8
 71
     3
 72
    10
 73
     6
 74
     0
 42
0.000000001
 43
0.00000001
 40
0.0
 40
0.0
 40
0.0
 40
0.0
 40
0.5
 40
0.5
 40
1.0
 40
1.0
 40
1.0
 40
1.0
 10
11.39711431702992
 20
0.6968805791040916
 30
0.0
 10
11.23179389565082
 20
0.7322929280227035
 30
0.0
 10
11.05953512149415
 20
0.7505202757529448
 30
0.0
 10
10.73490329199105
 20
0.7494563149809007
 30
0.0
 10
10.56207269349355
 20
0.7301071125371325
 30
0.0
 10
10.39711431702999
 20
0.69372405365629
 30
0.0
  0
SPLINE
  5
CA
330
1F
100
AcDbEntity
  8
0
  6
Continuous
 62
     4
370
    25
100
AcDbSpline
210
0.0
220
0.0
230
1.0
 70
    24
 71
     3
 72
    16
 73
    12
 74
     0
 42
0.000000001
 43
0.00000001
 40
0.0
 40
0.0
 40
0.0
 40
0.0
 40
0.1250000000000001
 40
0.1250000000000001
 40
0.2500000000000002
 40
0.2500000000000002
 40
0.5000000000000001
 40
0.5000000000000001
 40
0.75
 40
0.75
 40
1.0
 40
1.0
 40
1.0
 40
1.0
 10
11.39711431702995
 20
0.6968805791040995
 30
0.0
 10
11.39711431702995
 20
0.6712219581829298
 30
0.0
 10
11.39711431702995
 20
0.6479110392404521
 30
0.0
 10
11.39711431702995
 20
0.5960991462444222
 30
0.0
 10
11.39711431702995
 20
0.5681878437480413
 30
0.0
 10
11.39711431702995
 20
0.4788090934423998
 30
0.0
 10
11.39711431702995
 20
0.4110116409730922
 30
0.0
 10
11.39711431702995
 20
0.2728927255745754
 30
0.0
 10
11.39711431702995
 20
0.2028005575559297
 30
0.0
 10
11.39711431702995
 20
0.0946353746318673
 30
0.0
 10
11.39711431702995
 20
0.0583272103148268
 30
0.0
 10
11.39711431702995
 20
0.0509851133156102
 30
0.0
  0
SPLINE
  5
CB
330
1F
100
AcDbEntity
  8
0
  6
Continuous
 62
     4
370
    25
100
AcDbSpline
210
0.0
220
0.0
230
1.0
 70
     8
 71
     3
 72
    10
 73
     6
 74
     0
 42
0.000000001
 43
0.00000001
 40
0.0
 40
0.0
 40
0.0
 40
0.0
 40
0.5
 40
0.5
 40
1.0
 40
1.0
 40
1.0
 40
1.0
 10
11.39711431702992
 20
0.0509851133156311
 30
0.0
 10
11.23179389565082
 20
0.1465651427397561
 30
0.0
 10
11.05953512149415
 20
0.2420898695851037
 30
0.0
 10
10.73490329199105
 20
0.4133870570054412
 30
0.0
 10
10.56207269349355
 20
0.4925850660656623
 30
0.0
 10
10.39711431702999
 20
0.5567311001471501
 30
0.0
  0
SPLINE
  5
CC
330
1F
100
AcDbEntity
  8
0
  6
Continuous
 62
     4
370
    25
100
AcDbSpline
210
0.0
220
0.0
230
1.0
 70
     8
 71
     3
 72
    10
 73
     6
 74
     0
 42
0.000000001
 43
0.00000001
 40
0.0
 40
0.0
 40
0.0
 40
0.0
 40
0.5
 40
0.5
 40
1.0
 40
1.0
 40
1.0
 40
1.0
 10
11.39711431702992
 20
-0.2772317775211605
 30
0.0
 10
11.23179389565082
 20
-0.1882153651802099
 30
0.0
 10
11.05953512149415
 20
-0.0910297158448531
 30
0.0
 10
10.73490329199105
 20
0.0994098859184525
 30
0.0
 10
10.56207269349355
 20
0.1964897283180944
 30
0.0
 10
10.39711431702999
 20
0.2850384840309885
 30
0.0
  0
SPLINE
  5
CD
330
1F
100
AcDbEntity
  8
0
  6
Continuous
 62
     4
370
    25
100
AcDbSpline
210
0.0
220
0.0
230
1.0
 70
    24
 71
     3
 72
    12
 73
     8
 74
     0
 42
0.000000001
 43
0.00000001
 40
0.0
 40
0.0
 40
0.0
 40
0.0
 40
0.1010032016399159
 40
0.3550469783543398
 40
0.6090907550687626
 40
0.8631345317829809
 40
1.0
 40
1.0
 40
1.0
 40
1.0
 10
11.39711431702995
 20
-0.2772317775211768
 30
0.0
 10
11.39711431702995
 20
-0.2793859283167906
 30
0.0
 10
11.39711431702995
 20
-0.2869582103680954
 30
0.0
 10
11.39711431702995
 20
-0.360775191512994
 30
0.0
 10
11.39711431702995
 20
-0.4877418140852087
 30
0.0
 10
11.39711431702995
 20
-0.6270181650926366
 30
0.0
 10
11.39711431702995
 20
-0.716822601704691
 30
0.0
 10
11.39711431702995
 20
-0.7482650053424883
 30
0.0
  0
SPLINE
  5
CE
330
1F
100
AcDbEntity
  8
0
  6
Continuous
 62
     4
370
    25
100
AcDbSpline
210
0.0
220
0.0
230
1.0
 70
     8
 71
     3
 72
    10
 73
     6
 74
     0
 42
0.000000001
 43
0.00000001
 40
0.0
 40
0.0
 40
0.0
 40
0.0
 40
0.5
 40
0.5
 40
1.0
 40
1.0
 40
1.0
 40
1.0
 10
11.39711431702992
 20
-0.7482650053424869
 30
0.0
 10
11.23179389565082
 20
-0.7417523947084107
 30
0.0
 10
11.05953512149415
 20
-0.7162119717844285
 30
0.0
 10
10.73490329199105
 20
-0.6329914964542978
 30
0.0
 10
10.56207269349355
 20
-0.5736066263572227
 30
0.0
 10
10.39711431702999
 20
-0.5025440101413433
 30
0.0
  0
LINE
  5
CF
330
1F
100
AcDbEntity
  8
0
  6
Continuous
 62
     4
370
    25
100
AcDbLine
 10
11.39711431702995
 20
0.0509851133156102
 30
0.0
 11
11.39711431702995
 21
-0.2772317775211834
 31
0.0
  0
SPLINE
  5
D0
330
1F
100
AcDbEntity
  8
0
  6
Continuous
 62
     4
370
    25
100
AcDbSpline
210
0.0
220
0.0
230
1.0
 70
     8
 71
     3
 72
     9
 73
     5
 74
     0
 42
0.000000001
 43
0.00000001
 40
0.0
 40
0.0
 40
0.0
 40
0.0
 40
0.9273090327228581
 40
1.0
 40
1.0
 40
1.0
 40
1.0
 10
10.39711431702995
 20
-0.693724053656284
 30
0.0
 10
10.55401924924626
 20
-0.7273395509188223
 30
0.0
 10
10.72322382579998
 20
-0.7635901384536301
 30
0.0
 10
10.89230582494977
 20
-0.7476519038380249
 30
0.0
 10
10.90459655901712
 20
-0.7464933381471266
 30
0.0
  0
LINE
  5
D1
330
1F
100
AcDbEntity
  8
0
  6
Continuous
 62
     4
370
    25
100
AcDbLine
 10
11.39711431702995
 20
-0.7482650053424883
 30
0.0
 11
11.39711431702995
 21
-0.7499999999999993
 31
0.0
  0
LINE
  5
D2
330
1F
100
AcDbEntity
  8
0
  6
Continuous
 62
     4
370
    25
100
AcDbLine
 10
11.39711431702995
 20
0.7500000000000004
 30
0.0
 11
11.39711431702995
 21
0.6968805791040987
 31
0.0
  0
SPLINE
  5
D3
330
1F
100
AcDbEntity
  8
0
  6
Continuous
 62
     1
370
    25
100
AcDbSpline
210
0.0
220
0.0
230
1.0
 70
     8
 71
     3
 72
    18
 73
    14
 74
     0
 42
0.000000001
 43
0.00000001
 40
0.0
 40
0.0
 40
0.0
 40
0.0
 40
0.0899952056526782
 40
0.1894118558680321
 40
0.2890085896193149
 40
0.3889310342281056
 40
0.4887003929064478
 40
0.5881951023943371
 40
0.6875876546658959
 40
0.7870536113304606
 40
0.8867663263636228
 40
0.9945249845537474
 40
1.0
 40
1.0
 40
1.0
 40
1.0
 10
14.25670992279564
 20
0.6309511695521081
 30
0.0
 10
14.40093931704875
 20
0.6700804937515744
 30
0.0
 10
14.70449723480757
 20
0.7524355243527218
 30
0.0
 10
15.16764488658724
 20
0.7582823823694675
 30
0.0
 10
15.64684530502072
 20
0.669906818237779
 30
0.0
 10
16.12710865337844
 20
0.4896183110501288
 30
0.0
 10
16.60694196213937
 20
0.2439076156678699
 30
0.0
 10
17.08561899454255
 20
-0.0350512815595918
 30
0.0
 10
17.56372143552402
 20
-0.3082847893122406
 30
0.0
 10
18.04224057466822
 20
-0.5432790012436587
 30
0.0
 10
18.53441983781301
 20
-0.6974441759252551
 30
0.0
 10
18.87616085087385
 20
-0.7675439669510288
 30
0.0
 10
19.0577917586891
 20
-0.7480942810485862
 30
0.0
 10
19.06657388147881
 20
-0.7471538599943104
 30
0.0
  0
SPLINE
  5
D4
330
1F
100
AcDbEntity
  8
0
  6
Continuous
 62
     1
370
    25
100
AcDbSpline
210
0.0
220
0.0
230
1.0
 70
     8
 71
     3
 72
    18
 73
    14
 74
     0
 42
0.000000001
 43
0.00000001
 40
0.0
 40
0.0
 40
0.0
 40
0.0
 40
0.0842636771099421
 40
0.1839261174965645
 40
0.283797445002129
 40
0.3839744129407606
 40
0.483915906294673
 40
0.5836100751238537
 40
0.6832306711428532
 40
0.7829536587651059
 40
0.8829519257259383
 40
0.9831036298536897
 40
1.0
 40
1.0
 40
1.0
 40
1.0
 10
20.36466643905302
 20
-0.6239858205117764
 30
0.0
 10
20.22974238206842
 20
-0.6647697807743488
 30
0.0
 10
19.93523757514329
 20
-0.7537907649576281
 30
0.0
 10
19.48165939946102
 20
-0.7586604566388004
 30
0.0
 10
19.00221110705421
 20
-0.6750222705857167
 30
0.0
 10
18.52189393801386
 20
-0.4973055909055679
 30
0.0
 10
18.04224089218169
 20
-0.2534111090005686
 30
0.0
 10
17.5637209791279
 20
0.0249549803705778
 30
0.0
 10
17.08562050289957
 20
0.299149164227798
 30
0.0
 10
16.60693637195468
 20
0.5356913621253386
 30
0.0
 10
16.12712957918266
 20
0.6909533397821864
 30
0.0
 10
15.77956453993159
 20
0.7607254990150722
 30
0.0
 10
15.59235121333918
 20
0.7451264280908133
 30
0.0
 10
15.56532620090693
 20
0.7428746381497185
 30
0.0
  0
SPLINE
  5
D5
330
1F
100
AcDbEntity
  8
0
  6
Continuous
 62
     1
370
    25
100
AcDbSpline
210
0.0
220
0.0
230
1.0
 70
     8
 71
     3
 72
     9
 73
     5
 74
     0
 42
0.000000001
 43
0.00000001
 40
0.0
 40
0.0
 40
0.0
 40
0.0
 40
0.5019990911983674
 40
0.9999999999999999
 40
0.9999999999999999
 40
0.9999999999999999
 40
0.9999999999999999
 10
12.20256929999905
 20
-0.6239858205117773
 30
0.0
 10
12.06762965586155
 20
-0.6658087275189072
 30
0.0
 10
11.79882509724098
 20
-0.7491214421042871
 30
0.0
 10
11.53066052013635
 20
-0.7485497223164217
 30
0.0
 10
11.39711431702984
 20
-0.7482650053424846
 30
0.0
  0
SPLINE
  5
D6
330
1F
100
AcDbEntity
  8
0
  6
Continuous
 62
     1
370
    25
100
AcDbSpline
210
0.0
220
0.0
230
1.0
 70
     8
 71
     3
 72
    18
 73
    14
 74
     0
 42
0.000000001
 43
0.00000001
 40
0.0
 40
0.0
 40
0.0
 40
0.0
 40
0.0609252417477914
 40
0.1603669654805422
 40
0.2597353027038292
 40
0.3592057722548425
 40
0.4589508240834138
 40
0.5588489245460455
 40
0.6584213935042388
 40
0.7578138228003295
 40
0.8572010055964453
 40
0.9430197593232941
 40
1.0
 40
1.0
 40
1.0
 40
1.0
 10
18.33505445538461
 20
-0.6243829084120003
 30
0.0
 10
18.23732250340587
 20
-0.6553724083612625
 30
0.0
 10
17.98007319064647
 20
-0.7369427382615579
 30
0.0
 10
17.56372995502583
 20
-0.764465310981464
 30
0.0
 10
17.08561671885961
 20
-0.7069054443219634
 30
0.0
 10
16.60694254112734
 20
-0.550566403113916
 30
0.0
 10
16.12710862100362
 20
-0.3211415924155593
 30
0.0
 10
15.64684485358165
 20
-0.04855217950626
 30
0.0
 10
15.16764671602089
 20
0.2307409945088817
 30
0.0
 10
14.68940055337767
 20
0.4797242270379453
 30
0.0
 10
14.23321196248818
 20
0.652324051464533
 30
0.0
 10
13.84489477502458
 20
0.7420166260882183
 30
0.0
 10
13.61579190837051
 20
0.7416882181189743
 30
0.0
 10
13.52437434246819
 20
0.74155717542357
 30
0.0
  0
SPLINE
  5
D7
330
1F
100
AcDbEntity
  8
0
  6
Continuous
 62
     1
370
    25
100
AcDbSpline
210
0.0
220
0.0
230
1.0
 70
     8
 71
     3
 72
    14
 73
    10
 74
     0
 42
0.000000001
 43
0.00000001
 40
0.0
 40
0.0
 40
0.0
 40
0.0
 40
0.1664097031403556
 40
0.3328195193203776
 40
0.4683436505965029
 40
0.6041518331683778
 40
0.7403756352455908
 40
0.8762792315521255
 40
1.0
 40
1.0
 40
1.0
 40
1.0
 10
21.13536903202933
 20
-0.6832760216477063
 30
0.0
 10
20.93949350061013
 20
-0.6229827110664401
 30
0.0
 10
20.54774230471635
 20
-0.5023960489475479
 30
0.0
 10
19.99617003423991
 20
-0.2031430256408222
 30
0.0
 10
19.48165442641971
 20
0.0973878281751512
 30
0.0
 10
19.00221209265801
 20
0.3662406244019083
 30
0.0
 10
18.52189499427103
 20
0.5825023175447327
 30
0.0
 10
18.05617330963917
 20
0.7255448341055554
 30
0.0
 10
17.75088833834429
 20
0.7393789008479914
 30
0.0
 10
17.6054085746098
 20
0.7459713536393636
 30
0.0
  0
SPLINE
  5
D8
330
1F
100
AcDbEntity
  8
0
  6
Continuous
 62
     1
370
    25
100
AcDbSpline
210
0.0
220
0.0
230
1.0
 70
     8
 71
     3
 72
    14
 73
    10
 74
     0
 42
0.000000001
 43
0.00000001
 40
0.0
 40
0.0
 40
0.0
 40
0.0
 40
0.0158388263573766
 40
0.1602282873521182
 40
0.3049500145334909
 40
0.4489638629184602
 40
0.6543379802040031
 40
0.8597122369971665
 40
0.9999999999999999
 40
0.9999999999999999
 40
0.9999999999999999
 40
0.9999999999999999
 10
14.25670992279565
 20
-0.6309511695521062
 30
0.0
 10
14.24161939796006
 20
-0.6367319618866173
 30
0.0
 10
14.08896105730436
 20
-0.6952114498485278
 30
0.0
 10
13.79838749577816
 20
-0.741441406350902
 30
0.0
 10
13.38508349981899
 20
-0.7595723538965296
 30
0.0
 10
12.9151120361802
 20
-0.6853850523516422
 30
0.0
 10
12.38555535785168
 20
-0.4962817286987186
 30
0.0
 10
11.85975142945697
 20
-0.2177407856708563
 30
0.0
 10
11.53067199702444
 20
-0.0265927693466402
 30
0.0
 10
11.39711431702984
 20
0.0509851133156768
 30
0.0
  0
SPLINE
  5
D9
330
1F
100
AcDbEntity
  8
0
  6
Continuous
 62
     4
370
    25
100
AcDbSpline
210
0.0
220
0.0
230
1.0
 70
    24
 71
     3
 72
    16
 73
    12
 74
     0
 42
0.000000001
 43
0.00000001
 40
0.0
 40
0.0
 40
0.0
 40
0.0
 40
0.1249999999999998
 40
0.1249999999999998
 40
0.2499999999999997
 40
0.2499999999999997
 40
0.4999999999999997
 40
0.4999999999999997
 40
0.7499999999999998
 40
0.7499999999999998
 40
1.0
 40
1.0
 40
1.0
 40
1.0
 10
11.39711431702995
 20
0.6968805791040994
 30
0.0
 10
11.39711431702995
 20
0.6712219581829485
 30
0.0
 10
11.39711431702995
 20
0.647911039240487
 30
0.0
 10
11.39711431702995
 20
0.5960991462445003
 30
0.0
 10
11.39711431702995
 20
0.5681878437481438
 30
0.0
 10
11.39711431702995
 20
0.4788090934425829
 30
0.0
 10
11.39711431702995
 20
0.411011640973341
 30
0.0
 10
11.39711431702995
 20
0.2728927255749264
 30
0.0
 10
11.39711431702995
 20
0.2028005575563138
 30
0.0
 10
11.39711431702995
 20
0.0946353746321874
 30
0.0
 10
11.39711431702995
 20
0.0583272103150428
 30
0.0
 10
11.39711431702995
 20
0.0509851133156739
 30
0.0
  0
SPLINE
  5
DA
330
1F
100
AcDbEntity
  8
0
  6
Continuous
 62
     1
370
    25
100
AcDbSpline
210
0.0
220
0.0
230
1.0
 70
     8
 71
     3
 72
    15
 73
    11
 74
     0
 42
0.000000001
 43
0.00000001
 40
0.0
 40
0.0
 40
0.0
 40
0.0
 40
0.127837474360409
 40
0.2554261871645656
 40
0.3831650802667289
 40
0.5169141875837666
 40
0.6508200219945893
 40
0.7842877870096382
 40
0.9175280429675157
 40
1.0
 40
1.0
 40
1.0
 40
1.0
 10
11.39711431702989
 20
0.6968805791040974
 30
0.0
 10
11.55001064633831
 20
0.6558052539595944
 30
0.0
 10
11.85550578086048
 20
0.5737345329859761
 30
0.0
 10
12.31347974853877
 20
0.3564523311303362
 30
0.0
 10
12.77864526857924
 20
0.0974582918142212
 30
0.0
 10
13.25184251544338
 20
-0.1796944981406123
 30
0.0
 10
13.73205729423773
 20
-0.4370821972553087
 30
0.0
 10
14.21118955882751
 20
-0.6319627957027483
 30
0.0
 10
14.62868445776544
 20
-0.7414407540602387
 30
0.0
 10
14.88662247884974
 20
-0.7389712197333809
 30
0.0
 10
14.98523837591469
 20
-0.738027057480945
 30
0.0
  0
SPLINE
  5
DB
330
1F
100
AcDbEntity
  8
0
  6
Continuous
 62
     1
370
    25
100
AcDbSpline
210
0.0
220
0.0
230
1.0
 70
     8
 71
     3
 72
    14
 73
    10
 74
     0
 42
0.000000001
 43
0.00000001
 40
0.0
 40
0.0
 40
0.0
 40
0.0
 40
0.0609072940940628
 40
0.2301836338848189
 40
0.3996015520828377
 40
0.5494330112719509
 40
0.6989729103598491
 40
0.8486888277342826
 40
1.0
 40
1.0
 40
1.0
 40
1.0
 10
18.33505445538462
 20
0.6243829084120024
 30
0.0
 10
18.39722550286885
 20
0.6460154187770202
 30
0.0
 10
18.63218517141439
 20
0.7277699921813282
 30
0.0
 10
19.0403992656498
 20
0.7662535579128561
 30
0.0
 10
19.53929627499715
 20
0.7186166129384539
 30
0.0
 10
20.01758371600271
 20
0.5695264903774371
 30
0.0
 10
20.47558572855883
 20
0.3578118876615252
 30
0.0
 10
20.93516782034224
 20
0.0993141353592705
 30
0.0
 10
21.24258910476214
 20
-0.0773215421199501
 30
0.0
 10
21.39711431702996
 20
-0.1661074100472505
 30
0.0
  0
LINE
  5
DC
330
1F
100
AcDbEntity
  8
0
  6
Continuous
 62
     1
370
    25
100
AcDbLine
 10
21.39711431702996
 20
-0.4999999999999996
 30
0.0
 11
21.39711431702996
 21
-0.1667178101613306
 31
0.0
  0
SPLINE
  5
DD
330
1F
100
AcDbEntity
  8
0
  6
Continuous
 62
     1
370
    25
100
AcDbSpline
210
0.0
220
0.0
230
1.0
 70
    24
 71
     3
 72
     8
 73
     4
 74
     0
 42
0.000000001
 43
0.00000001
 40
0.0
 40
0.0
 40
0.0
 40
0.0
 40
1.0
 40
1.0
 40
1.0
 40
1.0
 10
21.39711431702996
 20
-0.4999999999999996
 30
0.0
 10
21.30325346593158
 20
-0.5657220754818638
 30
0.0
 10
21.21398742250283
 20
-0.6282268319968256
 30
0.0
 10
21.13536903202995
 20
-0.6832760216478507
 30
0.0
  0
SPLINE
  5
DE
330
1F
100
AcDbEntity
  8
0
  6
Continuous
 62
     4
370
    25
100
AcDbSpline
210
0.0
220
0.0
230
1.0
 70
    24
 71
     3
 72
    16
 73
    12
 74
     0
 42
0.000000001
 43
0.00000001
 40
0.0
 40
0.0
 40
0.0
 40
0.0
 40
0.0999255046221669
 40
0.2128018335630912
 40
0.3224969953800456
 40
0.4353733243209705
 40
0.5450684861380345
 40
0.6579448150788498
 40
0.7676399768957175
 40
0.8805163058365474
 40
0.9999999999999999
 40
0.9999999999999999
 40
0.9999999999999999
 40
0.9999999999999999
 10
11.39711431702995
 20
-0.2634646170629871
 30
0.0
 10
11.39711431702995
 20
-0.2638506802214027
 30
0.0
 10
11.39711431702995
 20
-0.2646728421738756
 30
0.0
 10
11.39711431702995
 20
-0.2841487269526695
 30
0.0
 10
11.39711431702995
 20
-0.317432184649314
 30
0.0
 10
11.39711431702995
 20
-0.3640536631573096
 30
0.0
 10
11.39711431702995
 20
-0.4230886881435744
 30
0.0
 10
11.39711431702995
 20
-0.4919146426199316
 30
0.0
 10
11.39711431702995
 20
-0.5698216493311364
 30
0.0
 10
11.39711431702995
 20
-0.6555466905056545
 30
0.0
 10
11.39711431702995
 20
-0.716778506565302
 30
0.0
 10
11.39711431702995
 20
-0.7482650053416434
 30
0.0
  0
SPLINE
  5
DF
330
1F
100
AcDbEntity
  8
0
  6
Continuous
 62
     1
370
    25
100
AcDbSpline
210
0.0
220
0.0
230
1.0
 70
     8
 71
     3
 72
    11
 73
     7
 74
     0
 42
0.000000001
 43
0.00000001
 40
0.0
 40
0.0
 40
0.0
 40
0.0
 40
0.2964929101368574
 40
0.5924088686551655
 40
0.8886731396993902
 40
1.0
 40
1.0
 40
1.0
 40
1.0
 10
11.39711431702989
 20
-0.277231777521146
 30
0.0
 10
11.55000950738356
 20
-0.3562375132578541
 30
0.0
 10
11.85550236621255
 20
-0.5140952458540506
 30
0.0
 10
12.3134933828102
 20
-0.6728236979994218
 30
0.0
 10
12.67608949237072
 20
-0.7529521583588915
 30
0.0
 10
12.88640697240822
 20
-0.7414333273765308
 30
0.0
 10
12.94385175694427
 20
-0.7382871468319037
 30
0.0
  0
SPLINE
  5
E0
330
1F
100
AcDbEntity
  8
0
  6
Continuous
 62
     1
370
    25
100
AcDbSpline
210
0.0
220
0.0
230
1.0
 70
     8
 71
     3
 72
    18
 73
    14
 74
     0
 42
0.000000001
 43
0.00000001
 40
0.0
 40
0.0
 40
0.0
 40
0.0
 40
0.064487790575178
 40
0.1639942769263225
 40
0.2633985939691207
 40
0.3628763240935631
 40
0.4626008417945836
 40
0.5703722550245349
 40
0.6782338055120167
 40
0.7736254480952425
 40
0.8688314661299447
 40
0.9641495479032511
 40
0.9999999999999999
 40
0.9999999999999999
 40
0.9999999999999999
 40
0.9999999999999999
 10
16.29709710943175
 20
0.6247710033797884
 30
0.0
 10
16.40051933555555
 20
0.6570016298416836
 30
0.0
 10
16.66352498422188
 20
0.7389650253054973
 30
0.0
 10
17.08561158554399
 20
0.7642120854322448
 30
0.0
 10
17.56372445662496
 20
0.7028757414680347
 30
0.0
 10
18.04223589167926
 20
0.5435143686451032
 30
0.0
 10
18.53443613339946
 20
0.3059785784200363
 30
0.0
 10
19.04038675540109
 20
0.0156397487315498
 30
0.0
 10
19.53930016342896
 20
-0.2727511039840638
 30
0.0
 10
20.01757963728129
 20
-0.5125650353735782
 30
0.0
 10
20.47559847357306
 20
-0.6734176171134753
 30
0.0
 10
20.83823152052524
 20
-0.7524174440216284
 30
0.0
 10
21.04861530785874
 20
-0.7418223549112092
 30
0.0
 10
21.10611655200014
 20
-0.7389265480937741
 30
0.0
  0
SPLINE
  5
E1
330
1F
100
AcDbEntity
  8
0
  6
Continuous
 62
     1
370
    25
100
AcDbSpline
210
0.0
220
0.0
230
1.0
 70
     8
 71
     3
 72
    10
 73
     6
 74
     0
 42
0.000000001
 43
0.00000001
 40
0.0
 40
0.0
 40
0.0
 40
0.0
 40
0.3947433041551349
 40
0.7894868764535965
 40
1.0
 40
1.0
 40
1.0
 40
1.0
 10
21.1353690320292
 20
0.3092472768535398
 30
0.0
 10
20.93949458970597
 20
0.4050425622182538
 30
0.0
 10
20.54774557200488
 20
0.5966331980200115
 30
0.0
 10
20.05125188755452
 20
0.7388170944671887
 30
0.0
 10
19.75127743651952
 20
0.7386025730665489
 30
0.0
 10
19.64694392132668
 20
0.738527960806286
 30
0.0
  0
SPLINE
  5
E2
330
1F
100
AcDbEntity
  8
0
  6
Continuous
 62
     1
370
    25
100
AcDbSpline
210
0.0
220
0.0
230
1.0
 70
     8
 71
     3
 72
    18
 73
    14
 74
     0
 42
0.000000001
 43
0.00000001
 40
0.0
 40
0.0
 40
0.0
 40
0.0
 40
0.0352741133335537
 40
0.1351538384304907
 40
0.2347079919200039
 40
0.3340821388641065
 40
0.4334510402732811
 40
0.5192540084048588
 40
0.6052544246384404
 40
0.6908341861968785
 40
0.8128770882140839
 40
0.9349200731332394
 40
1.0
 40
1.0
 40
1.0
 40
1.0
 10
16.29709710943175
 20
-0.6247710033797867
 30
0.0
 10
16.24050504783288
 20
-0.6447389654513297
 30
0.0
 10
16.02367084203848
 20
-0.7212468196412849
 30
0.0
 10
15.64683321817792
 20
-0.7621226433440116
 30
0.0
 10
15.16764869788912
 20
-0.7325716531709139
 30
0.0
 10
14.68940421419437
 20
-0.5989440017481351
 30
0.0
 10
14.23319626061593
 20
-0.395949881005204
 30
0.0
 10
13.79838934085698
 20
-0.1588461628076231
 30
0.0
 10
13.3850833098428
 20
0.0809788392721618
 30
0.0
 10
12.91511084132819
 20
0.3481968829918094
 30
0.0
 10
12.38556303513394
 20
0.5943339688273038
 30
0.0
 10
11.88909059765047
 20
0.7363223274213017
 30
0.0
 10
11.5892934405255
 20
0.7419366042273249
 30
0.0
 10
11.48502626728442
 20
0.7438892070404095
 30
0.0
  0
SPLINE
  5
E3
330
1F
100
AcDbEntity
  8
0
  6
Continuous
 62
     1
370
    25
100
AcDbSpline
210
0.0
220
0.0
230
1.0
 70
     8
 71
     3
 72
    18
 73
    14
 74
     0
 42
0.000000001
 43
0.00000001
 40
0.0
 40
0.0
 40
0.0
 40
0.0
 40
0.0229722600777639
 40
0.1179933565625806
 40
0.2174852694991199
 40
0.3170937669772869
 40
0.4163763978903695
 40
0.5154897917015198
 40
0.6146084175597356
 40
0.7139065871119132
 40
0.8135294911281202
 40
0.9129997681242917
 40
1.0
 40
1.0
 40
1.0
 40
1.0
 10
12.20256929999905
 20
0.6239858205117813
 30
0.0
 10
12.23948624435276
 20
0.6376043739827351
 30
0.0
 10
12.42910425161815
 20
0.7075539057277724
 30
0.0
 10
12.77864294489616
 20
0.7562810415717396
 30
0.0
 10
13.25184301001828
 20
0.7469264420769705
 30
0.0
 10
13.732057686343
 20
0.6307140989988588
 30
0.0
 10
14.21118750693114
 20
0.4311636821239516
 30
0.0
 10
14.68940147615592
 20
0.173247299098965
 30
0.0
 10
15.16764633962042
 20
-0.1076541415489072
 30
0.0
 10
15.64684543670524
 20
-0.3750076425373264
 30
0.0
 10
16.12710666076955
 20
-0.5889200047787384
 30
0.0
 10
16.58733034822065
 20
-0.7276111237887248
 30
0.0
 10
16.88708820429986
 20
-0.7391585303479541
 30
0.0
 10
17.02694411579617
 20
-0.7445461224894347
 30
0.0
  0
SPLINE
  5
E4
330
1F
100
AcDbEntity
  8
0
  6
Continuous
 62
     1
370
    25
100
AcDbSpline
210
0.0
220
0.0
230
1.0
 70
     8
 71
     3
 72
    10
 73
     6
 74
     0
 42
0.000000001
 43
0.00000001
 40
0.0
 40
0.0
 40
0.0
 40
0.0
 40
0.1073335062473505
 40
0.5513014666769529
 40
1.0
 40
1.0
 40
1.0
 40
1.0
 10
20.36466643905304
 20
0.6239858205117814
 30
0.0
 10
20.4015835045375
 20
0.6375693954387658
 30
0.0
 10
20.59120213397178
 20
0.7073392654615075
 30
0.0
 10
20.9351663692812
 20
0.7599872720648283
 30
0.0
 10
21.24258861936932
 20
0.7409455762167937
 30
0.0
 10
21.39711431702996
 20
0.7313742737664476
 30
0.0
  0
LINE
  5
E5
330
1F
100
AcDbEntity
  8
0
  6
Continuous
 62
     1
370
    25
100
AcDbLine
 10
21.39711431702996
 20
0.199794950617331
 30
0.0
 11
21.39711431702996
 21
0.7313742737664475
 31
0.0
  0
SPLINE
  5
E6
330
1F
100
AcDbEntity
  8
0
  6
Continuous
 62
     1
370
    25
100
AcDbSpline
210
0.0
220
0.0
230
1.0
 70
     8
 71
     3
 72
     8
 73
     4
 74
     0
 42
0.000000001
 43
0.00000001
 40
0.0
 40
0.0
 40
0.0
 40
0.0
 40
1.0
 40
1.0
 40
1.0
 40
1.0
 10
21.39711431702996
 20
0.1997949506173556
 30
0.0
 10
21.30325346593158
 20
0.2054337308954003
 30
0.0
 10
21.21398742250283
 20
0.2469303809541984
 30
0.0
 10
21.13536903202995
 20
0.309247276853147
 30
0.0
  0
LINE
  5
E7
330
1F
100
AcDbEntity
  8
0
  6
Continuous
 62
     1
370
    25
100
AcDbLine
 10
21.39711431702996
 20
0.7313742737664475
 30
0.0
 11
21.39711431702996
 21
0.7500000000000023
 31
0.0
  0
LINE
  5
E8
330
1F
100
AcDbEntity
  8
0
  6
Continuous
 62
     1
370
    25
100
AcDbLine
 10
21.13536903202995
 20
-0.6832760216478516
 30
0.0
 11
21.11737298322209
 21
-0.695876990681109
 31
0.0
  0
ELLIPSE
  5
E9
330
1F
100
AcDbEntity
  8
0
  6
Continuous
 62
     1
370
    25
100
AcDbEllipse
 10
21.15288662405185
 20
0.0000000000000011
 30
0.0
 11
1.041992479244975
 21
-0.4127557545313228
 31
0.0
210
0.0
220
0.0
230
1.0
 40
0.6009688174887258
 41
4.912933762914535
 42
5.176132609328199
  0
LINE
  5
EA
330
1F
100
AcDbEntity
  8
0
  6
Continuous
 62
     1
370
    25
100
AcDbLine
 10
21.39711431702996
 20
-0.7500000000000014
 30
0.0
 11
21.39711431702996
 21
-0.7446933086021947
 31
0.0
  0
ELLIPSE
  5
EB
330
1F
100
AcDbEntity
  8
0
  6
Continuous
 62
     1
370
    25
100
AcDbEllipse
 10
22.11118832040101
 20
0.0000000000000004
 30
0.0
 11
1.071111005056586
 21
0.0
 31
0.0
210
0.0
220
0.0
230
1.0
 40
0.7002075382097103
 41
2.716582861747929
 42
2.759364833374625
  0
ELLIPSE
  5
EC
330
1F
100
AcDbEntity
  8
0
  6
Continuous
 62
     1
370
    25
100
AcDbEllipse
 10
21.15288662405185
 20
0.0000000000000004
 30
0.0
 11
1.064326924485588
 21
-0.7291305528055548
 31
0.0
210
0.0
220
0.0
230
1.0
 40
0.1650759015746639
 41
1.453368357947249
 42
1.716567204360907
  0
LINE
  5
ED
330
1F
100
AcDbEntity
  8
0
  6
Continuous
 62
     1
370
    25
100
AcDbLine
 10
21.39711431702996
 20
-0.1661074100472505
 30
0.0
 11
21.39711431702996
 21
0.0890610808553128
 31
0.0
  0
LINE
  5
EE
330
1F
100
AcDbEntity
  8
0
  6
Continuous
 62
     1
370
    25
100
AcDbLine
 10
21.39711431702996
 20
0.0890610808553129
 30
0.0
 11
21.39711431702996
 21
0.199794950617331
 31
0.0
  0
LINE
  5
EF
330
1F
100
AcDbEntity
  8
0
  6
Continuous
 62
     1
370
    25
100
AcDbLine
 10
21.39711431702996
 20
-0.4999999999999989
 30
0.0
 11
21.39711431702996
 21
-0.7446933086021947
 31
0.0
  0
LINE
  5
F0
330
1F
100
AcDbEntity
  8
중심선
100
AcDbLine
 10
-41.60288568297004
 20
-0.0000000000000043
 30
0.0
 11
22.89711431702997
 21
0.0000000000000036
 31
0.0
  0
CIRCLE
  5
F1
330
1F
100
AcDbEntity
  8
해칭선
100
AcDbCircle
 10
-0.0000279142220779
 20
-0.0000000000000042
 30
0.0
 40
2.999999999999999
  0
INSERT
  5
F2
330
1F
100
AcDbEntity
  8
0
  6
Continuous
 62
     7
100
AcDbBlockReference
 66
     1
  2
블럭10
 10
-22.44009924894178
 20
-52.04717430164393
 30
0.0
  0
ATTRIB
  5
F3
330
F2
100
AcDbEntity
  8
FORMAT
 62
     2
100
AcDbText
 10
-38.55936028837733
 20
-49.97180738881174
 30
0.0
 40
4.233333333333333
  1
SEME7201510E [ 4 FLUTE ]
 41
0.75
  7
SLDTEXTSTYLE0
 11
-38.55936028837733
 21
-52.08847405547841
 31
0.0
100
AcDbAttribute
  2
AUTOATTR0
 70
     0
 74
     1
  0
SEQEND
  5
F4
330
F2
100
AcDbEntity
  8
0
  6
Continuous
 62
     7
  0
HATCH
  5
F5
330
1F
100
AcDbEntity
  8
중심선
100
AcDbHatch
 10
0.0
 20
0.0
 30
0.0
210
0.0
220
0.0
230
1.0
  2
SOLID
 70
     1
 71
     0
 91
        1
 92
        0
 93
        4
 72
     1
 10
-16.72518994456093
 20
-35.8
 11
-20.17146518839821
 21
-35.8
 72
     1
 10
-20.17146518839821
 20
-35.8
 11
-22.29969504760223
 21
-38.33632558057259
 72
     1
 10
-22.29969504760223
 20
-38.33632558057259
 11
-18.85338671865181
 21
-38.3362861512701
 72
     1
 10
-18.85338671865181
 20
-38.3362861512701
 11
-16.72518994456093
 21
-35.8
 97
        0
 75
     0
 76
     1
 98
        1
 10
0.0
 20
0.0
  0
HATCH
  5
F6
330
1F
100
AcDbEntity
  8
중심선
100
AcDbHatch
 10
0.0
 20
0.0
 30
0.0
210
0.0
220
0.0
230
1.0
  2
SOLID
 70
     1
 71
     0
 91
        1
 92
        0
 93
        4
 72
     1
 10
-11.71242595352495
 20
-35.8
 11
-15.15870119736223
 21
-35.8
 72
     1
 10
-15.15870119736223
 20
-35.8
 11
-19.68983920571965
 21
-41.20000000000002
 72
     1
 10
-19.68983920571965
 20
-41.20000000000002
 11
-16.24356396188237
 21
-41.20000000000002
 72
     1
 10
-16.24356396188237
 20
-41.20000000000002
 11
-11.71242595352495
 21
-35.8
 97
        0
 75
     0
 76
     1
 98
        1
 10
0.0
 20
0.0
  0
HATCH
  5
F7
330
1F
100
AcDbEntity
  8
중심선
100
AcDbHatch
 10
0.0
 20
0.0
 30
0.0
210
0.0
220
0.0
230
1.0
  2
SOLID
 70
     1
 71
     0
 91
        1
 92
        0
 93
        4
 72
     1
 10
-6.699661962489084
 20
-35.8
 11
-10.14593720632617
 21
-35.8
 72
     1
 10
-10.14593720632617
 20
-35.8
 11
-17.19437410821545
 21
-44.20000000000002
 72
     1
 10
-17.19437410821545
 20
-44.20000000000002
 11
-13.74809886437817
 21
-44.20000000000002
 72
     1
 10
-13.74809886437817
 20
-44.20000000000002
 11
-6.699661962489084
 21
-35.8
 97
        0
 75
     0
 76
     1
 98
        1
 10
0.0
 20
0.0
  0
HATCH
  5
F8
330
1F
100
AcDbEntity
  8
중심선
100
AcDbHatch
 10
0.0
 20
0.0
 30
0.0
210
0.0
220
0.0
230
1.0
  2
SOLID
 70
     1
 71
     0
 91
        1
 92
        0
 93
        6
 72
     3
 10
-1.899771531476885
 20
-40.00000000005127
 11
3.960054785062284
 21
1.540850780301639E-10
 40
0.3939339440162633
 50
17.09539180608433
 51
320.0019657685086
 73
     0
 72
     1
 10
-0.2167718757762893
 20
-38.58789400463833
 11
2.088529997924748
 21
-36.65356729459038
 72
     3
 10
-1.899771531529731
 20
-40.00000000000015
 11
6.600054785286829
 21
-1.249000902703301E-13
 40
0.6363583540795982
 50
39.99873849337408
 51
368.4976242363725
 73
     1
 72
     1
 10
4.525560960370878
 20
-39.03999999993002
 11
-3.219704224693809
 21
-39.03999999993002
 72
     1
 10
-3.219704224693809
 20
-39.03999999993002
 11
-3.219729269139743
 21
-40.95999999992991
 72
     1
 10
-3.219729269139743
 20
-40.95999999992991
 11
1.221650500332294
 21
-40.95999999992988
 97
        0
 75
     0
 76
     1
 98
        1
 10
0.0
 20
0.0
  0
DIMENSION
  5
F9
330
1F
100
AcDbEntity
  8
치수문자_일반주서
100
AcDbDimension
  2
_D
 10
34.30793155882635
 20
0.7500000000000533
 30
0.0
 11
34.3079315588263
 21
11.72900000000005
 31
0.0
 70
   160
  1
%%c<>
 71
     2
 42
1.500000000000012
 52
-270.0
  3
SLDDIMSTYLE0
100
AcDbAlignedDimension
 13
21.39711431702997
 23
-0.7500000000000063
 33
0.0
 14
21.39711431702997
 24
0.7500000000000054
 34
0.0
 50
90.0000000000002
100
AcDbRotatedDimension
  0
DIMENSION
  5
107
330
1F
100
AcDbEntity
  8
치수문자_일반주서
100
AcDbDimension
  2
_D_1
 10
21.39711431702997
 20
20.38913260158165
 30
0.0
 11
-8.602885682970049
 21
20.38913260158165
 31
0.0
 70
   160
  1
<>
 71
     2
 42
60.0
  3
SLDDIMSTYLE1
100
AcDbAlignedDimension
 13
-38.60288568297005
 23
2.499999999999994
 33
0.0
 14
21.39711431702996
 24
0.7500000000000024
 34
0.0
 50
-0.0000000000000068
100
AcDbRotatedDimension
  0
DIMENSION
  5
112
330
1F
100
AcDbEntity
  8
치수문자_일반주서
100
AcDbDimension
  2
_D_2
 10
-49.14096529273785
 20
-3.000000000000043
 30
0.0
 11
-49.1409652927379
 21
12.66649999999996
 31
0.0
 70
   160
  1
%%c<>
 71
     2
 42
6.000000000000005
 52
-270.0
  3
SLDDIMSTYLE2
100
AcDbAlignedDimension
 13
-38.10288568297003
 23
3.000000000000003
 33
0.0
 14
-38.10288568297003
 24
-3.000000000000002
 34
0.0
 50
90.0000000000002
100
AcDbRotatedDimension
  0
DIMENSION
  5
120
330
1F
100
AcDbEntity
  8
치수문자_일반주서
100
AcDbDimension
  2
_D_3
 10
21.39711431702996
 20
11.54279888169175
 30
0.0
 11
16.39711431702996
 21
11.54279888169175
 31
0.0
 70
   160
  1
<>
 71
     2
 42
10.0
  3
SLDDIMSTYLE2
100
AcDbAlignedDimension
 13
11.39711431702995
 23
0.7500000000000004
 33
0.0
 14
21.39711431702996
 24
0.7500000000000024
 34
0.0
100
AcDbRotatedDimension
  0
INSERT
  5
132
330
1F
100
AcDbEntity
  8
해칭선
100
AcDbBlockReference
  2
SW_DOWELSYMBOL_0
 10
-0.0000279142220779
 20
-0.0000000000000042
 30
0.0
  0
ENDSEC
  0
SECTION
  2
OBJECTS
  0
DICTIONARY
  5
C
330
0
100
AcDbDictionary
281
     1
  3
ACAD_GROUP
350
D
  3
ACAD_IMAGE_VARS
350
156
  3
ACAD_LAYOUT
350
1A
  3
ACAD_MLINESTYLE
350
17
  3
ACAD_PLOTSETTINGS
350
19
  3
ACAD_PLOTSTYLENAME
350
E
  3
ACAD_SCALELIST
350
47
  3
APPDATA
350
154
  3
DWGPROPS
350
164
  0
DICTIONARY
  5
D
102
{ACAD_REACTORS
330
C
102
}
330
C
100
AcDbDictionary
281
     1
  0
RASTERVARIABLES
  5
156
102
{ACAD_REACTORS
330
C
102
}
330
C
100
AcDbRasterVariables
 90
        0
 70
     1
 71
     1
 72
     1
  0
DICTIONARY
  5
1A
102
{ACAD_REACTORS
330
C
102
}
330
C
100
AcDbDictionary
281
     1
  3
Layout1
350
1E
  3
Layout2
350
26
  3
Model
350
22
  0
DICTIONARY
  5
17
102
{ACAD_REACTORS
330
C
102
}
330
C
100
AcDbDictionary
281
     1
  3
Standard
350
18
  0
DICTIONARY
  5
19
102
{ACAD_REACTORS
330
C
102
}
330
C
100
AcDbDictionary
281
     1
  0
ACDBDICTIONARYWDFLT
  5
E
102
{ACAD_REACTORS
330
C
102
}
330
C
100
AcDbDictionary
281
     1
  3
Normal
350
F
100
AcDbDictionaryWithDefault
340
F
  0
DICTIONARY
  5
47
102
{ACAD_REACTORS
330
C
102
}
330
C
100
AcDbDictionary
281
     1
  3
A0
350
48
  3
A1
350
49
  3
A2
350
4A
  3
A3
350
4B
  3
A4
350
4C
  3
A5
350
4D
  3
A6
350
4E
  3
A7
350
4F
  3
A8
350
50
  3
A9
350
51
  3
B0
350
52
  3
B1
350
53
  3
B2
350
54
  3
B3
350
55
  3
B4
350
56
  3
B5
350
57
  3
B6
350
58
  3
B7
350
59
  3
B8
350
5A
  3
B9
350
5B
  3
C0
350
5C
  3
C1
350
5D
  3
C2
350
5E
  3
C3
350
5F
  3
C4
350
60
  3
C5
350
61
  3
C6
350
62
  3
C7
350
63
  3
C8
350
64
  3
C9
350
65
  3
D0
350
66
  3
D1
350
67
  3
D2
350
68
  0
DICTIONARY
  5
154
102
{ACAD_REACTORS
330
C
102
}
330
C
100
AcDbDictionary
281
     1
  0
XRECORD
  5
164
102
{ACAD_REACTORS
330
C
102
}
330
C
100
AcDbXrecord
280
     1
  1
DWGPROPS COOKIE
  2

  3

  4

  6

  7

  8
12014102
  9

300
=
301
=
302
=
303
=
304
=
305
=
306
=
307
=
308
=
309
=
 40
0.0
 41
2458260.192005185
 42
2458268.094712639
  1

 90
        0
  0
LAYOUT
  5
1E
102
{ACAD_REACTORS
330
1A
102
}
330
1A
100
AcDbPlotSettings
  1

  2
none_device
  4

  6

 40
0.0
 41
0.0
 42
0.0
 43
0.0
 44
0.0
 45
0.0
 46
0.0
 47
0.0
 48
0.0
 49
0.0
140
0.0
141
0.0
142
1.0
143
1.0
 70
   688
 72
     1
 73
     0
 74
     5
  7

 75
    16
147
1.0
148
0.0
149
0.0
100
AcDbLayout
  1
Layout1
 70
     1
 71
     1
 10
0.0
 20
0.0
 11
420.0
 21
297.0
 12
0.0
 22
0.0
 32
0.0
 14
1.000000000000000E+20
 24
1.000000000000000E+20
 34
1.000000000000000E+20
 15
-1.000000000000000E+20
 25
-1.000000000000000E+20
 35
-1.000000000000000E+20
146
0.0
 13
0.0
 23
0.0
 33
0.0
 16
1.0
 26
0.0
 36
0.0
 17
0.0
 27
1.0
 37
0.0
 76
     0
330
1B
  0
LAYOUT
  5
26
102
{ACAD_REACTORS
330
1A
102
}
330
1A
100
AcDbPlotSettings
  1

  2
none_device
  4

  6

 40
0.0
 41
0.0
 42
0.0
 43
0.0
 44
0.0
 45
0.0
 46
0.0
 47
0.0
 48
0.0
 49
0.0
140
0.0
141
0.0
142
1.0
143
1.0
 70
   688
 72
     1
 73
     0
 74
     5
  7

 75
    16
147
1.0
148
0.0
149
0.0
100
AcDbLayout
  1
Layout2
 70
     1
 71
     2
 10
0.0
 20
0.0
 11
0.0
 21
0.0
 12
0.0
 22
0.0
 32
0.0
 14
0.0
 24
0.0
 34
0.0
 15
0.0
 25
0.0
 35
0.0
146
0.0
 13
0.0
 23
0.0
 33
0.0
 16
1.0
 26
0.0
 36
0.0
 17
0.0
 27
1.0
 37
0.0
 76
     0
330
23
  0
LAYOUT
  5
22
102
{ACAD_REACTORS
330
1A
102
}
330
1A
100
AcDbPlotSettings
  1

  2
none_device
  4
ANSI_A_(11.00_x_8.50_Inches)
  6

 40
6.35
 41
19.05
 42
6.35000508
 43
19.05000254
 44
279.4
 45
215.9
 46
159.1468158048696
 47
125.3847137330092
 48
0.0
 49
0.0
140
0.0
141
0.0
142
0.1112850254374008
143
1.0
 70
  1696
 72
     0
 73
     0
 74
     0
  7

 75
     0
147
0.0235690232323232
148
0.0
149
0.0
100
AcDbLayout
  1
Model
 70
     1
 71
     0
 10
0.0
 20
0.0
 11
420.0
 21
297.0
 12
0.0
 22
0.0
 32
0.0
 14
-53.51596529273791
 24
-49.97180738881174
 34
0.0
 15
34.8582648921597
 25
24.76413260158165
 35
0.0
146
0.0
 13
0.0
 23
0.0
 33
0.0
 16
1.0
 26
0.0
 36
0.0
 17
0.0
 27
1.0
 37
0.0
 76
     0
330
1F
331
29
  0
MLINESTYLE
  5
18
102
{ACAD_REACTORS
330
17
102
}
330
17
100
AcDbMlineStyle
  2
Standard
 70
     0
  3

 62
   256
 51
90.0
 52
90.0
 71
     2
 49
0.5
 62
   256
  6
BYLAYER
 49
-0.5
 62
   256
  6
BYLAYER
  0
ACDBPLACEHOLDER
  5
F
102
{ACAD_REACTORS
330
E
102
}
330
E
  0
SCALE
  5
48
102
{ACAD_REACTORS
330
47
102
}
330
47
100
AcDbScale
 70
     0
300
1:1
140
1.0
141
1.0
290
     1
  0
SCALE
  5
49
102
{ACAD_REACTORS
330
47
102
}
330
47
100
AcDbScale
 70
     0
300
1:2
140
1.0
141
2.0
290
     0
  0
SCALE
  5
4A
102
{ACAD_REACTORS
330
47
102
}
330
47
100
AcDbScale
 70
     0
300
1:4
140
1.0
141
4.0
290
     0
  0
SCALE
  5
4B
102
{ACAD_REACTORS
330
47
102
}
330
47
100
AcDbScale
 70
     0
300
1:5
140
1.0
141
5.0
290
     0
  0
SCALE
  5
4C
102
{ACAD_REACTORS
330
47
102
}
330
47
100
AcDbScale
 70
     0
300
1:8
140
1.0
141
8.0
290
     0
  0
SCALE
  5
4D
102
{ACAD_REACTORS
330
47
102
}
330
47
100
AcDbScale
 70
     0
300
1:10
140
1.0
141
10.0
290
     0
  0
SCALE
  5
4E
102
{ACAD_REACTORS
330
47
102
}
330
47
100
AcDbScale
 70
     0
300
1:16
140
1.0
141
16.0
290
     0
  0
SCALE
  5
4F
102
{ACAD_REACTORS
330
47
102
}
330
47
100
AcDbScale
 70
     0
300
1:20
140
1.0
141
20.0
290
     0
  0
SCALE
  5
50
102
{ACAD_REACTORS
330
47
102
}
330
47
100
AcDbScale
 70
     0
300
1:30
140
1.0
141
30.0
290
     0
  0
SCALE
  5
51
102
{ACAD_REACTORS
330
47
102
}
330
47
100
AcDbScale
 70
     0
300
1:40
140
1.0
141
40.0
290
     0
  0
SCALE
  5
52
102
{ACAD_REACTORS
330
47
102
}
330
47
100
AcDbScale
 70
     0
300
1:50
140
1.0
141
50.0
290
     0
  0
SCALE
  5
53
102
{ACAD_REACTORS
330
47
102
}
330
47
100
AcDbScale
 70
     0
300
1:100
140
1.0
141
100.0
290
     0
  0
SCALE
  5
54
102
{ACAD_REACTORS
330
47
102
}
330
47
100
AcDbScale
 70
     0
300
2:1
140
2.0
141
1.0
290
     0
  0
SCALE
  5
55
102
{ACAD_REACTORS
330
47
102
}
330
47
100
AcDbScale
 70
     0
300
4:1
140
4.0
141
1.0
290
     0
  0
SCALE
  5
56
102
{ACAD_REACTORS
330
47
102
}
330
47
100
AcDbScale
 70
     0
300
8:1
140
8.0
141
1.0
290
     0
  0
SCALE
  5
57
102
{ACAD_REACTORS
330
47
102
}
330
47
100
AcDbScale
 70
     0
300
10:1
140
10.0
141
1.0
290
     0
  0
SCALE
  5
58
102
{ACAD_REACTORS
330
47
102
}
330
47
100
AcDbScale
 70
     0
300
100:1
140
100.0
141
1.0
290
     0
  0
SCALE
  5
59
102
{ACAD_REACTORS
330
47
102
}
330
47
100
AcDbScale
 70
     0
300
1/128" = 1'-0"
140
0.0078125
141
12.0
290
     0
  0
SCALE
  5
5A
102
{ACAD_REACTORS
330
47
102
}
330
47
100
AcDbScale
 70
     0
300
1/64" = 1'-0"
140
0.015625
141
12.0
290
     0
  0
SCALE
  5
5B
102
{ACAD_REACTORS
330
47
102
}
330
47
100
AcDbScale
 70
     0
300
1/32" = 1'-0"
140
0.03125
141
12.0
290
     0
  0
SCALE
  5
5C
102
{ACAD_REACTORS
330
47
102
}
330
47
100
AcDbScale
 70
     0
300
1/16" = 1'-0"
140
0.0625
141
12.0
290
     0
  0
SCALE
  5
5D
102
{ACAD_REACTORS
330
47
102
}
330
47
100
AcDbScale
 70
     0
300
3/32" = 1'-0"
140
0.09375
141
12.0
290
     0
  0
SCALE
  5
5E
102
{ACAD_REACTORS
330
47
102
}
330
47
100
AcDbScale
 70
     0
300
1/8" = 1'-0"
140
0.125
141
12.0
290
     0
  0
SCALE
  5
5F
102
{ACAD_REACTORS
330
47
102
}
330
47
100
AcDbScale
 70
     0
300
3/16" = 1'-0"
140
0.1875
141
12.0
290
     0
  0
SCALE
  5
60
102
{ACAD_REACTORS
330
47
102
}
330
47
100
AcDbScale
 70
     0
300
1/4" = 1'-0"
140
0.25
141
12.0
290
     0
  0
SCALE
  5
61
102
{ACAD_REACTORS
330
47
102
}
330
47
100
AcDbScale
 70
     0
300
3/8" = 1'-0"
140
0.375
141
12.0
290
     0
  0
SCALE
  5
62
102
{ACAD_REACTORS
330
47
102
}
330
47
100
AcDbScale
 70
     0
300
1/2" = 1'-0"
140
0.5
141
12.0
290
     0
  0
SCALE
  5
63
102
{ACAD_REACTORS
330
47
102
}
330
47
100
AcDbScale
 70
     0
300
3/4" = 1'-0"
140
0.75
141
12.0
290
     0
  0
SCALE
  5
64
102
{ACAD_REACTORS
330
47
102
}
330
47
100
AcDbScale
 70
     0
300
1" = 1'-0"
140
1.0
141
12.0
290
     0
  0
SCALE
  5
65
102
{ACAD_REACTORS
330
47
102
}
330
47
100
AcDbScale
 70
     0
300
1-1/2" = 1'-0"
140
1.5
141
12.0
290
     0
  0
SCALE
  5
66
102
{ACAD_REACTORS
330
47
102
}
330
47
100
AcDbScale
 70
     0
300
3" = 1'-0"
140
3.0
141
12.0
290
     0
  0
SCALE
  5
67
102
{ACAD_REACTORS
330
47
102
}
330
47
100
AcDbScale
 70
     0
300
6" = 1'-0"
140
6.0
141
12.0
290
     0
  0
SCALE
  5
68
102
{ACAD_REACTORS
330
47
102
}
330
47
100
AcDbScale
 70
     0
300
1'-0" = 1'-0"
140
12.0
141
12.0
290
     0
  0
ENDSEC
  0
EOF
