  0
SECTION
  2
HEADER
  9
$ACADVER
  1
AC1015
  9
$ACADMAINTVER
 70
     6
  9
$DWGCODEPAGE
  3
ANSI_949
  9
$INSBASE
 10
0.0
 20
0.0
 30
0.0
  9
$EXTMIN
 10
-54.53182060699398
 20
-49.97180738881174
 30
0.0
  9
$EXTMAX
 10
30.34983228280542
 20
24.76413260158165
 30
0.0
  9
$LIMMIN
 10
0.0
 20
0.0
  9
$LIMMAX
 10
420.0
 20
297.0
  9
$ORTHOMODE
 70
     0
  9
$REGENMODE
 70
     1
  9
$FILLMODE
 70
     1
  9
$QTEXTMODE
 70
     0
  9
$MIRRTEXT
 70
     1
  9
$LTSCALE
 40
1.0
  9
$ATTMODE
 70
     1
  9
$TEXTSIZE
 40
3.5
  9
$TRACEWID
 40
1.0
  9
$TEXTSTYLE
  7
Standard
  9
$CLAYER
  8
0
  9
$CELTYPE
  6
ByLayer
  9
$CECOLOR
 62
   256
  9
$CELTSCALE
 40
1.0
  9
$DISPSILH
 70
     0
  9
$DIMSCALE
 40
1.0
  9
$DIMASZ
 40
3.302
  9
$DIMEXO
 40
1.0
  9
$DIMDLI
 40
3.75
  9
$DIMRND
 40
0.0
  9
$DIMDLE
 40
0.0
  9
$DIMEXE
 40
1.0
  9
$DIMTP
 40
0.0
  9
$DIMTM
 40
0.0
  9
$DIMTXT
 40
3.5
  9
$DIMCEN
 40
2.5
  9
$DIMTSZ
 40
0.0
  9
$DIMTOL
 70
     0
  9
$DIMLIM
 70
     0
  9
$DIMTIH
 70
     1
  9
$DIMTOH
 70
     1
  9
$DIMSE1
 70
     0
  9
$DIMSE2
 70
     0
  9
$DIMTAD
 70
     1
  9
$DIMZIN
 70
     0
  9
$DIMBLK
  1

  9
$DIMASO
 70
     1
  9
$DIMSHO
 70
     1
  9
$DIMPOST
  1

  9
$DIMAPOST
  1

  9
$DIMALT
 70
     0
  9
$DIMALTD
 70
     3
  9
$DIMALTF
 40
0.0393700787401575
  9
$DIMLFAC
 40
1.0
  9
$DIMTOFL
 70
     1
  9
$DIMTVP
 40
0.0
  9
$DIMTIX
 70
     0
  9
$DIMSOXD
 70
     0
  9
$DIMSAH
 70
     0
  9
$DIMBLK1
  1

  9
$DIMBLK2
  1

  9
$DIMSTYLE
  2
ISO-25
  9
$DIMCLRD
 70
     0
  9
$DIMCLRE
 70
     0
  9
$DIMCLRT
 70
     0
  9
$DIMTFAC
 40
1.0
  9
$DIMGAP
 40
1.524
  9
$DIMJUST
 70
     0
  9
$DIMSD1
 70
     0
  9
$DIMSD2
 70
     0
  9
$DIMTOLJ
 70
     0
  9
$DIMTZIN
 70
     0
  9
$DIMALTZ
 70
     0
  9
$DIMALTTZ
 70
     0
  9
$DIMUPT
 70
     0
  9
$DIMDEC
 70
     2
  9
$DIMTDEC
 70
     2
  9
$DIMALTU
 70
     2
  9
$DIMALTTD
 70
     3
  9
$DIMTXSTY
  7
Standard
  9
$DIMAUNIT
 70
     0
  9
$DIMADEC
 70
     2
  9
$DIMALTRND
 40
0.0
  9
$DIMAZIN
 70
     0
  9
$DIMDSEP
 70
    44
  9
$DIMATFIT
 70
     3
  9
$DIMFRAC
 70
     0
  9
$DIMLDRBLK
  1

  9
$DIMLUNIT
 70
     2
  9
$DIMLWD
 70
    -2
  9
$DIMLWE
 70
    -2
  9
$DIMTMOVE
 70
     0
  9
$LUNITS
 70
     2
  9
$LUPREC
 70
     2
  9
$SKETCHINC
 40
1.0
  9
$FILLETRAD
 40
10.0
  9
$AUNITS
 70
     0
  9
$AUPREC
 70
     2
  9
$MENU
  1
.
  9
$ELEVATION
 40
0.0
  9
$PELEVATION
 40
0.0
  9
$THICKNESS
 40
0.0
  9
$LIMCHECK
 70
     0
  9
$CHAMFERA
 40
0.0
  9
$CHAMFERB
 40
0.0
  9
$CHAMFERC
 40
0.0
  9
$CHAMFERD
 40
0.0
  9
$SKPOLY
 70
     0
  9
$TDCREATE
 40
2458260.566626921
  9
$TDUCREATE
 40
2458260.191626921
  9
$TDUPDATE
 40
2458268.467495787
  9
$TDUUPDATE
 40
2458268.092495787
  9
$TDINDWG
 40
0.00094875
  9
$TDUSRTIMER
 40
2458268.091547095
  9
$USRTIMER
 70
     1
  9
$ANGBASE
 50
0.0
  9
$ANGDIR
 70
     0
  9
$PDMODE
 70
     0
  9
$PDSIZE
 40
-1.0
  9
$PLINEWID
 40
0.0
  9
$SPLFRAME
 70
     0
  9
$SPLINETYPE
 70
     6
  9
$SPLINESEGS
 70
     8
  9
$HANDSEED
  5
15B
  9
$SURFTAB1
 70
     6
  9
$SURFTAB2
 70
     6
  9
$SURFTYPE
 70
     6
  9
$SURFU
 70
     6
  9
$SURFV
 70
     6
  9
$UCSBASE
  2

  9
$UCSNAME
  2

  9
$UCSORG
 10
0.0
 20
0.0
 30
0.0
  9
$UCSXDIR
 10
1.0
 20
0.0
 30
0.0
  9
$UCSYDIR
 10
0.0
 20
1.0
 30
0.0
  9
$UCSORTHOREF
  2

  9
$UCSORTHOVIEW
 70
     0
  9
$UCSORGTOP
 10
0.0
 20
0.0
 30
0.0
  9
$UCSORGBOTTOM
 10
0.0
 20
0.0
 30
0.0
  9
$UCSORGLEFT
 10
0.0
 20
0.0
 30
0.0
  9
$UCSORGRIGHT
 10
0.0
 20
0.0
 30
0.0
  9
$UCSORGFRONT
 10
0.0
 20
0.0
 30
0.0
  9
$UCSORGBACK
 10
0.0
 20
0.0
 30
0.0
  9
$PUCSBASE
  2

  9
$PUCSNAME
  2

  9
$PUCSORG
 10
0.0
 20
0.0
 30
0.0
  9
$PUCSXDIR
 10
1.0
 20
0.0
 30
0.0
  9
$PUCSYDIR
 10
0.0
 20
1.0
 30
0.0
  9
$PUCSORTHOREF
  2

  9
$PUCSORTHOVIEW
 70
     0
  9
$PUCSORGTOP
 10
0.0
 20
0.0
 30
0.0
  9
$PUCSORGBOTTOM
 10
0.0
 20
0.0
 30
0.0
  9
$PUCSORGLEFT
 10
0.0
 20
0.0
 30
0.0
  9
$PUCSORGRIGHT
 10
0.0
 20
0.0
 30
0.0
  9
$PUCSORGFRONT
 10
0.0
 20
0.0
 30
0.0
  9
$PUCSORGBACK
 10
0.0
 20
0.0
 30
0.0
  9
$USERI1
 70
     0
  9
$USERI2
 70
     0
  9
$USERI3
 70
     0
  9
$USERI4
 70
     0
  9
$USERI5
 70
     0
  9
$USERR1
 40
0.0
  9
$USERR2
 40
0.0
  9
$USERR3
 40
0.0
  9
$USERR4
 40
0.0
  9
$USERR5
 40
0.0
  9
$WORLDVIEW
 70
     1
  9
$SHADEDGE
 70
     3
  9
$SHADEDIF
 70
    70
  9
$TILEMODE
 70
     1
  9
$MAXACTVP
 70
    64
  9
$PINSBASE
 10
0.0
 20
0.0
 30
0.0
  9
$PLIMCHECK
 70
     0
  9
$PEXTMIN
 10
1.000000000000000E+20
 20
1.000000000000000E+20
 30
1.000000000000000E+20
  9
$PEXTMAX
 10
-1.000000000000000E+20
 20
-1.000000000000000E+20
 30
-1.000000000000000E+20
  9
$PLIMMIN
 10
0.0
 20
0.0
  9
$PLIMMAX
 10
0.0
 20
0.0
  9
$UNITMODE
 70
     0
  9
$VISRETAIN
 70
     1
  9
$PLINEGEN
 70
     0
  9
$PSLTSCALE
 70
     1
  9
$TREEDEPTH
 70
  3020
  9
$CMLSTYLE
  2
Standard
  9
$CMLJUST
 70
     0
  9
$CMLSCALE
 40
20.0
  9
$PROXYGRAPHICS
 70
     1
  9
$MEASUREMENT
 70
     1
  9
$CELWEIGHT
370
    -1
  9
$ENDCAPS
280
     0
  9
$JOINSTYLE
280
     0
  9
$LWDISPLAY
290
     1
  9
$INSUNITS
 70
     4
  9
$HYPERLINKBASE
  1

  9
$STYLESHEET
  1

  9
$XEDIT
290
     1
  9
$CEPSNTYPE
380
     0
  9
$PSTYLEMODE
290
     1
  9
$FINGERPRINTGUID
  2
{3302A753-AD44-43E8-AC2B-EFEEE30307AC}
  9
$VERSIONGUID
  2
{FAEB1C32-E019-11D5-929B-00C0DF256EC4}
  9
$EXTNAMES
290
     1
  9
$PSVPSCALE
 40
0.0
  9
$OLESTARTUP
290
     0
  0
ENDSEC
  0
SECTION
  2
CLASSES
  0
CLASS
  1
ACDBDICTIONARYWDFLT
  2
AcDbDictionaryWithDefault
  3
ObjectDBX Classes
 90
        0
280
     0
281
     0
  0
CLASS
  1
VISUALSTYLE
  2
AcDbVisualStyle
  3
ObjectDBX Classes
 90
     4095
280
     0
281
     0
  0
CLASS
  1
MATERIAL
  2
AcDbMaterial
  3
ObjectDBX Classes
 90
     1153
280
     0
281
     0
  0
CLASS
  1
SCALE
  2
AcDbScale
  3
ObjectDBX Classes
 90
     1153
280
     0
281
     0
  0
CLASS
  1
TABLESTYLE
  2
AcDbTableStyle
  3
ObjectDBX Classes
 90
     4095
280
     0
281
     0
  0
CLASS
  1
MLEADERSTYLE
  2
AcDbMLeaderStyle
  3
ACDB_MLEADERSTYLE_CLASS
 90
     4095
280
     0
281
     0
  0
CLASS
  1
SUN
  2
AcDbSun
  3
SCENEOE
 90
     1153
280
     0
281
     0
  0
CLASS
  1
ACDBPLACEHOLDER
  2
AcDbPlaceHolder
  3
ObjectDBX Classes
 90
        0
280
     0
281
     0
  0
CLASS
  1
LAYOUT
  2
AcDbLayout
  3
ObjectDBX Classes
 90
        0
280
     0
281
     0
  0
CLASS
  1
RASTERVARIABLES
  2
AcDbRasterVariables
  3
ISM
 90
        0
280
     0
281
     0
  0
ENDSEC
  0
SECTION
  2
TABLES
  0
TABLE
  2
VPORT
  5
8
330
0
100
AcDbSymbolTable
 70
     1
  0
VPORT
  5
29
330
8
100
AcDbSymbolTableRecord
100
AcDbViewportTableRecord
  2
*Active
 70
     0
 10
0.0
 20
0.0
 11
1.0
 21
1.0
 12
-12.09099416209428
 22
-12.60383739361505
 13
0.0
 23
0.0
 14
10.0
 24
10.0
 15
10.0
 25
10.0
 16
0.0
 26
0.0
 36
1.0
 17
0.0
 27
0.0
 37
0.0
 40
76.23065879020125
 41
1.737726098191214
 42
50.0
 43
0.0
 44
0.0
 50
0.0
 51
0.0
 71
    16
 72
  2000
 73
     1
 74
     3
 75
     0
 76
     0
 77
     0
 78
     0
281
     0
 65
     1
110
0.0
120
0.0
130
0.0
111
1.0
121
0.0
131
0.0
112
0.0
122
1.0
132
0.0
 79
     0
146
0.0
  0
ENDTAB
  0
TABLE
  2
LTYPE
  5
5
330
0
100
AcDbSymbolTable
 70
     6
  0
LTYPE
  5
14
330
5
100
AcDbSymbolTableRecord
100
AcDbLinetypeTableRecord
  2
ByBlock
 70
     0
  3

 72
    65
 73
     0
 40
0.0
  0
LTYPE
  5
15
330
5
100
AcDbSymbolTableRecord
100
AcDbLinetypeTableRecord
  2
ByLayer
 70
     0
  3

 72
    65
 73
     0
 40
0.0
  0
LTYPE
  5
16
330
5
100
AcDbSymbolTableRecord
100
AcDbLinetypeTableRecord
  2
Continuous
 70
     0
  3
Solid line
 72
    65
 73
     0
 40
0.0
  0
LTYPE
  5
6E
330
5
100
AcDbSymbolTableRecord
100
AcDbLinetypeTableRecord
  2
HIDDEN
 70
     0
  3
Hidden __ __ __ __ __ __ __ __ __ __ __ __ __ __
 72
    65
 73
     2
 40
1.905
 49
1.27
 74
     0
 49
-0.635
 74
     0
  0
LTYPE
  5
6F
330
5
100
AcDbSymbolTableRecord
100
AcDbLinetypeTableRecord
  2
PHANTOM
 70
     0
  3
Phantom ______  __  __  ______  __  __  ______
 72
    65
 73
     6
 40
12.7
 49
6.35
 74
     0
 49
-1.27
 74
     0
 49
1.27
 74
     0
 49
-1.27
 74
     0
 49
1.27
 74
     0
 49
-1.27
 74
     0
  0
LTYPE
  5
70
330
5
100
AcDbSymbolTableRecord
100
AcDbLinetypeTableRecord
  2
CENTER
 70
     0
  3
Center ____ _ ____ _ ____ _ ____ _ ____ _ ____
 72
    65
 73
     4
 40
10.16
 49
6.35
 74
     0
 49
-1.27
 74
     0
 49
1.27
 74
     0
 49
-1.27
 74
     0
  0
LTYPE
  5
71
330
5
100
AcDbSymbolTableRecord
100
AcDbLinetypeTableRecord
  2
CENTERX2
 70
     0
  3
Center (2x) ________  __  ________  __  _____
 72
    65
 73
     4
 40
20.32
 49
12.7
 74
     0
 49
-2.54
 74
     0
 49
2.54
 74
     0
 49
-2.54
 74
     0
  0
LTYPE
  5
72
330
5
100
AcDbSymbolTableRecord
100
AcDbLinetypeTableRecord
  2
DOT2
 70
     0
  3
Dot (.5x) ........................................
 72
    65
 73
     2
 40
0.635
 49
0.0
 74
     0
 49
-0.635
 74
     0
  0
ENDTAB
  0
TABLE
  2
LAYER
  5
2
330
0
100
AcDbSymbolTable
 70
    17
  0
LAYER
  5
10
330
2
100
AcDbSymbolTableRecord
100
AcDbLayerTableRecord
  2
0
 70
     0
 62
     7
  6
Continuous
370
    -3
390
F
  0
LAYER
  5
73
330
2
100
AcDbSymbolTableRecord
100
AcDbLayerTableRecord
  2
FORMAT
 70
     0
 62
     2
  6
Continuous
370
    -3
390
F
  0
LAYER
  5
74
330
2
100
AcDbSymbolTableRecord
100
AcDbLayerTableRecord
  2
외형선
 70
     0
 62
   100
  6
Continuous
370
    35
390
F
  0
LAYER
  5
75
330
2
100
AcDbSymbolTableRecord
100
AcDbLayerTableRecord
  2
숨은선
 70
     0
 62
     2
  6
HIDDEN
370
    25
390
F
  0
LAYER
  5
76
330
2
100
AcDbSymbolTableRecord
100
AcDbLayerTableRecord
  2
중심선
 70
     0
 62
     1
  6
CENTERX2
370
    -3
390
F
  0
LAYER
  5
77
330
2
100
AcDbSymbolTableRecord
100
AcDbLayerTableRecord
  2
파단선
 70
     0
 62
     4
  6
Continuous
370
    -3
390
F
  0
LAYER
  5
78
330
2
100
AcDbSymbolTableRecord
100
AcDbLayerTableRecord
  2
해칭선
 70
     0
 62
   100
  6
Continuous
370
    -3
390
F
  0
LAYER
  5
79
330
2
100
AcDbSymbolTableRecord
100
AcDbLayerTableRecord
  2
가는실선
 70
     0
 62
     4
  6
Continuous
370
    -3
390
F
  0
LAYER
  5
7A
330
2
100
AcDbSymbolTableRecord
100
AcDbLayerTableRecord
  2
치수_보조선
 70
     0
 62
     4
  6
Continuous
370
    -3
390
F
  0
LAYER
  5
7B
330
2
100
AcDbSymbolTableRecord
100
AcDbLayerTableRecord
  2
치수문자_일반주서
 70
     0
 62
     7
  6
Continuous
370
    25
390
F
  0
LAYER
  5
7C
330
2
100
AcDbSymbolTableRecord
100
AcDbLayerTableRecord
  2
개별주서
 70
     0
 62
   100
  6
Continuous
370
    35
390
F
  0
LAYER
  5
7D
330
2
100
AcDbSymbolTableRecord
100
AcDbLayerTableRecord
  2
중간선
 70
     0
 62
     2
  6
Continuous
370
    25
390
F
  0
LAYER
  5
7E
330
2
100
AcDbSymbolTableRecord
100
AcDbLayerTableRecord
  2
윤곽선
 70
     0
 62
     3
  6
Continuous
370
    50
390
F
  0
LAYER
  5
7F
330
2
100
AcDbSymbolTableRecord
100
AcDbLayerTableRecord
  2
중심마크
 70
     0
 62
   100
  6
Continuous
370
    35
390
F
  0
LAYER
  5
80
330
2
100
AcDbSymbolTableRecord
100
AcDbLayerTableRecord
  2
가상선
 70
     0
 62
     4
  6
PHANTOM
370
    -3
390
F
  0
LAYER
  5
81
330
2
100
AcDbSymbolTableRecord
100
AcDbLayerTableRecord
  2
특수지정선
 70
     0
 62
     5
  6
CENTERX2
370
    70
390
F
  0
LAYER
  5
14A
330
2
100
AcDbSymbolTableRecord
100
AcDbLayerTableRecord
  2
Defpoints
 70
     0
 62
     7
  6
Continuous
290
     0
370
    -3
390
F
  0
ENDTAB
  0
TABLE
  2
STYLE
  5
3
330
0
100
AcDbSymbolTable
 70
     2
  0
STYLE
  5
11
330
3
100
AcDbSymbolTableRecord
100
AcDbTextStyleTableRecord
  2
Standard
 70
     0
 40
0.0
 41
1.0
 50
0.0
 71
     0
 42
3.5
  3
txt
  4

  0
STYLE
  5
97
330
3
100
AcDbSymbolTableRecord
100
AcDbTextStyleTableRecord
  2
SLDTEXTSTYLE0
 70
     0
 40
0.0
 41
0.75
 50
0.0
 71
     0
 42
3.5
  3
TXT
  4

  0
ENDTAB
  0
TABLE
  2
VIEW
  5
6
330
0
100
AcDbSymbolTable
 70
     0
  0
ENDTAB
  0
TABLE
  2
UCS
  5
7
330
0
100
AcDbSymbolTable
 70
     0
  0
ENDTAB
  0
TABLE
  2
APPID
  5
9
330
0
100
AcDbSymbolTable
 70
     1
  0
APPID
  5
12
330
9
100
AcDbSymbolTableRecord
100
AcDbRegAppTableRecord
  2
ACAD
 70
     0
  0
ENDTAB
  0
TABLE
  2
DIMSTYLE
  5
A
330
0
100
AcDbSymbolTable
 70
     4
100
AcDbDimStyleTable
  0
DIMSTYLE
105
27
330
A
100
AcDbSymbolTableRecord
100
AcDbDimStyleTableRecord
  2
ISO-25
 70
     0
 41
2.5
 42
0.625
 43
3.75
 44
1.25
 73
     0
 74
     0
 77
     1
 78
     8
140
2.5
141
2.5
143
0.03937007874016
147
0.625
171
     3
172
     1
178
     0
271
     2
272
     2
274
     3
278
    44
283
     0
284
     8
340
11
  0
DIMSTYLE
105
ED
102
{ACAD_REACTORS
330
EC
102
}
330
A
100
AcDbSymbolTableRecord
100
AcDbDimStyleTableRecord
  2
SLDDIMSTYLE0
 70
     0
 41
3.302
 44
0.0
 45
0.000000001
 73
     0
 74
     0
 77
     1
 78
    12
 79
     3
140
3.5
147
0.875
172
     1
173
     1
178
     0
271
     1
272
     1
276
     2
284
    12
289
     0
340
97
  0
DIMSTYLE
105
FB
102
{ACAD_REACTORS
330
FA
102
}
330
A
100
AcDbSymbolTableRecord
100
AcDbDimStyleTableRecord
  2
SLDDIMSTYLE1
 70
     0
 41
3.302
 44
0.0
 45
0.000000001
 73
     0
 74
     0
 77
     1
 78
    12
 79
     3
140
3.5
147
0.875
173
     1
178
     0
271
     2
272
     2
276
     2
284
    12
340
97
  0
DIMSTYLE
105
106
102
{ACAD_REACTORS
330
105
330
113
102
}
330
A
100
AcDbSymbolTableRecord
100
AcDbDimStyleTableRecord
  2
SLDDIMSTYLE2
 70
     0
 41
3.302
 44
0.0
 45
0.000000001
 73
     0
 74
     0
 77
     1
 78
    12
 79
     3
140
3.5
147
0.875
172
     1
173
     1
178
     0
271
     2
272
     2
276
     2
284
    12
289
     0
340
97
  0
ENDTAB
  0
TABLE
  2
BLOCK_RECORD
  5
1
330
0
100
AcDbSymbolTable
 70
     7
  0
BLOCK_RECORD
  5
1F
330
1
100
AcDbSymbolTableRecord
100
AcDbBlockTableRecord
  2
*Model_Space
340
22
  0
BLOCK_RECORD
  5
1B
330
1
100
AcDbSymbolTableRecord
100
AcDbBlockTableRecord
  2
*Paper_Space
340
1E
  0
BLOCK_RECORD
  5
23
330
1
100
AcDbSymbolTableRecord
100
AcDbBlockTableRecord
  2
*Paper_Space0
340
26
  0
BLOCK_RECORD
  5
82
330
1
100
AcDbSymbolTableRecord
100
AcDbBlockTableRecord
  2
블럭10
340
0
102
{BLKREFS
331
E5
102
}
  0
BLOCK_RECORD
  5
EE
330
1
100
AcDbSymbolTableRecord
100
AcDbBlockTableRecord
  2
_D
340
0
  0
BLOCK_RECORD
  5
FC
330
1
100
AcDbSymbolTableRecord
100
AcDbBlockTableRecord
  2
_D_1
340
0
  0
BLOCK_RECORD
  5
107
330
1
100
AcDbSymbolTableRecord
100
AcDbBlockTableRecord
  2
_D_2
340
0
  0
BLOCK_RECORD
  5
114
330
1
100
AcDbSymbolTableRecord
100
AcDbBlockTableRecord
  2
_D_3
340
0
  0
BLOCK_RECORD
  5
11F
330
1
100
AcDbSymbolTableRecord
100
AcDbBlockTableRecord
  2
SW_DOWELSYMBOL_0
340
0
102
{BLKREFS
331
125
102
}
  0
ENDTAB
  0
ENDSEC
  0
SECTION
  2
BLOCKS
  0
BLOCK
  5
20
330
1F
100
AcDbEntity
  8
0
100
AcDbBlockBegin
  2
*Model_Space
 70
     0
 10
0.0
 20
0.0
 30
0.0
  3
*Model_Space
  1

  0
ENDBLK
  5
21
330
1F
100
AcDbEntity
  8
0
100
AcDbBlockEnd
  0
BLOCK
  5
1C
330
1B
100
AcDbEntity
 67
     1
  8
0
100
AcDbBlockBegin
  2
*Paper_Space
 70
     0
 10
0.0
 20
0.0
 30
0.0
  3
*Paper_Space
  1

  0
ENDBLK
  5
1D
330
1B
100
AcDbEntity
 67
     1
  8
0
100
AcDbBlockEnd
  0
BLOCK
  5
24
330
23
100
AcDbEntity
  8
0
100
AcDbBlockBegin
  2
*Paper_Space0
 70
     0
 10
0.0
 20
0.0
 30
0.0
  3
*Paper_Space0
  1

  0
ENDBLK
  5
25
330
23
100
AcDbEntity
  8
0
100
AcDbBlockEnd
  0
BLOCK
  5
83
330
82
100
AcDbEntity
  8
0
100
AcDbBlockBegin
  2
블럭10
 70
     2
 10
0.0
 20
0.0
 30
0.0
  3
블럭10
  1

  0
ELLIPSE
  5
85
330
82
100
AcDbEntity
  8
중심선
100
AcDbEllipse
 10
20.54032771741204
 20
12.0471743016438
 30
0.0
 11
6.600054785286829
 21
-1.261213355974178E-13
 31
0.0
210
0.0
220
0.0
230
1.0
 40
0.636358354079598
 41
0.9219305317359503
 42
6.513795318482858
  0
ELLIPSE
  5
86
330
82
100
AcDbEntity
  8
중심선
100
AcDbEllipse
 10
20.54032771746488
 20
12.04717430159265
 30
0.0
 11
3.960054785062283
 21
1.540847449632565E-10
 31
0.0
210
0.0
220
0.0
230
1.0
 40
0.3939339440162632
 41
1.131841032648279
 42
5.62031148352944
  0
LINE
  5
87
330
82
100
AcDbEntity
  8
중심선
100
AcDbLine
 10
2.268634060543552
 20
16.24717430164393
 30
0.0
 11
5.714909304380834
 21
16.24717430164393
 31
0.0
  0
LINE
  5
88
330
82
100
AcDbEntity
  8
중심선
100
AcDbLine
 10
5.245725140726316
 20
7.84717430164391
 30
0.0
 11
8.692000384563599
 21
7.84717430164391
 31
0.0
  0
LINE
  5
89
330
82
100
AcDbEntity
  8
중심선
100
AcDbLine
 10
15.74043728645272
 20
16.24717430164393
 30
0.0
 11
8.692000384563599
 21
7.84717430164391
 31
0.0
  0
LINE
  5
8A
330
82
100
AcDbEntity
  8
중심선
100
AcDbLine
 10
0.1404042013395286
 20
13.71084872107135
 30
0.0
 11
3.58671253028996
 21
13.71088815037384
 31
0.0
  0
LINE
  5
8B
330
82
100
AcDbEntity
  8
중심선
100
AcDbLine
 10
2.750260043222114
 20
10.84717430164391
 30
0.0
 11
6.196535287059397
 21
10.84717430164391
 31
0.0
  0
LINE
  5
8C
330
82
100
AcDbEntity
  8
중심선
100
AcDbLine
 10
12.29416204261559
 20
16.24717430164393
 30
0.0
 11
5.245725140726316
 21
7.84717430164391
 31
0.0
  0
LINE
  5
8D
330
82
100
AcDbEntity
  8
중심선
100
AcDbLine
 10
10.72767329541681
 20
16.24717430164393
 30
0.0
 11
6.196535287059397
 21
10.84717430164391
 31
0.0
  0
LINE
  5
8E
330
82
100
AcDbEntity
  8
중심선
100
AcDbLine
 10
7.28139805157953
 20
16.24717430164393
 30
0.0
 11
2.750260043222114
 21
10.84717430164391
 31
0.0
  0
LINE
  5
8F
330
82
100
AcDbEntity
  8
중심선
100
AcDbLine
 10
5.714909304380834
 20
16.24717430164393
 30
0.0
 11
3.58671253028996
 21
13.71088815037384
 31
0.0
  0
LINE
  5
90
330
82
100
AcDbEntity
  8
중심선
100
AcDbLine
 10
2.268634060543552
 20
16.24717430164393
 30
0.0
 11
0.1404042013395286
 21
13.71084872107135
 31
0.0
  0
LINE
  5
91
330
82
100
AcDbEntity
  8
중심선
100
AcDbLine
 10
7.28139805157953
 20
16.24717430164393
 30
0.0
 11
10.72767329541681
 21
16.24717430164393
 31
0.0
  0
LINE
  5
92
330
82
100
AcDbEntity
  8
중심선
100
AcDbLine
 10
12.29416204261559
 20
16.24717430164393
 30
0.0
 11
15.74043728645272
 21
16.24717430164393
 31
0.0
  0
LINE
  5
93
330
82
100
AcDbEntity
  8
중심선
100
AcDbLine
 10
19.22036997980202
 20
11.08717430171403
 30
0.0
 11
23.66174974927406
 21
11.08717430171406
 31
0.0
  0
LINE
  5
94
330
82
100
AcDbEntity
  8
중심선
100
AcDbLine
 10
19.22039502424796
 20
13.00717430171391
 30
0.0
 11
19.22036997980202
 21
11.08717430171403
 31
0.0
  0
LINE
  5
95
330
82
100
AcDbEntity
  8
중심선
100
AcDbLine
 10
19.22039502424796
 20
13.00717430171391
 30
0.0
 11
26.96566020931264
 21
13.00717430171391
 31
0.0
  0
LINE
  5
96
330
82
100
AcDbEntity
  8
중심선
100
AcDbLine
 10
22.22332737316547
 20
13.45928029700563
 30
0.0
 11
24.52862924686651
 21
15.39360700705356
 31
0.0
  0
ATTDEF
  5
98
330
82
100
AcDbEntity
  8
FORMAT
 62
     2
100
AcDbText
 10
-16.11926103943555
 20
2.075366912832191
 30
0.0
 40
4.233333333333333
  1
SEME7201506E [ 4 FLUTE ]
 41
0.75
  7
SLDTEXTSTYLE0
 11
-16.11926103943555
 21
-0.0412997538344756
 31
0.0
100
AcDbAttributeDefinition
  3

  2
AUTOATTR0
 70
     0
 74
     1
  0
ENDBLK
  5
84
330
82
100
AcDbEntity
  8
0
100
AcDbBlockEnd
  0
BLOCK
  5
EF
330
EE
100
AcDbEntity
  8
0
100
AcDbBlockBegin
  2
_D
 70
     0
 10
0.0
 20
0.0
 30
0.0
  3
_D
  1

  0
LINE
  5
F1
330
EE
100
AcDbEntity
  8
치수문자_일반주서
 62
     0
370
    -2
100
AcDbLine
 10
17.45961431702997
 20
-0.7500000000000057
 30
0.0
 11
29.79949894947207
 21
-0.7499999999999591
 31
0.0
  0
LINE
  5
F2
330
EE
100
AcDbEntity
  8
치수문자_일반주서
 62
     0
370
    -2
100
AcDbLine
 10
17.45961431702997
 20
0.7500000000000061
 30
0.0
 11
29.79949894947206
 21
0.7500000000000515
 31
0.0
  0
LINE
  5
F3
330
EE
100
AcDbEntity
  8
치수문자_일반주서
 62
     0
370
    -2
100
AcDbLine
 10
29.79949894947207
 20
-0.7499999999999591
 30
0.0
 11
29.79949894947203
 21
16.15095793469578
 31
0.0
  0
LINE
  5
F4
330
EE
100
AcDbEntity
  8
치수문자_일반주서
 62
     0
370
    -2
100
AcDbLine
 10
29.79949894947207
 20
-0.7499999999999591
 30
0.0
 11
29.79949894947206
 21
0.7500000000000515
 31
0.0
  0
LINE
  5
F5
330
EE
100
AcDbEntity
  8
치수문자_일반주서
 62
     0
370
    -2
100
AcDbLine
 10
29.79949894947207
 20
-4.051999999999959
 30
0.0
 11
29.79949894947208
 21
-7.353999999999958
 31
0.0
  0
LINE
  5
F6
330
EE
100
AcDbEntity
  8
치수문자_일반주서
 62
     0
370
    -2
100
AcDbLine
 10
29.79949894947206
 20
4.052000000000051
 30
0.0
 11
29.79949894947205
 21
7.354000000000051
 31
0.0
  0
SOLID
  5
F7
330
EE
100
AcDbEntity
  8
치수문자_일반주서
 62
     0
100
AcDbTrace
 10
30.34983228280541
 20
-4.051999999999958
 30
0.0
 11
29.24916561613874
 21
-4.05199999999996
 31
0.0
 12
29.79949894947207
 22
-0.7499999999999591
 32
0.0
 13
29.79949894947207
 23
-0.7499999999999591
 33
0.0
  0
SOLID
  5
F8
330
EE
100
AcDbEntity
  8
치수문자_일반주서
 62
     0
100
AcDbTrace
 10
29.24916561613872
 20
4.05200000000005
 30
0.0
 11
30.34983228280539
 21
4.052000000000052
 31
0.0
 12
29.79949894947206
 22
0.7500000000000515
 32
0.0
 13
29.79949894947206
 23
0.7500000000000515
 33
0.0
  0
MTEXT
  5
F9
330
EE
100
AcDbEntity
  8
치수문자_일반주서
 62
     0
100
AcDbMText
 10
25.42449894947204
 20
11.77595793469578
 30
0.0
 40
3.5
 41
0.0
 71
     2
 72
     1
  1
\A1;%%c1.5
  7
SLDTEXTSTYLE0
 11
-2.368475785866982E-15
 21
1.0
 31
0.0
 73
     1
 44
1.0
  0
POINT
  5
152
330
EE
100
AcDbEntity
  8
Defpoints
 62
     0
100
AcDbPoint
 10
17.39711431702997
 20
-0.7500000000000059
 30
0.0
  0
POINT
  5
153
330
EE
100
AcDbEntity
  8
Defpoints
 62
     0
100
AcDbPoint
 10
17.39711431702997
 20
0.7500000000000059
 30
0.0
  0
POINT
  5
154
330
EE
100
AcDbEntity
  8
Defpoints
 62
     0
100
AcDbPoint
 10
29.79949894947206
 20
0.7500000000000522
 30
0.0
  0
ENDBLK
  5
F0
330
EE
100
AcDbEntity
  8
0
100
AcDbBlockEnd
  0
BLOCK
  5
FD
330
FC
100
AcDbEntity
  8
0
100
AcDbBlockBegin
  2
_D_1
 70
     0
 10
0.0
 20
0.0
 30
0.0
  3
_D_1
  1

  0
LINE
  5
FF
330
FC
100
AcDbEntity
  8
치수문자_일반주서
 62
     0
370
    -2
100
AcDbLine
 10
-42.60288568297005
 20
2.562499999999994
 30
0.0
 11
-42.60288568297005
 21
20.38913260158164
 31
0.0
  0
LINE
  5
100
330
FC
100
AcDbEntity
  8
치수문자_일반주서
 62
     0
370
    -2
100
AcDbLine
 10
17.39711431702995
 20
0.812500000000002
 30
0.0
 11
17.39711431702995
 21
20.38913260158164
 31
0.0
  0
LINE
  5
101
330
FC
100
AcDbEntity
  8
치수문자_일반주서
 62
     0
370
    -2
100
AcDbLine
 10
-39.30088568297005
 20
20.38913260158164
 30
0.0
 11
14.09511431702995
 21
20.38913260158164
 31
0.0
  0
SOLID
  5
102
330
FC
100
AcDbEntity
  8
치수문자_일반주서
 62
     0
100
AcDbTrace
 10
-39.30088568297005
 20
20.93946593491498
 30
0.0
 11
-39.30088568297005
 21
19.83879926824831
 31
0.0
 12
-42.60288568297005
 22
20.38913260158164
 32
0.0
 13
-42.60288568297005
 23
20.38913260158164
 33
0.0
  0
SOLID
  5
103
330
FC
100
AcDbEntity
  8
치수문자_일반주서
 62
     0
100
AcDbTrace
 10
14.09511431702995
 20
19.83879926824831
 30
0.0
 11
14.09511431702995
 21
20.93946593491498
 31
0.0
 12
17.39711431702995
 22
20.38913260158164
 32
0.0
 13
17.39711431702995
 23
20.38913260158164
 33
0.0
  0
MTEXT
  5
104
330
FC
100
AcDbEntity
  8
치수문자_일반주서
 62
     0
100
AcDbMText
 10
-12.60288568297005
 20
24.76413260158164
 30
0.0
 40
3.5
 41
0.0
 71
     2
 72
     1
  1
\A1;60
  7
SLDTEXTSTYLE0
 73
     1
 44
1.0
  0
POINT
  5
14B
330
FC
100
AcDbEntity
  8
Defpoints
 62
     0
100
AcDbPoint
 10
-42.60288568297005
 20
2.499999999999994
 30
0.0
  0
POINT
  5
14C
330
FC
100
AcDbEntity
  8
Defpoints
 62
     0
100
AcDbPoint
 10
17.39711431702995
 20
0.750000000000002
 30
0.0
  0
POINT
  5
14D
330
FC
100
AcDbEntity
  8
Defpoints
 62
     0
100
AcDbPoint
 10
17.39711431702995
 20
20.38913260158164
 30
0.0
  0
ENDBLK
  5
FE
330
FC
100
AcDbEntity
  8
0
100
AcDbBlockEnd
  0
BLOCK
  5
108
330
107
100
AcDbEntity
  8
0
100
AcDbBlockBegin
  2
_D_2
 70
     0
 10
0.0
 20
0.0
 30
0.0
  3
_D_2
  1

  0
LINE
  5
10A
330
107
100
AcDbEntity
  8
치수문자_일반주서
 62
     0
370
    -2
100
AcDbLine
 10
-42.16538568297004
 20
3.000000000000003
 30
0.0
 11
-50.15682060699394
 21
2.999999999999973
 31
0.0
  0
LINE
  5
10B
330
107
100
AcDbEntity
  8
치수문자_일반주서
 62
     0
370
    -2
100
AcDbLine
 10
-42.16538568297004
 20
-3.000000000000002
 30
0.0
 11
-50.15682060699392
 21
-3.000000000000032
 31
0.0
  0
LINE
  5
10C
330
107
100
AcDbEntity
  8
치수문자_일반주서
 62
     0
370
    -2
100
AcDbLine
 10
-50.15682060699394
 20
2.999999999999973
 30
0.0
 11
-50.15682060699399
 21
15.72899999999997
 31
0.0
  0
LINE
  5
10D
330
107
100
AcDbEntity
  8
치수문자_일반주서
 62
     0
370
    -2
100
AcDbLine
 10
-50.15682060699394
 20
2.999999999999973
 30
0.0
 11
-50.15682060699392
 21
-3.000000000000032
 31
0.0
  0
LINE
  5
10E
330
107
100
AcDbEntity
  8
치수문자_일반주서
 62
     0
370
    -2
100
AcDbLine
 10
-50.15682060699395
 20
6.301999999999973
 30
0.0
 11
-50.15682060699397
 21
9.603999999999973
 31
0.0
  0
LINE
  5
10F
330
107
100
AcDbEntity
  8
치수문자_일반주서
 62
     0
370
    -2
100
AcDbLine
 10
-50.1568206069939
 20
-6.302000000000032
 30
0.0
 11
-50.15682060699389
 21
-9.604000000000031
 31
0.0
  0
SOLID
  5
110
330
107
100
AcDbEntity
  8
치수문자_일반주서
 62
     0
100
AcDbTrace
 10
-50.70715394032729
 20
6.301999999999971
 30
0.0
 11
-49.60648727366062
 21
6.301999999999975
 31
0.0
 12
-50.15682060699394
 22
2.999999999999973
 32
0.0
 13
-50.15682060699394
 23
2.999999999999973
 33
0.0
  0
SOLID
  5
111
330
107
100
AcDbEntity
  8
치수문자_일반주서
 62
     0
100
AcDbTrace
 10
-49.60648727366057
 20
-6.30200000000003
 30
0.0
 11
-50.70715394032724
 21
-6.302000000000033
 31
0.0
 12
-50.15682060699392
 22
-3.000000000000032
 32
0.0
 13
-50.15682060699392
 23
-3.000000000000032
 33
0.0
  0
MTEXT
  5
112
330
107
100
AcDbEntity
  8
치수문자_일반주서
 62
     0
100
AcDbMText
 10
-54.53182060699397
 20
12.66649999999996
 30
0.0
 40
3.5
 41
0.0
 71
     2
 72
     1
  1
\A1;%%c6
  7
SLDTEXTSTYLE0
 11
-3.552713678800498E-15
 21
1.0
 31
0.0
 73
     1
 44
1.0
  0
POINT
  5
14F
330
107
100
AcDbEntity
  8
Defpoints
 62
     0
100
AcDbPoint
 10
-42.10288568297004
 20
3.000000000000004
 30
0.0
  0
POINT
  5
150
330
107
100
AcDbEntity
  8
Defpoints
 62
     0
100
AcDbPoint
 10
-42.10288568297004
 20
-3.000000000000002
 30
0.0
  0
POINT
  5
151
330
107
100
AcDbEntity
  8
Defpoints
 62
     0
100
AcDbPoint
 10
-50.15682060699393
 20
-3.000000000000032
 30
0.0
  0
ENDBLK
  5
109
330
107
100
AcDbEntity
  8
0
100
AcDbBlockEnd
  0
BLOCK
  5
115
330
114
100
AcDbEntity
  8
0
100
AcDbBlockBegin
  2
_D_3
 70
     0
 10
0.0
 20
0.0
 30
0.0
  3
_D_3
  1

  0
LINE
  5
117
330
114
100
AcDbEntity
  8
치수문자_일반주서
 62
     0
370
    -2
100
AcDbLine
 10
11.39711431702995
 20
0.8125000000000014
 30
0.0
 11
11.39711431702995
 21
12.9272623210107
 31
0.0
  0
LINE
  5
118
330
114
100
AcDbEntity
  8
치수문자_일반주서
 62
     0
370
    -2
100
AcDbLine
 10
17.39711431702995
 20
0.812500000000002
 30
0.0
 11
17.39711431702995
 21
12.9272623210107
 31
0.0
  0
LINE
  5
119
330
114
100
AcDbEntity
  8
치수문자_일반주서
 62
     0
370
    -2
100
AcDbLine
 10
11.39711431702995
 20
12.9272623210107
 30
0.0
 11
1.293114317029955
 21
12.9272623210107
 31
0.0
  0
LINE
  5
11A
330
114
100
AcDbEntity
  8
치수문자_일반주서
 62
     0
370
    -2
100
AcDbLine
 10
11.39711431702995
 20
12.9272623210107
 30
0.0
 11
17.39711431702995
 21
12.9272623210107
 31
0.0
  0
LINE
  5
11B
330
114
100
AcDbEntity
  8
치수문자_일반주서
 62
     0
370
    -2
100
AcDbLine
 10
8.095114317029955
 20
12.9272623210107
 30
0.0
 11
4.793114317029955
 21
12.9272623210107
 31
0.0
  0
LINE
  5
11C
330
114
100
AcDbEntity
  8
치수문자_일반주서
 62
     0
370
    -2
100
AcDbLine
 10
20.69911431702995
 20
12.9272623210107
 30
0.0
 11
24.00111431702995
 21
12.9272623210107
 31
0.0
  0
SOLID
  5
11D
330
114
100
AcDbEntity
  8
치수문자_일반주서
 62
     0
100
AcDbTrace
 10
8.095114317029955
 20
12.37692898767737
 30
0.0
 11
8.095114317029955
 21
13.47759565434403
 31
0.0
 12
11.39711431702995
 22
12.9272623210107
 32
0.0
 13
11.39711431702995
 23
12.9272623210107
 33
0.0
  0
SOLID
  5
11E
330
114
100
AcDbEntity
  8
치수문자_일반주서
 62
     0
100
AcDbTrace
 10
20.69911431702995
 20
13.47759565434403
 30
0.0
 11
20.69911431702995
 21
12.37692898767737
 31
0.0
 12
17.39711431702995
 22
12.9272623210107
 32
0.0
 13
17.39711431702995
 23
12.9272623210107
 33
0.0
  0
MTEXT
  5
14E
330
114
100
AcDbEntity
  8
치수문자_일반주서
 62
     0
100
AcDbMText
 10
3.043114317029955
 20
17.3022623210107
 30
0.0
 40
3.5
 41
0.0
 71
     2
 72
     1
  1
\A1;6
  7
SLDTEXTSTYLE0
 73
     1
 44
1.0
  0
POINT
  5
155
330
114
100
AcDbEntity
  8
Defpoints
 62
     0
100
AcDbPoint
 10
11.39711431702995
 20
0.7500000000000014
 30
0.0
  0
POINT
  5
156
330
114
100
AcDbEntity
  8
Defpoints
 62
     0
100
AcDbPoint
 10
17.39711431702995
 20
0.750000000000002
 30
0.0
  0
POINT
  5
157
330
114
100
AcDbEntity
  8
Defpoints
 62
     0
100
AcDbPoint
 10
17.39711431702995
 20
12.9272623210107
 30
0.0
  0
ENDBLK
  5
116
330
114
100
AcDbEntity
  8
0
100
AcDbBlockEnd
  0
BLOCK
  5
120
330
11F
100
AcDbEntity
  8
0
100
AcDbBlockBegin
  2
SW_DOWELSYMBOL_0
 70
     0
 10
0.0
 20
0.0
 30
0.0
  3
SW_DOWELSYMBOL_0
  1

  0
CIRCLE
  5
122
330
11F
100
AcDbEntity
  8
해칭선
 62
     0
100
AcDbCircle
 10
0.0
 20
0.0
 30
0.0
 40
3.0
  0
HATCH
  5
123
330
11F
100
AcDbEntity
  8
0
  6
Continuous
 62
     0
370
    18
100
AcDbHatch
 10
0.0
 20
0.0
 30
0.0
210
0.0
220
0.0
230
1.0
  2
SOLID
 70
     1
 71
     0
 91
        1
 92
        0
 93
        3
 72
     2
 10
0.0
 20
0.0
 40
3.0
 50
0.0
 51
90.0
 73
     1
 72
     1
 10
0.0
 20
3.0
 11
0.0
 21
0.0
 72
     1
 10
0.0
 20
0.0
 11
3.0
 21
0.0
 97
        0
 75
     0
 76
     1
 98
        1
 10
0.0
 20
0.0
  0
HATCH
  5
124
330
11F
100
AcDbEntity
  8
0
  6
Continuous
 62
     0
370
    18
100
AcDbHatch
 10
0.0
 20
0.0
 30
0.0
210
0.0
220
0.0
230
1.0
  2
SOLID
 70
     1
 71
     0
 91
        1
 92
        0
 93
        3
 72
     2
 10
0.0
 20
0.0
 40
3.0
 50
180.0
 51
270.0000000000008
 73
     1
 72
     1
 10
0.0
 20
-3.0
 11
0.0
 21
0.0
 72
     1
 10
0.0
 20
0.0
 11
-3.0
 21
0.0
 97
        0
 75
     0
 76
     1
 98
        1
 10
0.0
 20
0.0
  0
ENDBLK
  5
121
330
11F
100
AcDbEntity
  8
0
100
AcDbBlockEnd
  0
ENDSEC
  0
SECTION
  2
ENTITIES
  0
LINE
  5
99
330
1F
100
AcDbEntity
  8
0
  6
Continuous
 62
     4
370
    25
100
AcDbLine
 10
2.0
 20
2.999999999999998
 30
0.0
 11
-42.10288568297004
 21
2.999999999999996
 31
0.0
  0
LINE
  5
9A
330
1F
100
AcDbEntity
  8
0
  6
Continuous
 62
     4
370
    25
100
AcDbLine
 10
-42.10288568297004
 20
-3.0
 30
0.0
 11
2.0
 21
-2.999999999999997
 31
0.0
  0
LINE
  5
9B
330
1F
100
AcDbEntity
  8
0
  6
Continuous
 62
     4
370
    25
100
AcDbLine
 10
2.0
 20
-2.999999999999998
 30
0.0
 11
9.896920160379974
 21
-0.8840266203331277
 31
0.0
  0
LINE
  5
9C
330
1F
100
AcDbEntity
  8
0
  6
Continuous
 62
     4
370
    25
100
AcDbLine
 10
9.896920160379974
 20
0.8840266203331295
 30
0.0
 11
2.0
 21
3.0
 31
0.0
  0
LINE
  5
9D
330
1F
100
AcDbEntity
  8
0
  6
Continuous
 62
     4
370
    25
100
AcDbLine
 10
-42.10288568297004
 20
2.999999999999994
 30
0.0
 11
-42.60288568297005
 21
2.499999999999994
 31
0.0
  0
LINE
  5
9E
330
1F
100
AcDbEntity
  8
0
  6
Continuous
 62
     4
370
    25
100
AcDbLine
 10
-42.60288568297005
 20
-2.499999999999999
 30
0.0
 11
-42.10288568297004
 21
-2.999999999999998
 31
0.0
  0
LINE
  5
9F
330
1F
100
AcDbEntity
  8
0
  6
Continuous
 62
     4
370
    25
100
AcDbLine
 10
10.98571893582017
 20
-0.7499999999999991
 30
0.0
 11
11.39711431702995
 21
-0.749999999999999
 31
0.0
  0
LINE
  5
A0
330
1F
100
AcDbEntity
  8
0
  6
Continuous
 62
     4
370
    25
100
AcDbLine
 10
11.39711431702995
 20
0.750000000000001
 30
0.0
 11
10.98571893582016
 21
0.7500000000000009
 31
0.0
  0
LINE
  5
A1
330
1F
100
AcDbEntity
  8
0
  6
Continuous
 62
     1
370
    25
100
AcDbLine
 10
15.06655072584471
 20
-0.7499999999999997
 30
0.0
 11
15.64688857093854
 21
-0.7499999999999997
 31
0.0
  0
LINE
  5
A2
330
1F
100
AcDbEntity
  8
0
  6
Continuous
 62
     1
370
    25
100
AcDbLine
 10
11.56575456629434
 20
0.7500000000000014
 30
0.0
 11
11.39711431702995
 21
0.7500000000000014
 31
0.0
  0
LINE
  5
A3
330
1F
100
AcDbEntity
  8
0
  6
Continuous
 62
     1
370
    25
100
AcDbLine
 10
13.24379391041799
 20
-0.1232599156769865
 30
0.0
 11
13.21336205072278
 21
-0.1072960738319596
 31
0.0
  0
LINE
  5
A4
330
1F
100
AcDbEntity
  8
0
  6
Continuous
 62
     1
370
    25
100
AcDbLine
 10
17.25404028765167
 20
-0.0844475734264192
 30
0.0
 11
17.23639486318632
 21
-0.0740767105761782
 31
0.0
  0
SPLINE
  5
A5
330
1F
100
AcDbEntity
  8
0
  6
Continuous
 62
     1
370
    25
100
AcDbSpline
210
0.0
220
0.0
230
1.0
 70
     8
 71
     3
 72
     9
 73
     5
 74
     0
 42
0.000000001
 43
0.00000001
 40
0.0
 40
0.0
 40
0.0
 40
0.0
 40
0.5608731443051318
 40
1.0
 40
1.0
 40
1.0
 40
1.0
 10
17.39711431702995
 20
-0.1669836202489033
 30
0.0
 10
17.37063815110968
 20
-0.1520857900021339
 30
0.0
 10
17.32343288519689
 20
-0.1255239365812032
 30
0.0
 10
17.27521434402338
 20
-0.0969813776036969
 30
0.0
 10
17.25404028765167
 20
-0.0844475734264192
 30
0.0
  0
LINE
  5
A6
330
1F
100
AcDbEntity
  8
0
  6
Continuous
 62
     1
370
    25
100
AcDbLine
 10
15.42245938627446
 20
0.1272953862251587
 30
0.0
 11
15.46123469082833
 21
0.1071535915810672
 31
0.0
  0
LINE
  5
A7
330
1F
100
AcDbEntity
  8
0
  6
Continuous
 62
     1
370
    25
100
AcDbLine
 10
17.10613331363268
 20
-0.7499999999999997
 30
0.0
 11
17.39711431702995
 21
-0.7499999999999997
 31
0.0
  0
LINE
  5
A8
330
1F
100
AcDbEntity
  8
0
  6
Continuous
 62
     1
370
    25
100
AcDbLine
 10
13.60690319021738
 20
0.7500000000000014
 30
0.0
 11
13.02708439984638
 21
0.7500000000000014
 31
0.0
  0
LINE
  5
A9
330
1F
100
AcDbEntity
  8
0
  6
Continuous
 62
     1
370
    25
100
AcDbLine
 10
13.02708439984638
 20
-0.7499999999999997
 30
0.0
 11
13.60690319021737
 21
-0.7499999999999997
 31
0.0
  0
LINE
  5
AA
330
1F
100
AcDbEntity
  8
0
  6
Continuous
 62
     1
370
    25
100
AcDbLine
 10
17.39711431702995
 20
0.7500000000000014
 30
0.0
 11
17.10613331363268
 21
0.7500000000000014
 31
0.0
  0
LINE
  5
AB
330
1F
100
AcDbEntity
  8
0
  6
Continuous
 62
     1
370
    25
100
AcDbLine
 10
11.39711431702995
 20
-0.7499999999999997
 30
0.0
 11
11.56575456629435
 21
-0.7499999999999997
 31
0.0
  0
LINE
  5
AC
330
1F
100
AcDbEntity
  8
0
  6
Continuous
 62
     1
370
    25
100
AcDbLine
 10
15.64688857093854
 20
0.7500000000000014
 30
0.0
 11
15.06655072584472
 21
0.7500000000000014
 31
0.0
  0
LINE
  5
AD
330
1F
100
AcDbEntity
  8
0
  6
Continuous
 62
     4
370
    25
100
AcDbLine
 10
2.0
 20
3.0
 30
0.0
 11
2.0
 21
-3.0
 31
0.0
  0
LINE
  5
AE
330
1F
100
AcDbEntity
  8
0
  6
Continuous
 62
     4
370
    25
100
AcDbLine
 10
-42.10288568297004
 20
2.999999999999994
 30
0.0
 11
-42.10288568297004
 21
-2.999999999999998
 31
0.0
  0
SPLINE
  5
AF
330
1F
100
AcDbEntity
  8
0
  6
Continuous
 62
     4
370
    25
100
AcDbSpline
210
0.0
220
0.0
230
1.0
 70
     8
 71
     3
 72
     8
 73
     4
 74
     0
 42
0.000000001
 43
0.00000001
 40
0.0
 40
0.0
 40
0.0
 40
0.0
 40
1.0
 40
1.0
 40
1.0
 40
1.0
 10
10.12668329859176
 20
0.5092614621115973
 30
0.0
 10
10.21651924012298
 20
0.450095457231065
 30
0.0
 10
10.30662878431555
 20
0.3897076396715068
 30
0.0
 10
10.39711431702995
 20
0.3282053597457029
 30
0.0
  0
SPLINE
  5
B0
330
1F
100
AcDbEntity
  8
0
  6
Continuous
 62
     4
370
    25
100
AcDbSpline
210
0.0
220
0.0
230
1.0
 70
     8
 71
     3
 72
    26
 73
    22
 74
     0
 42
0.000000001
 43
0.00000001
 40
0.0
 40
0.0
 40
0.0
 40
0.0
 40
0.0000472036532306
 40
0.0000472036532306
 40
0.0000472036532306
 40
0.0000943059610966
 40
0.0000943059610966
 40
0.0000943059610966
 40
0.000142896695421
 40
0.000142896695421
 40
0.000142896695421
 40
0.0001942367211245
 40
0.0001942367211245
 40
0.0001942367211245
 40
0.0002472393033591
 40
0.0002472393033591
 40
0.0002472393033591
 40
0.0003003270339193
 40
0.0003003270339193
 40
0.0003003270339193
 40
0.0003262052869102
 40
0.0003262052869102
 40
0.0003262052869102
 40
0.0003262052869102
 10
9.896920160379974
 20
0.4387856904748872
 30
0.0
 10
9.896920160379974
 20
0.4524452177027369
 30
0.0
 10
9.899476004783464
 20
0.4657332981191957
 30
0.0
 10
9.904326559368231
 20
0.4775665248385826
 30
0.0
 10
9.909171250556952
 20
0.4893854474420999
 30
0.0
 10
9.916418959264009
 20
0.5000802940758644
 30
0.0
 10
9.925440339361291
 20
0.5089657397967966
 30
0.0
 10
9.934748107092156
 20
0.5181332578554337
 30
0.0
 10
9.946177957573262
 20
0.525624020701858
 30
0.0
 10
9.958864942834323
 20
0.5310601853659654
 30
0.0
 10
9.972257782069686
 20
0.5367987968568145
 30
0.0
 10
9.987408078050786
 20
0.540404327176494
 30
0.0
 10
10.00316952331761
 20
0.5417308327424899
 30
0.0
 10
10.01942732213235
 20
0.54309911212636
 30
0.0
 10
10.03678614309803
 20
0.5420784462567003
 30
0.0
 10
10.05383341450887
 20
0.5387755099090155
 30
0.0
 10
10.07090336705487
 20
0.535468179054789
 30
0.0
 10
10.08813736936428
 20
0.5297748821310769
 30
0.0
 10
10.10404185340509
 20
0.5220912647463308
 30
0.0
 10
10.11188149911404
 20
0.5183038524728568
 30
0.0
 10
10.11948472001837
 20
0.5140024502700827
 30
0.0
 10
10.12668329859176
 20
0.5092614621115975
 30
0.0
  0
LINE
  5
B1
330
1F
100
AcDbEntity
  8
0
  6
Continuous
 62
     4
370
    25
100
AcDbLine
 10
9.896920160379974
 20
0.4387856904748871
 30
0.0
 11
9.896920160379974
 21
-0.1749101477934163
 31
0.0
  0
SPLINE
  5
B2
330
1F
100
AcDbEntity
  8
0
  6
Continuous
 62
     4
370
    25
100
AcDbSpline
210
0.0
220
0.0
230
1.0
 70
     8
 71
     3
 72
    14
 73
    10
 74
     0
 42
0.000000001
 43
0.00000001
 40
0.0
 40
0.0
 40
0.0
 40
0.0
 40
0.0000509369177189
 40
0.0000509369177189
 40
0.0000509369177189
 40
0.0001020152221073
 40
0.0001020152221073
 40
0.0001020152221073
 40
0.0001494864860057
 40
0.0001494864860057
 40
0.0001494864860057
 40
0.0001494864860057
 10
9.964037452819088
 20
-0.2912155150239827
 30
0.0
 10
9.950374526035489
 20
-0.2836015784662184
 30
0.0
 10
9.937990411747172
 20
-0.2734791767959905
 30
0.0
 10
9.927892976718558
 20
-0.2615183106726148
 30
0.0
 10
9.917779455078456
 20
-0.2495383892341126
 30
0.0
 10
9.909681483814083
 20
-0.2353527701527383
 30
0.0
 10
9.904410604204585
 20
-0.2201080368013295
 30
0.0
 10
9.899506056295344
 20
-0.205922828520179
 30
0.0
 10
9.896920160379908
 20
-0.1904214082380711
 30
0.0
 10
9.896920160379905
 20
-0.174910147793446
 30
0.0
  0
SPLINE
  5
B3
330
1F
100
AcDbEntity
  8
0
  6
Continuous
 62
     4
370
    25
100
AcDbSpline
210
0.0
220
0.0
230
1.0
 70
     8
 71
     3
 72
     8
 73
     4
 74
     0
 42
0.000000001
 43
0.00000001
 40
0.0
 40
0.0
 40
0.0
 40
0.0
 40
1.0
 40
1.0
 40
1.0
 40
1.0
 10
10.39711431702995
 20
-0.466446857082261
 30
0.0
 10
10.24773875930152
 20
-0.427220519641991
 30
0.0
 10
10.10425898575602
 20
-0.3693567414774453
 30
0.0
 10
9.964037452819085
 20
-0.291215515023981
 30
0.0
  0
LINE
  5
B4
330
1F
100
AcDbEntity
  8
0
  6
Continuous
 62
     4
370
    25
100
AcDbLine
 10
10.39711431702995
 20
-0.4664468570822606
 30
0.0
 11
10.39711431702995
 21
-0.6743747043255643
 31
0.0
  0
SPLINE
  5
B5
330
1F
100
AcDbEntity
  8
0
  6
Continuous
 62
     4
370
    25
100
AcDbSpline
210
0.0
220
0.0
230
1.0
 70
     8
 71
     3
 72
     8
 73
     4
 74
     0
 42
0.000000001
 43
0.00000001
 40
0.0
 40
0.0
 40
0.0
 40
0.0
 40
1.0
 40
1.0
 40
1.0
 40
1.0
 10
10.12668329859176
 20
-0.645829800529796
 30
0.0
 10
10.21651924012298
 20
-0.6618295328230436
 30
0.0
 10
10.30662878431555
 20
-0.6714071644219352
 30
0.0
 10
10.39711431702995
 20
-0.6743747043255666
 30
0.0
  0
SPLINE
  5
B6
330
1F
100
AcDbEntity
  8
0
  6
Continuous
 62
     4
370
    25
100
AcDbSpline
210
0.0
220
0.0
230
1.0
 70
     8
 71
     3
 72
    26
 73
    22
 74
     0
 42
0.000000001
 43
0.00000001
 40
0.0
 40
0.0
 40
0.0
 40
0.0
 40
0.0000472036532306
 40
0.0000472036532306
 40
0.0000472036532306
 40
0.0000943059610966
 40
0.0000943059610966
 40
0.0000943059610966
 40
0.000142896695421
 40
0.000142896695421
 40
0.000142896695421
 40
0.0001942367211245
 40
0.0001942367211245
 40
0.0001942367211245
 40
0.0002472393033591
 40
0.0002472393033591
 40
0.0002472393033591
 40
0.0003003270339193
 40
0.0003003270339193
 40
0.0003003270339193
 40
0.0003262052869102
 40
0.0003262052869102
 40
0.0003262052869102
 40
0.0003262052869102
 10
9.896920160379974
 20
-0.7674439284352259
 30
0.0
 10
9.896920160379977
 20
-0.7596341004280472
 30
0.0
 10
9.899476004783464
 20
-0.7507380110129475
 30
0.0
 10
9.904326559368235
 20
-0.7415716069624029
 30
0.0
 10
9.909171250556952
 20
-0.7324162833473775
 30
0.0
 10
9.916418959264009
 20
-0.7227532678536088
 30
0.0
 10
9.925440339361291
 20
-0.7134451278568862
 30
0.0
 10
9.934748107092156
 20
-0.7038414969088909
 30
0.0
 10
9.946177957573262
 20
-0.6943711141873109
 30
0.0
 10
9.958864942834323
 20
-0.6858625200847104
 30
0.0
 10
9.972257782069686
 20
-0.676880541262299
 30
0.0
 10
9.987408078050786
 20
-0.668739345390568
 30
0.0
 10
10.00316952331761
 20
-0.6621977114755834
 30
0.0
 10
10.01942732213235
 20
-0.6554500708684524
 30
0.0
 10
10.03678614309803
 20
-0.6502288067388994
 30
0.0
 10
10.05383341450887
 20
-0.6470350607464513
 30
0.0
 10
10.07090336705487
 20
-0.6438370655235677
 30
0.0
 10
10.08813736936428
 20
-0.6425880479263413
 30
0.0
 10
10.10404185340509
 20
-0.6433352440369915
 30
0.0
 10
10.11188149911404
 20
-0.6437035522931766
 30
0.0
 10
10.11948472001837
 20
-0.6445477376037221
 30
0.0
 10
10.12668329859176
 20
-0.6458298005297959
 30
0.0
  0
LINE
  5
B7
330
1F
100
AcDbEntity
  8
0
  6
Continuous
 62
     4
370
    25
100
AcDbLine
 10
9.896920160379974
 20
-0.7674439284352258
 30
0.0
 11
9.896920160379974
 21
-0.8840266203331277
 31
0.0
  0
SPLINE
  5
B8
330
1F
100
AcDbEntity
  8
0
  6
Continuous
 62
     4
370
    25
100
AcDbSpline
210
0.0
220
0.0
230
1.0
 70
     8
 71
     3
 72
    14
 73
    10
 74
     0
 42
0.000000001
 43
0.00000001
 40
0.0
 40
0.0
 40
0.0
 40
0.0
 40
0.0000509369177189
 40
0.0000509369177189
 40
0.0000509369177189
 40
0.0001020152221073
 40
0.0001020152221073
 40
0.0001020152221073
 40
0.0001494864860057
 40
0.0001494864860057
 40
0.0001494864860057
 40
0.0001494864860057
 10
9.964037452819088
 20
-0.8156122252275344
 30
0.0
 10
9.950374526035489
 20
-0.8222181249719852
 30
0.0
 10
9.937990411747172
 20
-0.8291895737686954
 30
0.0
 10
9.927892976718558
 20
-0.8357671870938337
 30
0.0
 10
9.917779455078456
 20
-0.8423552794673451
 30
0.0
 10
9.909681483814083
 20
-0.8487270480870777
 30
0.0
 10
9.904410604204585
 20
-0.8541141374631769
 30
0.0
 10
9.899506056295344
 20
-0.8591268184374938
 30
0.0
 10
9.896920160379908
 20
-0.8634194545161679
 30
0.0
 10
9.896920160379905
 20
-0.8665503480216943
 30
0.0
  0
SPLINE
  5
B9
330
1F
100
AcDbEntity
  8
0
  6
Continuous
 62
     4
370
    25
100
AcDbSpline
210
0.0
220
0.0
230
1.0
 70
     8
 71
     3
 72
     9
 73
     5
 74
     0
 42
0.000000001
 43
0.00000001
 40
0.0
 40
0.0
 40
0.0
 40
0.0
 40
0.372125059009373
 40
1.0
 40
1.0
 40
1.0
 40
1.0
 10
10.25570682439848
 20
-0.6638925864173271
 30
0.0
 10
10.21864031889737
 20
-0.68419787622868
 30
0.0
 10
10.11903266119276
 20
-0.7387636446975043
 30
0.0
 10
10.02381944519513
 20
-0.7859715588897709
 30
0.0
 10
9.964037452819085
 20
-0.8156122252275305
 30
0.0
  0
SPLINE
  5
BA
330
1F
100
AcDbEntity
  8
0
  6
Continuous
 62
     4
370
    25
100
AcDbSpline
210
0.0
220
0.0
230
1.0
 70
     8
 71
     3
 72
     9
 73
     5
 74
     0
 42
0.000000001
 43
0.00000001
 40
0.0
 40
0.0
 40
0.0
 40
0.0
 40
0.1057959433524142
 40
1.0
 40
1.0
 40
1.0
 40
1.0
 10
10.25570682439848
 20
0.6638925864173302
 30
0.0
 10
10.26069264630375
 20
0.6645816139847127
 30
0.0
 10
10.30781942401644
 20
0.6710944115982016
 30
0.0
 10
10.354960539938
 20
0.6728261641598422
 30
0.0
 10
10.39711431702995
 20
0.6743747043255709
 30
0.0
  0
LINE
  5
BB
330
1F
100
AcDbEntity
  8
0
  6
Continuous
 62
     4
370
    25
100
AcDbLine
 10
9.896920160379974
 20
0.8840266203331295
 30
0.0
 11
9.896920160379974
 21
0.8665503480216814
 31
0.0
  0
SPLINE
  5
BC
330
1F
100
AcDbEntity
  8
0
  6
Continuous
 62
     4
370
    25
100
AcDbSpline
210
0.0
220
0.0
230
1.0
 70
     8
 71
     3
 72
    14
 73
    10
 74
     0
 42
0.000000001
 43
0.00000001
 40
0.0
 40
0.0
 40
0.0
 40
0.0
 40
0.0000509369177189
 40
0.0000509369177189
 40
0.0000509369177189
 40
0.0001020152221073
 40
0.0001020152221073
 40
0.0001020152221073
 40
0.0001494864860057
 40
0.0001494864860057
 40
0.0001494864860057
 40
0.0001494864860057
 10
9.964037452819088
 20
0.8156122252275348
 30
0.0
 10
9.950374526035489
 20
0.8222181249719857
 30
0.0
 10
9.937990411747169
 20
0.8291895737686953
 30
0.0
 10
9.927892976718558
 20
0.8357671870938337
 30
0.0
 10
9.917779455078456
 20
0.8423552794673451
 30
0.0
 10
9.909681483814083
 20
0.8487270480870778
 30
0.0
 10
9.904410604204585
 20
0.8541141374631771
 30
0.0
 10
9.899506056295344
 20
0.8591268184374942
 30
0.0
 10
9.896920160379905
 20
0.8634194545161683
 30
0.0
 10
9.896920160379905
 20
0.8665503480216948
 30
0.0
  0
SPLINE
  5
BD
330
1F
100
AcDbEntity
  8
0
  6
Continuous
 62
     4
370
    25
100
AcDbSpline
210
0.0
220
0.0
230
1.0
 70
     8
 71
     3
 72
     8
 73
     4
 74
     0
 42
0.000000001
 43
0.00000001
 40
0.0
 40
0.0
 40
0.0
 40
0.0
 40
1.0
 40
1.0
 40
1.0
 40
1.0
 10
10.39711431702995
 20
0.5873051417432641
 30
0.0
 10
10.24773875930152
 20
0.6695720817485252
 30
0.0
 10
10.10425898575602
 20
0.7478164005652367
 30
0.0
 10
9.964037452819085
 20
0.8156122252275307
 30
0.0
  0
LINE
  5
BE
330
1F
100
AcDbEntity
  8
0
  6
Continuous
 62
     4
370
    25
100
AcDbLine
 10
10.39711431702995
 20
0.5873051417432643
 30
0.0
 11
10.39711431702995
 21
0.3282053597457013
 31
0.0
  0
LINE
  5
BF
330
1F
100
AcDbEntity
  8
0
  6
Continuous
 62
     4
370
    25
100
AcDbLine
 10
-42.60288568297005
 20
2.499999999999994
 30
0.0
 11
-42.60288568297005
 21
-2.5
 31
0.0
  0
SPLINE
  5
C0
330
1F
100
AcDbEntity
  8
0
  6
Continuous
 62
     4
370
    25
100
AcDbSpline
210
0.0
220
0.0
230
1.0
 70
     8
 71
     3
 72
    12
 73
     8
 74
     0
 42
0.000000001
 43
0.00000001
 40
0.0
 40
0.0
 40
0.0
 40
0.0
 40
0.25
 40
0.25
 40
0.5
 40
0.5
 40
1.0
 40
1.0
 40
1.0
 40
1.0
 10
11.39711431702995
 20
0.7128026673411892
 30
0.0
 10
11.31336630469092
 20
0.7277798007732542
 30
0.0
 10
11.22848847050183
 20
0.7383745632738007
 30
0.0
 10
11.06116266218223
 20
0.7502230803035137
 30
0.0
 10
10.98048499009319
 20
0.7515249689388006
 30
0.0
 10
10.73227006038802
 20
0.7417236156840811
 30
0.0
 10
10.55958139721048
 20
0.7160965917227242
 30
0.0
 10
10.39711431702995
 20
0.6743747043255683
 30
0.0
  0
SPLINE
  5
C1
330
1F
100
AcDbEntity
  8
0
  6
Continuous
 62
     4
370
    25
100
AcDbSpline
210
0.0
220
0.0
230
1.0
 70
    24
 71
     3
 72
    16
 73
    12
 74
     0
 42
0.000000001
 43
0.00000001
 40
0.0
 40
0.0
 40
0.0
 40
0.0
 40
0.125
 40
0.125
 40
0.25
 40
0.25
 40
0.5
 40
0.5
 40
0.75
 40
0.75
 40
1.0
 40
1.0
 40
1.0
 40
1.0
 10
11.39711431702995
 20
0.712802667341225
 30
0.0
 10
11.39711431702995
 20
0.6868106122842382
 30
0.0
 10
11.39711431702995
 20
0.6633078751862521
 30
0.0
 10
11.39711431702995
 20
0.6113033010310176
 30
0.0
 10
11.39711431702995
 20
0.5834081804386235
 30
0.0
 10
11.39711431702995
 20
0.494587080592753
 30
0.0
 10
11.39711431702995
 20
0.4278463487878637
 30
0.0
 10
11.39711431702995
 20
0.2942483556385702
 30
0.0
 10
11.39711431702995
 20
0.2276858952144642
 30
0.0
 10
11.39711431702995
 20
0.1290752081530754
 30
0.0
 10
11.39711431702995
 20
0.098780775569123
 30
0.0
 10
11.39711431702995
 20
0.0975165667909819
 30
0.0
  0
SPLINE
  5
C2
330
1F
100
AcDbEntity
  8
0
  6
Continuous
 62
     4
370
    25
100
AcDbSpline
210
0.0
220
0.0
230
1.0
 70
     8
 71
     3
 72
    12
 73
     8
 74
     0
 42
0.000000001
 43
0.00000001
 40
0.0
 40
0.0
 40
0.0
 40
0.0
 40
0.2499999999999999
 40
0.2499999999999999
 40
0.4999999999999998
 40
0.4999999999999998
 40
1.0
 40
1.0
 40
1.0
 40
1.0
 10
11.39711431702995
 20
0.0975165667909855
 30
0.0
 10
11.31336630469093
 20
0.1452627621436937
 30
0.0
 10
11.22848847050183
 20
0.1926118888106196
 30
0.0
 10
11.06116266218223
 20
0.2839020292323369
 30
0.0
 10
10.98048499009319
 20
0.3275455323874233
 30
0.0
 10
10.73227006038802
 20
0.4527784924701356
 30
0.0
 10
10.55958139721048
 20
0.5280098174285635
 30
0.0
 10
10.39711431702995
 20
0.5873051417432638
 30
0.0
  0
SPLINE
  5
C3
330
1F
100
AcDbEntity
  8
0
  6
Continuous
 62
     4
370
    25
100
AcDbSpline
210
0.0
220
0.0
230
1.0
 70
     8
 71
     3
 72
    12
 73
     8
 74
     0
 42
0.000000001
 43
0.00000001
 40
0.0
 40
0.0
 40
0.0
 40
0.0
 40
0.25
 40
0.25
 40
0.5
 40
0.5
 40
1.0
 40
1.0
 40
1.0
 40
1.0
 10
11.39711431702995
 20
-0.2332645653143222
 30
0.0
 10
11.31336630469092
 20
-0.1874979027047866
 30
0.0
 10
11.22848847050183
 20
-0.1400726146603901
 30
0.0
 10
11.06116266218223
 20
-0.0445271023926234
 30
0.0
 10
10.98048499009319
 20
0.0032401962642484
 30
0.0
 10
10.73227006038802
 20
0.1467896085481777
 30
0.0
 10
10.55958139721048
 20
0.2424779800979023
 30
0.0
 10
10.39711431702995
 20
0.3282053597457013
 30
0.0
  0
SPLINE
  5
C4
330
1F
100
AcDbEntity
  8
0
  6
Continuous
 62
     4
370
    25
100
AcDbSpline
210
0.0
220
0.0
230
1.0
 70
    24
 71
     3
 72
    13
 73
     9
 74
     0
 42
0.000000001
 43
0.00000001
 40
0.0
 40
0.0
 40
0.0
 40
0.0
 40
0.0225166633774753
 40
0.2427292659481431
 40
0.4629418685189206
 40
0.6831544710894788
 40
0.9033670736601059
 40
1.0
 40
1.0
 40
1.0
 40
1.0
 10
11.39711431702995
 20
-0.2274171968802388
 30
0.0
 10
11.39711431702995
 20
-0.2270123980268516
 30
0.0
 10
11.39711431702995
 20
-0.2226486729539081
 30
0.0
 10
11.39711431702995
 20
-0.2598237821230425
 30
0.0
 10
11.39711431702996
 20
-0.3530672532632599
 30
0.0
 10
11.39711431702995
 20
-0.4950749426056801
 30
0.0
 10
11.39711431702995
 20
-0.6333244144530112
 30
0.0
 10
11.39711431702995
 20
-0.717853327761527
 30
0.0
 10
11.39711431702995
 20
-0.7436333230842316
 30
0.0
  0
SPLINE
  5
C5
330
1F
100
AcDbEntity
  8
0
  6
Continuous
 62
     4
370
    25
100
AcDbSpline
210
0.0
220
0.0
230
1.0
 70
     8
 71
     3
 72
    12
 73
     8
 74
     0
 42
0.000000001
 43
0.00000001
 40
0.0
 40
0.0
 40
0.0
 40
0.0
 40
0.2499999999999999
 40
0.2499999999999999
 40
0.4999999999999999
 40
0.4999999999999999
 40
1.0
 40
1.0
 40
1.0
 40
1.0
 10
11.39711431702995
 20
-0.7436333230842311
 30
0.0
 10
11.31336630469093
 20
-0.737372112211086
 30
0.0
 10
11.22848847050183
 20
-0.7264420096307617
 30
0.0
 10
11.06116266218223
 20
-0.6958570046103829
 30
0.0
 10
10.98048499009319
 20
-0.6763979612796984
 30
0.0
 10
10.73227006038802
 20
-0.6055516063868205
 30
0.0
 10
10.55958139721048
 20
-0.5411058419646818
 30
0.0
 10
10.39711431702995
 20
-0.4664468570822606
 30
0.0
  0
LINE
  5
C6
330
1F
100
AcDbEntity
  8
0
  6
Continuous
 62
     4
370
    25
100
AcDbLine
 10
11.39711431702995
 20
0.0975165667909819
 30
0.0
 11
11.39711431702995
 21
-0.2332645653143335
 31
0.0
  0
SPLINE
  5
C7
330
1F
100
AcDbEntity
  8
0
  6
Continuous
 62
     4
370
    25
100
AcDbSpline
210
0.0
220
0.0
230
1.0
 70
     8
 71
     3
 72
     9
 73
     5
 74
     0
 42
0.000000001
 43
0.00000001
 40
0.0
 40
0.0
 40
0.0
 40
0.0
 40
0.8504876679225448
 40
1.0
 40
1.0
 40
1.0
 40
1.0
 10
10.39711431702995
 20
-0.6743747043255645
 30
0.0
 10
10.56402153470123
 20
-0.7145115187644107
 30
0.0
 10
10.76027037400419
 20
-0.7617042247290805
 30
0.0
 10
10.95639577042211
 20
-0.7445731183263065
 30
0.0
 10
10.98571893582017
 20
-0.7420118066569605
 30
0.0
  0
LINE
  5
C8
330
1F
100
AcDbEntity
  8
0
  6
Continuous
 62
     4
370
    25
100
AcDbLine
 10
11.39711431702995
 20
-0.7436333230842316
 30
0.0
 11
11.39711431702995
 21
-0.7499999999999989
 31
0.0
  0
LINE
  5
C9
330
1F
100
AcDbEntity
  8
0
  6
Continuous
 62
     4
370
    25
100
AcDbLine
 10
11.39711431702995
 20
0.7500000000000009
 30
0.0
 11
11.39711431702995
 21
0.7128026673412241
 31
0.0
  0
SPLINE
  5
CA
330
1F
100
AcDbEntity
  8
0
  6
Continuous
 62
     1
370
    25
100
AcDbSpline
210
0.0
220
0.0
230
1.0
 70
     8
 71
     3
 72
    16
 73
    12
 74
     0
 42
0.000000001
 43
0.00000001
 40
0.0
 40
0.0
 40
0.0
 40
0.0
 40
0.1022856343700277
 40
0.229921788381697
 40
0.358054881299406
 40
0.4859732714334666
 40
0.6134817536288477
 40
0.7408827258873621
 40
0.8684824854603064
 40
0.9965726495691464
 40
1.0
 40
1.0
 40
1.0
 40
1.0
 10
11.39711431702995
 20
0.7128026673411884
 30
0.0
 10
11.52201690267936
 20
0.6843786117561255
 30
0.0
 10
11.80277798944273
 20
0.6204858693057402
 30
0.0
 10
12.24081197455535
 20
0.4339488967136396
 30
0.0
 10
12.71056523454038
 20
0.1848546711731819
 30
0.0
 10
13.17993402911678
 20
-0.0901537247456973
 30
0.0
 10
13.64802358556125
 20
-0.3524351078820712
 30
0.0
 10
14.11568414679678
 20
-0.5723175848230807
 30
0.0
 10
14.58412040929261
 20
-0.707386839521253
 30
0.0
 10
14.9014119203167
 20
-0.765232347555123
 30
0.0
 10
15.06235650506868
 20
-0.7491572384940636
 30
0.0
 10
15.06655072584471
 20
-0.7487383206627827
 30
0.0
  0
SPLINE
  5
CB
330
1F
100
AcDbEntity
  8
0
  6
Continuous
 62
     1
370
    25
100
AcDbSpline
210
0.0
220
0.0
230
1.0
 70
     8
 71
     3
 72
    18
 73
    14
 74
     0
 42
0.000000001
 43
0.00000001
 40
0.0
 40
0.0
 40
0.0
 40
0.0
 40
0.0633295836889166
 40
0.1752647225246249
 40
0.2731258238587402
 40
0.3710747546008312
 40
0.4686486791880289
 40
0.5660705936265248
 40
0.6635747195559143
 40
0.7613922969089608
 40
0.859374054769012
 40
0.9569758097238489
 40
1.0
 40
1.0
 40
1.0
 40
1.0
 10
16.36520150195922
 20
-0.6248680137602355
 30
0.0
 10
16.26386468417912
 20
-0.6574903419972721
 30
0.0
 10
15.98341488149287
 20
-0.7477726867329769
 30
0.0
 10
15.54630881785665
 20
-0.7638990528483143
 30
0.0
 10
15.0538757724004
 20
-0.6886155868915474
 30
0.0
 10
14.5841327470097
 20
-0.5243966344244213
 30
0.0
 10
14.11568090856913
 20
-0.2933851857925517
 30
0.0
 10
13.64802424297961
 20
-0.0244059611724838
 30
0.0
 10
13.17993463938255
 20
0.2474807008996798
 30
0.0
 10
12.71056211986046
 20
0.4884537770999019
 30
0.0
 10
12.24082382164241
 20
0.6623345282037388
 30
0.0
 10
11.85904614534466
 20
0.7468889638641175
 30
0.0
 10
11.63446473995475
 20
0.7433179652417501
 30
0.0
 10
11.56575456629434
 20
0.7422254262799515
 30
0.0
  0
SPLINE
  5
CC
330
1F
100
AcDbEntity
  8
0
  6
Continuous
 62
     1
370
    25
100
AcDbSpline
210
0.0
220
0.0
230
1.0
 70
     8
 71
     3
 72
    14
 73
    10
 74
     0
 42
0.000000001
 43
0.00000001
 40
0.0
 40
0.0
 40
0.0
 40
0.0
 40
0.0749595255586122
 40
0.2340279606893641
 40
0.3932306289983653
 40
0.5529450941421753
 40
0.712927629734803
 40
0.8722897046453966
 40
0.9999999999999999
 40
0.9999999999999999
 40
0.9999999999999999
 40
0.9999999999999999
 10
14.33573312107962
 20
-0.6243607558176496
 30
0.0
 10
14.2623018741485
 20
-0.6491251673258754
 30
0.0
 10
14.0330452874492
 20
-0.7264410878810377
 30
0.0
 10
13.64803574302311
 20
-0.7632452137510713
 30
0.0
 10
13.17993075881784
 20
-0.7261065176671972
 30
0.0
 10
12.71056611391888
 20
-0.5909600568468271
 30
0.0
 10
12.24081173916918
 20
-0.3814585062200431
 30
0.0
 10
11.80277803479304
 20
-0.1383943471210966
 30
0.0
 10
11.52201691664255
 20
0.0248803286105405
 30
0.0
 10
11.39711431702991
 20
0.097516566791009
 30
0.0
  0
SPLINE
  5
CD
330
1F
100
AcDbEntity
  8
0
  6
Continuous
 62
     4
370
    25
100
AcDbSpline
210
0.0
220
0.0
230
1.0
 70
    24
 71
     3
 72
    16
 73
    12
 74
     0
 42
0.000000001
 43
0.00000001
 40
0.0
 40
0.0
 40
0.0
 40
0.0
 40
0.1249999999999999
 40
0.1249999999999999
 40
0.2499999999999997
 40
0.2499999999999997
 40
0.4999999999999998
 40
0.4999999999999998
 40
0.7499999999999999
 40
0.7499999999999999
 40
1.0
 40
1.0
 40
1.0
 40
1.0
 10
11.39711431702995
 20
0.7128026673412255
 30
0.0
 10
11.39711431702995
 20
0.6868106122842564
 30
0.0
 10
11.39711431702995
 20
0.6633078751862849
 30
0.0
 10
11.39711431702995
 20
0.6113033010310901
 30
0.0
 10
11.39711431702995
 20
0.5834081804387187
 30
0.0
 10
11.39711431702995
 20
0.4945870805929212
 30
0.0
 10
11.39711431702995
 20
0.42784634878809
 30
0.0
 10
11.39711431702995
 20
0.2942483556388811
 30
0.0
 10
11.39711431702995
 20
0.2276858952147985
 30
0.0
 10
11.39711431702995
 20
0.1290752081533348
 30
0.0
 10
11.39711431702995
 20
0.098780775569278
 30
0.0
 10
11.39711431702995
 20
0.0975165667909921
 30
0.0
  0
SPLINE
  5
CE
330
1F
100
AcDbEntity
  8
0
  6
Continuous
 62
     1
370
    25
100
AcDbSpline
210
0.0
220
0.0
230
1.0
 70
     8
 71
     3
 72
    15
 73
    11
 74
     0
 42
0.000000001
 43
0.00000001
 40
0.0
 40
0.0
 40
0.0
 40
0.0
 40
0.1521846851362003
 40
0.3044024291278228
 40
0.4566730887704465
 40
0.589798170031754
 40
0.723042729787729
 40
0.8557771509476422
 40
0.9883047855179644
 40
1.0
 40
1.0
 40
1.0
 40
1.0
 10
17.13536903202926
 20
-0.6832760216476857
 30
0.0
 10
16.9563627619851
 20
-0.6292216103333358
 30
0.0
 10
16.5983113366279
 20
-0.5211010455443322
 30
0.0
 10
16.06113542362473
 20
-0.2401940193176441
 30
0.0
 10
15.54631013773004
 20
0.0601982464020778
 30
0.0
 10
15.05387471756738
 20
0.3375452568410591
 30
0.0
 10
14.58413575176152
 20
0.5605010884967401
 30
0.0
 10
14.11566999708691
 20
0.7017205587552151
 30
0.0
 10
13.79019588599129
 20
0.763068415469548
 30
0.0
 10
13.62065174084374
 20
0.7473842885365366
 30
0.0
 10
13.60690319021738
 20
0.7461124427114801
 30
0.0
  0
SPLINE
  5
CF
330
1F
100
AcDbEntity
  8
0
  6
Continuous
 62
     1
370
    25
100
AcDbSpline
210
0.0
220
0.0
230
1.0
 70
     8
 71
     3
 72
    14
 73
    10
 74
     0
 42
0.000000001
 43
0.00000001
 40
0.0
 40
0.0
 40
0.0
 40
0.0
 40
0.0809951479279592
 40
0.2345502907092877
 40
0.3879677427860841
 40
0.5408584455017346
 40
0.6935837259046875
 40
0.8465109076008486
 40
1.0
 40
1.0
 40
1.0
 40
1.0
 10
14.33573312107963
 20
0.6243607558176517
 30
0.0
 10
14.41835369516989
 20
0.6515588788981451
 30
0.0
 10
14.65761098609645
 20
0.7303207286937745
 30
0.0
 10
15.05386339323023
 20
0.7638201893543227
 30
0.0
 10
15.52333091540546
 20
0.7205025051163174
 30
0.0
 10
15.9915407568462
 20
0.5801106338047495
 30
0.0
 10
16.45918013167413
 20
0.3665906792047846
 30
0.0
 10
16.92751064046621
 20
0.1038439111357247
 30
0.0
 10
17.24038850482106
 20
-0.0760136944723408
 30
0.0
 10
17.39711431702995
 20
-0.16610741004725
 30
0.0
  0
LINE
  5
D0
330
1F
100
AcDbEntity
  8
0
  6
Continuous
 62
     1
370
    25
100
AcDbLine
 10
17.39711431702995
 20
-0.4999999999999992
 30
0.0
 11
17.39711431702995
 21
-0.1667119192699768
 31
0.0
  0
SPLINE
  5
D1
330
1F
100
AcDbEntity
  8
0
  6
Continuous
 62
     1
370
    25
100
AcDbSpline
210
0.0
220
0.0
230
1.0
 70
    24
 71
     3
 72
     8
 73
     4
 74
     0
 42
0.000000001
 43
0.00000001
 40
0.0
 40
0.0
 40
0.0
 40
0.0
 40
1.0
 40
1.0
 40
1.0
 40
1.0
 10
17.39711431702995
 20
-0.4999999999999991
 30
0.0
 10
17.30325346593157
 20
-0.5657220754818645
 30
0.0
 10
17.21398742250284
 20
-0.6282268319968225
 30
0.0
 10
17.13536903202996
 20
-0.683276021647847
 30
0.0
  0
SPLINE
  5
D2
330
1F
100
AcDbEntity
  8
0
  6
Continuous
 62
     1
370
    25
100
AcDbSpline
210
0.0
220
0.0
230
1.0
 70
     8
 71
     3
 72
    18
 73
    14
 74
     0
 42
0.000000001
 43
0.00000001
 40
0.0
 40
0.0
 40
0.0
 40
0.0
 40
0.0862015576762317
 40
0.1837920556301459
 40
0.2810698298247235
 40
0.3782655833789317
 40
0.475612994196664
 40
0.5733345406082446
 40
0.670968461504133
 40
0.7682671623532673
 40
0.8654605894622
 40
0.962782505309689
 40
0.9999999999999999
 40
0.9999999999999999
 40
0.9999999999999999
 40
0.9999999999999999
 10
12.29587136797178
 20
0.6303318662758719
 30
0.0
 10
12.4341836626036
 20
0.6683179828149752
 30
0.0
 10
12.72908205695495
 20
0.7493089374140836
 30
0.0
 10
13.17993759002936
 20
0.7598354817530872
 30
0.0
 10
13.64802385180441
 20
0.6806821167597852
 30
0.0
 10
14.11567952994386
 20
0.51183306916344
 30
0.0
 10
14.58413867378203
 20
0.277434461060281
 30
0.0
 10
15.05385336230119
 20
0.0075310628461799
 30
0.0
 10
15.52333432345107
 20
-0.2630707694797131
 30
0.0
 10
15.99153712854762
 20
-0.5016491470110852
 30
0.0
 10
16.45919124164593
 20
-0.6693821951903246
 30
0.0
 10
16.83057182747634
 20
-0.7521673801043336
 30
0.0
 10
17.04642271198754
 20
-0.7414622894549503
 30
0.0
 10
17.10613331363268
 20
-0.7385009515628774
 30
0.0
  0
LINE
  5
D3
330
1F
100
AcDbEntity
  8
0
  6
Continuous
 62
     1
370
    25
100
AcDbLine
 10
17.13536903202995
 20
-0.6832760216478518
 30
0.0
 11
17.11737298322208
 21
-0.6958769906811085
 31
0.0
  0
ELLIPSE
  5
D4
330
1F
100
AcDbEntity
  8
0
  6
Continuous
 62
     1
370
    25
100
AcDbEllipse
 10
17.15288662405186
 20
0.0000000000000013
 30
0.0
 11
1.041992479244975
 21
-0.412755754531322
 31
0.0
210
0.0
220
0.0
230
1.0
 40
0.6009688174887261
 41
4.912933762914529
 42
5.176132609328191
  0
LINE
  5
D5
330
1F
100
AcDbEntity
  8
0
  6
Continuous
 62
     1
370
    25
100
AcDbLine
 10
17.39711431702995
 20
-0.7500000000000002
 30
0.0
 11
17.39711431702995
 21
-0.7446933086021944
 31
0.0
  0
SPLINE
  5
D6
330
1F
100
AcDbEntity
  8
0
  6
Continuous
 62
     1
370
    25
100
AcDbSpline
210
0.0
220
0.0
230
1.0
 70
     8
 71
     3
 72
    11
 73
     7
 74
     0
 42
0.000000001
 43
0.00000001
 40
0.0
 40
0.0
 40
0.0
 40
0.0
 40
0.2302608048170448
 40
0.5175895555989937
 40
0.8060369928236121
 40
1.0
 40
1.0
 40
1.0
 40
1.0
 10
11.39711431702995
 20
-0.2332645653143263
 30
0.0
 10
11.52201736239642
 20
-0.3003304008161491
 30
0.0
 10
11.8027794825304
 20
-0.4510836999755298
 30
0.0
 10
12.24080422483742
 20
-0.6283932284781385
 30
0.0
 10
12.6594668122032
 20
-0.7391861410532221
 30
0.0
 10
12.92166303443957
 20
-0.7392622255071707
 30
0.0
 10
13.02708439984638
 20
-0.7392928168213899
 30
0.0
  0
SPLINE
  5
D7
330
1F
100
AcDbEntity
  8
0
  6
Continuous
 62
     1
370
    25
100
AcDbSpline
210
0.0
220
0.0
230
1.0
 70
     8
 71
     3
 72
    10
 73
     6
 74
     0
 42
0.000000001
 43
0.00000001
 40
0.0
 40
0.0
 40
0.0
 40
0.0
 40
0.0909379183598108
 40
0.5446354334233763
 40
1.0
 40
1.0
 40
1.0
 40
1.0
 10
16.36520150195922
 20
0.6248680137602383
 30
0.0
 10
16.39646331557631
 20
0.6365394302871267
 30
0.0
 10
16.58369315012757
 20
0.7064406014755351
 30
0.0
 10
16.92751178231283
 20
0.7597611121164226
 30
0.0
 10
17.24038888590164
 20
0.7408481141950315
 30
0.0
 10
17.39711431702995
 20
0.7313742737664439
 30
0.0
  0
LINE
  5
D8
330
1F
100
AcDbEntity
  8
0
  6
Continuous
 62
     1
370
    25
100
AcDbLine
 10
17.39711431702995
 20
0.7313742737664473
 30
0.0
 11
17.39711431702995
 21
0.750000000000002
 31
0.0
  0
SPLINE
  5
D9
330
1F
100
AcDbEntity
  8
0
  6
Continuous
 62
     1
370
    25
100
AcDbSpline
210
0.0
220
0.0
230
1.0
 70
     8
 71
     3
 72
    10
 73
     6
 74
     0
 42
0.000000001
 43
0.00000001
 40
0.0
 40
0.0
 40
0.0
 40
0.0
 40
0.3608021648395728
 40
0.7216827062029885
 40
1.0
 40
1.0
 40
1.0
 40
1.0
 10
17.13536903202921
 20
0.3092472768535369
 30
0.0
 10
16.95636296232362
 20
0.3975016666655963
 30
0.0
 10
16.59831193768711
 20
0.574029617661069
 30
0.0
 10
16.10215924043166
 20
0.7288717832380268
 30
0.0
 10
15.78498950974535
 20
0.7357456301273361
 30
0.0
 10
15.64688857093854
 20
0.7387386165846938
 30
0.0
  0
SPLINE
  5
DA
330
1F
100
AcDbEntity
  8
0
  6
Continuous
 62
     1
370
    25
100
AcDbSpline
210
0.0
220
0.0
230
1.0
 70
     8
 71
     3
 72
    10
 73
     6
 74
     0
 42
0.000000001
 43
0.00000001
 40
0.0
 40
0.0
 40
0.0
 40
0.0
 40
0.0617916246516376
 40
0.58261790011622
 40
1.0
 40
1.0
 40
1.0
 40
1.0
 10
12.29587136797178
 20
-0.6303318662758702
 30
0.0
 10
12.27733511640527
 20
-0.6373186144557539
 30
0.0
 10
12.10256139869538
 20
-0.7031949298326907
 30
0.0
 10
11.80278469368286
 20
-0.7509199954664306
 30
0.0
 10
11.52201896689406
 20
-0.7458768668945585
 30
0.0
 10
11.39711431702991
 20
-0.743633323084229
 30
0.0
  0
ELLIPSE
  5
DB
330
1F
100
AcDbEntity
  8
0
  6
Continuous
 62
     1
370
    25
100
AcDbEllipse
 10
18.11118832040101
 20
0.0000000000000009
 30
0.0
 11
1.071111005056586
 21
-1.972152263052530E-31
 31
0.0
210
0.0
220
0.0
230
1.0
 40
0.7002075382097099
 41
2.716582861747931
 42
2.759364833374628
  0
ELLIPSE
  5
DC
330
1F
100
AcDbEntity
  8
0
  6
Continuous
 62
     1
370
    25
100
AcDbEllipse
 10
17.15288662405186
 20
0.0000000000000009
 30
0.0
 11
1.064326924485588
 21
-0.7291305528055547
 31
0.0
210
0.0
220
0.0
230
1.0
 40
0.165075901574664
 41
1.453368357947251
 42
1.716567204360914
  0
LINE
  5
DD
330
1F
100
AcDbEntity
  8
0
  6
Continuous
 62
     1
370
    25
100
AcDbLine
 10
17.39711431702995
 20
-0.1661074100472502
 30
0.0
 11
17.39711431702995
 21
0.0890610808553131
 31
0.0
  0
SPLINE
  5
DE
330
1F
100
AcDbEntity
  8
0
  6
Continuous
 62
     1
370
    25
100
AcDbSpline
210
0.0
220
0.0
230
1.0
 70
     8
 71
     3
 72
     8
 73
     4
 74
     0
 42
0.000000001
 43
0.00000001
 40
0.0
 40
0.0
 40
0.0
 40
0.0
 40
1.0
 40
1.0
 40
1.0
 40
1.0
 10
17.39711431702995
 20
0.1997949506173562
 30
0.0
 10
17.30325346593157
 20
0.2054337308953767
 30
0.0
 10
17.21398742250284
 20
0.2469303809541911
 30
0.0
 10
17.13536903202996
 20
0.3092472768531424
 30
0.0
  0
SPLINE
  5
DF
330
1F
100
AcDbEntity
  8
0
  6
Continuous
 62
     4
370
    25
100
AcDbSpline
210
0.0
220
0.0
230
1.0
 70
    24
 71
     3
 72
    11
 73
     7
 74
     0
 42
0.000000001
 43
0.00000001
 40
0.0
 40
0.0
 40
0.0
 40
0.0
 40
0.2870953201560533
 40
0.5794111528956264
 40
0.8717269856352929
 40
1.0
 40
1.0
 40
1.0
 40
1.0
 10
11.39711431702995
 20
-0.2682133776999348
 30
0.0
 10
11.39711431702995
 20
-0.2959849779041953
 30
0.0
 10
11.39711431702995
 20
-0.352033174312832
 30
0.0
 10
11.39711431702995
 20
-0.4955934429711414
 30
0.0
 10
11.39711431702995
 20
-0.6332749280277921
 30
0.0
 10
11.39711431702995
 20
-0.7178417624230837
 30
0.0
 10
11.39711431702995
 20
-0.7436333230834479
 30
0.0
  0
LINE
  5
E0
330
1F
100
AcDbEntity
  8
0
  6
Continuous
 62
     1
370
    25
100
AcDbLine
 10
17.39711431702995
 20
0.1997949506173571
 30
0.0
 11
17.39711431702995
 21
0.7313742737664473
 31
0.0
  0
LINE
  5
E1
330
1F
100
AcDbEntity
  8
0
  6
Continuous
 62
     1
370
    25
100
AcDbLine
 10
17.39711431702995
 20
0.0890610808553124
 30
0.0
 11
17.39711431702995
 21
0.1997949506173571
 31
0.0
  0
LINE
  5
E2
330
1F
100
AcDbEntity
  8
0
  6
Continuous
 62
     1
370
    25
100
AcDbLine
 10
17.39711431702995
 20
-0.4999999999999987
 30
0.0
 11
17.39711431702995
 21
-0.7446933086021944
 31
0.0
  0
LINE
  5
E3
330
1F
100
AcDbEntity
  8
중심선
100
AcDbLine
 10
-45.60288568297003
 20
-0.0000000000000039
 30
0.0
 11
18.89711431702995
 21
0.000000000000004
 31
0.0
  0
CIRCLE
  5
E4
330
1F
100
AcDbEntity
  8
해칭선
100
AcDbCircle
 10
-0.0000204734665523
 20
-0.0000000000000043
 30
0.0
 40
3.0
  0
INSERT
  5
E5
330
1F
100
AcDbEntity
  8
0
  6
Continuous
 62
     7
100
AcDbBlockReference
 66
     1
  2
블럭10
 10
-26.44009924894177
 20
-52.04717430164393
 30
0.0
  0
ATTRIB
  5
E6
330
E5
100
AcDbEntity
  8
FORMAT
 62
     2
100
AcDbText
 10
-42.55936028837733
 20
-49.97180738881174
 30
0.0
 40
4.233333333333333
  1
SEME7201506E [ 4 FLUTE ]
 41
0.75
  7
SLDTEXTSTYLE0
 11
-42.55936028837733
 21
-52.08847405547841
 31
0.0
100
AcDbAttribute
  2
AUTOATTR0
 70
     0
 74
     1
  0
SEQEND
  5
E7
330
E5
100
AcDbEntity
  8
0
  6
Continuous
 62
     7
  0
HATCH
  5
E8
330
1F
100
AcDbEntity
  8
중심선
100
AcDbHatch
 10
0.0
 20
0.0
 30
0.0
210
0.0
220
0.0
230
1.0
  2
SOLID
 70
     1
 71
     0
 91
        1
 92
        0
 93
        4
 72
     1
 10
-20.72518994456093
 20
-35.8
 11
-24.17146518839822
 21
-35.8
 72
     1
 10
-24.17146518839822
 20
-35.8
 11
-26.29969504760224
 21
-38.33632558057259
 72
     1
 10
-26.29969504760224
 20
-38.33632558057259
 11
-22.85338671865181
 21
-38.3362861512701
 72
     1
 10
-22.85338671865181
 20
-38.3362861512701
 11
-20.72518994456093
 21
-35.8
 97
        0
 75
     0
 76
     1
 98
        1
 10
0.0
 20
0.0
  0
HATCH
  5
E9
330
1F
100
AcDbEntity
  8
중심선
100
AcDbHatch
 10
0.0
 20
0.0
 30
0.0
210
0.0
220
0.0
230
1.0
  2
SOLID
 70
     1
 71
     0
 91
        1
 92
        0
 93
        4
 72
     1
 10
-15.71242595352496
 20
-35.8
 11
-19.15870119736224
 21
-35.8
 72
     1
 10
-19.15870119736224
 20
-35.8
 11
-23.68983920571965
 21
-41.20000000000002
 72
     1
 10
-23.68983920571965
 20
-41.20000000000002
 11
-20.24356396188237
 21
-41.20000000000002
 72
     1
 10
-20.24356396188237
 20
-41.20000000000002
 11
-15.71242595352496
 21
-35.8
 97
        0
 75
     0
 76
     1
 98
        1
 10
0.0
 20
0.0
  0
HATCH
  5
EA
330
1F
100
AcDbEntity
  8
중심선
100
AcDbHatch
 10
0.0
 20
0.0
 30
0.0
210
0.0
220
0.0
230
1.0
  2
SOLID
 70
     1
 71
     0
 91
        1
 92
        0
 93
        4
 72
     1
 10
-10.69966196248909
 20
-35.8
 11
-14.14593720632618
 21
-35.79999999999997
 72
     1
 10
-14.14593720632618
 20
-35.79999999999997
 11
-21.19437410821545
 21
-44.20000000000002
 72
     1
 10
-21.19437410821545
 20
-44.20000000000002
 11
-17.74809886437817
 21
-44.20000000000002
 72
     1
 10
-17.74809886437817
 20
-44.20000000000002
 11
-10.69966196248909
 21
-35.8
 97
        0
 75
     0
 76
     1
 98
        1
 10
0.0
 20
0.0
  0
HATCH
  5
EB
330
1F
100
AcDbEntity
  8
중심선
100
AcDbHatch
 10
0.0
 20
0.0
 30
0.0
210
0.0
220
0.0
230
1.0
  2
SOLID
 70
     1
 71
     0
 91
        1
 92
        0
 93
        6
 72
     3
 10
-5.899771531476889
 20
-40.00000000005127
 11
3.960054785062284
 21
1.540850780301639E-10
 40
0.3939339440162633
 50
17.09539180608433
 51
320.0019657685081
 73
     0
 72
     1
 10
-4.21677187577632
 20
-38.58789400463833
 11
-1.911470002075283
 21
-36.65356729459038
 72
     3
 10
-5.899771531529735
 20
-40.00000000000015
 11
6.600054785286829
 21
-1.249000902703301E-13
 40
0.6363583540795982
 50
39.99873849337427
 51
368.4976242363725
 73
     1
 72
     1
 10
0.5255609603708744
 20
-39.03999999993002
 11
-7.219704224693812
 21
-39.03999999993002
 72
     1
 10
-7.219704224693812
 20
-39.03999999993002
 11
-7.219729269139746
 21
-40.95999999992991
 72
     1
 10
-7.219729269139746
 20
-40.95999999992991
 11
-2.778349499667709
 21
-40.95999999992988
 97
        0
 75
     0
 76
     1
 98
        1
 10
0.0
 20
0.0
  0
DIMENSION
  5
EC
330
1F
100
AcDbEntity
  8
치수문자_일반주서
100
AcDbDimension
  2
_D
 10
29.79949894947206
 20
0.7500000000000515
 30
0.0
 11
29.79949894947204
 21
11.77595793469578
 31
0.0
 70
   160
  1
%%c<>
 71
     2
 42
1.500000000000012
 52
-270.0
  3
SLDDIMSTYLE0
100
AcDbAlignedDimension
 13
17.39711431702997
 23
-0.7500000000000059
 33
0.0
 14
17.39711431702997
 24
0.7500000000000059
 34
0.0
 50
90.0000000000002
100
AcDbRotatedDimension
  0
DIMENSION
  5
FA
330
1F
100
AcDbEntity
  8
치수문자_일반주서
100
AcDbDimension
  2
_D_1
 10
17.39711431702995
 20
20.38913260158164
 30
0.0
 11
-12.60288568297005
 21
20.38913260158164
 31
0.0
 70
   160
  1
<>
 71
     2
 42
60.0
  3
SLDDIMSTYLE1
100
AcDbAlignedDimension
 13
-42.60288568297005
 23
2.499999999999994
 33
0.0
 14
17.39711431702995
 24
0.750000000000002
 34
0.0
 50
-0.0000000000000068
100
AcDbRotatedDimension
  0
DIMENSION
  5
105
330
1F
100
AcDbEntity
  8
치수문자_일반주서
100
AcDbDimension
  2
_D_2
 10
-50.15682060699392
 20
-3.000000000000032
 30
0.0
 11
-50.15682060699397
 21
12.66649999999997
 31
0.0
 70
   160
  1
%%c<>
 71
     2
 42
6.000000000000005
 52
-270.0
  3
SLDDIMSTYLE2
100
AcDbAlignedDimension
 13
-42.10288568297004
 23
3.000000000000004
 33
0.0
 14
-42.10288568297004
 24
-3.000000000000002
 34
0.0
 50
90.0000000000002
100
AcDbRotatedDimension
  0
DIMENSION
  5
113
330
1F
100
AcDbEntity
  8
치수문자_일반주서
100
AcDbDimension
  2
_D_3
 10
17.39711431702995
 20
12.9272623210107
 30
0.0
 11
3.043114317029955
 21
12.9272623210107
 31
0.0
 70
   160
  1
<>
 71
     2
 42
5.999999999999998
  3
SLDDIMSTYLE2
100
AcDbAlignedDimension
 13
11.39711431702995
 23
0.7500000000000014
 33
0.0
 14
17.39711431702995
 24
0.750000000000002
 34
0.0
100
AcDbRotatedDimension
  0
INSERT
  5
125
330
1F
100
AcDbEntity
  8
해칭선
100
AcDbBlockReference
  2
SW_DOWELSYMBOL_0
 10
-0.0000204734665523
 20
-0.0000000000000042
 30
0.0
  0
ENDSEC
  0
SECTION
  2
OBJECTS
  0
DICTIONARY
  5
C
330
0
100
AcDbDictionary
281
     1
  3
ACAD_GROUP
350
D
  3
ACAD_IMAGE_VARS
350
149
  3
ACAD_LAYOUT
350
1A
  3
ACAD_MLINESTYLE
350
17
  3
ACAD_PLOTSETTINGS
350
19
  3
ACAD_PLOTSTYLENAME
350
E
  3
ACAD_SCALELIST
350
47
  3
APPDATA
350
147
  3
DWGPROPS
350
15A
  0
DICTIONARY
  5
D
102
{ACAD_REACTORS
330
C
102
}
330
C
100
AcDbDictionary
281
     1
  0
RASTERVARIABLES
  5
149
102
{ACAD_REACTORS
330
C
102
}
330
C
100
AcDbRasterVariables
 90
        0
 70
     1
 71
     1
 72
     1
  0
DICTIONARY
  5
1A
102
{ACAD_REACTORS
330
C
102
}
330
C
100
AcDbDictionary
281
     1
  3
Layout1
350
1E
  3
Layout2
350
26
  3
Model
350
22
  0
DICTIONARY
  5
17
102
{ACAD_REACTORS
330
C
102
}
330
C
100
AcDbDictionary
281
     1
  3
Standard
350
18
  0
DICTIONARY
  5
19
102
{ACAD_REACTORS
330
C
102
}
330
C
100
AcDbDictionary
281
     1
  0
ACDBDICTIONARYWDFLT
  5
E
102
{ACAD_REACTORS
330
C
102
}
330
C
100
AcDbDictionary
281
     1
  3
Normal
350
F
100
AcDbDictionaryWithDefault
340
F
  0
DICTIONARY
  5
47
102
{ACAD_REACTORS
330
C
102
}
330
C
100
AcDbDictionary
281
     1
  3
A0
350
48
  3
A1
350
49
  3
A2
350
4A
  3
A3
350
4B
  3
A4
350
4C
  3
A5
350
4D
  3
A6
350
4E
  3
A7
350
4F
  3
A8
350
50
  3
A9
350
51
  3
B0
350
52
  3
B1
350
53
  3
B2
350
54
  3
B3
350
55
  3
B4
350
56
  3
B5
350
57
  3
B6
350
58
  3
B7
350
59
  3
B8
350
5A
  3
B9
350
5B
  3
C0
350
5C
  3
C1
350
5D
  3
C2
350
5E
  3
C3
350
5F
  3
C4
350
60
  3
C5
350
61
  3
C6
350
62
  3
C7
350
63
  3
C8
350
64
  3
C9
350
65
  3
D0
350
66
  3
D1
350
67
  3
D2
350
68
  0
DICTIONARY
  5
147
102
{ACAD_REACTORS
330
C
102
}
330
C
100
AcDbDictionary
281
     1
  0
XRECORD
  5
15A
102
{ACAD_REACTORS
330
C
102
}
330
C
100
AcDbXrecord
280
     1
  1
DWGPROPS COOKIE
  2

  3

  4

  6

  7

  8
12014102
  9

300
=
301
=
302
=
303
=
304
=
305
=
306
=
307
=
308
=
309
=
 40
0.0
 41
2458260.191626921
 42
2458268.092495787
  1

 90
        0
  0
LAYOUT
  5
1E
102
{ACAD_REACTORS
330
1A
102
}
330
1A
100
AcDbPlotSettings
  1

  2
none_device
  4

  6

 40
0.0
 41
0.0
 42
0.0
 43
0.0
 44
0.0
 45
0.0
 46
0.0
 47
0.0
 48
0.0
 49
0.0
140
0.0
141
0.0
142
1.0
143
1.0
 70
   688
 72
     1
 73
     0
 74
     5
  7

 75
    16
147
1.0
148
0.0
149
0.0
100
AcDbLayout
  1
Layout1
 70
     1
 71
     1
 10
0.0
 20
0.0
 11
420.0
 21
297.0
 12
0.0
 22
0.0
 32
0.0
 14
1.000000000000000E+20
 24
1.000000000000000E+20
 34
1.000000000000000E+20
 15
-1.000000000000000E+20
 25
-1.000000000000000E+20
 35
-1.000000000000000E+20
146
0.0
 13
0.0
 23
0.0
 33
0.0
 16
1.0
 26
0.0
 36
0.0
 17
0.0
 27
1.0
 37
0.0
 76
     0
330
1B
  0
LAYOUT
  5
26
102
{ACAD_REACTORS
330
1A
102
}
330
1A
100
AcDbPlotSettings
  1

  2
none_device
  4

  6

 40
0.0
 41
0.0
 42
0.0
 43
0.0
 44
0.0
 45
0.0
 46
0.0
 47
0.0
 48
0.0
 49
0.0
140
0.0
141
0.0
142
1.0
143
1.0
 70
   688
 72
     1
 73
     0
 74
     5
  7

 75
    16
147
1.0
148
0.0
149
0.0
100
AcDbLayout
  1
Layout2
 70
     1
 71
     2
 10
0.0
 20
0.0
 11
0.0
 21
0.0
 12
0.0
 22
0.0
 32
0.0
 14
0.0
 24
0.0
 34
0.0
 15
0.0
 25
0.0
 35
0.0
146
0.0
 13
0.0
 23
0.0
 33
0.0
 16
1.0
 26
0.0
 36
0.0
 17
0.0
 27
1.0
 37
0.0
 76
     0
330
23
  0
LAYOUT
  5
22
102
{ACAD_REACTORS
330
1A
102
}
330
1A
100
AcDbPlotSettings
  1

  2
none_device
  4
ANSI_A_(11.00_x_8.50_Inches)
  6

 40
6.35
 41
19.05
 42
6.35000508
 43
19.05000254
 44
279.4
 45
215.9
 46
170.4533743893095
 47
125.3847137330092
 48
0.0
 49
0.0
140
0.0
141
0.0
142
0.1112850254374008
143
1.0
 70
  1696
 72
     0
 73
     0
 74
     0
  7

 75
     0
147
0.0235690232323232
148
0.0
149
0.0
100
AcDbLayout
  1
Model
 70
     1
 71
     0
 10
0.0
 20
0.0
 11
420.0
 21
297.0
 12
0.0
 22
0.0
 32
0.0
 14
-54.53182060699398
 24
-49.97180738881174
 34
0.0
 15
30.34983228280542
 25
24.76413260158165
 35
0.0
146
0.0
 13
0.0
 23
0.0
 33
0.0
 16
1.0
 26
0.0
 36
0.0
 17
0.0
 27
1.0
 37
0.0
 76
     0
330
1F
331
29
  0
MLINESTYLE
  5
18
102
{ACAD_REACTORS
330
17
102
}
330
17
100
AcDbMlineStyle
  2
Standard
 70
     0
  3

 62
   256
 51
90.0
 52
90.0
 71
     2
 49
0.5
 62
   256
  6
BYLAYER
 49
-0.5
 62
   256
  6
BYLAYER
  0
ACDBPLACEHOLDER
  5
F
102
{ACAD_REACTORS
330
E
102
}
330
E
  0
SCALE
  5
48
102
{ACAD_REACTORS
330
47
102
}
330
47
100
AcDbScale
 70
     0
300
1:1
140
1.0
141
1.0
290
     1
  0
SCALE
  5
49
102
{ACAD_REACTORS
330
47
102
}
330
47
100
AcDbScale
 70
     0
300
1:2
140
1.0
141
2.0
290
     0
  0
SCALE
  5
4A
102
{ACAD_REACTORS
330
47
102
}
330
47
100
AcDbScale
 70
     0
300
1:4
140
1.0
141
4.0
290
     0
  0
SCALE
  5
4B
102
{ACAD_REACTORS
330
47
102
}
330
47
100
AcDbScale
 70
     0
300
1:5
140
1.0
141
5.0
290
     0
  0
SCALE
  5
4C
102
{ACAD_REACTORS
330
47
102
}
330
47
100
AcDbScale
 70
     0
300
1:8
140
1.0
141
8.0
290
     0
  0
SCALE
  5
4D
102
{ACAD_REACTORS
330
47
102
}
330
47
100
AcDbScale
 70
     0
300
1:10
140
1.0
141
10.0
290
     0
  0
SCALE
  5
4E
102
{ACAD_REACTORS
330
47
102
}
330
47
100
AcDbScale
 70
     0
300
1:16
140
1.0
141
16.0
290
     0
  0
SCALE
  5
4F
102
{ACAD_REACTORS
330
47
102
}
330
47
100
AcDbScale
 70
     0
300
1:20
140
1.0
141
20.0
290
     0
  0
SCALE
  5
50
102
{ACAD_REACTORS
330
47
102
}
330
47
100
AcDbScale
 70
     0
300
1:30
140
1.0
141
30.0
290
     0
  0
SCALE
  5
51
102
{ACAD_REACTORS
330
47
102
}
330
47
100
AcDbScale
 70
     0
300
1:40
140
1.0
141
40.0
290
     0
  0
SCALE
  5
52
102
{ACAD_REACTORS
330
47
102
}
330
47
100
AcDbScale
 70
     0
300
1:50
140
1.0
141
50.0
290
     0
  0
SCALE
  5
53
102
{ACAD_REACTORS
330
47
102
}
330
47
100
AcDbScale
 70
     0
300
1:100
140
1.0
141
100.0
290
     0
  0
SCALE
  5
54
102
{ACAD_REACTORS
330
47
102
}
330
47
100
AcDbScale
 70
     0
300
2:1
140
2.0
141
1.0
290
     0
  0
SCALE
  5
55
102
{ACAD_REACTORS
330
47
102
}
330
47
100
AcDbScale
 70
     0
300
4:1
140
4.0
141
1.0
290
     0
  0
SCALE
  5
56
102
{ACAD_REACTORS
330
47
102
}
330
47
100
AcDbScale
 70
     0
300
8:1
140
8.0
141
1.0
290
     0
  0
SCALE
  5
57
102
{ACAD_REACTORS
330
47
102
}
330
47
100
AcDbScale
 70
     0
300
10:1
140
10.0
141
1.0
290
     0
  0
SCALE
  5
58
102
{ACAD_REACTORS
330
47
102
}
330
47
100
AcDbScale
 70
     0
300
100:1
140
100.0
141
1.0
290
     0
  0
SCALE
  5
59
102
{ACAD_REACTORS
330
47
102
}
330
47
100
AcDbScale
 70
     0
300
1/128" = 1'-0"
140
0.0078125
141
12.0
290
     0
  0
SCALE
  5
5A
102
{ACAD_REACTORS
330
47
102
}
330
47
100
AcDbScale
 70
     0
300
1/64" = 1'-0"
140
0.015625
141
12.0
290
     0
  0
SCALE
  5
5B
102
{ACAD_REACTORS
330
47
102
}
330
47
100
AcDbScale
 70
     0
300
1/32" = 1'-0"
140
0.03125
141
12.0
290
     0
  0
SCALE
  5
5C
102
{ACAD_REACTORS
330
47
102
}
330
47
100
AcDbScale
 70
     0
300
1/16" = 1'-0"
140
0.0625
141
12.0
290
     0
  0
SCALE
  5
5D
102
{ACAD_REACTORS
330
47
102
}
330
47
100
AcDbScale
 70
     0
300
3/32" = 1'-0"
140
0.09375
141
12.0
290
     0
  0
SCALE
  5
5E
102
{ACAD_REACTORS
330
47
102
}
330
47
100
AcDbScale
 70
     0
300
1/8" = 1'-0"
140
0.125
141
12.0
290
     0
  0
SCALE
  5
5F
102
{ACAD_REACTORS
330
47
102
}
330
47
100
AcDbScale
 70
     0
300
3/16" = 1'-0"
140
0.1875
141
12.0
290
     0
  0
SCALE
  5
60
102
{ACAD_REACTORS
330
47
102
}
330
47
100
AcDbScale
 70
     0
300
1/4" = 1'-0"
140
0.25
141
12.0
290
     0
  0
SCALE
  5
61
102
{ACAD_REACTORS
330
47
102
}
330
47
100
AcDbScale
 70
     0
300
3/8" = 1'-0"
140
0.375
141
12.0
290
     0
  0
SCALE
  5
62
102
{ACAD_REACTORS
330
47
102
}
330
47
100
AcDbScale
 70
     0
300
1/2" = 1'-0"
140
0.5
141
12.0
290
     0
  0
SCALE
  5
63
102
{ACAD_REACTORS
330
47
102
}
330
47
100
AcDbScale
 70
     0
300
3/4" = 1'-0"
140
0.75
141
12.0
290
     0
  0
SCALE
  5
64
102
{ACAD_REACTORS
330
47
102
}
330
47
100
AcDbScale
 70
     0
300
1" = 1'-0"
140
1.0
141
12.0
290
     0
  0
SCALE
  5
65
102
{ACAD_REACTORS
330
47
102
}
330
47
100
AcDbScale
 70
     0
300
1-1/2" = 1'-0"
140
1.5
141
12.0
290
     0
  0
SCALE
  5
66
102
{ACAD_REACTORS
330
47
102
}
330
47
100
AcDbScale
 70
     0
300
3" = 1'-0"
140
3.0
141
12.0
290
     0
  0
SCALE
  5
67
102
{ACAD_REACTORS
330
47
102
}
330
47
100
AcDbScale
 70
     0
300
6" = 1'-0"
140
6.0
141
12.0
290
     0
  0
SCALE
  5
68
102
{ACAD_REACTORS
330
47
102
}
330
47
100
AcDbScale
 70
     0
300
1'-0" = 1'-0"
140
12.0
141
12.0
290
     0
  0
ENDSEC
  0
EOF
