  0
SECTION
  2
HEADER
  9
$ACADVER
  1
AC1015
  9
$ACADMAINTVER
 70
     6
  9
$DWGCODEPAGE
  3
ANSI_949
  9
$INSBASE
 10
0.0
 20
0.0
 30
0.0
  9
$EXTMIN
 10
-50.4020546581808
 20
-49.97180738881174
 30
0.0
  9
$EXTMAX
 10
37.32031028383382
 20
24.76413260158165
 30
0.0
  9
$LIMMIN
 10
0.0
 20
0.0
  9
$LIMMAX
 10
420.0
 20
297.0
  9
$ORTHOMODE
 70
     0
  9
$REGENMODE
 70
     1
  9
$FILLMODE
 70
     1
  9
$QTEXTMODE
 70
     0
  9
$MIRRTEXT
 70
     1
  9
$LTSCALE
 40
1.0
  9
$ATTMODE
 70
     1
  9
$TEXTSIZE
 40
3.5
  9
$TRACEWID
 40
1.0
  9
$TEXTSTYLE
  7
Standard
  9
$CLAYER
  8
0
  9
$CELTYPE
  6
ByLayer
  9
$CECOLOR
 62
   256
  9
$CELTSCALE
 40
1.0
  9
$DISPSILH
 70
     0
  9
$DIMSCALE
 40
1.0
  9
$DIMASZ
 40
3.302
  9
$DIMEXO
 40
1.0
  9
$DIMDLI
 40
3.75
  9
$DIMRND
 40
0.0
  9
$DIMDLE
 40
0.0
  9
$DIMEXE
 40
1.0
  9
$DIMTP
 40
0.0
  9
$DIMTM
 40
0.0
  9
$DIMTXT
 40
3.5
  9
$DIMCEN
 40
2.5
  9
$DIMTSZ
 40
0.0
  9
$DIMTOL
 70
     0
  9
$DIMLIM
 70
     0
  9
$DIMTIH
 70
     1
  9
$DIMTOH
 70
     1
  9
$DIMSE1
 70
     0
  9
$DIMSE2
 70
     0
  9
$DIMTAD
 70
     1
  9
$DIMZIN
 70
     0
  9
$DIMBLK
  1

  9
$DIMASO
 70
     1
  9
$DIMSHO
 70
     1
  9
$DIMPOST
  1

  9
$DIMAPOST
  1

  9
$DIMALT
 70
     0
  9
$DIMALTD
 70
     3
  9
$DIMALTF
 40
0.0393700787401575
  9
$DIMLFAC
 40
1.0
  9
$DIMTOFL
 70
     1
  9
$DIMTVP
 40
0.0
  9
$DIMTIX
 70
     0
  9
$DIMSOXD
 70
     0
  9
$DIMSAH
 70
     0
  9
$DIMBLK1
  1

  9
$DIMBLK2
  1

  9
$DIMSTYLE
  2
ISO-25
  9
$DIMCLRD
 70
     0
  9
$DIMCLRE
 70
     0
  9
$DIMCLRT
 70
     0
  9
$DIMTFAC
 40
1.0
  9
$DIMGAP
 40
1.524
  9
$DIMJUST
 70
     0
  9
$DIMSD1
 70
     0
  9
$DIMSD2
 70
     0
  9
$DIMTOLJ
 70
     0
  9
$DIMTZIN
 70
     0
  9
$DIMALTZ
 70
     0
  9
$DIMALTTZ
 70
     0
  9
$DIMUPT
 70
     0
  9
$DIMDEC
 70
     2
  9
$DIMTDEC
 70
     2
  9
$DIMALTU
 70
     2
  9
$DIMALTTD
 70
     3
  9
$DIMTXSTY
  7
Standard
  9
$DIMAUNIT
 70
     0
  9
$DIMADEC
 70
     2
  9
$DIMALTRND
 40
0.0
  9
$DIMAZIN
 70
     0
  9
$DIMDSEP
 70
    44
  9
$DIMATFIT
 70
     3
  9
$DIMFRAC
 70
     0
  9
$DIMLDRBLK
  1

  9
$DIMLUNIT
 70
     2
  9
$DIMLWD
 70
    -2
  9
$DIMLWE
 70
    -2
  9
$DIMTMOVE
 70
     0
  9
$LUNITS
 70
     2
  9
$LUPREC
 70
     2
  9
$SKETCHINC
 40
1.0
  9
$FILLETRAD
 40
10.0
  9
$AUNITS
 70
     0
  9
$AUPREC
 70
     2
  9
$MENU
  1
.
  9
$ELEVATION
 40
0.0
  9
$PELEVATION
 40
0.0
  9
$THICKNESS
 40
0.0
  9
$LIMCHECK
 70
     0
  9
$CHAMFERA
 40
0.0
  9
$CHAMFERB
 40
0.0
  9
$CHAMFERC
 40
0.0
  9
$CHAMFERD
 40
0.0
  9
$SKPOLY
 70
     0
  9
$TDCREATE
 40
2458260.566438056
  9
$TDUCREATE
 40
2458260.191438056
  9
$TDUPDATE
 40
2458268.46644772
  9
$TDUUPDATE
 40
2458268.09144772
  9
$TDINDWG
 40
0.0008022801
  9
$TDUSRTIMER
 40
2458268.090645474
  9
$USRTIMER
 70
     1
  9
$ANGBASE
 50
0.0
  9
$ANGDIR
 70
     0
  9
$PDMODE
 70
     0
  9
$PDSIZE
 40
-1.0
  9
$PLINEWID
 40
0.0
  9
$SPLFRAME
 70
     0
  9
$SPLINETYPE
 70
     6
  9
$SPLINESEGS
 70
     8
  9
$HANDSEED
  5
16E
  9
$SURFTAB1
 70
     6
  9
$SURFTAB2
 70
     6
  9
$SURFTYPE
 70
     6
  9
$SURFU
 70
     6
  9
$SURFV
 70
     6
  9
$UCSBASE
  2

  9
$UCSNAME
  2

  9
$UCSORG
 10
0.0
 20
0.0
 30
0.0
  9
$UCSXDIR
 10
1.0
 20
0.0
 30
0.0
  9
$UCSYDIR
 10
0.0
 20
1.0
 30
0.0
  9
$UCSORTHOREF
  2

  9
$UCSORTHOVIEW
 70
     0
  9
$UCSORGTOP
 10
0.0
 20
0.0
 30
0.0
  9
$UCSORGBOTTOM
 10
0.0
 20
0.0
 30
0.0
  9
$UCSORGLEFT
 10
0.0
 20
0.0
 30
0.0
  9
$UCSORGRIGHT
 10
0.0
 20
0.0
 30
0.0
  9
$UCSORGFRONT
 10
0.0
 20
0.0
 30
0.0
  9
$UCSORGBACK
 10
0.0
 20
0.0
 30
0.0
  9
$PUCSBASE
  2

  9
$PUCSNAME
  2

  9
$PUCSORG
 10
0.0
 20
0.0
 30
0.0
  9
$PUCSXDIR
 10
1.0
 20
0.0
 30
0.0
  9
$PUCSYDIR
 10
0.0
 20
1.0
 30
0.0
  9
$PUCSORTHOREF
  2

  9
$PUCSORTHOVIEW
 70
     0
  9
$PUCSORGTOP
 10
0.0
 20
0.0
 30
0.0
  9
$PUCSORGBOTTOM
 10
0.0
 20
0.0
 30
0.0
  9
$PUCSORGLEFT
 10
0.0
 20
0.0
 30
0.0
  9
$PUCSORGRIGHT
 10
0.0
 20
0.0
 30
0.0
  9
$PUCSORGFRONT
 10
0.0
 20
0.0
 30
0.0
  9
$PUCSORGBACK
 10
0.0
 20
0.0
 30
0.0
  9
$USERI1
 70
     0
  9
$USERI2
 70
     0
  9
$USERI3
 70
     0
  9
$USERI4
 70
     0
  9
$USERI5
 70
     0
  9
$USERR1
 40
0.0
  9
$USERR2
 40
0.0
  9
$USERR3
 40
0.0
  9
$USERR4
 40
0.0
  9
$USERR5
 40
0.0
  9
$WORLDVIEW
 70
     1
  9
$SHADEDGE
 70
     3
  9
$SHADEDIF
 70
    70
  9
$TILEMODE
 70
     1
  9
$MAXACTVP
 70
    64
  9
$PINSBASE
 10
0.0
 20
0.0
 30
0.0
  9
$PLIMCHECK
 70
     0
  9
$PEXTMIN
 10
1.000000000000000E+20
 20
1.000000000000000E+20
 30
1.000000000000000E+20
  9
$PEXTMAX
 10
-1.000000000000000E+20
 20
-1.000000000000000E+20
 30
-1.000000000000000E+20
  9
$PLIMMIN
 10
0.0
 20
0.0
  9
$PLIMMAX
 10
0.0
 20
0.0
  9
$UNITMODE
 70
     0
  9
$VISRETAIN
 70
     1
  9
$PLINEGEN
 70
     0
  9
$PSLTSCALE
 70
     1
  9
$TREEDEPTH
 70
  3020
  9
$CMLSTYLE
  2
Standard
  9
$CMLJUST
 70
     0
  9
$CMLSCALE
 40
20.0
  9
$PROXYGRAPHICS
 70
     1
  9
$MEASUREMENT
 70
     1
  9
$CELWEIGHT
370
    -1
  9
$ENDCAPS
280
     0
  9
$JOINSTYLE
280
     0
  9
$LWDISPLAY
290
     1
  9
$INSUNITS
 70
     4
  9
$HYPERLINKBASE
  1

  9
$STYLESHEET
  1

  9
$XEDIT
290
     1
  9
$CEPSNTYPE
380
     0
  9
$PSTYLEMODE
290
     1
  9
$FINGERPRINTGUID
  2
{5C52C248-C908-4223-AB8F-368FE59670F8}
  9
$VERSIONGUID
  2
{FAEB1C32-E019-11D5-929B-00C0DF256EC4}
  9
$EXTNAMES
290
     1
  9
$PSVPSCALE
 40
0.0
  9
$OLESTARTUP
290
     0
  0
ENDSEC
  0
SECTION
  2
CLASSES
  0
CLASS
  1
ACDBDICTIONARYWDFLT
  2
AcDbDictionaryWithDefault
  3
ObjectDBX Classes
 90
        0
280
     0
281
     0
  0
CLASS
  1
VISUALSTYLE
  2
AcDbVisualStyle
  3
ObjectDBX Classes
 90
     4095
280
     0
281
     0
  0
CLASS
  1
MATERIAL
  2
AcDbMaterial
  3
ObjectDBX Classes
 90
     1153
280
     0
281
     0
  0
CLASS
  1
SCALE
  2
AcDbScale
  3
ObjectDBX Classes
 90
     1153
280
     0
281
     0
  0
CLASS
  1
TABLESTYLE
  2
AcDbTableStyle
  3
ObjectDBX Classes
 90
     4095
280
     0
281
     0
  0
CLASS
  1
MLEADERSTYLE
  2
AcDbMLeaderStyle
  3
ACDB_MLEADERSTYLE_CLASS
 90
     4095
280
     0
281
     0
  0
CLASS
  1
SUN
  2
AcDbSun
  3
SCENEOE
 90
     1153
280
     0
281
     0
  0
CLASS
  1
ACDBPLACEHOLDER
  2
AcDbPlaceHolder
  3
ObjectDBX Classes
 90
        0
280
     0
281
     0
  0
CLASS
  1
LAYOUT
  2
AcDbLayout
  3
ObjectDBX Classes
 90
        0
280
     0
281
     0
  0
CLASS
  1
RASTERVARIABLES
  2
AcDbRasterVariables
  3
ISM
 90
        0
280
     0
281
     0
  0
ENDSEC
  0
SECTION
  2
TABLES
  0
TABLE
  2
VPORT
  5
8
330
0
100
AcDbSymbolTable
 70
     1
  0
VPORT
  5
29
330
8
100
AcDbSymbolTableRecord
100
AcDbViewportTableRecord
  2
*Active
 70
     0
 10
0.0
 20
0.0
 11
1.0
 21
1.0
 12
-6.540872187173491
 22
-12.60383739361504
 13
0.0
 23
0.0
 14
10.0
 24
10.0
 15
10.0
 25
10.0
 16
0.0
 26
0.0
 36
1.0
 17
0.0
 27
0.0
 37
0.0
 40
76.23065879020126
 41
1.737726098191214
 42
50.0
 43
0.0
 44
0.0
 50
0.0
 51
0.0
 71
    16
 72
  2000
 73
     1
 74
     3
 75
     0
 76
     0
 77
     0
 78
     0
281
     0
 65
     1
110
0.0
120
0.0
130
0.0
111
1.0
121
0.0
131
0.0
112
0.0
122
1.0
132
0.0
 79
     0
146
0.0
  0
ENDTAB
  0
TABLE
  2
LTYPE
  5
5
330
0
100
AcDbSymbolTable
 70
     6
  0
LTYPE
  5
14
330
5
100
AcDbSymbolTableRecord
100
AcDbLinetypeTableRecord
  2
ByBlock
 70
     0
  3

 72
    65
 73
     0
 40
0.0
  0
LTYPE
  5
15
330
5
100
AcDbSymbolTableRecord
100
AcDbLinetypeTableRecord
  2
ByLayer
 70
     0
  3

 72
    65
 73
     0
 40
0.0
  0
LTYPE
  5
16
330
5
100
AcDbSymbolTableRecord
100
AcDbLinetypeTableRecord
  2
Continuous
 70
     0
  3
Solid line
 72
    65
 73
     0
 40
0.0
  0
LTYPE
  5
6E
330
5
100
AcDbSymbolTableRecord
100
AcDbLinetypeTableRecord
  2
HIDDEN
 70
     0
  3
Hidden __ __ __ __ __ __ __ __ __ __ __ __ __ __
 72
    65
 73
     2
 40
1.905
 49
1.27
 74
     0
 49
-0.635
 74
     0
  0
LTYPE
  5
6F
330
5
100
AcDbSymbolTableRecord
100
AcDbLinetypeTableRecord
  2
PHANTOM
 70
     0
  3
Phantom ______  __  __  ______  __  __  ______
 72
    65
 73
     6
 40
12.7
 49
6.35
 74
     0
 49
-1.27
 74
     0
 49
1.27
 74
     0
 49
-1.27
 74
     0
 49
1.27
 74
     0
 49
-1.27
 74
     0
  0
LTYPE
  5
70
330
5
100
AcDbSymbolTableRecord
100
AcDbLinetypeTableRecord
  2
CENTER
 70
     0
  3
Center ____ _ ____ _ ____ _ ____ _ ____ _ ____
 72
    65
 73
     4
 40
10.16
 49
6.35
 74
     0
 49
-1.27
 74
     0
 49
1.27
 74
     0
 49
-1.27
 74
     0
  0
LTYPE
  5
71
330
5
100
AcDbSymbolTableRecord
100
AcDbLinetypeTableRecord
  2
CENTERX2
 70
     0
  3
Center (2x) ________  __  ________  __  _____
 72
    65
 73
     4
 40
20.32
 49
12.7
 74
     0
 49
-2.54
 74
     0
 49
2.54
 74
     0
 49
-2.54
 74
     0
  0
LTYPE
  5
72
330
5
100
AcDbSymbolTableRecord
100
AcDbLinetypeTableRecord
  2
DOT2
 70
     0
  3
Dot (.5x) ........................................
 72
    65
 73
     2
 40
0.635
 49
0.0
 74
     0
 49
-0.635
 74
     0
  0
ENDTAB
  0
TABLE
  2
LAYER
  5
2
330
0
100
AcDbSymbolTable
 70
    17
  0
LAYER
  5
10
330
2
100
AcDbSymbolTableRecord
100
AcDbLayerTableRecord
  2
0
 70
     0
 62
     7
  6
Continuous
370
    -3
390
F
  0
LAYER
  5
73
330
2
100
AcDbSymbolTableRecord
100
AcDbLayerTableRecord
  2
FORMAT
 70
     0
 62
     2
  6
Continuous
370
    -3
390
F
  0
LAYER
  5
74
330
2
100
AcDbSymbolTableRecord
100
AcDbLayerTableRecord
  2
외형선
 70
     0
 62
   100
  6
Continuous
370
    35
390
F
  0
LAYER
  5
75
330
2
100
AcDbSymbolTableRecord
100
AcDbLayerTableRecord
  2
숨은선
 70
     0
 62
     2
  6
HIDDEN
370
    25
390
F
  0
LAYER
  5
76
330
2
100
AcDbSymbolTableRecord
100
AcDbLayerTableRecord
  2
중심선
 70
     0
 62
     1
  6
CENTERX2
370
    -3
390
F
  0
LAYER
  5
77
330
2
100
AcDbSymbolTableRecord
100
AcDbLayerTableRecord
  2
파단선
 70
     0
 62
     4
  6
Continuous
370
    -3
390
F
  0
LAYER
  5
78
330
2
100
AcDbSymbolTableRecord
100
AcDbLayerTableRecord
  2
해칭선
 70
     0
 62
   100
  6
Continuous
370
    -3
390
F
  0
LAYER
  5
79
330
2
100
AcDbSymbolTableRecord
100
AcDbLayerTableRecord
  2
가는실선
 70
     0
 62
     4
  6
Continuous
370
    -3
390
F
  0
LAYER
  5
7A
330
2
100
AcDbSymbolTableRecord
100
AcDbLayerTableRecord
  2
치수_보조선
 70
     0
 62
     4
  6
Continuous
370
    -3
390
F
  0
LAYER
  5
7B
330
2
100
AcDbSymbolTableRecord
100
AcDbLayerTableRecord
  2
치수문자_일반주서
 70
     0
 62
     7
  6
Continuous
370
    25
390
F
  0
LAYER
  5
7C
330
2
100
AcDbSymbolTableRecord
100
AcDbLayerTableRecord
  2
개별주서
 70
     0
 62
   100
  6
Continuous
370
    35
390
F
  0
LAYER
  5
7D
330
2
100
AcDbSymbolTableRecord
100
AcDbLayerTableRecord
  2
중간선
 70
     0
 62
     2
  6
Continuous
370
    25
390
F
  0
LAYER
  5
7E
330
2
100
AcDbSymbolTableRecord
100
AcDbLayerTableRecord
  2
윤곽선
 70
     0
 62
     3
  6
Continuous
370
    50
390
F
  0
LAYER
  5
7F
330
2
100
AcDbSymbolTableRecord
100
AcDbLayerTableRecord
  2
중심마크
 70
     0
 62
   100
  6
Continuous
370
    35
390
F
  0
LAYER
  5
80
330
2
100
AcDbSymbolTableRecord
100
AcDbLayerTableRecord
  2
가상선
 70
     0
 62
     4
  6
PHANTOM
370
    -3
390
F
  0
LAYER
  5
81
330
2
100
AcDbSymbolTableRecord
100
AcDbLayerTableRecord
  2
특수지정선
 70
     0
 62
     5
  6
CENTERX2
370
    70
390
F
  0
LAYER
  5
161
330
2
100
AcDbSymbolTableRecord
100
AcDbLayerTableRecord
  2
Defpoints
 70
     0
 62
     7
  6
Continuous
290
     0
370
    -3
390
F
  0
ENDTAB
  0
TABLE
  2
STYLE
  5
3
330
0
100
AcDbSymbolTable
 70
     2
  0
STYLE
  5
11
330
3
100
AcDbSymbolTableRecord
100
AcDbTextStyleTableRecord
  2
Standard
 70
     0
 40
0.0
 41
1.0
 50
0.0
 71
     0
 42
3.5
  3
txt
  4

  0
STYLE
  5
97
330
3
100
AcDbSymbolTableRecord
100
AcDbTextStyleTableRecord
  2
SLDTEXTSTYLE0
 70
     0
 40
0.0
 41
0.75
 50
0.0
 71
     0
 42
3.5
  3
TXT
  4

  0
ENDTAB
  0
TABLE
  2
VIEW
  5
6
330
0
100
AcDbSymbolTable
 70
     0
  0
ENDTAB
  0
TABLE
  2
UCS
  5
7
330
0
100
AcDbSymbolTable
 70
     0
  0
ENDTAB
  0
TABLE
  2
APPID
  5
9
330
0
100
AcDbSymbolTable
 70
     1
  0
APPID
  5
12
330
9
100
AcDbSymbolTableRecord
100
AcDbRegAppTableRecord
  2
ACAD
 70
     0
  0
ENDTAB
  0
TABLE
  2
DIMSTYLE
  5
A
330
0
100
AcDbSymbolTable
 70
     4
100
AcDbDimStyleTable
  0
DIMSTYLE
105
27
330
A
100
AcDbSymbolTableRecord
100
AcDbDimStyleTableRecord
  2
ISO-25
 70
     0
 41
2.5
 42
0.625
 43
3.75
 44
1.25
 73
     0
 74
     0
 77
     1
 78
     8
140
2.5
141
2.5
143
0.03937007874016
147
0.625
171
     3
172
     1
178
     0
271
     2
272
     2
274
     3
278
    44
283
     0
284
     8
340
11
  0
DIMSTYLE
105
104
102
{ACAD_REACTORS
330
103
102
}
330
A
100
AcDbSymbolTableRecord
100
AcDbDimStyleTableRecord
  2
SLDDIMSTYLE0
 70
     0
 41
3.302
 44
0.0
 45
0.000000001
 73
     0
 74
     0
 77
     1
 78
    12
 79
     3
140
3.5
147
0.875
172
     1
173
     1
178
     0
271
     1
272
     1
276
     2
284
    12
289
     0
340
97
  0
DIMSTYLE
105
112
102
{ACAD_REACTORS
330
111
102
}
330
A
100
AcDbSymbolTableRecord
100
AcDbDimStyleTableRecord
  2
SLDDIMSTYLE1
 70
     0
 41
3.302
 44
0.0
 45
0.000000001
 73
     0
 74
     0
 77
     1
 78
    12
 79
     3
140
3.5
147
0.875
173
     1
178
     0
271
     2
272
     2
276
     2
284
    12
340
97
  0
DIMSTYLE
105
11D
102
{ACAD_REACTORS
330
11C
330
12A
102
}
330
A
100
AcDbSymbolTableRecord
100
AcDbDimStyleTableRecord
  2
SLDDIMSTYLE2
 70
     0
 41
3.302
 44
0.0
 45
0.000000001
 73
     0
 74
     0
 77
     1
 78
    12
 79
     3
140
3.5
147
0.875
172
     1
173
     1
178
     0
271
     2
272
     2
276
     2
284
    12
289
     0
340
97
  0
ENDTAB
  0
TABLE
  2
BLOCK_RECORD
  5
1
330
0
100
AcDbSymbolTable
 70
     7
  0
BLOCK_RECORD
  5
1F
330
1
100
AcDbSymbolTableRecord
100
AcDbBlockTableRecord
  2
*Model_Space
340
22
  0
BLOCK_RECORD
  5
1B
330
1
100
AcDbSymbolTableRecord
100
AcDbBlockTableRecord
  2
*Paper_Space
340
1E
  0
BLOCK_RECORD
  5
23
330
1
100
AcDbSymbolTableRecord
100
AcDbBlockTableRecord
  2
*Paper_Space0
340
26
  0
BLOCK_RECORD
  5
82
330
1
100
AcDbSymbolTableRecord
100
AcDbBlockTableRecord
  2
블럭10
340
0
102
{BLKREFS
331
FC
102
}
  0
BLOCK_RECORD
  5
105
330
1
100
AcDbSymbolTableRecord
100
AcDbBlockTableRecord
  2
_D
340
0
  0
BLOCK_RECORD
  5
113
330
1
100
AcDbSymbolTableRecord
100
AcDbBlockTableRecord
  2
_D_1
340
0
  0
BLOCK_RECORD
  5
11E
330
1
100
AcDbSymbolTableRecord
100
AcDbBlockTableRecord
  2
_D_2
340
0
  0
BLOCK_RECORD
  5
12B
330
1
100
AcDbSymbolTableRecord
100
AcDbBlockTableRecord
  2
_D_3
340
0
  0
BLOCK_RECORD
  5
136
330
1
100
AcDbSymbolTableRecord
100
AcDbBlockTableRecord
  2
SW_DOWELSYMBOL_0
340
0
102
{BLKREFS
331
13C
102
}
  0
ENDTAB
  0
ENDSEC
  0
SECTION
  2
BLOCKS
  0
BLOCK
  5
20
330
1F
100
AcDbEntity
  8
0
100
AcDbBlockBegin
  2
*Model_Space
 70
     0
 10
0.0
 20
0.0
 30
0.0
  3
*Model_Space
  1

  0
ENDBLK
  5
21
330
1F
100
AcDbEntity
  8
0
100
AcDbBlockEnd
  0
BLOCK
  5
1C
330
1B
100
AcDbEntity
 67
     1
  8
0
100
AcDbBlockBegin
  2
*Paper_Space
 70
     0
 10
0.0
 20
0.0
 30
0.0
  3
*Paper_Space
  1

  0
ENDBLK
  5
1D
330
1B
100
AcDbEntity
 67
     1
  8
0
100
AcDbBlockEnd
  0
BLOCK
  5
24
330
23
100
AcDbEntity
  8
0
100
AcDbBlockBegin
  2
*Paper_Space0
 70
     0
 10
0.0
 20
0.0
 30
0.0
  3
*Paper_Space0
  1

  0
ENDBLK
  5
25
330
23
100
AcDbEntity
  8
0
100
AcDbBlockEnd
  0
BLOCK
  5
83
330
82
100
AcDbEntity
  8
0
100
AcDbBlockBegin
  2
블럭10
 70
     2
 10
0.0
 20
0.0
 30
0.0
  3
블럭10
  1

  0
ELLIPSE
  5
85
330
82
100
AcDbEntity
  8
중심선
100
AcDbEllipse
 10
20.54032771741204
 20
12.0471743016438
 30
0.0
 11
6.600054785286829
 21
-1.261213355974178E-13
 31
0.0
210
0.0
220
0.0
230
1.0
 40
0.636358354079598
 41
0.9219305317359503
 42
6.513795318482858
  0
ELLIPSE
  5
86
330
82
100
AcDbEntity
  8
중심선
100
AcDbEllipse
 10
20.54032771746488
 20
12.04717430159265
 30
0.0
 11
3.960054785062283
 21
1.540847449632565E-10
 31
0.0
210
0.0
220
0.0
230
1.0
 40
0.3939339440162632
 41
1.131841032648279
 42
5.62031148352944
  0
LINE
  5
87
330
82
100
AcDbEntity
  8
중심선
100
AcDbLine
 10
2.268634060543552
 20
16.24717430164393
 30
0.0
 11
5.714909304380834
 21
16.24717430164393
 31
0.0
  0
LINE
  5
88
330
82
100
AcDbEntity
  8
중심선
100
AcDbLine
 10
5.245725140726316
 20
7.84717430164391
 30
0.0
 11
8.692000384563599
 21
7.84717430164391
 31
0.0
  0
LINE
  5
89
330
82
100
AcDbEntity
  8
중심선
100
AcDbLine
 10
15.74043728645272
 20
16.24717430164393
 30
0.0
 11
8.692000384563599
 21
7.84717430164391
 31
0.0
  0
LINE
  5
8A
330
82
100
AcDbEntity
  8
중심선
100
AcDbLine
 10
0.1404042013395286
 20
13.71084872107135
 30
0.0
 11
3.58671253028996
 21
13.71088815037384
 31
0.0
  0
LINE
  5
8B
330
82
100
AcDbEntity
  8
중심선
100
AcDbLine
 10
2.750260043222114
 20
10.84717430164391
 30
0.0
 11
6.196535287059397
 21
10.84717430164391
 31
0.0
  0
LINE
  5
8C
330
82
100
AcDbEntity
  8
중심선
100
AcDbLine
 10
12.29416204261559
 20
16.24717430164393
 30
0.0
 11
5.245725140726316
 21
7.84717430164391
 31
0.0
  0
LINE
  5
8D
330
82
100
AcDbEntity
  8
중심선
100
AcDbLine
 10
10.72767329541681
 20
16.24717430164393
 30
0.0
 11
6.196535287059397
 21
10.84717430164391
 31
0.0
  0
LINE
  5
8E
330
82
100
AcDbEntity
  8
중심선
100
AcDbLine
 10
7.28139805157953
 20
16.24717430164393
 30
0.0
 11
2.750260043222114
 21
10.84717430164391
 31
0.0
  0
LINE
  5
8F
330
82
100
AcDbEntity
  8
중심선
100
AcDbLine
 10
5.714909304380834
 20
16.24717430164393
 30
0.0
 11
3.58671253028996
 21
13.71088815037384
 31
0.0
  0
LINE
  5
90
330
82
100
AcDbEntity
  8
중심선
100
AcDbLine
 10
2.268634060543552
 20
16.24717430164393
 30
0.0
 11
0.1404042013395286
 21
13.71084872107135
 31
0.0
  0
LINE
  5
91
330
82
100
AcDbEntity
  8
중심선
100
AcDbLine
 10
7.28139805157953
 20
16.24717430164393
 30
0.0
 11
10.72767329541681
 21
16.24717430164393
 31
0.0
  0
LINE
  5
92
330
82
100
AcDbEntity
  8
중심선
100
AcDbLine
 10
12.29416204261559
 20
16.24717430164393
 30
0.0
 11
15.74043728645272
 21
16.24717430164393
 31
0.0
  0
LINE
  5
93
330
82
100
AcDbEntity
  8
중심선
100
AcDbLine
 10
19.22036997980202
 20
11.08717430171403
 30
0.0
 11
23.66174974927406
 21
11.08717430171406
 31
0.0
  0
LINE
  5
94
330
82
100
AcDbEntity
  8
중심선
100
AcDbLine
 10
19.22039502424796
 20
13.00717430171391
 30
0.0
 11
19.22036997980202
 21
11.08717430171403
 31
0.0
  0
LINE
  5
95
330
82
100
AcDbEntity
  8
중심선
100
AcDbLine
 10
19.22039502424796
 20
13.00717430171391
 30
0.0
 11
26.96566020931264
 21
13.00717430171391
 31
0.0
  0
LINE
  5
96
330
82
100
AcDbEntity
  8
중심선
100
AcDbLine
 10
22.22332737316547
 20
13.45928029700563
 30
0.0
 11
24.52862924686651
 21
15.39360700705356
 31
0.0
  0
ATTDEF
  5
98
330
82
100
AcDbEntity
  8
FORMAT
 62
     2
100
AcDbText
 10
-16.11926103943555
 20
2.075366912832191
 30
0.0
 40
4.233333333333333
  1
SEME7201212E [ 4 FLUTE ]
 41
0.75
  7
SLDTEXTSTYLE0
 11
-16.11926103943555
 21
-0.0412997538344756
 31
0.0
100
AcDbAttributeDefinition
  3

  2
AUTOATTR0
 70
     0
 74
     1
  0
ENDBLK
  5
84
330
82
100
AcDbEntity
  8
0
100
AcDbBlockEnd
  0
BLOCK
  5
106
330
105
100
AcDbEntity
  8
0
100
AcDbBlockBegin
  2
_D
 70
     0
 10
0.0
 20
0.0
 30
0.0
  3
_D
  1

  0
LINE
  5
108
330
105
100
AcDbEntity
  8
치수문자_일반주서
 62
     0
370
    -2
100
AcDbLine
 10
24.0194219381653
 20
-0.600000000000004
 30
0.0
 11
36.76997695050046
 21
-0.599999999999957
 31
0.0
  0
LINE
  5
109
330
105
100
AcDbEntity
  8
치수문자_일반주서
 62
     0
370
    -2
100
AcDbLine
 10
24.0194219381653
 20
0.6000000000000035
 30
0.0
 11
36.76997695050046
 21
0.6000000000000512
 31
0.0
  0
LINE
  5
10A
330
105
100
AcDbEntity
  8
치수문자_일반주서
 62
     0
370
    -2
100
AcDbLine
 10
36.76997695050046
 20
-0.599999999999957
 30
0.0
 11
36.76997695050036
 21
15.95400000000005
 31
0.0
  0
LINE
  5
10B
330
105
100
AcDbEntity
  8
치수문자_일반주서
 62
     0
370
    -2
100
AcDbLine
 10
36.76997695050046
 20
-0.599999999999957
 30
0.0
 11
36.76997695050046
 21
0.6000000000000512
 31
0.0
  0
LINE
  5
10C
330
105
100
AcDbEntity
  8
치수문자_일반주서
 62
     0
370
    -2
100
AcDbLine
 10
36.76997695050049
 20
-3.901999999999957
 30
0.0
 11
36.76997695050051
 21
-7.203999999999956
 31
0.0
  0
LINE
  5
10D
330
105
100
AcDbEntity
  8
치수문자_일반주서
 62
     0
370
    -2
100
AcDbLine
 10
36.76997695050044
 20
3.902000000000051
 30
0.0
 11
36.76997695050041
 21
7.20400000000005
 31
0.0
  0
SOLID
  5
10E
330
105
100
AcDbEntity
  8
치수문자_일반주서
 62
     0
100
AcDbTrace
 10
37.32031028383382
 20
-3.901999999999954
 30
0.0
 11
36.21964361716715
 21
-3.90199999999996
 31
0.0
 12
36.76997695050046
 22
-0.599999999999957
 32
0.0
 13
36.76997695050046
 23
-0.599999999999957
 33
0.0
  0
SOLID
  5
10F
330
105
100
AcDbEntity
  8
치수문자_일반주서
 62
     0
100
AcDbTrace
 10
36.2196436171671
 20
3.902000000000048
 30
0.0
 11
37.32031028383377
 21
3.902000000000054
 31
0.0
 12
36.76997695050046
 22
0.6000000000000512
 32
0.0
 13
36.76997695050046
 23
0.6000000000000512
 33
0.0
  0
MTEXT
  5
110
330
105
100
AcDbEntity
  8
치수문자_일반주서
 62
     0
100
AcDbMText
 10
32.39497695050039
 20
11.57900000000002
 30
0.0
 40
3.5
 41
0.0
 71
     2
 72
     1
  1
\A1;%%c1.2
  7
SLDTEXTSTYLE0
 11
-5.921189464667466E-15
 21
1.0
 31
0.0
 73
     1
 44
1.0
  0
POINT
  5
169
330
105
100
AcDbEntity
  8
Defpoints
 62
     0
100
AcDbPoint
 10
23.9569219381653
 20
-0.6000000000000042
 30
0.0
  0
POINT
  5
16A
330
105
100
AcDbEntity
  8
Defpoints
 62
     0
100
AcDbPoint
 10
23.9569219381653
 20
0.6000000000000033
 30
0.0
  0
POINT
  5
16B
330
105
100
AcDbEntity
  8
Defpoints
 62
     0
100
AcDbPoint
 10
36.76997695050046
 20
0.6000000000000512
 30
0.0
  0
ENDBLK
  5
107
330
105
100
AcDbEntity
  8
0
100
AcDbBlockEnd
  0
BLOCK
  5
114
330
113
100
AcDbEntity
  8
0
100
AcDbBlockBegin
  2
_D_1
 70
     0
 10
0.0
 20
0.0
 30
0.0
  3
_D_1
  1

  0
LINE
  5
116
330
113
100
AcDbEntity
  8
치수문자_일반주서
 62
     0
370
    -2
100
AcDbLine
 10
-36.04307806183472
 20
2.562499999999994
 30
0.0
 11
-36.04307806183472
 21
20.38913260158165
 31
0.0
  0
LINE
  5
117
330
113
100
AcDbEntity
  8
치수문자_일반주서
 62
     0
370
    -2
100
AcDbLine
 10
23.95692193816529
 20
0.6625000000000025
 30
0.0
 11
23.95692193816529
 21
20.38913260158165
 31
0.0
  0
LINE
  5
118
330
113
100
AcDbEntity
  8
치수문자_일반주서
 62
     0
370
    -2
100
AcDbLine
 10
-32.74107806183472
 20
20.38913260158165
 30
0.0
 11
20.65492193816529
 21
20.38913260158165
 31
0.0
  0
SOLID
  5
119
330
113
100
AcDbEntity
  8
치수문자_일반주서
 62
     0
100
AcDbTrace
 10
-32.74107806183472
 20
20.93946593491498
 30
0.0
 11
-32.74107806183472
 21
19.83879926824831
 31
0.0
 12
-36.04307806183472
 22
20.38913260158165
 32
0.0
 13
-36.04307806183472
 23
20.38913260158165
 33
0.0
  0
SOLID
  5
11A
330
113
100
AcDbEntity
  8
치수문자_일반주서
 62
     0
100
AcDbTrace
 10
20.65492193816529
 20
19.83879926824831
 30
0.0
 11
20.65492193816529
 21
20.93946593491498
 31
0.0
 12
23.95692193816529
 22
20.38913260158165
 32
0.0
 13
23.95692193816529
 23
20.38913260158165
 33
0.0
  0
MTEXT
  5
11B
330
113
100
AcDbEntity
  8
치수문자_일반주서
 62
     0
100
AcDbMText
 10
-6.043078061834716
 20
24.76413260158165
 30
0.0
 40
3.5
 41
0.0
 71
     2
 72
     1
  1
\A1;60
  7
SLDTEXTSTYLE0
 73
     1
 44
1.0
  0
POINT
  5
162
330
113
100
AcDbEntity
  8
Defpoints
 62
     0
100
AcDbPoint
 10
-36.04307806183472
 20
2.499999999999994
 30
0.0
  0
POINT
  5
163
330
113
100
AcDbEntity
  8
Defpoints
 62
     0
100
AcDbPoint
 10
23.95692193816529
 20
0.6000000000000025
 30
0.0
  0
POINT
  5
164
330
113
100
AcDbEntity
  8
Defpoints
 62
     0
100
AcDbPoint
 10
23.95692193816529
 20
20.38913260158165
 30
0.0
  0
ENDBLK
  5
115
330
113
100
AcDbEntity
  8
0
100
AcDbBlockEnd
  0
BLOCK
  5
11F
330
11E
100
AcDbEntity
  8
0
100
AcDbBlockBegin
  2
_D_2
 70
     0
 10
0.0
 20
0.0
 30
0.0
  3
_D_2
  1

  0
LINE
  5
121
330
11E
100
AcDbEntity
  8
치수문자_일반주서
 62
     0
370
    -2
100
AcDbLine
 10
-35.60557806183471
 20
3.000000000000003
 30
0.0
 11
-46.02705465818076
 21
2.999999999999964
 31
0.0
  0
LINE
  5
122
330
11E
100
AcDbEntity
  8
치수문자_일반주서
 62
     0
370
    -2
100
AcDbLine
 10
-35.60557806183471
 20
-3.000000000000003
 30
0.0
 11
-46.02705465818074
 21
-3.000000000000041
 31
0.0
  0
LINE
  5
123
330
11E
100
AcDbEntity
  8
치수문자_일반주서
 62
     0
370
    -2
100
AcDbLine
 10
-46.02705465818076
 20
2.999999999999964
 30
0.0
 11
-46.02705465818081
 21
15.72899999999996
 31
0.0
  0
LINE
  5
124
330
11E
100
AcDbEntity
  8
치수문자_일반주서
 62
     0
370
    -2
100
AcDbLine
 10
-46.02705465818076
 20
2.999999999999964
 30
0.0
 11
-46.02705465818074
 21
-3.000000000000041
 31
0.0
  0
LINE
  5
125
330
11E
100
AcDbEntity
  8
치수문자_일반주서
 62
     0
370
    -2
100
AcDbLine
 10
-46.02705465818077
 20
6.301999999999964
 30
0.0
 11
-46.02705465818079
 21
9.603999999999964
 31
0.0
  0
LINE
  5
126
330
11E
100
AcDbEntity
  8
치수문자_일반주서
 62
     0
370
    -2
100
AcDbLine
 10
-46.02705465818072
 20
-6.30200000000004
 30
0.0
 11
-46.02705465818071
 21
-9.60400000000004
 31
0.0
  0
SOLID
  5
127
330
11E
100
AcDbEntity
  8
치수문자_일반주서
 62
     0
100
AcDbTrace
 10
-46.57738799151411
 20
6.301999999999962
 30
0.0
 11
-45.47672132484744
 21
6.301999999999966
 31
0.0
 12
-46.02705465818076
 22
2.999999999999964
 32
0.0
 13
-46.02705465818076
 23
2.999999999999964
 33
0.0
  0
SOLID
  5
128
330
11E
100
AcDbEntity
  8
치수문자_일반주서
 62
     0
100
AcDbTrace
 10
-45.47672132484739
 20
-6.302000000000039
 30
0.0
 11
-46.57738799151406
 21
-6.302000000000042
 31
0.0
 12
-46.02705465818074
 22
-3.000000000000041
 32
0.0
 13
-46.02705465818074
 23
-3.000000000000041
 33
0.0
  0
MTEXT
  5
129
330
11E
100
AcDbEntity
  8
치수문자_일반주서
 62
     0
100
AcDbMText
 10
-50.40205465818079
 20
12.66649999999995
 30
0.0
 40
3.5
 41
0.0
 71
     2
 72
     1
  1
\A1;%%c6
  7
SLDTEXTSTYLE0
 11
-3.552713678800498E-15
 21
1.0
 31
0.0
 73
     1
 44
1.0
  0
POINT
  5
166
330
11E
100
AcDbEntity
  8
Defpoints
 62
     0
100
AcDbPoint
 10
-35.54307806183471
 20
3.000000000000003
 30
0.0
  0
POINT
  5
167
330
11E
100
AcDbEntity
  8
Defpoints
 62
     0
100
AcDbPoint
 10
-35.54307806183471
 20
-3.000000000000002
 30
0.0
  0
POINT
  5
168
330
11E
100
AcDbEntity
  8
Defpoints
 62
     0
100
AcDbPoint
 10
-46.02705465818073
 20
-3.000000000000041
 30
0.0
  0
ENDBLK
  5
120
330
11E
100
AcDbEntity
  8
0
100
AcDbBlockEnd
  0
BLOCK
  5
12C
330
12B
100
AcDbEntity
  8
0
100
AcDbBlockBegin
  2
_D_3
 70
     0
 10
0.0
 20
0.0
 30
0.0
  3
_D_3
  1

  0
LINE
  5
12E
330
12B
100
AcDbEntity
  8
치수문자_일반주서
 62
     0
370
    -2
100
AcDbLine
 10
11.95692193816529
 20
0.6306251209009933
 30
0.0
 11
11.95692193816529
 21
11.41404342348865
 31
0.0
  0
LINE
  5
12F
330
12B
100
AcDbEntity
  8
치수문자_일반주서
 62
     0
370
    -2
100
AcDbLine
 10
23.95692193816529
 20
0.6625000000000025
 30
0.0
 11
23.95692193816529
 21
11.41404342348865
 31
0.0
  0
LINE
  5
130
330
12B
100
AcDbEntity
  8
치수문자_일반주서
 62
     0
370
    -2
100
AcDbLine
 10
15.25892193816528
 20
11.41404342348865
 30
0.0
 11
20.65492193816529
 21
11.41404342348865
 31
0.0
  0
SOLID
  5
131
330
12B
100
AcDbEntity
  8
치수문자_일반주서
 62
     0
100
AcDbTrace
 10
15.25892193816528
 20
11.96437675682198
 30
0.0
 11
15.25892193816528
 21
10.86371009015531
 31
0.0
 12
11.95692193816529
 22
11.41404342348865
 32
0.0
 13
11.95692193816529
 23
11.41404342348865
 33
0.0
  0
SOLID
  5
132
330
12B
100
AcDbEntity
  8
치수문자_일반주서
 62
     0
100
AcDbTrace
 10
20.65492193816529
 20
10.86371009015531
 30
0.0
 11
20.65492193816529
 21
11.96437675682198
 31
0.0
 12
23.95692193816529
 22
11.41404342348865
 32
0.0
 13
23.95692193816529
 23
11.41404342348865
 33
0.0
  0
MTEXT
  5
133
330
12B
100
AcDbEntity
  8
치수문자_일반주서
 62
     0
100
AcDbMText
 10
17.95692193816529
 20
15.78904342348865
 30
0.0
 40
3.5
 41
0.0
 71
     2
 72
     1
  1
\A1;12
  7
SLDTEXTSTYLE0
 73
     1
 44
1.0
  0
POINT
  5
134
330
12B
100
AcDbEntity
  8
Defpoints
 62
     0
100
AcDbPoint
 10
11.95692193816529
 20
0.5681251209009933
 30
0.0
  0
POINT
  5
135
330
12B
100
AcDbEntity
  8
Defpoints
 62
     0
100
AcDbPoint
 10
23.95692193816529
 20
0.6000000000000025
 30
0.0
  0
POINT
  5
165
330
12B
100
AcDbEntity
  8
Defpoints
 62
     0
100
AcDbPoint
 10
23.95692193816529
 20
11.41404342348865
 30
0.0
  0
ENDBLK
  5
12D
330
12B
100
AcDbEntity
  8
0
100
AcDbBlockEnd
  0
BLOCK
  5
137
330
136
100
AcDbEntity
  8
0
100
AcDbBlockBegin
  2
SW_DOWELSYMBOL_0
 70
     0
 10
0.0
 20
0.0
 30
0.0
  3
SW_DOWELSYMBOL_0
  1

  0
CIRCLE
  5
139
330
136
100
AcDbEntity
  8
해칭선
 62
     0
100
AcDbCircle
 10
0.0
 20
0.0
 30
0.0
 40
3.0
  0
HATCH
  5
13A
330
136
100
AcDbEntity
  8
0
  6
Continuous
 62
     0
370
    18
100
AcDbHatch
 10
0.0
 20
0.0
 30
0.0
210
0.0
220
0.0
230
1.0
  2
SOLID
 70
     1
 71
     0
 91
        1
 92
        0
 93
        3
 72
     2
 10
0.0
 20
0.0
 40
3.0
 50
0.0
 51
90.0
 73
     1
 72
     1
 10
0.0
 20
3.0
 11
0.0
 21
0.0
 72
     1
 10
0.0
 20
0.0
 11
3.0
 21
0.0
 97
        0
 75
     0
 76
     1
 98
        1
 10
0.0
 20
0.0
  0
HATCH
  5
13B
330
136
100
AcDbEntity
  8
0
  6
Continuous
 62
     0
370
    18
100
AcDbHatch
 10
0.0
 20
0.0
 30
0.0
210
0.0
220
0.0
230
1.0
  2
SOLID
 70
     1
 71
     0
 91
        1
 92
        0
 93
        3
 72
     2
 10
0.0
 20
0.0
 40
3.0
 50
180.0
 51
270.0000000000008
 73
     1
 72
     1
 10
0.0
 20
-2.999999999999999
 11
0.0
 21
0.0
 72
     1
 10
0.0
 20
0.0
 11
-3.0
 21
0.0
 97
        0
 75
     0
 76
     1
 98
        1
 10
0.0
 20
0.0
  0
ENDBLK
  5
138
330
136
100
AcDbEntity
  8
0
100
AcDbBlockEnd
  0
ENDSEC
  0
SECTION
  2
ENTITIES
  0
LINE
  5
99
330
1F
100
AcDbEntity
  8
0
  6
Continuous
 62
     4
370
    25
100
AcDbLine
 10
2.0
 20
2.999999999999998
 30
0.0
 11
-35.54307806183472
 21
2.999999999999996
 31
0.0
  0
LINE
  5
9A
330
1F
100
AcDbEntity
  8
0
  6
Continuous
 62
     4
370
    25
100
AcDbLine
 10
-35.54307806183472
 20
-3.000000000000001
 30
0.0
 11
1.999999999999996
 21
-2.999999999999998
 31
0.0
  0
LINE
  5
9B
330
1F
100
AcDbEntity
  8
0
  6
Continuous
 62
     4
370
    25
100
AcDbLine
 10
10.67171063244978
 20
-0.6764221390386962
 30
0.0
 11
10.95692193816529
 21
-0.5999999999999995
 31
0.0
  0
LINE
  5
9C
330
1F
100
AcDbEntity
  8
0
  6
Continuous
 62
     4
370
    25
100
AcDbLine
 10
2.0
 20
-3.0
 30
0.0
 11
10.49474478571363
 21
-0.7238399947595362
 31
0.0
  0
LINE
  5
9D
330
1F
100
AcDbEntity
  8
0
  6
Continuous
 62
     4
370
    25
100
AcDbLine
 10
10.49474478571364
 20
0.7238399947595362
 30
0.0
 11
2.0
 21
3.0
 31
0.0
  0
LINE
  5
9E
330
1F
100
AcDbEntity
  8
0
  6
Continuous
 62
     4
370
    25
100
AcDbLine
 10
10.95692193816529
 20
0.6000000000000004
 30
0.0
 11
10.67171063244977
 21
0.6764221390386977
 31
0.0
  0
LINE
  5
9F
330
1F
100
AcDbEntity
  8
0
  6
Continuous
 62
     4
370
    25
100
AcDbLine
 10
-35.54307806183472
 20
2.999999999999994
 30
0.0
 11
-36.04307806183472
 21
2.499999999999994
 31
0.0
  0
LINE
  5
A0
330
1F
100
AcDbEntity
  8
0
  6
Continuous
 62
     4
370
    25
100
AcDbLine
 10
-36.04307806183472
 20
-2.5
 30
0.0
 11
-35.54307806183472
 21
-2.999999999999999
 31
0.0
  0
LINE
  5
A1
330
1F
100
AcDbEntity
  8
0
  6
Continuous
 62
     4
370
    25
100
AcDbLine
 10
10.95244973319038
 20
0.09626782814744
 30
0.0
 11
10.99498181676948
 21
0.0701789328844362
 31
0.0
  0
LINE
  5
A2
330
1F
100
AcDbEntity
  8
0
  6
Continuous
 62
     4
370
    25
100
AcDbLine
 10
11.12828396336466
 20
0.6000000000000003
 30
0.0
 11
10.95692193816529
 21
0.6000000000000003
 31
0.0
  0
SPLINE
  5
A3
330
1F
100
AcDbEntity
  8
0
  6
Continuous
 62
     4
370
    25
100
AcDbSpline
210
0.0
220
0.0
230
1.0
 70
     8
 71
     3
 72
     9
 73
     5
 74
     0
 42
0.000000001
 43
0.00000001
 40
0.0
 40
0.0
 40
0.0
 40
0.0
 40
0.0460647496864857
 40
1.0
 40
1.0
 40
1.0
 40
1.0
 10
10.89380954565667
 20
-0.1322373265127164
 30
0.0
 10
10.88835489686344
 20
-0.1356102959618353
 30
0.0
 10
10.76994225313154
 20
-0.2088326508443684
 30
0.0
 10
10.65137839178249
 20
-0.2437996447136217
 30
0.0
 10
10.53827614502836
 20
-0.2771558927629988
 30
0.0
  0
LINE
  5
A4
330
1F
100
AcDbEntity
  8
0
  6
Continuous
 62
     4
370
    25
100
AcDbLine
 10
10.95692193816529
 20
-0.5999999999999994
 30
0.0
 11
11.12828396336467
 21
-0.5999999999999994
 31
0.0
  0
LINE
  5
A5
330
1F
100
AcDbEntity
  8
0
  6
Continuous
 62
     4
370
    25
100
AcDbLine
 10
10.64148883521303
 20
-0.0195293881718147
 30
0.0
 11
10.61644955968709
 21
-0.0317080717797377
 31
0.0
  0
LINE
  5
A6
330
1F
100
AcDbEntity
  8
0
  6
Continuous
 62
     1
370
    25
100
AcDbLine
 10
22.09253781666559
 20
-0.6000000000000006
 30
0.0
 11
22.5566714403135
 21
-0.6000000000000006
 31
0.0
  0
LINE
  5
A7
330
1F
100
AcDbEntity
  8
0
  6
Continuous
 62
     1
370
    25
100
AcDbLine
 10
15.56286010542241
 20
-0.6000000000000006
 30
0.0
 11
16.02699372907032
 21
-0.6000000000000006
 31
0.0
  0
LINE
  5
A8
330
1F
100
AcDbEntity
  8
0
  6
Continuous
 62
     1
370
    25
100
AcDbLine
 10
12.76199951774392
 20
0.6000000000000014
 30
0.0
 11
12.29802167770672
 21
0.6000000000000014
 31
0.0
  0
LINE
  5
A9
330
1F
100
AcDbEntity
  8
0
  6
Continuous
 62
     1
370
    25
100
AcDbLine
 10
19.29167722898709
 20
0.6000000000000014
 30
0.0
 11
18.82769938894991
 21
0.6000000000000014
 31
0.0
  0
LINE
  5
AA
330
1F
100
AcDbEntity
  8
0
  6
Continuous
 62
     1
370
    25
100
AcDbLine
 10
20.45874295546607
 20
-0.6000000000000006
 30
0.0
 11
20.92534710957755
 21
-0.6000000000000006
 31
0.0
  0
LINE
  5
AB
330
1F
100
AcDbEntity
  8
0
  6
Continuous
 62
     1
370
    25
100
AcDbLine
 10
13.92906524422289
 20
-0.6000000000000006
 30
0.0
 11
14.39566939833436
 21
-0.6000000000000006
 31
0.0
  0
LINE
  5
AC
330
1F
100
AcDbEntity
  8
0
  6
Continuous
 62
     1
370
    25
100
AcDbLine
 10
17.66065231483251
 20
0.6000000000000014
 30
0.0
 11
17.19542717350204
 21
0.6000000000000014
 31
0.0
  0
LINE
  5
AD
330
1F
100
AcDbEntity
  8
0
  6
Continuous
 62
     1
370
    25
100
AcDbLine
 10
23.95692193816529
 20
0.6000000000000014
 30
0.0
 11
23.72510488474523
 21
0.6000000000000014
 31
0.0
  0
LINE
  5
AE
330
1F
100
AcDbEntity
  8
0
  6
Continuous
 62
     1
370
    25
100
AcDbLine
 10
23.72510488474524
 20
-0.6000000000000006
 30
0.0
 11
23.95692193816529
 21
-0.6000000000000006
 31
0.0
  0
LINE
  5
AF
330
1F
100
AcDbEntity
  8
0
  6
Continuous
 62
     1
370
    25
100
AcDbLine
 10
17.19542717350204
 20
-0.6000000000000006
 30
0.0
 11
17.66065231483251
 21
-0.6000000000000006
 31
0.0
  0
LINE
  5
B0
330
1F
100
AcDbEntity
  8
0
  6
Continuous
 62
     1
370
    25
100
AcDbLine
 10
14.39566939833437
 20
0.6000000000000014
 30
0.0
 11
13.92906524422289
 21
0.6000000000000014
 31
0.0
  0
LINE
  5
B1
330
1F
100
AcDbEntity
  8
0
  6
Continuous
 62
     1
370
    25
100
AcDbLine
 10
20.92534710957755
 20
0.6000000000000014
 30
0.0
 11
20.45874295546607
 21
0.6000000000000014
 31
0.0
  0
LINE
  5
B2
330
1F
100
AcDbEntity
  8
0
  6
Continuous
 62
     1
370
    25
100
AcDbLine
 10
18.82769938894991
 20
-0.6000000000000006
 30
0.0
 11
19.29167722898709
 21
-0.6000000000000006
 31
0.0
  0
LINE
  5
B3
330
1F
100
AcDbEntity
  8
0
  6
Continuous
 62
     1
370
    25
100
AcDbLine
 10
12.29802167770673
 20
-0.6000000000000006
 30
0.0
 11
12.76199951774391
 21
-0.6000000000000006
 31
0.0
  0
LINE
  5
B4
330
1F
100
AcDbEntity
  8
0
  6
Continuous
 62
     1
370
    25
100
AcDbLine
 10
16.02699372907032
 20
0.6000000000000014
 30
0.0
 11
15.56286010542241
 21
0.6000000000000014
 31
0.0
  0
LINE
  5
B5
330
1F
100
AcDbEntity
  8
0
  6
Continuous
 62
     1
370
    25
100
AcDbLine
 10
22.55667144031351
 20
0.6000000000000014
 30
0.0
 11
22.0925378166656
 21
0.6000000000000014
 31
0.0
  0
LINE
  5
B6
330
1F
100
AcDbEntity
  8
0
  6
Continuous
 62
     4
370
    25
100
AcDbLine
 10
2.0
 20
3.0
 30
0.0
 11
2.0
 21
-3.0
 31
0.0
  0
LINE
  5
B7
330
1F
100
AcDbEntity
  8
0
  6
Continuous
 62
     4
370
    25
100
AcDbLine
 10
-35.54307806183472
 20
2.999999999999994
 30
0.0
 11
-35.54307806183472
 21
-2.999999999999999
 31
0.0
  0
SPLINE
  5
B8
330
1F
100
AcDbEntity
  8
0
  6
Continuous
 62
     4
370
    25
100
AcDbSpline
210
0.0
220
0.0
230
1.0
 70
     8
 71
     3
 72
     8
 73
     4
 74
     0
 42
0.000000001
 43
0.00000001
 40
0.0
 40
0.0
 40
0.0
 40
0.0
 40
1.0
 40
1.0
 40
1.0
 40
1.0
 10
10.64236155763048
 20
0.6840305433386729
 30
0.0
 10
10.74656699472916
 20
0.6579311271646718
 30
0.0
 10
10.85115248770822
 20
0.6218514708483788
 30
0.0
 10
10.9569219381653
 20
0.5764549825940701
 30
0.0
  0
SPLINE
  5
B9
330
1F
100
AcDbEntity
  8
0
  6
Continuous
 62
     4
370
    25
100
AcDbSpline
210
0.0
220
0.0
230
1.0
 70
     8
 71
     3
 72
    26
 73
    22
 74
     0
 42
0.000000001
 43
0.00000001
 40
0.0
 40
0.0
 40
0.0
 40
0.0
 40
0.0000386318699622
 40
0.0000386318699622
 40
0.0000386318699622
 40
0.0000771546895632
 40
0.0000771546895632
 40
0.0000771546895632
 40
0.0001172733859807
 40
0.0001172733859807
 40
0.0001172733859807
 40
0.000159512029992
 40
0.000159512029992
 40
0.000159512029992
 40
0.0002025388373021
 40
0.0002025388373021
 40
0.0002025388373021
 40
0.000244960633877
 40
0.000244960633877
 40
0.000244960633877
 40
0.0002643645019896
 40
0.0002643645019896
 40
0.0002643645019896
 40
0.0002643645019896
 10
10.45683674522817
 20
0.7287897897498946
 30
0.0
 10
10.45683674522817
 20
0.7303210208398991
 30
0.0
 10
10.4589616063859
 20
0.7309532149787136
 30
0.0
 10
10.46294882276698
 20
0.7307064036950954
 30
0.0
 10
10.46692943662973
 20
0.7304600011116494
 30
0.0
 10
10.47285918466885
 20
0.7293413504214239
 30
0.0
 10
10.48022639863811
 20
0.72757880192707
 30
0.0
 10
10.48789747104353
 20
0.7257435576712833
 30
0.0
 10
10.49732314507795
 20
0.7231698901286039
 30
0.0
 10
10.50779799179322
 20
0.720217529572128
 30
0.0
 10
10.51881470201571
 20
0.7171124434923848
 30
0.0
 10
10.53129258785247
 20
0.7135109885830238
 30
0.0
 10
10.54427621138925
 20
0.7098469807116596
 30
0.0
 10
10.55749141586496
 20
0.7061176201765595
 30
0.0
 10
10.57160579778181
 20
0.7022244363579468
 30
0.0
 10
10.58543709353603
 20
0.6985527965099922
 30
0.0
 10
10.59907347226325
 20
0.6949328991116344
 30
0.0
 10
10.61282104824708
 20
0.691426387701029
 30
0.0
 10
10.62545842090815
 20
0.6882574975345069
 30
0.0
 10
10.63130760458114
 20
0.6867907828050611
 30
0.0
 10
10.63698011091468
 20
0.685378386804084
 30
0.0
 10
10.6423615576305
 20
0.6840305433386676
 30
0.0
  0
LINE
  5
BA
330
1F
100
AcDbEntity
  8
0
  6
Continuous
 62
     4
370
    25
100
AcDbLine
 10
10.45683674522817
 20
0.7287897897498946
 30
0.0
 11
10.45683674522817
 21
0.4925291962327589
 31
0.0
  0
SPLINE
  5
BB
330
1F
100
AcDbEntity
  8
0
  6
Continuous
 62
     4
370
    25
100
AcDbSpline
210
0.0
220
0.0
230
1.0
 70
     8
 71
     3
 72
    14
 73
    10
 74
     0
 42
0.000000001
 43
0.00000001
 40
0.0
 40
0.0
 40
0.0
 40
0.0
 40
0.0000417972668629
 40
0.0000417972668629
 40
0.0000417972668629
 40
0.0000837026531588
 40
0.0000837026531588
 40
0.0000837026531588
 40
0.0001186252750431
 40
0.0001186252750431
 40
0.0001186252750431
 40
0.0001186252750431
 10
10.50884439311137
 20
0.4046059889076862
 30
0.0
 10
10.49786341204375
 20
0.4129219070272852
 30
0.0
 10
10.48799639613773
 20
0.4226590275782636
 30
0.0
 10
10.48004036382031
 20
0.4329594830550439
 30
0.0
 10
10.47207268830954
 20
0.4432750126529526
 30
0.0
 10
10.46579989111279
 20
0.4544545408746505
 30
0.0
 10
10.46186565019807
 20
0.4654305085540573
 30
0.0
 10
10.45857409324005
 20
0.4746134802045421
 30
0.0
 10
10.45683674522816
 20
0.4838740162320175
 30
0.0
 10
10.45683674522816
 20
0.4925291962327579
 30
0.0
  0
SPLINE
  5
BC
330
1F
100
AcDbEntity
  8
0
  6
Continuous
 62
     4
370
    25
100
AcDbSpline
210
0.0
220
0.0
230
1.0
 70
     8
 71
     3
 72
     8
 73
     4
 74
     0
 42
0.000000001
 43
0.00000001
 40
0.0
 40
0.0
 40
0.0
 40
0.0
 40
1.0
 40
1.0
 40
1.0
 40
1.0
 10
10.95692193816529
 20
0.0988967483149031
 30
0.0
 10
10.80015743948739
 20
0.1896068345213313
 30
0.0
 10
10.65331832441949
 20
0.2951956023696698
 30
0.0
 10
10.50884439311137
 20
0.4046059889076881
 30
0.0
  0
LINE
  5
BD
330
1F
100
AcDbEntity
  8
0
  6
Continuous
 62
     4
370
    25
100
AcDbLine
 10
10.95692193816529
 20
0.0988967483148966
 30
0.0
 11
10.95692193816529
 21
-0.1664321274348557
 31
0.0
  0
SPLINE
  5
BE
330
1F
100
AcDbEntity
  8
0
  6
Continuous
 62
     4
370
    25
100
AcDbSpline
210
0.0
220
0.0
230
1.0
 70
     8
 71
     3
 72
     8
 73
     4
 74
     0
 42
0.000000001
 43
0.00000001
 40
0.0
 40
0.0
 40
0.0
 40
0.0
 40
1.0
 40
1.0
 40
1.0
 40
1.0
 10
10.64236155763048
 20
0.0187034542654186
 30
0.0
 10
10.74656699472916
 20
-0.0483258260669142
 30
0.0
 10
10.85115248770822
 20
-0.1113674672193068
 30
0.0
 10
10.9569219381653
 20
-0.1664321274348663
 30
0.0
  0
SPLINE
  5
BF
330
1F
100
AcDbEntity
  8
0
  6
Continuous
 62
     4
370
    25
100
AcDbSpline
210
0.0
220
0.0
230
1.0
 70
     8
 71
     3
 72
    26
 73
    22
 74
     0
 42
0.000000001
 43
0.00000001
 40
0.0
 40
0.0
 40
0.0
 40
0.0
 40
0.0000386318699622
 40
0.0000386318699622
 40
0.0000386318699622
 40
0.0000771546895632
 40
0.0000771546895632
 40
0.0000771546895632
 40
0.0001172733859807
 40
0.0001172733859807
 40
0.0001172733859807
 40
0.000159512029992
 40
0.000159512029992
 40
0.000159512029992
 40
0.0002025388373021
 40
0.0002025388373021
 40
0.0002025388373021
 40
0.000244960633877
 40
0.000244960633877
 40
0.000244960633877
 40
0.0002643645019896
 40
0.0002643645019896
 40
0.0002643645019896
 40
0.0002643645019896
 10
10.45683674522817
 20
-0.0872792082876596
 30
0.0
 10
10.45683674522817
 20
-0.0744932813064597
 30
0.0
 10
10.4589616063859
 20
-0.0614240575606932
 30
0.0
 10
10.46294882276698
 20
-0.0491820892900129
 30
0.0
 10
10.46692943662973
 20
-0.0369603927608334
 30
0.0
 10
10.47285918466885
 20
-0.0252299844791877
 30
0.0
 10
10.48022639863811
 20
-0.0148428073773509
 30
0.0
 10
10.48789747104353
 20
-0.0040272144044191
 30
0.0
 10
10.49732314507795
 20
0.005617654910147
 30
0.0
 10
10.50779799179322
 20
0.013411991194906
 30
0.0
 10
10.51881470201572
 20
0.0216095282625093
 30
0.0
 10
10.53129258785247
 20
0.027978151934501
 30
0.0
 10
10.54427621138925
 20
0.0320042721310956
 30
0.0
 10
10.55749141586496
 20
0.0361022037671323
 30
0.0
 10
10.57160579778181
 20
0.0378798505114089
 30
0.0
 10
10.58543709353603
 20
0.0371334447134852
 30
0.0
 10
10.59907347226325
 20
0.0363975576118327
 30
0.0
 10
10.61282104824708
 20
0.0331808766167934
 30
0.0
 10
10.62545842090815
 20
0.0277172734896663
 30
0.0
 10
10.63130760458114
 20
0.0251884552721518
 30
0.0
 10
10.63698011091468
 20
0.0221650250869597
 30
0.0
 10
10.6423615576305
 20
0.0187034542654058
 30
0.0
  0
LINE
  5
C0
330
1F
100
AcDbEntity
  8
0
  6
Continuous
 62
     4
370
    25
100
AcDbLine
 10
10.45683674522817
 20
-0.0872792082876596
 30
0.0
 11
10.45683674522817
 21
-0.5442124665067216
 31
0.0
  0
SPLINE
  5
C1
330
1F
100
AcDbEntity
  8
0
  6
Continuous
 62
     4
370
    25
100
AcDbSpline
210
0.0
220
0.0
230
1.0
 70
     8
 71
     3
 72
    14
 73
    10
 74
     0
 42
0.000000001
 43
0.00000001
 40
0.0
 40
0.0
 40
0.0
 40
0.0
 40
0.0000417972668629
 40
0.0000417972668629
 40
0.0000417972668629
 40
0.0000837026531588
 40
0.0000837026531588
 40
0.0000837026531588
 40
0.0001186252750431
 40
0.0001186252750431
 40
0.0001186252750431
 40
0.0001186252750431
 10
10.50884439311137
 20
-0.5956368869714289
 30
0.0
 10
10.49786341204375
 20
-0.5935450094842754
 30
0.0
 10
10.48799639613773
 20
-0.5899584352668803
 30
0.0
 10
10.48004036382031
 20
-0.5849870614592019
 30
0.0
 10
10.47207268830954
 20
-0.5800084123333477
 30
0.0
 10
10.46579989111279
 20
-0.5734819192701983
 30
0.0
 10
10.46186565019807
 20
-0.5658183148327133
 30
0.0
 10
10.45857409324005
 20
-0.5594066102481605
 30
0.0
 10
10.45683674522816
 20
-0.5520456734091306
 30
0.0
 10
10.45683674522816
 20
-0.5442124665067276
 30
0.0
  0
SPLINE
  5
C2
330
1F
100
AcDbEntity
  8
0
  6
Continuous
 62
     4
370
    25
100
AcDbSpline
210
0.0
220
0.0
230
1.0
 70
     8
 71
     3
 72
     8
 73
     4
 74
     0
 42
0.000000001
 43
0.00000001
 40
0.0
 40
0.0
 40
0.0
 40
0.0
 40
1.0
 40
1.0
 40
1.0
 40
1.0
 10
10.95692193816529
 20
-0.5917934041308153
 30
0.0
 10
10.80015743948739
 20
-0.6192219287055818
 30
0.0
 10
10.65331832441949
 20
-0.6231591786977309
 30
0.0
 10
10.50884439311137
 20
-0.5956368869714285
 30
0.0
  0
LINE
  5
C3
330
1F
100
AcDbEntity
  8
0
  6
Continuous
 62
     4
370
    25
100
AcDbLine
 10
10.95692193816529
 20
-0.5917934041305276
 30
0.0
 11
10.95692193816529
 21
-0.5999999999999995
 31
0.0
  0
LINE
  5
C4
330
1F
100
AcDbEntity
  8
0
  6
Continuous
 62
     4
370
    25
100
AcDbLine
 10
10.64236155763048
 20
-0.6840305433386713
 30
0.0
 11
10.67170027701528
 21
-0.676383492031036
 31
0.0
  0
SPLINE
  5
C5
330
1F
100
AcDbEntity
  8
0
  6
Continuous
 62
     4
370
    25
100
AcDbSpline
210
0.0
220
0.0
230
1.0
 70
     8
 71
     3
 72
    12
 73
     8
 74
     0
 42
0.000000001
 43
0.00000001
 40
0.0
 40
0.0
 40
0.0
 40
0.0
 40
0.1146341466447651
 40
0.3686267707279661
 40
0.6271497056445106
 40
0.8820294156034182
 40
0.9999999999999999
 40
0.9999999999999999
 40
0.9999999999999999
 40
0.9999999999999999
 10
10.49471042206264
 20
-0.7237117478680789
 30
0.0
 10
10.49890625913639
 20
-0.7226088956497484
 30
0.0
 10
10.51239872989028
 20
-0.7190624754622882
 30
0.0
 10
10.54415098325933
 20
-0.7097626314339466
 30
0.0
 10
10.58516560163542
 20
-0.6984878019370582
 30
0.0
 10
10.61928267162886
 20
-0.6897862917906372
 30
0.0
 10
10.63681446339163
 20
-0.6854139584253413
 30
0.0
 10
10.64236155763048
 20
-0.6840305433386713
 30
0.0
  0
ARC
  5
C6
330
1F
100
AcDbEntity
  8
0
  6
Continuous
 62
     4
370
    25
100
AcDbCircle
 10
13.7496439314258
 20
-4.654296715270418
 30
0.0
 40
5.344403887925431
100
AcDbArc
 50
122.2514789397739
 51
127.3290188559138
  0
LINE
  5
C7
330
1F
100
AcDbEntity
  8
0
  6
Continuous
 62
     4
370
    25
100
AcDbLine
 10
10.64236155763048
 20
-0.018703454265413
 30
0.0
 11
10.67169958265804
 21
0.0000000000000028
 31
0.0
  0
SPLINE
  5
C8
330
1F
100
AcDbEntity
  8
0
  6
Continuous
 62
     4
370
    25
100
AcDbSpline
210
0.0
220
0.0
230
1.0
 70
     8
 71
     3
 72
     9
 73
     5
 74
     0
 42
0.000000001
 43
0.00000001
 40
0.0
 40
0.0
 40
0.0
 40
0.0
 40
0.0944491050313404
 40
1.0
 40
1.0
 40
1.0
 40
1.0
 10
10.62352638613757
 20
-0.0281718403769867
 30
0.0
 10
10.62417305859317
 20
-0.0280279617830226
 30
0.0
 10
10.63101984084042
 20
-0.0265046165494567
 30
0.0
 10
10.63697177674515
 20
-0.0224107021309851
 30
0.0
 10
10.64236155763048
 20
-0.018703454265413
 30
0.0
  0
LINE
  5
C9
330
1F
100
AcDbEntity
  8
0
  6
Continuous
 62
     4
370
    25
100
AcDbLine
 10
10.95692193816529
 20
0.6000000000000004
 30
0.0
 11
10.95692193816529
 21
0.5764549825940506
 31
0.0
  0
LINE
  5
CA
330
1F
100
AcDbEntity
  8
0
  6
Continuous
 62
     4
370
    25
100
AcDbLine
 10
-36.04307806183472
 20
2.499999999999994
 30
0.0
 11
-36.04307806183472
 21
-2.500000000000001
 31
0.0
  0
SPLINE
  5
CB
330
1F
100
AcDbEntity
  8
0
  6
Continuous
 62
     4
370
    25
100
AcDbSpline
210
0.0
220
0.0
230
1.0
 70
     8
 71
     3
 72
    14
 73
    10
 74
     0
 42
0.000000001
 43
0.00000001
 40
0.0
 40
0.0
 40
0.0
 40
0.0
 40
0.2500000000000001
 40
0.2500000000000001
 40
0.5000000000000001
 40
0.5000000000000001
 40
0.75
 40
0.75
 40
1.0
 40
1.0
 40
1.0
 40
1.0
 10
10.64236155763004
 20
0.018703454265792
 30
0.0
 10
10.63776554524226
 20
0.0244265091154981
 30
0.0
 10
10.63037023267832
 20
0.0103725290960084
 30
0.0
 10
10.60663181139107
 20
-0.05846340157195
 30
0.0
 10
10.58957022738082
 20
-0.1145501580373445
 30
0.0
 10
10.55589590732914
 20
-0.2483833826836208
 30
0.0
 10
10.54014113751269
 20
-0.3272129979600032
 30
0.0
 10
10.51895993741997
 20
-0.4730625302333822
 30
0.0
 10
10.51258467870354
 20
-0.5409954442286812
 30
0.0
 10
10.50884439311137
 20
-0.5956368869714288
 30
0.0
  0
LINE
  5
CC
330
1F
100
AcDbEntity
  8
0
  6
Continuous
 62
     4
370
    25
100
AcDbLine
 10
10.45683674522817
 20
-0.0822295487680071
 30
0.0
 11
10.45683674522817
 21
-0.0872792082876596
 31
0.0
  0
SPLINE
  5
CD
330
1F
100
AcDbEntity
  8
0
  6
Continuous
 62
     4
370
    25
100
AcDbSpline
210
0.0
220
0.0
230
1.0
 70
     8
 71
     3
 72
    14
 73
    10
 74
     0
 42
0.000000001
 43
0.00000001
 40
0.0
 40
0.0
 40
0.0
 40
0.0
 40
0.2500000000000001
 40
0.2500000000000001
 40
0.5000000000000001
 40
0.5000000000000001
 40
0.75
 40
0.75
 40
1.0
 40
1.0
 40
1.0
 40
1.0
 10
11.95692193816529
 20
0.1929607395333448
 30
0.0
 10
11.87318002879036
 20
0.2385943566731935
 30
0.0
 10
11.79272661785322
 20
0.2817879503357886
 30
0.0
 10
11.62537445842523
 20
0.3630550714201222
 30
0.0
 10
11.54007287845389
 20
0.4007809807255944
 30
0.0
 10
11.37355101306446
 20
0.4672100624991526
 30
0.0
 10
11.29284220423399
 20
0.4959500936646528
 30
0.0
 10
11.1247480509394
 20
0.5440895146995869
 30
0.0
 10
11.03957417155632
 20
0.5631446765531409
 30
0.0
 10
10.95692193816531
 20
0.5764549825940464
 30
0.0
  0
SPLINE
  5
CE
330
1F
100
AcDbEntity
  8
0
  6
Continuous
 62
     4
370
    25
100
AcDbSpline
210
0.0
220
0.0
230
1.0
 70
    24
 71
     3
 72
    16
 73
    12
 74
     0
 42
0.000000001
 43
0.00000001
 40
0.0
 40
0.0
 40
0.0
 40
0.0
 40
0.125
 40
0.125
 40
0.25
 40
0.25
 40
0.5
 40
0.5
 40
0.75
 40
0.75
 40
1.0
 40
1.0
 40
1.0
 40
1.0
 10
11.95692193816529
 20
0.1929607395333594
 30
0.0
 10
11.95692193816529
 20
0.1833865744894732
 30
0.0
 10
11.95692193816529
 20
0.1736030826429591
 30
0.0
 10
11.95692193816529
 20
0.1495753536730212
 30
0.0
 10
11.95692193816529
 20
0.1354594964604925
 30
0.0
 10
11.95692193816529
 20
0.0853159477313159
 30
0.0
 10
11.95692193816529
 20
0.0410895960895675
 30
0.0
 10
11.95692193816529
 20
-0.0721424714376098
 30
0.0
 10
11.95692193816529
 20
-0.141673409309522
 30
0.0
 10
11.95692193816529
 20
-0.289096131922115
 30
0.0
 10
11.95692193816529
 20
-0.3659973520306802
 30
0.0
 10
11.95692193816529
 20
-0.4290400270190248
 30
0.0
  0
SPLINE
  5
CF
330
1F
100
AcDbEntity
  8
0
  6
Continuous
 62
     4
370
    25
100
AcDbSpline
210
0.0
220
0.0
230
1.0
 70
     8
 71
     3
 72
    14
 73
    10
 74
     0
 42
0.000000001
 43
0.00000001
 40
0.0
 40
0.0
 40
0.0
 40
0.0
 40
0.2500000000000002
 40
0.2500000000000002
 40
0.5000000000000002
 40
0.5000000000000002
 40
0.7500000000000001
 40
0.7500000000000001
 40
1.0
 40
1.0
 40
1.0
 40
1.0
 10
11.95692193816529
 20
-0.4290400270190282
 30
0.0
 10
11.87318002879037
 20
-0.3953497753124471
 30
0.0
 10
11.79272661785322
 20
-0.3579990483432302
 30
0.0
 10
11.62537445842523
 20
-0.2761932426014698
 30
0.0
 10
11.5400728784539
 20
-0.23192076427037
 30
0.0
 10
11.37355101306446
 20
-0.14046684517933
 30
0.0
 10
11.29284220423399
 20
-0.0934264868498051
 30
0.0
 10
11.1247480509394
 20
0.0028025274555848
 30
0.0
 10
11.03957417155632
 20
0.051568438310257
 30
0.0
 10
10.95692193816531
 20
0.0988967483148818
 30
0.0
  0
SPLINE
  5
D0
330
1F
100
AcDbEntity
  8
0
  6
Continuous
 62
     4
370
    25
100
AcDbSpline
210
0.0
220
0.0
230
1.0
 70
     8
 71
     3
 72
    14
 73
    10
 74
     0
 42
0.000000001
 43
0.00000001
 40
0.0
 40
0.0
 40
0.0
 40
0.0
 40
0.2500000000000001
 40
0.2500000000000001
 40
0.5000000000000001
 40
0.5000000000000001
 40
0.75
 40
0.75
 40
1.0
 40
1.0
 40
1.0
 40
1.0
 10
11.95692193816529
 20
-0.5681251209009712
 30
0.0
 10
11.87318002879036
 20
-0.5526259004177755
 30
0.0
 10
11.79272661785322
 20
-0.531899415987336
 30
0.0
 10
11.62537445842523
 20
-0.4801171240418783
 30
0.0
 10
11.54007287845389
 20
-0.4490972916952747
 30
0.0
 10
11.37355101306446
 20
-0.3795109081685769
 30
0.0
 10
11.29284220423399
 20
-0.3411184386946072
 30
0.0
 10
11.1247480509394
 20
-0.2574779303501415
 30
0.0
 10
11.03957417155632
 20
-0.2125337567019377
 30
0.0
 10
10.95692193816531
 20
-0.1664321274348702
 30
0.0
  0
SPLINE
  5
D1
330
1F
100
AcDbEntity
  8
0
  6
Continuous
 62
     4
370
    25
100
AcDbSpline
210
0.0
220
0.0
230
1.0
 70
     8
 71
     3
 72
     9
 73
     5
 74
     0
 42
0.000000001
 43
0.00000001
 40
0.0
 40
0.0
 40
0.0
 40
0.0
 40
0.3387559145190353
 40
1.0
 40
1.0
 40
1.0
 40
1.0
 10
11.71292473719043
 20
-0.4930778330294169
 30
0.0
 10
11.62755275036019
 20
-0.5225897427992711
 30
0.0
 10
11.37553652519271
 20
-0.6097082505654158
 30
0.0
 10
11.12354791576075
 20
-0.5989242564543389
 30
0.0
 10
10.95692193816529
 20
-0.5917934041305276
 30
0.0
  0
LINE
  5
D2
330
1F
100
AcDbEntity
  8
0
  6
Continuous
 62
     4
370
    25
100
AcDbLine
 10
11.95692193816529
 20
-0.4290400270190247
 30
0.0
 11
11.95692193816529
 21
-0.5681251209009911
 31
0.0
  0
SPLINE
  5
D3
330
1F
100
AcDbEntity
  8
0
  6
Continuous
 62
     4
370
    25
100
AcDbSpline
210
0.0
220
0.0
230
1.0
 70
     8
 71
     3
 72
     9
 73
     5
 74
     0
 42
0.000000001
 43
0.00000001
 40
0.0
 40
0.0
 40
0.0
 40
0.0
 40
0.6035150718197748
 40
1.0
 40
1.0
 40
1.0
 40
1.0
 10
11.95692193816529
 20
0.4194337316134304
 30
0.0
 10
11.79021493247084
 20
0.4827768443720502
 30
0.0
 10
11.51398818441003
 20
0.5877338134956576
 30
0.0
 10
11.23779170476168
 20
0.5853840876728762
 30
0.0
 10
11.12828396336466
 20
0.5844524567987874
 30
0.0
  0
LINE
  5
D4
330
1F
100
AcDbEntity
  8
0
  6
Continuous
 62
     4
370
    25
100
AcDbLine
 10
11.95692193816529
 20
0.4194337316134323
 30
0.0
 11
11.95692193816529
 21
0.192960739533359
 31
0.0
  0
LINE
  5
D5
330
1F
100
AcDbEntity
  8
0
  6
Continuous
 62
     4
370
    25
100
AcDbLine
 10
11.71292473719043
 20
0.4930778330294177
 30
0.0
 11
11.95692193816529
 21
0.5681251209009733
 31
0.0
  0
SPLINE
  5
D6
330
1F
100
AcDbEntity
  8
0
  6
Continuous
 62
     4
370
    25
100
AcDbSpline
210
0.0
220
0.0
230
1.0
 70
     8
 71
     3
 72
    11
 73
     7
 74
     0
 42
0.000000001
 43
0.00000001
 40
0.0
 40
0.0
 40
0.0
 40
0.0
 40
0.1310066914841168
 40
0.5035134997788225
 40
0.8874016904176711
 40
1.0
 40
1.0
 40
1.0
 40
1.0
 10
10.64236155763048
 20
-0.018703454265413
 30
0.0
 10
10.64183672376888
 20
-0.019188292385008
 30
0.0
 10
10.63981956776363
 20
-0.0210517280283167
 30
0.0
 10
10.63509933251708
 20
-0.0168443792402928
 30
0.0
 10
10.6291281195451
 20
-0.0049231783994222
 30
0.0
 10
10.62464244140606
 20
0.0072107434776742
 30
0.0
 10
10.62362513323039
 20
0.0099625989487826
 30
0.0
  0
SPLINE
  5
D7
330
1F
100
AcDbEntity
  8
0
  6
Continuous
 62
     4
370
    25
100
AcDbSpline
210
0.0
220
0.0
230
1.0
 70
    24
 71
     3
 72
    11
 73
     7
 74
     0
 42
0.000000001
 43
0.00000001
 40
0.0
 40
0.0
 40
0.0
 40
0.0
 40
0.2326854947553025
 40
0.4682625792798822
 40
0.8186850355212927
 40
1.0
 40
1.0
 40
1.0
 40
1.0
 10
11.95692193816529
 20
0.5681251209009933
 30
0.0
 10
11.95692193816529
 20
0.5545686904299749
 30
0.0
 10
11.95692193816529
 20
0.527287363311311
 30
0.0
 10
11.95692193816529
 20
0.483925820750552
 30
0.0
 10
11.95692193816529
 20
0.4462230049057005
 30
0.0
 10
11.95692193816529
 20
0.426245708175355
 30
0.0
 10
11.95692193816529
 20
0.4194337316134314
 30
0.0
  0
SPLINE
  5
D8
330
1F
100
AcDbEntity
  8
0
  6
Continuous
 62
     1
370
    25
100
AcDbSpline
210
0.0
220
0.0
230
1.0
 70
     8
 71
     3
 72
    17
 73
    13
 74
     0
 42
0.000000001
 43
0.00000001
 40
0.0
 40
0.0
 40
0.0
 40
0.0
 40
0.0523437081274678
 40
0.1692317500139378
 40
0.2860959648193032
 40
0.402965273825426
 40
0.5198685535161894
 40
0.63683438230317
 40
0.7538907927842565
 40
0.8710650340601236
 40
0.98825447474533
 40
1.0
 40
1.0
 40
1.0
 40
1.0
 10
11.95692193816529
 20
0.568125120900973
 30
0.0
 10
12.01986546576595
 20
0.5778566745243441
 30
0.0
 10
12.22336735183737
 20
0.6093196317536458
 30
0.0
 10
12.56709857101342
 20
0.5955245242531393
 30
0.0
 10
12.98846315784873
 20
0.4856169671401526
 30
0.0
 10
13.40981602920515
 20
0.2958780288924623
 30
0.0
 10
13.83132442908285
 20
0.0581275464130006
 30
0.0
 10
14.2531013359502
 20
-0.1884834482225312
 30
0.0
 10
14.6752665971757
 20
-0.4071624467812719
 30
0.0
 10
15.09779715312303
 20
-0.5497002144447164
 30
0.0
 10
15.39374719577569
 20
-0.6128191156098505
 30
0.0
 10
15.5487407351083
 20
-0.597019084369324
 30
0.0
 10
15.56286010542241
 20
-0.595579756684957
 30
0.0
  0
SPLINE
  5
D9
330
1F
100
AcDbEntity
  8
0
  6
Continuous
 62
     1
370
    25
100
AcDbSpline
210
0.0
220
0.0
230
1.0
 70
     8
 71
     3
 72
    18
 73
    14
 74
     0
 42
0.000000001
 43
0.00000001
 40
0.0
 40
0.0
 40
0.0
 40
0.0
 40
0.0640917277629739
 40
0.1130806371990314
 40
0.2224771225261667
 40
0.3318513078909927
 40
0.4412302609604483
 40
0.5506410074746725
 40
0.6601102942054674
 40
0.7696643570930891
 40
0.87932869879627
 40
0.989007265752385
 40
1.0
 40
1.0
 40
1.0
 40
1.0
 10
18.23968352006263
 20
0.4961865305442717
 30
0.0
 10
18.32197622998863
 20
0.5234757560826173
 30
0.0
 10
18.46716988289937
 20
0.5716236703338372
 30
0.0
 10
18.75305952696045
 20
0.6055402963749708
 30
0.0
 10
19.0967712279489
 20
0.5968451881459955
 30
0.0
 10
19.51814222332369
 20
0.48526311353212
 30
0.0
 10
19.9394933774656
 20
0.2959728743606893
 30
0.0
 10
20.36100223765601
 20
0.0581021146056592
 30
0.0
 10
20.78277902107929
 20
-0.1884766247477046
 30
0.0
 10
21.20494431545278
 20
-0.4071642847025009
 30
0.0
 10
21.62747486238122
 20
-0.5496996957749142
 30
0.0
 10
21.92342490705504
 20
-0.6128191250638176
 30
0.0
 10
22.07841844635452
 20
-0.5970190851586429
 30
0.0
 10
22.09253781666559
 20
-0.5955797566849566
 30
0.0
  0
SPLINE
  5
DA
330
1F
100
AcDbEntity
  8
0
  6
Continuous
 62
     1
370
    25
100
AcDbSpline
210
0.0
220
0.0
230
1.0
 70
     8
 71
     3
 72
    17
 73
    13
 74
     0
 42
0.000000001
 43
0.00000001
 40
0.0
 40
0.0
 40
0.0
 40
0.0
 40
0.0867346525889947
 40
0.2245443012903139
 40
0.3343110721317771
 40
0.4440714493591124
 40
0.553852600499205
 40
0.6636815105611054
 40
0.7735847466893884
 40
0.8835882305448984
 40
0.9936786512484587
 40
1.0
 40
1.0
 40
1.0
 40
1.0
 10
23.13194054485221
 20
-0.4947289147058391
 30
0.0
 10
23.02081932781783
 20
-0.5295553231689343
 30
0.0
 10
22.73314150479418
 20
-0.6197161910731778
 30
0.0
 10
22.30453017402263
 20
-0.6004022056999091
 30
0.0
 10
21.84753485599968
 20
-0.4792809546472218
 30
0.0
 10
21.42614800558336
 20
-0.2861463682672457
 30
0.0
 10
21.00473017268776
 20
-0.0473065737844581
 30
0.0
 10
20.58307647524698
 20
0.198765649580404
 30
0.0
 10
20.16108175133952
 20
0.4153786991546817
 30
0.0
 10
19.73868958828101
 20
0.5538333110415753
 30
0.0
 10
19.44877672866629
 20
0.6143152933810239
 30
0.0
 10
19.29976861247571
 20
0.5982244075520669
 30
0.0
 10
19.29167722898709
 20
0.5973506462346145
 30
0.0
  0
SPLINE
  5
DB
330
1F
100
AcDbEntity
  8
0
  6
Continuous
 62
     1
370
    25
100
AcDbSpline
210
0.0
220
0.0
230
1.0
 70
     8
 71
     3
 72
    17
 73
    13
 74
     0
 42
0.000000001
 43
0.00000001
 40
0.0
 40
0.0
 40
0.0
 40
0.0
 40
0.0867346525889947
 40
0.2245443012903141
 40
0.3343110721317775
 40
0.444071449359113
 40
0.5538526004992058
 40
0.6636815105611064
 40
0.7735847466893895
 40
0.8835882305448999
 40
0.9936786512484602
 40
1.0
 40
1.0
 40
1.0
 40
1.0
 10
16.60226283360902
 20
-0.49472891470584
 30
0.0
 10
16.49114161657464
 20
-0.5295553231689352
 30
0.0
 10
16.20346379355099
 20
-0.6197161910731787
 30
0.0
 10
15.77485246277945
 20
-0.6004022056999101
 30
0.0
 10
15.31785714475649
 20
-0.4792809546472226
 30
0.0
 10
14.89647029434018
 20
-0.2861463682672465
 30
0.0
 10
14.47505246144458
 20
-0.0473065737844588
 30
0.0
 10
14.05339876400379
 20
0.1987656495804031
 30
0.0
 10
13.63140404009633
 20
0.415378699154681
 30
0.0
 10
13.20901187703784
 20
0.5538333110415748
 30
0.0
 10
12.91909901742308
 20
0.6143152933810216
 30
0.0
 10
12.77009090123253
 20
0.5982244075520665
 30
0.0
 10
12.76199951774391
 20
0.5973506462346143
 30
0.0
  0
SPLINE
  5
DC
330
1F
100
AcDbEntity
  8
0
  6
Continuous
 62
     1
370
    25
100
AcDbSpline
210
0.0
220
0.0
230
1.0
 70
     8
 71
     3
 72
    17
 73
    13
 74
     0
 42
0.000000001
 43
0.00000001
 40
0.0
 40
0.0
 40
0.0
 40
0.0
 40
0.0220506172291678
 40
0.1315428670752583
 40
0.2410827501602483
 40
0.3506967637143211
 40
0.4604107611825909
 40
0.5702114667149382
 40
0.6799188398646787
 40
0.815377316897655
 40
0.9507635540981926
 40
1.0
 40
1.0
 40
1.0
 40
1.0
 10
21.5110451440413
 20
-0.5005845026994498
 30
0.0
 10
21.48275771272791
 20
-0.5112800423349644
 30
0.0
 10
21.31400915669037
 20
-0.5750842403739933
 30
0.0
 10
21.00472686979063
 20
-0.6105887565576714
 30
0.0
 10
20.58307724560785
 20
-0.584777264772031
 30
0.0
 10
20.16108197600337
 20
-0.4572199691469367
 30
0.0
 10
19.73868791604471
 20
-0.2569218543232676
 30
0.0
 10
19.31603216293722
 20
-0.0149494569587606
 30
0.0
 10
18.8605788753031
 20
0.2505762485155955
 30
0.0
 10
18.37181844618822
 20
0.4781030848357664
 30
0.0
 10
17.96097998102714
 20
0.6044070257764103
 30
0.0
 10
17.72388297404336
 20
0.5871617277430855
 30
0.0
 10
17.66065231483251
 20
0.5825626331496675
 30
0.0
  0
SPLINE
  5
DD
330
1F
100
AcDbEntity
  8
0
  6
Continuous
 62
     1
370
    25
100
AcDbSpline
210
0.0
220
0.0
230
1.0
 70
     8
 71
     3
 72
    15
 73
    11
 74
     0
 42
0.000000001
 43
0.00000001
 40
0.0
 40
0.0
 40
0.0
 40
0.0
 40
0.0280666850291456
 40
0.1674316949798756
 40
0.3068573339415406
 40
0.4463773283811129
 40
0.5860245853366768
 40
0.7257822069091878
 40
0.8654210322340284
 40
1.0
 40
1.0
 40
1.0
 40
1.0
 10
14.98136743279812
 20
-0.50058450269945
 30
0.0
 10
14.95308000073759
 20
-0.5112800267802091
 30
0.0
 10
14.78433144024303
 20
-0.575084132027408
 30
0.0
 10
14.47504929136264
 20
-0.6105915216701323
 30
0.0
 10
14.05339905801721
 20
-0.584767347577028
 30
0.0
 10
13.63140603922533
 20
-0.4572569121737236
 30
0.0
 10
13.20900357504328
 20
-0.2567838277529222
 30
0.0
 10
12.78637920598612
 20
-0.0154648226647827
 30
0.0
 10
12.36895184867823
 20
0.230232082969495
 30
0.0
 10
12.09256528311089
 20
0.3571471261110862
 30
0.0
 10
11.95692193816531
 20
0.4194337316134239
 30
0.0
  0
SPLINE
  5
DE
330
1F
100
AcDbEntity
  8
0
  6
Continuous
 62
     4
370
    25
100
AcDbSpline
210
0.0
220
0.0
230
1.0
 70
    24
 71
     3
 72
    10
 73
     6
 74
     0
 42
0.000000001
 43
0.00000001
 40
0.0
 40
0.0
 40
0.0
 40
0.0
 40
0.4678788024071742
 40
0.8185541730178642
 40
1.0
 40
1.0
 40
1.0
 40
1.0
 10
11.95692193816529
 20
0.5681251209009935
 30
0.0
 10
11.95692193816529
 20
0.5414474882514765
 30
0.0
 10
11.95692193816529
 20
0.4947749580595741
 30
0.0
 10
11.95692193816529
 20
0.4462782690364246
 30
0.0
 10
11.95692193816529
 20
0.4262597607388235
 30
0.0
 10
11.95692193816529
 20
0.4194337316134317
 30
0.0
  0
SPLINE
  5
DF
330
1F
100
AcDbEntity
  8
0
  6
Continuous
 62
     1
370
    25
100
AcDbSpline
210
0.0
220
0.0
230
1.0
 70
     8
 71
     3
 72
    14
 73
    10
 74
     0
 42
0.000000001
 43
0.00000001
 40
0.0
 40
0.0
 40
0.0
 40
0.0
 40
0.1804161229439063
 40
0.3609422996323212
 40
0.5414803602095102
 40
0.6852807407364855
 40
0.8290727452846695
 40
0.9728919647772001
 40
1.0
 40
1.0
 40
1.0
 40
1.0
 10
23.85752604760269
 20
-0.5695977518359736
 30
0.0
 10
23.6810942027388
 20
-0.5230992856926266
 30
0.0
 10
23.32812288967414
 20
-0.4300739893649066
 30
0.0
 10
22.79859624435096
 20
-0.1425160206023256
 30
0.0
 10
22.30453314387573
 20
0.1486668059438055
 30
0.0
 10
21.84753487068066
 20
0.3903855369679728
 30
0.0
 10
21.42614520911945
 20
0.5407567711097595
 30
0.0
 10
21.11878470099806
 20
0.6096321407234669
 30
0.0
 10
20.95182578942941
 20
0.5948445703276363
 30
0.0
 10
20.92534710957755
 20
0.5924993505450017
 30
0.0
  0
SPLINE
  5
E0
330
1F
100
AcDbEntity
  8
0
  6
Continuous
 62
     1
370
    25
100
AcDbSpline
210
0.0
220
0.0
230
1.0
 70
     8
 71
     3
 72
    16
 73
    12
 74
     0
 42
0.000000001
 43
0.00000001
 40
0.0
 40
0.0
 40
0.0
 40
0.0
 40
0.1012885888055413
 40
0.2371792821623806
 40
0.3748044385759315
 40
0.5125135462658692
 40
0.6502317192323723
 40
0.7599256287312827
 40
0.8696131488600388
 40
0.9793214291121773
 40
1.0
 40
1.0
 40
1.0
 40
1.0
 10
18.23968352006264
 20
-0.4961865305442703
 30
0.0
 10
18.10990616651746
 20
-0.5340400467997192
 30
0.0
 10
17.80601705207957
 20
-0.6226785589822305
 30
0.0
 10
17.32565440260901
 20
-0.5912293151499219
 30
0.0
 10
16.79843719427086
 20
-0.4240816241913067
 30
0.0
 10
16.26892068934383
 20
-0.1441343440932295
 30
0.0
 10
15.77485498402167
 20
0.1490035026211982
 30
0.0
 10
15.31785726824668
 20
0.3903038722087517
 30
0.0
 10
14.89646746747117
 20
0.5407795910947255
 30
0.0
 10
14.58910699086161
 20
0.6096313100785552
 30
0.0
 10
14.42214807833772
 20
0.594844456624914
 30
0.0
 10
14.39566939833437
 20
0.5924993505450015
 30
0.0
  0
SPLINE
  5
E1
330
1F
100
AcDbEntity
  8
0
  6
Continuous
 62
     1
370
    25
100
AcDbSpline
210
0.0
220
0.0
230
1.0
 70
     8
 71
     3
 72
     9
 73
     5
 74
     0
 42
0.000000001
 43
0.00000001
 40
0.0
 40
0.0
 40
0.0
 40
0.0
 40
0.5534103521217646
 40
1.0
 40
1.0
 40
1.0
 40
1.0
 10
11.95692193816529
 20
-0.5681251209009706
 30
0.0
 10
12.0198691882902
 20
-0.5794942572459749
 30
0.0
 10
12.13361344674792
 20
-0.6000380296951444
 30
0.0
 10
12.24726574005719
 20
-0.592163764544452
 30
0.0
 10
12.29802167770673
 20
-0.5886471992435043
 30
0.0
  0
SPLINE
  5
E2
330
1F
100
AcDbEntity
  8
0
  6
Continuous
 62
     1
370
    25
100
AcDbSpline
210
0.0
220
0.0
230
1.0
 70
     8
 71
     3
 72
    18
 73
    14
 74
     0
 42
0.000000001
 43
0.00000001
 40
0.0
 40
0.0
 40
0.0
 40
0.0
 40
0.0302584113958532
 40
0.1401208662905291
 40
0.2498703701902139
 40
0.3595318887649753
 40
0.4691316263824422
 40
0.5786963260517751
 40
0.6895318027335079
 40
0.8003800919599239
 40
0.9113297313023319
 40
0.9604007759250403
 40
1.0
 40
1.0
 40
1.0
 40
1.0
 10
14.98136743279812
 20
0.5005845026994514
 30
0.0
 10
15.02017410761071
 20
0.5147873528116369
 30
0.0
 10
15.19988033281391
 20
0.5805580119344323
 30
0.0
 10
15.52037921155378
 20
0.6123372137379227
 30
0.0
 10
15.9425903319816
 20
0.5771720022098984
 30
0.0
 10
16.36440925819963
 20
0.4421496818996912
 30
0.0
 10
16.78594295863895
 20
0.2369633443123251
 30
0.0
 10
17.20894497693712
 20
-0.0081968312209979
 30
0.0
 10
17.63358008767756
 20
-0.2525065045374135
 30
0.0
 10
18.06002603594062
 20
-0.4576050408304867
 30
0.0
 10
18.40719402409516
 20
-0.5574277282928819
 30
0.0
 10
18.66329484669025
 20
-0.5995772687791465
 30
0.0
 10
18.77694459007173
 20
-0.5920215189148542
 30
0.0
 10
18.82769938894991
 20
-0.5886471992435038
 30
0.0
  0
SPLINE
  5
E3
330
1F
100
AcDbEntity
  8
0
  6
Continuous
 62
     1
370
    25
100
AcDbSpline
210
0.0
220
0.0
230
1.0
 70
     8
 71
     3
 72
    14
 73
    10
 74
     0
 42
0.000000001
 43
0.00000001
 40
0.0
 40
0.0
 40
0.0
 40
0.0
 40
0.0475797552133672
 40
0.2203326682015434
 40
0.3929079717104093
 40
0.5653449229387323
 40
0.7376847268718297
 40
0.9099694354804048
 40
1.0
 40
1.0
 40
1.0
 40
1.0
 10
21.51104514404131
 20
0.5005845026994518
 30
0.0
 10
21.54985180926891
 20
0.5147873917693915
 30
0.0
 10
21.72955799008592
 20
0.5805582312980313
 30
0.0
 10
22.05005788928184
 20
0.6123332854998722
 30
0.0
 10
22.47226456127128
 20
0.5771861544668525
 30
0.0
 10
22.89409991799094
 20
0.4420970530578864
 30
0.0
 10
23.31557238924501
 20
0.2371595789781961
 30
0.0
 10
23.67008577146344
 20
0.0310242048588909
 30
0.0
 10
23.88363024786123
 20
-0.0910040034670798
 30
0.0
 10
23.95692193816529
 20
-0.1328859280378001
 30
0.0
  0
LINE
  5
E4
330
1F
100
AcDbEntity
  8
0
  6
Continuous
 62
     1
370
    25
100
AcDbLine
 10
23.95692193816529
 20
-0.4999999999999987
 30
0.0
 11
23.95692193816529
 21
-0.1334295366590157
 31
0.0
  0
SPLINE
  5
E5
330
1F
100
AcDbEntity
  8
0
  6
Continuous
 62
     1
370
    25
100
AcDbSpline
210
0.0
220
0.0
230
1.0
 70
    24
 71
     3
 72
     8
 73
     4
 74
     0
 42
0.000000001
 43
0.00000001
 40
0.0
 40
0.0
 40
0.0
 40
0.0
 40
1.0
 40
1.0
 40
1.0
 40
1.0
 10
23.95692193816529
 20
-0.4999999999999986
 30
0.0
 10
23.92214974265161
 20
-0.524347753418772
 30
0.0
 10
23.88909225046465
 20
-0.5474948586424002
 30
0.0
 10
23.85752604760613
 20
-0.5695977518365891
 30
0.0
  0
SPLINE
  5
E6
330
1F
100
AcDbEntity
  8
0
  6
Continuous
 62
     1
370
    25
100
AcDbSpline
210
0.0
220
0.0
230
1.0
 70
     8
 71
     3
 72
    10
 73
     6
 74
     0
 42
0.000000001
 43
0.00000001
 40
0.0
 40
0.0
 40
0.0
 40
0.0
 40
0.4069137659187346
 40
0.8140757490305911
 40
1.0
 40
1.0
 40
1.0
 40
1.0
 10
23.85752604760271
 20
0.1885693535627156
 30
0.0
 10
23.68109960681907
 20
0.2787357266155865
 30
0.0
 10
23.32813910521139
 20
0.4591234741636673
 30
0.0
 10
22.89448386045984
 20
0.5981459866027565
 30
0.0
 10
22.63729618463872
 20
0.5849423295923623
 30
0.0
 10
22.55667144031351
 20
0.5808031675301754
 30
0.0
  0
SPLINE
  5
E7
330
1F
100
AcDbEntity
  8
0
  6
Continuous
 62
     1
370
    25
100
AcDbSpline
210
0.0
220
0.0
230
1.0
 70
     8
 71
     3
 72
    16
 73
    12
 74
     0
 42
0.000000001
 43
0.00000001
 40
0.0
 40
0.0
 40
0.0
 40
0.0
 40
0.0342771360550609
 40
0.1443280858161875
 40
0.2542854904830495
 40
0.3900526877738082
 40
0.5257474805920099
 40
0.6616796822991594
 40
0.7993468768616312
 40
0.937098048343739
 40
1.0
 40
1.0
 40
1.0
 40
1.0
 10
19.87045029732614
 20
-0.500797228762474
 30
0.0
 10
19.82656007303538
 20
-0.516604479232586
 30
0.0
 10
19.64175490005497
 20
-0.5831628462648698
 30
0.0
 10
19.31602770285271
 20
-0.6128732094283524
 30
0.0
 10
18.86057886287407
 20
-0.57009191219212
 30
0.0
 10
18.37182579950634
 20
-0.3959029939403613
 30
0.0
 10
17.85006993820862
 20
-0.1142935449056858
 30
0.0
 10
17.32564749171136
 20
0.1994909012411293
 30
0.0
 10
16.79845516974979
 20
0.4564313457656339
 30
0.0
 10
16.36480677158345
 20
0.5984151756341343
 30
0.0
 10
16.10761862193407
 20
0.5850065761846593
 30
0.0
 10
16.02699372907032
 20
0.5808031675301755
 30
0.0
  0
SPLINE
  5
E8
330
1F
100
AcDbEntity
  8
0
  6
Continuous
 62
     1
370
    25
100
AcDbSpline
210
0.0
220
0.0
230
1.0
 70
     8
 71
     3
 72
    11
 73
     7
 74
     0
 42
0.000000001
 43
0.00000001
 40
0.0
 40
0.0
 40
0.0
 40
0.0
 40
0.0951459326474102
 40
0.4006236200754308
 40
0.7058416465089011
 40
1.0
 40
1.0
 40
1.0
 40
1.0
 10
13.34077258608295
 20
-0.500797228762474
 30
0.0
 10
13.2968820516159
 20
-0.5166149074135669
 30
0.0
 10
13.11207557260017
 20
-0.5832171835809982
 30
0.0
 10
12.7863751408829
 20
-0.6120276864779173
 30
0.0
 10
12.36895282175847
 20
-0.5766843686332288
 30
0.0
 10
12.09256560345622
 20
-0.4776456545424566
 30
0.0
 10
11.95692193816529
 20
-0.4290400270192573
 30
0.0
  0
SPLINE
  5
E9
330
1F
100
AcDbEntity
  8
0
  6
Continuous
 62
     4
370
    25
100
AcDbSpline
210
0.0
220
0.0
230
1.0
 70
    24
 71
     3
 72
    16
 73
    12
 74
     0
 42
0.000000001
 43
0.00000001
 40
0.0
 40
0.0
 40
0.0
 40
0.0
 40
0.1249999999999999
 40
0.1249999999999999
 40
0.2499999999999998
 40
0.2499999999999998
 40
0.4999999999999999
 40
0.4999999999999999
 40
0.75
 40
0.75
 40
1.0
 40
1.0
 40
1.0
 40
1.0
 10
11.95692193816529
 20
0.1929607395333595
 30
0.0
 10
11.95692193816529
 20
0.1833865744894704
 30
0.0
 10
11.95692193816529
 20
0.1736030826429532
 30
0.0
 10
11.95692193816529
 20
0.1495753536730054
 30
0.0
 10
11.95692193816529
 20
0.1354594964604702
 30
0.0
 10
11.95692193816529
 20
0.0853159477312687
 30
0.0
 10
11.95692193816529
 20
0.0410895960894952
 30
0.0
 10
11.95692193816529
 20
-0.0721424714377459
 30
0.0
 10
11.95692193816529
 20
-0.1416734093096969
 30
0.0
 10
11.95692193816529
 20
-0.2890961319223466
 30
0.0
 10
11.95692193816529
 20
-0.3659973520309261
 30
0.0
 10
11.95692193816529
 20
-0.4290400270192569
 30
0.0
  0
SPLINE
  5
EA
330
1F
100
AcDbEntity
  8
0
  6
Continuous
 62
     1
370
    25
100
AcDbSpline
210
0.0
220
0.0
230
1.0
 70
     8
 71
     3
 72
    13
 73
     9
 74
     0
 42
0.000000001
 43
0.00000001
 40
0.0
 40
0.0
 40
0.0
 40
0.0
 40
0.0956932954791437
 40
0.3093847271786657
 40
0.5230325988784451
 40
0.7366897836528186
 40
0.9504090726777167
 40
1.0
 40
1.0
 40
1.0
 40
1.0
 10
11.95692193816529
 20
0.1929607395333473
 30
0.0
 10
12.01986546129861
 20
0.1581900505118105
 30
0.0
 10
12.22336733292671
 20
0.0457733960024358
 30
0.0
 10
12.56709876451476
 20
-0.1578295358339447
 30
0.0
 10
12.98846245081418
 20
-0.3815700479855648
 30
0.0
 10
13.40981866435115
 20
-0.5360512034125924
 30
0.0
 10
13.72335055068292
 20
-0.6080175738884964
 30
0.0
 10
13.8964620319213
 20
-0.5939086535144769
 30
0.0
 10
13.92906524422289
 20
-0.5912514286845019
 30
0.0
  0
SPLINE
  5
EB
330
1F
100
AcDbEntity
  8
0
  6
Continuous
 62
     1
370
    25
100
AcDbSpline
210
0.0
220
0.0
230
1.0
 70
     8
 71
     3
 72
    18
 73
    14
 74
     0
 42
0.000000001
 43
0.00000001
 40
0.0
 40
0.0
 40
0.0
 40
0.0
 40
0.0476393356730754
 40
0.1569020186110725
 40
0.2674319756456514
 40
0.3779747099069426
 40
0.4886185149111179
 40
0.5375542944662917
 40
0.6468321361595628
 40
0.756087702075475
 40
0.8653480305253042
 40
0.9746401179389967
 40
1.0
 40
1.0
 40
1.0
 40
1.0
 10
16.60226283360902
 20
0.4947289147058412
 30
0.0
 10
16.66350323930798
 20
0.5161639362308188
 30
0.0
 10
16.86520091495709
 20
0.5867610194756548
 30
0.0
 10
17.20894319622587
 20
0.6138303783967168
 30
0.0
 10
17.6335813499853
 20
0.5636892512325851
 30
0.0
 10
18.06002277751999
 20
0.4152098834324507
 30
0.0
 10
18.40720300947343
 20
0.2382126681165251
 30
0.0
 10
18.75305589453325
 20
0.0451593945962715
 30
0.0
 10
19.09677268336893
 20
-0.1576149317590411
 30
0.0
 10
19.51814118098321
 20
-0.381627707059816
 30
0.0
 10
19.93949609200522
 20
-0.5360351556447149
 30
0.0
 10
20.25302827496063
 20
-0.6080183114877626
 30
0.0
 10
20.42613974523029
 20
-0.5939087704147581
 30
0.0
 10
20.45874295546607
 20
-0.5912514286845022
 30
0.0
  0
SPLINE
  5
EC
330
1F
100
AcDbEntity
  8
0
  6
Continuous
 62
     1
370
    25
100
AcDbSpline
210
0.0
220
0.0
230
1.0
 70
     8
 71
     3
 72
    10
 73
     6
 74
     0
 42
0.000000001
 43
0.00000001
 40
0.0
 40
0.0
 40
0.0
 40
0.0
 40
0.2226144913238088
 40
0.733189549503383
 40
1.0
 40
1.0
 40
1.0
 40
1.0
 10
23.13194054485221
 20
0.4947289147058413
 30
0.0
 10
23.19317686186261
 20
0.5161146438152874
 30
0.0
 10
23.39486107125577
 20
0.586549380558228
 30
0.0
 10
23.67008699610328
 20
0.6101766915878531
 30
0.0
 10
23.88363056077827
 20
0.591507103637969
 30
0.0
 10
23.95692193816529
 20
0.5850994190131588
 30
0.0
  0
LINE
  5
ED
330
1F
100
AcDbEntity
  8
0
  6
Continuous
 62
     1
370
    25
100
AcDbLine
 10
23.95692193816529
 20
0.1347180389801062
 30
0.0
 11
23.95692193816529
 21
0.5850994190131588
 31
0.0
  0
SPLINE
  5
EE
330
1F
100
AcDbEntity
  8
0
  6
Continuous
 62
     1
370
    25
100
AcDbSpline
210
0.0
220
0.0
230
1.0
 70
     8
 71
     3
 72
     8
 73
     4
 74
     0
 42
0.000000001
 43
0.00000001
 40
0.0
 40
0.0
 40
0.0
 40
0.0
 40
1.0
 40
1.0
 40
1.0
 40
1.0
 10
23.95692193816529
 20
0.1347180389801063
 30
0.0
 10
23.92214974265161
 20
0.1481566925502287
 30
0.0
 10
23.88909225046465
 20
0.1663119789696748
 30
0.0
 10
23.85752604760613
 20
0.1885693535608368
 30
0.0
  0
SPLINE
  5
EF
330
1F
100
AcDbEntity
  8
0
  6
Continuous
 62
     1
370
    25
100
AcDbSpline
210
0.0
220
0.0
230
1.0
 70
     8
 71
     3
 72
    17
 73
    13
 74
     0
 42
0.000000001
 43
0.00000001
 40
0.0
 40
0.0
 40
0.0
 40
0.0
 40
0.0179068788052557
 40
0.1272689113450497
 40
0.2366894580370037
 40
0.3461947431401001
 40
0.4558102579582828
 40
0.5654399916957564
 40
0.6749570137018372
 40
0.7843862367619231
 40
0.8937538097350458
 40
1.0
 40
1.0
 40
1.0
 40
1.0
 10
13.34077258608295
 20
0.5007972287624752
 30
0.0
 10
13.36377524762047
 20
0.5096173183654202
 30
0.0
 10
13.52726123106608
 20
0.5723040218351024
 30
0.0
 10
13.83132486254319
 20
0.609414654640436
 30
0.0
 10
14.25310164044613
 20
0.5882707232417386
 30
0.0
 10
14.67526494316731
 20
0.4643723633266216
 30
0.0
 10
15.09780347155396
 20
0.266828259116072
 30
0.0
 10
15.5203766044173
 20
0.0255561972327463
 30
0.0
 10
15.94259093808866
 20
-0.2203342971249765
 30
0.0
 10
16.36440943728094
 20
-0.428341178081791
 30
0.0
 10
16.78197666245575
 20
-0.5728000559542802
 30
0.0
 10
17.05894687769738
 20
-0.5901248988709527
 30
0.0
 10
17.19542717350204
 20
-0.5986619167736676
 30
0.0
  0
SPLINE
  5
F0
330
1F
100
AcDbEntity
  8
0
  6
Continuous
 62
     1
370
    25
100
AcDbSpline
210
0.0
220
0.0
230
1.0
 70
     8
 71
     3
 72
    17
 73
    13
 74
     0
 42
0.000000001
 43
0.00000001
 40
0.0
 40
0.0
 40
0.0
 40
0.0
 40
0.0179068788052556
 40
0.1272689113450494
 40
0.2366894580370035
 40
0.3461947431400997
 40
0.4558102579582821
 40
0.5654399916957555
 40
0.6749570137018363
 40
0.7843862367619221
 40
0.8937538097350447
 40
1.0
 40
1.0
 40
1.0
 40
1.0
 10
19.87045029732614
 20
0.500797228762476
 30
0.0
 10
19.89345295886366
 20
0.5096173183654211
 30
0.0
 10
20.05693894230927
 20
0.5723040218351036
 30
0.0
 10
20.36100257378637
 20
0.6094146546404363
 30
0.0
 10
20.78277935168932
 20
0.5882707232417396
 30
0.0
 10
21.20494265441051
 20
0.4643723633266227
 30
0.0
 10
21.62748118279714
 20
0.2668282591160724
 30
0.0
 10
22.05005431566049
 20
0.0255561972327472
 30
0.0
 10
22.47226864933184
 20
-0.220334297124976
 30
0.0
 10
22.89408714852413
 20
-0.4283411780817898
 30
0.0
 10
23.31165437369894
 20
-0.5728000559542801
 30
0.0
 10
23.58862458894058
 20
-0.5901248988709525
 30
0.0
 10
23.72510488474523
 20
-0.5986619167736674
 30
0.0
  0
LINE
  5
F1
330
1F
100
AcDbEntity
  8
0
  6
Continuous
 62
     1
370
    25
100
AcDbLine
 10
23.95692193816529
 20
0.5850994190131588
 30
0.0
 11
23.95692193816529
 21
0.6000000000000025
 31
0.0
  0
LINE
  5
F2
330
1F
100
AcDbEntity
  8
0
  6
Continuous
 62
     1
370
    25
100
AcDbLine
 10
23.85752604760573
 20
-0.5695977518368688
 30
0.0
 11
23.83267939799209
 21
-0.5869955631955935
 31
0.0
  0
ELLIPSE
  5
F3
330
1F
100
AcDbEntity
  8
0
  6
Continuous
 62
     1
370
    25
100
AcDbEllipse
 10
23.71269424518718
 20
0.0000000000000012
 30
0.0
 11
0.8335939833959854
 21
-0.3302046036250573
 31
0.0
210
0.0
220
0.0
230
1.0
 40
0.6009688174887226
 41
5.08658156877459
 42
5.235119673336836
  0
LINE
  5
F4
330
1F
100
AcDbEntity
  8
0
  6
Continuous
 62
     1
370
    25
100
AcDbLine
 10
23.95692193816529
 20
-0.6000000000000016
 30
0.0
 11
23.95692193816529
 21
-0.5989188155876871
 31
0.0
  0
ELLIPSE
  5
F5
330
1F
100
AcDbEntity
  8
0
  6
Continuous
 62
     1
370
    25
100
AcDbEllipse
 10
24.67099594153634
 20
0.0000000000000004
 30
0.0
 11
0.8568888040452656
 21
0.0
 31
0.0
210
0.0
220
0.0
230
1.0
 40
0.7002075382097135
 41
2.821892147869362
 42
2.933012639234687
  0
ELLIPSE
  5
F6
330
1F
100
AcDbEntity
  8
0
  6
Continuous
 62
     1
370
    25
100
AcDbEllipse
 10
23.71269424518718
 20
0.0000000000000004
 30
0.0
 11
0.8514615395884776
 21
-0.5833044422444448
 31
0.0
210
0.0
220
0.0
230
1.0
 40
0.1650759015746668
 41
1.394381293938608
 42
1.542919398500849
  0
LINE
  5
F7
330
1F
100
AcDbEntity
  8
0
  6
Continuous
 62
     1
370
    25
100
AcDbLine
 10
23.95692193816529
 20
-0.1328859280378001
 30
0.0
 11
23.95692193816529
 21
0.0360035044827862
 31
0.0
  0
LINE
  5
F8
330
1F
100
AcDbEntity
  8
0
  6
Continuous
 62
     1
370
    25
100
AcDbLine
 10
23.95692193816529
 20
0.0360035044827859
 30
0.0
 11
23.95692193816529
 21
0.1347180389801062
 31
0.0
  0
LINE
  5
F9
330
1F
100
AcDbEntity
  8
0
  6
Continuous
 62
     1
370
    25
100
AcDbLine
 10
23.95692193816529
 20
-0.4999999999999988
 30
0.0
 11
23.95692193816529
 21
-0.5989188155876871
 31
0.0
  0
LINE
  5
FA
330
1F
100
AcDbEntity
  8
중심선
100
AcDbLine
 10
-39.04307806183471
 20
-0.0000000000000043
 30
0.0
 11
25.45692193816527
 21
0.0000000000000036
 31
0.0
  0
CIRCLE
  5
FB
330
1F
100
AcDbEntity
  8
해칭선
100
AcDbCircle
 10
0.0000884902463128
 20
-0.0000000000000042
 30
0.0
 40
3.0
  0
INSERT
  5
FC
330
1F
100
AcDbEntity
  8
0
  6
Continuous
 62
     7
100
AcDbBlockReference
 66
     1
  2
블럭10
 10
-20.44009924894178
 20
-52.04717430164393
 30
0.0
  0
ATTRIB
  5
FD
330
FC
100
AcDbEntity
  8
FORMAT
 62
     2
100
AcDbText
 10
-36.55936028837733
 20
-49.97180738881174
 30
0.0
 40
4.233333333333333
  1
SEME7201212E [ 4 FLUTE ]
 41
0.75
  7
SLDTEXTSTYLE0
 11
-36.55936028837733
 21
-52.08847405547841
 31
0.0
100
AcDbAttribute
  2
AUTOATTR0
 70
     0
 74
     1
  0
SEQEND
  5
FE
330
FC
100
AcDbEntity
  8
0
  6
Continuous
 62
     7
  0
HATCH
  5
FF
330
1F
100
AcDbEntity
  8
중심선
100
AcDbHatch
 10
0.0
 20
0.0
 30
0.0
210
0.0
220
0.0
230
1.0
  2
SOLID
 70
     1
 71
     0
 91
        1
 92
        0
 93
        4
 72
     1
 10
-14.72518994456093
 20
-35.8
 11
-18.17146518839821
 21
-35.8
 72
     1
 10
-18.17146518839821
 20
-35.8
 11
-20.29969504760223
 21
-38.33632558057259
 72
     1
 10
-20.29969504760223
 20
-38.33632558057259
 11
-16.8533867186518
 21
-38.3362861512701
 72
     1
 10
-16.8533867186518
 20
-38.3362861512701
 11
-14.72518994456093
 21
-35.8
 97
        0
 75
     0
 76
     1
 98
        1
 10
0.0
 20
0.0
  0
HATCH
  5
100
330
1F
100
AcDbEntity
  8
중심선
100
AcDbHatch
 10
0.0
 20
0.0
 30
0.0
210
0.0
220
0.0
230
1.0
  2
SOLID
 70
     1
 71
     0
 91
        1
 92
        0
 93
        4
 72
     1
 10
-9.71242595352495
 20
-35.8
 11
-13.15870119736223
 21
-35.8
 72
     1
 10
-13.15870119736223
 20
-35.8
 11
-17.68983920571965
 21
-41.20000000000002
 72
     1
 10
-17.68983920571965
 20
-41.20000000000002
 11
-14.24356396188237
 21
-41.20000000000002
 72
     1
 10
-14.24356396188237
 20
-41.20000000000002
 11
-9.71242595352495
 21
-35.8
 97
        0
 75
     0
 76
     1
 98
        1
 10
0.0
 20
0.0
  0
HATCH
  5
101
330
1F
100
AcDbEntity
  8
중심선
100
AcDbHatch
 10
0.0
 20
0.0
 30
0.0
210
0.0
220
0.0
230
1.0
  2
SOLID
 70
     1
 71
     0
 91
        1
 92
        0
 93
        4
 72
     1
 10
-4.699661962489027
 20
-35.79999999999997
 11
-8.145937206326199
 21
-35.8
 72
     1
 10
-8.145937206326199
 20
-35.8
 11
-15.19437410821545
 21
-44.20000000000002
 72
     1
 10
-15.19437410821545
 20
-44.20000000000002
 11
-11.74809886437816
 21
-44.20000000000002
 72
     1
 10
-11.74809886437816
 20
-44.20000000000002
 11
-4.699661962489027
 21
-35.79999999999997
 97
        0
 75
     0
 76
     1
 98
        1
 10
0.0
 20
0.0
  0
HATCH
  5
102
330
1F
100
AcDbEntity
  8
중심선
100
AcDbHatch
 10
0.0
 20
0.0
 30
0.0
210
0.0
220
0.0
230
1.0
  2
SOLID
 70
     1
 71
     0
 91
        1
 92
        0
 93
        6
 72
     3
 10
0.100228468523117
 20
-40.00000000005127
 11
3.960054785062284
 21
1.540850780301639E-10
 40
0.3939339440162633
 50
17.09539180608433
 51
320.0019657685081
 73
     0
 72
     1
 10
1.783228124223685
 20
-38.58789400463833
 11
4.08852999792475
 21
-36.65356729459038
 72
     3
 10
0.1002284684702703
 20
-40.00000000000015
 11
6.600054785286829
 21
-1.249000902703301E-13
 40
0.6363583540795982
 50
39.99873849337408
 51
368.4976242363725
 73
     1
 72
     1
 10
6.52556096037088
 20
-39.03999999993002
 11
-1.219704224693807
 21
-39.03999999993002
 72
     1
 10
-1.219704224693807
 20
-39.03999999993002
 11
-1.219729269139741
 21
-40.95999999992991
 72
     1
 10
-1.219729269139741
 20
-40.95999999992991
 11
3.221650500332296
 21
-40.95999999992988
 97
        0
 75
     0
 76
     1
 98
        1
 10
0.0
 20
0.0
  0
DIMENSION
  5
103
330
1F
100
AcDbEntity
  8
치수문자_일반주서
100
AcDbDimension
  2
_D
 10
36.76997695050046
 20
0.6000000000000512
 30
0.0
 11
36.76997695050039
 21
11.57900000000005
 31
0.0
 70
   160
  1
%%c<>
 71
     2
 42
1.200000000000008
 52
-270.0
  3
SLDDIMSTYLE0
100
AcDbAlignedDimension
 13
23.9569219381653
 23
-0.6000000000000042
 33
0.0
 14
23.9569219381653
 24
0.6000000000000033
 34
0.0
 50
90.0000000000002
100
AcDbRotatedDimension
  0
DIMENSION
  5
111
330
1F
100
AcDbEntity
  8
치수문자_일반주서
100
AcDbDimension
  2
_D_1
 10
23.95692193816529
 20
20.38913260158165
 30
0.0
 11
-6.043078061834716
 21
20.38913260158165
 31
0.0
 70
   160
  1
<>
 71
     2
 42
60.00000000000001
  3
SLDDIMSTYLE1
100
AcDbAlignedDimension
 13
-36.04307806183472
 23
2.499999999999994
 33
0.0
 14
23.95692193816529
 24
0.6000000000000025
 34
0.0
 50
-0.0000000000000068
100
AcDbRotatedDimension
  0
DIMENSION
  5
11C
330
1F
100
AcDbEntity
  8
치수문자_일반주서
100
AcDbDimension
  2
_D_2
 10
-46.02705465818074
 20
-3.000000000000041
 30
0.0
 11
-46.02705465818079
 21
12.66649999999996
 31
0.0
 70
   160
  1
%%c<>
 71
     2
 42
6.000000000000005
 52
-270.0
  3
SLDDIMSTYLE2
100
AcDbAlignedDimension
 13
-35.54307806183471
 23
3.000000000000003
 33
0.0
 14
-35.54307806183471
 24
-3.000000000000002
 34
0.0
 50
90.0000000000002
100
AcDbRotatedDimension
  0
DIMENSION
  5
12A
330
1F
100
AcDbEntity
  8
치수문자_일반주서
100
AcDbDimension
  2
_D_3
 10
23.95692193816529
 20
11.41404342348865
 30
0.0
 11
17.95692193816529
 21
11.41404342348865
 31
0.0
 70
   160
  1
<>
 71
     2
 42
12.00000000000001
  3
SLDDIMSTYLE2
100
AcDbAlignedDimension
 13
11.95692193816529
 23
0.5681251209009933
 33
0.0
 14
23.95692193816529
 24
0.6000000000000025
 34
0.0
100
AcDbRotatedDimension
  0
INSERT
  5
13C
330
1F
100
AcDbEntity
  8
해칭선
100
AcDbBlockReference
  2
SW_DOWELSYMBOL_0
 10
0.0000884902463128
 20
-0.0000000000000041
 30
0.0
  0
ENDSEC
  0
SECTION
  2
OBJECTS
  0
DICTIONARY
  5
C
330
0
100
AcDbDictionary
281
     1
  3
ACAD_GROUP
350
D
  3
ACAD_IMAGE_VARS
350
160
  3
ACAD_LAYOUT
350
1A
  3
ACAD_MLINESTYLE
350
17
  3
ACAD_PLOTSETTINGS
350
19
  3
ACAD_PLOTSTYLENAME
350
E
  3
ACAD_SCALELIST
350
47
  3
APPDATA
350
15E
  3
DWGPROPS
350
16D
  0
DICTIONARY
  5
D
102
{ACAD_REACTORS
330
C
102
}
330
C
100
AcDbDictionary
281
     1
  0
RASTERVARIABLES
  5
160
102
{ACAD_REACTORS
330
C
102
}
330
C
100
AcDbRasterVariables
 90
        0
 70
     1
 71
     1
 72
     1
  0
DICTIONARY
  5
1A
102
{ACAD_REACTORS
330
C
102
}
330
C
100
AcDbDictionary
281
     1
  3
Layout1
350
1E
  3
Layout2
350
26
  3
Model
350
22
  0
DICTIONARY
  5
17
102
{ACAD_REACTORS
330
C
102
}
330
C
100
AcDbDictionary
281
     1
  3
Standard
350
18
  0
DICTIONARY
  5
19
102
{ACAD_REACTORS
330
C
102
}
330
C
100
AcDbDictionary
281
     1
  0
ACDBDICTIONARYWDFLT
  5
E
102
{ACAD_REACTORS
330
C
102
}
330
C
100
AcDbDictionary
281
     1
  3
Normal
350
F
100
AcDbDictionaryWithDefault
340
F
  0
DICTIONARY
  5
47
102
{ACAD_REACTORS
330
C
102
}
330
C
100
AcDbDictionary
281
     1
  3
A0
350
48
  3
A1
350
49
  3
A2
350
4A
  3
A3
350
4B
  3
A4
350
4C
  3
A5
350
4D
  3
A6
350
4E
  3
A7
350
4F
  3
A8
350
50
  3
A9
350
51
  3
B0
350
52
  3
B1
350
53
  3
B2
350
54
  3
B3
350
55
  3
B4
350
56
  3
B5
350
57
  3
B6
350
58
  3
B7
350
59
  3
B8
350
5A
  3
B9
350
5B
  3
C0
350
5C
  3
C1
350
5D
  3
C2
350
5E
  3
C3
350
5F
  3
C4
350
60
  3
C5
350
61
  3
C6
350
62
  3
C7
350
63
  3
C8
350
64
  3
C9
350
65
  3
D0
350
66
  3
D1
350
67
  3
D2
350
68
  0
DICTIONARY
  5
15E
102
{ACAD_REACTORS
330
C
102
}
330
C
100
AcDbDictionary
281
     1
  0
XRECORD
  5
16D
102
{ACAD_REACTORS
330
C
102
}
330
C
100
AcDbXrecord
280
     1
  1
DWGPROPS COOKIE
  2

  3

  4

  6

  7

  8
12014102
  9

300
=
301
=
302
=
303
=
304
=
305
=
306
=
307
=
308
=
309
=
 40
0.0
 41
2458260.191438056
 42
2458268.09144772
  1

 90
        0
  0
LAYOUT
  5
1E
102
{ACAD_REACTORS
330
1A
102
}
330
1A
100
AcDbPlotSettings
  1

  2
none_device
  4

  6

 40
0.0
 41
0.0
 42
0.0
 43
0.0
 44
0.0
 45
0.0
 46
0.0
 47
0.0
 48
0.0
 49
0.0
140
0.0
141
0.0
142
1.0
143
1.0
 70
   688
 72
     1
 73
     0
 74
     5
  7

 75
    16
147
1.0
148
0.0
149
0.0
100
AcDbLayout
  1
Layout1
 70
     1
 71
     1
 10
0.0
 20
0.0
 11
420.0
 21
297.0
 12
0.0
 22
0.0
 32
0.0
 14
1.000000000000000E+20
 24
1.000000000000000E+20
 34
1.000000000000000E+20
 15
-1.000000000000000E+20
 25
-1.000000000000000E+20
 35
-1.000000000000000E+20
146
0.0
 13
0.0
 23
0.0
 33
0.0
 16
1.0
 26
0.0
 36
0.0
 17
0.0
 27
1.0
 37
0.0
 76
     0
330
1B
  0
LAYOUT
  5
26
102
{ACAD_REACTORS
330
1A
102
}
330
1A
100
AcDbPlotSettings
  1

  2
none_device
  4

  6

 40
0.0
 41
0.0
 42
0.0
 43
0.0
 44
0.0
 45
0.0
 46
0.0
 47
0.0
 48
0.0
 49
0.0
140
0.0
141
0.0
142
1.0
143
1.0
 70
   688
 72
     1
 73
     0
 74
     5
  7

 75
    16
147
1.0
148
0.0
149
0.0
100
AcDbLayout
  1
Layout2
 70
     1
 71
     2
 10
0.0
 20
0.0
 11
0.0
 21
0.0
 12
0.0
 22
0.0
 32
0.0
 14
0.0
 24
0.0
 34
0.0
 15
0.0
 25
0.0
 35
0.0
146
0.0
 13
0.0
 23
0.0
 33
0.0
 16
1.0
 26
0.0
 36
0.0
 17
0.0
 27
1.0
 37
0.0
 76
     0
330
23
  0
LAYOUT
  5
22
102
{ACAD_REACTORS
330
1A
102
}
330
1A
100
AcDbPlotSettings
  1

  2
none_device
  4
ANSI_A_(11.00_x_8.50_Inches)
  6

 40
6.35
 41
19.05
 42
6.35000508
 43
19.05000254
 44
279.4
 45
215.9
 46
153.4935365126497
 47
125.3847137330092
 48
0.0
 49
0.0
140
0.0
141
0.0
142
0.1112850254374008
143
1.0
 70
  1696
 72
     0
 73
     0
 74
     0
  7

 75
     0
147
0.0235690232323232
148
0.0
149
0.0
100
AcDbLayout
  1
Model
 70
     1
 71
     0
 10
0.0
 20
0.0
 11
420.0
 21
297.0
 12
0.0
 22
0.0
 32
0.0
 14
-50.4020546581808
 24
-49.97180738881174
 34
0.0
 15
37.32031028383382
 25
24.76413260158165
 35
0.0
146
0.0
 13
0.0
 23
0.0
 33
0.0
 16
1.0
 26
0.0
 36
0.0
 17
0.0
 27
1.0
 37
0.0
 76
     0
330
1F
331
29
  0
MLINESTYLE
  5
18
102
{ACAD_REACTORS
330
17
102
}
330
17
100
AcDbMlineStyle
  2
Standard
 70
     0
  3

 62
   256
 51
90.0
 52
90.0
 71
     2
 49
0.5
 62
   256
  6
BYLAYER
 49
-0.5
 62
   256
  6
BYLAYER
  0
ACDBPLACEHOLDER
  5
F
102
{ACAD_REACTORS
330
E
102
}
330
E
  0
SCALE
  5
48
102
{ACAD_REACTORS
330
47
102
}
330
47
100
AcDbScale
 70
     0
300
1:1
140
1.0
141
1.0
290
     1
  0
SCALE
  5
49
102
{ACAD_REACTORS
330
47
102
}
330
47
100
AcDbScale
 70
     0
300
1:2
140
1.0
141
2.0
290
     0
  0
SCALE
  5
4A
102
{ACAD_REACTORS
330
47
102
}
330
47
100
AcDbScale
 70
     0
300
1:4
140
1.0
141
4.0
290
     0
  0
SCALE
  5
4B
102
{ACAD_REACTORS
330
47
102
}
330
47
100
AcDbScale
 70
     0
300
1:5
140
1.0
141
5.0
290
     0
  0
SCALE
  5
4C
102
{ACAD_REACTORS
330
47
102
}
330
47
100
AcDbScale
 70
     0
300
1:8
140
1.0
141
8.0
290
     0
  0
SCALE
  5
4D
102
{ACAD_REACTORS
330
47
102
}
330
47
100
AcDbScale
 70
     0
300
1:10
140
1.0
141
10.0
290
     0
  0
SCALE
  5
4E
102
{ACAD_REACTORS
330
47
102
}
330
47
100
AcDbScale
 70
     0
300
1:16
140
1.0
141
16.0
290
     0
  0
SCALE
  5
4F
102
{ACAD_REACTORS
330
47
102
}
330
47
100
AcDbScale
 70
     0
300
1:20
140
1.0
141
20.0
290
     0
  0
SCALE
  5
50
102
{ACAD_REACTORS
330
47
102
}
330
47
100
AcDbScale
 70
     0
300
1:30
140
1.0
141
30.0
290
     0
  0
SCALE
  5
51
102
{ACAD_REACTORS
330
47
102
}
330
47
100
AcDbScale
 70
     0
300
1:40
140
1.0
141
40.0
290
     0
  0
SCALE
  5
52
102
{ACAD_REACTORS
330
47
102
}
330
47
100
AcDbScale
 70
     0
300
1:50
140
1.0
141
50.0
290
     0
  0
SCALE
  5
53
102
{ACAD_REACTORS
330
47
102
}
330
47
100
AcDbScale
 70
     0
300
1:100
140
1.0
141
100.0
290
     0
  0
SCALE
  5
54
102
{ACAD_REACTORS
330
47
102
}
330
47
100
AcDbScale
 70
     0
300
2:1
140
2.0
141
1.0
290
     0
  0
SCALE
  5
55
102
{ACAD_REACTORS
330
47
102
}
330
47
100
AcDbScale
 70
     0
300
4:1
140
4.0
141
1.0
290
     0
  0
SCALE
  5
56
102
{ACAD_REACTORS
330
47
102
}
330
47
100
AcDbScale
 70
     0
300
8:1
140
8.0
141
1.0
290
     0
  0
SCALE
  5
57
102
{ACAD_REACTORS
330
47
102
}
330
47
100
AcDbScale
 70
     0
300
10:1
140
10.0
141
1.0
290
     0
  0
SCALE
  5
58
102
{ACAD_REACTORS
330
47
102
}
330
47
100
AcDbScale
 70
     0
300
100:1
140
100.0
141
1.0
290
     0
  0
SCALE
  5
59
102
{ACAD_REACTORS
330
47
102
}
330
47
100
AcDbScale
 70
     0
300
1/128" = 1'-0"
140
0.0078125
141
12.0
290
     0
  0
SCALE
  5
5A
102
{ACAD_REACTORS
330
47
102
}
330
47
100
AcDbScale
 70
     0
300
1/64" = 1'-0"
140
0.015625
141
12.0
290
     0
  0
SCALE
  5
5B
102
{ACAD_REACTORS
330
47
102
}
330
47
100
AcDbScale
 70
     0
300
1/32" = 1'-0"
140
0.03125
141
12.0
290
     0
  0
SCALE
  5
5C
102
{ACAD_REACTORS
330
47
102
}
330
47
100
AcDbScale
 70
     0
300
1/16" = 1'-0"
140
0.0625
141
12.0
290
     0
  0
SCALE
  5
5D
102
{ACAD_REACTORS
330
47
102
}
330
47
100
AcDbScale
 70
     0
300
3/32" = 1'-0"
140
0.09375
141
12.0
290
     0
  0
SCALE
  5
5E
102
{ACAD_REACTORS
330
47
102
}
330
47
100
AcDbScale
 70
     0
300
1/8" = 1'-0"
140
0.125
141
12.0
290
     0
  0
SCALE
  5
5F
102
{ACAD_REACTORS
330
47
102
}
330
47
100
AcDbScale
 70
     0
300
3/16" = 1'-0"
140
0.1875
141
12.0
290
     0
  0
SCALE
  5
60
102
{ACAD_REACTORS
330
47
102
}
330
47
100
AcDbScale
 70
     0
300
1/4" = 1'-0"
140
0.25
141
12.0
290
     0
  0
SCALE
  5
61
102
{ACAD_REACTORS
330
47
102
}
330
47
100
AcDbScale
 70
     0
300
3/8" = 1'-0"
140
0.375
141
12.0
290
     0
  0
SCALE
  5
62
102
{ACAD_REACTORS
330
47
102
}
330
47
100
AcDbScale
 70
     0
300
1/2" = 1'-0"
140
0.5
141
12.0
290
     0
  0
SCALE
  5
63
102
{ACAD_REACTORS
330
47
102
}
330
47
100
AcDbScale
 70
     0
300
3/4" = 1'-0"
140
0.75
141
12.0
290
     0
  0
SCALE
  5
64
102
{ACAD_REACTORS
330
47
102
}
330
47
100
AcDbScale
 70
     0
300
1" = 1'-0"
140
1.0
141
12.0
290
     0
  0
SCALE
  5
65
102
{ACAD_REACTORS
330
47
102
}
330
47
100
AcDbScale
 70
     0
300
1-1/2" = 1'-0"
140
1.5
141
12.0
290
     0
  0
SCALE
  5
66
102
{ACAD_REACTORS
330
47
102
}
330
47
100
AcDbScale
 70
     0
300
3" = 1'-0"
140
3.0
141
12.0
290
     0
  0
SCALE
  5
67
102
{ACAD_REACTORS
330
47
102
}
330
47
100
AcDbScale
 70
     0
300
6" = 1'-0"
140
6.0
141
12.0
290
     0
  0
SCALE
  5
68
102
{ACAD_REACTORS
330
47
102
}
330
47
100
AcDbScale
 70
     0
300
1'-0" = 1'-0"
140
12.0
141
12.0
290
     0
  0
ENDSEC
  0
EOF
