  0
SECTION
  2
HEADER
  9
$ACADVER
  1
AC1015
  9
$ACADMAINTVER
 70
     6
  9
$DWGCODEPAGE
  3
ANSI_949
  9
$INSBASE
 10
0.0
 20
0.0
 30
0.0
  9
$EXTMIN
 10
-50.39237797958099
 20
-49.97180738881174
 30
0.0
  9
$EXTMAX
 10
31.23492011944538
 20
24.76413260158164
 30
0.0
  9
$LIMMIN
 10
0.0
 20
0.0
  9
$LIMMAX
 10
420.0
 20
297.0
  9
$ORTHOMODE
 70
     0
  9
$REGENMODE
 70
     1
  9
$FILLMODE
 70
     1
  9
$QTEXTMODE
 70
     0
  9
$MIRRTEXT
 70
     1
  9
$LTSCALE
 40
1.0
  9
$ATTMODE
 70
     1
  9
$TEXTSIZE
 40
3.5
  9
$TRACEWID
 40
1.0
  9
$TEXTSTYLE
  7
Standard
  9
$CLAYER
  8
0
  9
$CELTYPE
  6
ByLayer
  9
$CECOLOR
 62
   256
  9
$CELTSCALE
 40
1.0
  9
$DISPSILH
 70
     0
  9
$DIMSCALE
 40
1.0
  9
$DIMASZ
 40
3.302
  9
$DIMEXO
 40
1.0
  9
$DIMDLI
 40
3.75
  9
$DIMRND
 40
0.0
  9
$DIMDLE
 40
0.0
  9
$DIMEXE
 40
1.0
  9
$DIMTP
 40
0.0
  9
$DIMTM
 40
0.0
  9
$DIMTXT
 40
3.5
  9
$DIMCEN
 40
2.5
  9
$DIMTSZ
 40
0.0
  9
$DIMTOL
 70
     0
  9
$DIMLIM
 70
     0
  9
$DIMTIH
 70
     1
  9
$DIMTOH
 70
     1
  9
$DIMSE1
 70
     0
  9
$DIMSE2
 70
     0
  9
$DIMTAD
 70
     1
  9
$DIMZIN
 70
     0
  9
$DIMBLK
  1

  9
$DIMASO
 70
     1
  9
$DIMSHO
 70
     1
  9
$DIMPOST
  1

  9
$DIMAPOST
  1

  9
$DIMALT
 70
     0
  9
$DIMALTD
 70
     3
  9
$DIMALTF
 40
0.0393700787401575
  9
$DIMLFAC
 40
1.0
  9
$DIMTOFL
 70
     1
  9
$DIMTVP
 40
0.0
  9
$DIMTIX
 70
     0
  9
$DIMSOXD
 70
     0
  9
$DIMSAH
 70
     0
  9
$DIMBLK1
  1

  9
$DIMBLK2
  1

  9
$DIMSTYLE
  2
ISO-25
  9
$DIMCLRD
 70
     0
  9
$DIMCLRE
 70
     0
  9
$DIMCLRT
 70
     0
  9
$DIMTFAC
 40
1.0
  9
$DIMGAP
 40
1.524
  9
$DIMJUST
 70
     0
  9
$DIMSD1
 70
     0
  9
$DIMSD2
 70
     0
  9
$DIMTOLJ
 70
     0
  9
$DIMTZIN
 70
     0
  9
$DIMALTZ
 70
     0
  9
$DIMALTTZ
 70
     0
  9
$DIMUPT
 70
     0
  9
$DIMDEC
 70
     2
  9
$DIMTDEC
 70
     2
  9
$DIMALTU
 70
     2
  9
$DIMALTTD
 70
     3
  9
$DIMTXSTY
  7
Standard
  9
$DIMAUNIT
 70
     0
  9
$DIMADEC
 70
     2
  9
$DIMALTRND
 40
0.0
  9
$DIMAZIN
 70
     0
  9
$DIMDSEP
 70
    44
  9
$DIMATFIT
 70
     3
  9
$DIMFRAC
 70
     0
  9
$DIMLDRBLK
  1

  9
$DIMLUNIT
 70
     2
  9
$DIMLWD
 70
    -2
  9
$DIMLWE
 70
    -2
  9
$DIMTMOVE
 70
     0
  9
$LUNITS
 70
     2
  9
$LUPREC
 70
     2
  9
$SKETCHINC
 40
1.0
  9
$FILLETRAD
 40
10.0
  9
$AUNITS
 70
     0
  9
$AUPREC
 70
     2
  9
$MENU
  1
.
  9
$ELEVATION
 40
0.0
  9
$PELEVATION
 40
0.0
  9
$THICKNESS
 40
0.0
  9
$LIMCHECK
 70
     0
  9
$CHAMFERA
 40
0.0
  9
$CHAMFERB
 40
0.0
  9
$CHAMFERC
 40
0.0
  9
$CHAMFERD
 40
0.0
  9
$SKPOLY
 70
     0
  9
$TDCREATE
 40
2458260.566059977
  9
$TDUCREATE
 40
2458260.191059977
  9
$TDUPDATE
 40
2458268.464561424
  9
$TDUUPDATE
 40
2458268.089561424
  9
$TDINDWG
 40
0.0012164005
  9
$TDUSRTIMER
 40
2458268.088345069
  9
$USRTIMER
 70
     1
  9
$ANGBASE
 50
0.0
  9
$ANGDIR
 70
     0
  9
$PDMODE
 70
     0
  9
$PDSIZE
 40
-1.0
  9
$PLINEWID
 40
0.0
  9
$SPLFRAME
 70
     0
  9
$SPLINETYPE
 70
     6
  9
$SPLINESEGS
 70
     8
  9
$HANDSEED
  5
15F
  9
$SURFTAB1
 70
     6
  9
$SURFTAB2
 70
     6
  9
$SURFTYPE
 70
     6
  9
$SURFU
 70
     6
  9
$SURFV
 70
     6
  9
$UCSBASE
  2

  9
$UCSNAME
  2

  9
$UCSORG
 10
0.0
 20
0.0
 30
0.0
  9
$UCSXDIR
 10
1.0
 20
0.0
 30
0.0
  9
$UCSYDIR
 10
0.0
 20
1.0
 30
0.0
  9
$UCSORTHOREF
  2

  9
$UCSORTHOVIEW
 70
     0
  9
$UCSORGTOP
 10
0.0
 20
0.0
 30
0.0
  9
$UCSORGBOTTOM
 10
0.0
 20
0.0
 30
0.0
  9
$UCSORGLEFT
 10
0.0
 20
0.0
 30
0.0
  9
$UCSORGRIGHT
 10
0.0
 20
0.0
 30
0.0
  9
$UCSORGFRONT
 10
0.0
 20
0.0
 30
0.0
  9
$UCSORGBACK
 10
0.0
 20
0.0
 30
0.0
  9
$PUCSBASE
  2

  9
$PUCSNAME
  2

  9
$PUCSORG
 10
0.0
 20
0.0
 30
0.0
  9
$PUCSXDIR
 10
1.0
 20
0.0
 30
0.0
  9
$PUCSYDIR
 10
0.0
 20
1.0
 30
0.0
  9
$PUCSORTHOREF
  2

  9
$PUCSORTHOVIEW
 70
     0
  9
$PUCSORGTOP
 10
0.0
 20
0.0
 30
0.0
  9
$PUCSORGBOTTOM
 10
0.0
 20
0.0
 30
0.0
  9
$PUCSORGLEFT
 10
0.0
 20
0.0
 30
0.0
  9
$PUCSORGRIGHT
 10
0.0
 20
0.0
 30
0.0
  9
$PUCSORGFRONT
 10
0.0
 20
0.0
 30
0.0
  9
$PUCSORGBACK
 10
0.0
 20
0.0
 30
0.0
  9
$USERI1
 70
     0
  9
$USERI2
 70
     0
  9
$USERI3
 70
     0
  9
$USERI4
 70
     0
  9
$USERI5
 70
     0
  9
$USERR1
 40
0.0
  9
$USERR2
 40
0.0
  9
$USERR3
 40
0.0
  9
$USERR4
 40
0.0
  9
$USERR5
 40
0.0
  9
$WORLDVIEW
 70
     1
  9
$SHADEDGE
 70
     3
  9
$SHADEDIF
 70
    70
  9
$TILEMODE
 70
     1
  9
$MAXACTVP
 70
    64
  9
$PINSBASE
 10
0.0
 20
0.0
 30
0.0
  9
$PLIMCHECK
 70
     0
  9
$PEXTMIN
 10
1.000000000000000E+20
 20
1.000000000000000E+20
 30
1.000000000000000E+20
  9
$PEXTMAX
 10
-1.000000000000000E+20
 20
-1.000000000000000E+20
 30
-1.000000000000000E+20
  9
$PLIMMIN
 10
0.0
 20
0.0
  9
$PLIMMAX
 10
0.0
 20
0.0
  9
$UNITMODE
 70
     0
  9
$VISRETAIN
 70
     1
  9
$PLINEGEN
 70
     0
  9
$PSLTSCALE
 70
     1
  9
$TREEDEPTH
 70
  3020
  9
$CMLSTYLE
  2
Standard
  9
$CMLJUST
 70
     0
  9
$CMLSCALE
 40
20.0
  9
$PROXYGRAPHICS
 70
     1
  9
$MEASUREMENT
 70
     1
  9
$CELWEIGHT
370
    -1
  9
$ENDCAPS
280
     0
  9
$JOINSTYLE
280
     0
  9
$LWDISPLAY
290
     1
  9
$INSUNITS
 70
     4
  9
$HYPERLINKBASE
  1

  9
$STYLESHEET
  1

  9
$XEDIT
290
     1
  9
$CEPSNTYPE
380
     0
  9
$PSTYLEMODE
290
     1
  9
$FINGERPRINTGUID
  2
{4E60B71D-A7C2-4753-AB4D-17964AB7A831}
  9
$VERSIONGUID
  2
{FAEB1C32-E019-11D5-929B-00C0DF256EC4}
  9
$EXTNAMES
290
     1
  9
$PSVPSCALE
 40
0.0
  9
$OLESTARTUP
290
     0
  0
ENDSEC
  0
SECTION
  2
CLASSES
  0
CLASS
  1
ACDBDICTIONARYWDFLT
  2
AcDbDictionaryWithDefault
  3
ObjectDBX Classes
 90
        0
280
     0
281
     0
  0
CLASS
  1
VISUALSTYLE
  2
AcDbVisualStyle
  3
ObjectDBX Classes
 90
     4095
280
     0
281
     0
  0
CLASS
  1
MATERIAL
  2
AcDbMaterial
  3
ObjectDBX Classes
 90
     1153
280
     0
281
     0
  0
CLASS
  1
SCALE
  2
AcDbScale
  3
ObjectDBX Classes
 90
     1153
280
     0
281
     0
  0
CLASS
  1
TABLESTYLE
  2
AcDbTableStyle
  3
ObjectDBX Classes
 90
     4095
280
     0
281
     0
  0
CLASS
  1
MLEADERSTYLE
  2
AcDbMLeaderStyle
  3
ACDB_MLEADERSTYLE_CLASS
 90
     4095
280
     0
281
     0
  0
CLASS
  1
SUN
  2
AcDbSun
  3
SCENEOE
 90
     1153
280
     0
281
     0
  0
CLASS
  1
ACDBPLACEHOLDER
  2
AcDbPlaceHolder
  3
ObjectDBX Classes
 90
        0
280
     0
281
     0
  0
CLASS
  1
LAYOUT
  2
AcDbLayout
  3
ObjectDBX Classes
 90
        0
280
     0
281
     0
  0
CLASS
  1
RASTERVARIABLES
  2
AcDbRasterVariables
  3
ISM
 90
        0
280
     0
281
     0
  0
ENDSEC
  0
SECTION
  2
TABLES
  0
TABLE
  2
VPORT
  5
8
330
0
100
AcDbSymbolTable
 70
     1
  0
VPORT
  5
29
330
8
100
AcDbSymbolTableRecord
100
AcDbViewportTableRecord
  2
*Active
 70
     0
 10
0.0
 20
0.0
 11
1.0
 21
1.0
 12
-9.578728930067804
 22
-12.60383739361505
 13
0.0
 23
0.0
 14
10.0
 24
10.0
 15
10.0
 25
10.0
 16
0.0
 26
0.0
 36
1.0
 17
0.0
 27
0.0
 37
0.0
 40
76.23065879020125
 41
1.737726098191214
 42
50.0
 43
0.0
 44
0.0
 50
0.0
 51
0.0
 71
    16
 72
  2000
 73
     1
 74
     3
 75
     0
 76
     0
 77
     0
 78
     0
281
     0
 65
     1
110
0.0
120
0.0
130
0.0
111
1.0
121
0.0
131
0.0
112
0.0
122
1.0
132
0.0
 79
     0
146
0.0
  0
ENDTAB
  0
TABLE
  2
LTYPE
  5
5
330
0
100
AcDbSymbolTable
 70
     6
  0
LTYPE
  5
14
330
5
100
AcDbSymbolTableRecord
100
AcDbLinetypeTableRecord
  2
ByBlock
 70
     0
  3

 72
    65
 73
     0
 40
0.0
  0
LTYPE
  5
15
330
5
100
AcDbSymbolTableRecord
100
AcDbLinetypeTableRecord
  2
ByLayer
 70
     0
  3

 72
    65
 73
     0
 40
0.0
  0
LTYPE
  5
16
330
5
100
AcDbSymbolTableRecord
100
AcDbLinetypeTableRecord
  2
Continuous
 70
     0
  3
Solid line
 72
    65
 73
     0
 40
0.0
  0
LTYPE
  5
6E
330
5
100
AcDbSymbolTableRecord
100
AcDbLinetypeTableRecord
  2
HIDDEN
 70
     0
  3
Hidden __ __ __ __ __ __ __ __ __ __ __ __ __ __
 72
    65
 73
     2
 40
1.905
 49
1.27
 74
     0
 49
-0.635
 74
     0
  0
LTYPE
  5
6F
330
5
100
AcDbSymbolTableRecord
100
AcDbLinetypeTableRecord
  2
PHANTOM
 70
     0
  3
Phantom ______  __  __  ______  __  __  ______
 72
    65
 73
     6
 40
12.7
 49
6.35
 74
     0
 49
-1.27
 74
     0
 49
1.27
 74
     0
 49
-1.27
 74
     0
 49
1.27
 74
     0
 49
-1.27
 74
     0
  0
LTYPE
  5
70
330
5
100
AcDbSymbolTableRecord
100
AcDbLinetypeTableRecord
  2
CENTER
 70
     0
  3
Center ____ _ ____ _ ____ _ ____ _ ____ _ ____
 72
    65
 73
     4
 40
10.16
 49
6.35
 74
     0
 49
-1.27
 74
     0
 49
1.27
 74
     0
 49
-1.27
 74
     0
  0
LTYPE
  5
71
330
5
100
AcDbSymbolTableRecord
100
AcDbLinetypeTableRecord
  2
CENTERX2
 70
     0
  3
Center (2x) ________  __  ________  __  _____
 72
    65
 73
     4
 40
20.32
 49
12.7
 74
     0
 49
-2.54
 74
     0
 49
2.54
 74
     0
 49
-2.54
 74
     0
  0
LTYPE
  5
72
330
5
100
AcDbSymbolTableRecord
100
AcDbLinetypeTableRecord
  2
DOT2
 70
     0
  3
Dot (.5x) ........................................
 72
    65
 73
     2
 40
0.635
 49
0.0
 74
     0
 49
-0.635
 74
     0
  0
ENDTAB
  0
TABLE
  2
LAYER
  5
2
330
0
100
AcDbSymbolTable
 70
    17
  0
LAYER
  5
10
330
2
100
AcDbSymbolTableRecord
100
AcDbLayerTableRecord
  2
0
 70
     0
 62
     7
  6
Continuous
370
    -3
390
F
  0
LAYER
  5
73
330
2
100
AcDbSymbolTableRecord
100
AcDbLayerTableRecord
  2
FORMAT
 70
     0
 62
     2
  6
Continuous
370
    -3
390
F
  0
LAYER
  5
74
330
2
100
AcDbSymbolTableRecord
100
AcDbLayerTableRecord
  2
외형선
 70
     0
 62
   100
  6
Continuous
370
    35
390
F
  0
LAYER
  5
75
330
2
100
AcDbSymbolTableRecord
100
AcDbLayerTableRecord
  2
숨은선
 70
     0
 62
     2
  6
HIDDEN
370
    25
390
F
  0
LAYER
  5
76
330
2
100
AcDbSymbolTableRecord
100
AcDbLayerTableRecord
  2
중심선
 70
     0
 62
     1
  6
CENTERX2
370
    -3
390
F
  0
LAYER
  5
77
330
2
100
AcDbSymbolTableRecord
100
AcDbLayerTableRecord
  2
파단선
 70
     0
 62
     4
  6
Continuous
370
    -3
390
F
  0
LAYER
  5
78
330
2
100
AcDbSymbolTableRecord
100
AcDbLayerTableRecord
  2
해칭선
 70
     0
 62
   100
  6
Continuous
370
    -3
390
F
  0
LAYER
  5
79
330
2
100
AcDbSymbolTableRecord
100
AcDbLayerTableRecord
  2
가는실선
 70
     0
 62
     4
  6
Continuous
370
    -3
390
F
  0
LAYER
  5
7A
330
2
100
AcDbSymbolTableRecord
100
AcDbLayerTableRecord
  2
치수_보조선
 70
     0
 62
     4
  6
Continuous
370
    -3
390
F
  0
LAYER
  5
7B
330
2
100
AcDbSymbolTableRecord
100
AcDbLayerTableRecord
  2
치수문자_일반주서
 70
     0
 62
     7
  6
Continuous
370
    25
390
F
  0
LAYER
  5
7C
330
2
100
AcDbSymbolTableRecord
100
AcDbLayerTableRecord
  2
개별주서
 70
     0
 62
   100
  6
Continuous
370
    35
390
F
  0
LAYER
  5
7D
330
2
100
AcDbSymbolTableRecord
100
AcDbLayerTableRecord
  2
중간선
 70
     0
 62
     2
  6
Continuous
370
    25
390
F
  0
LAYER
  5
7E
330
2
100
AcDbSymbolTableRecord
100
AcDbLayerTableRecord
  2
윤곽선
 70
     0
 62
     3
  6
Continuous
370
    50
390
F
  0
LAYER
  5
7F
330
2
100
AcDbSymbolTableRecord
100
AcDbLayerTableRecord
  2
중심마크
 70
     0
 62
   100
  6
Continuous
370
    35
390
F
  0
LAYER
  5
80
330
2
100
AcDbSymbolTableRecord
100
AcDbLayerTableRecord
  2
가상선
 70
     0
 62
     4
  6
PHANTOM
370
    -3
390
F
  0
LAYER
  5
81
330
2
100
AcDbSymbolTableRecord
100
AcDbLayerTableRecord
  2
특수지정선
 70
     0
 62
     5
  6
CENTERX2
370
    70
390
F
  0
LAYER
  5
14F
330
2
100
AcDbSymbolTableRecord
100
AcDbLayerTableRecord
  2
Defpoints
 70
     0
 62
     7
  6
Continuous
290
     0
370
    -3
390
F
  0
ENDTAB
  0
TABLE
  2
STYLE
  5
3
330
0
100
AcDbSymbolTable
 70
     2
  0
STYLE
  5
11
330
3
100
AcDbSymbolTableRecord
100
AcDbTextStyleTableRecord
  2
Standard
 70
     0
 40
0.0
 41
1.0
 50
0.0
 71
     0
 42
3.5
  3
txt
  4

  0
STYLE
  5
97
330
3
100
AcDbSymbolTableRecord
100
AcDbTextStyleTableRecord
  2
SLDTEXTSTYLE0
 70
     0
 40
0.0
 41
0.75
 50
0.0
 71
     0
 42
3.5
  3
TXT
  4

  0
ENDTAB
  0
TABLE
  2
VIEW
  5
6
330
0
100
AcDbSymbolTable
 70
     0
  0
ENDTAB
  0
TABLE
  2
UCS
  5
7
330
0
100
AcDbSymbolTable
 70
     0
  0
ENDTAB
  0
TABLE
  2
APPID
  5
9
330
0
100
AcDbSymbolTable
 70
     1
  0
APPID
  5
12
330
9
100
AcDbSymbolTableRecord
100
AcDbRegAppTableRecord
  2
ACAD
 70
     0
  0
ENDTAB
  0
TABLE
  2
DIMSTYLE
  5
A
330
0
100
AcDbSymbolTable
 70
     4
100
AcDbDimStyleTable
  0
DIMSTYLE
105
27
330
A
100
AcDbSymbolTableRecord
100
AcDbDimStyleTableRecord
  2
ISO-25
 70
     0
 41
2.5
 42
0.625
 43
3.75
 44
1.25
 73
     0
 74
     0
 77
     1
 78
     8
140
2.5
141
2.5
143
0.03937007874016
147
0.625
171
     3
172
     1
178
     0
271
     2
272
     2
274
     3
278
    44
283
     0
284
     8
340
11
  0
DIMSTYLE
105
F2
102
{ACAD_REACTORS
330
F1
102
}
330
A
100
AcDbSymbolTableRecord
100
AcDbDimStyleTableRecord
  2
SLDDIMSTYLE0
 70
     0
 41
3.302
 44
0.0
 45
0.000000001
 73
     0
 74
     0
 77
     1
 78
    12
 79
     3
140
3.5
147
0.875
172
     1
173
     1
178
     0
271
     1
272
     1
276
     2
284
    12
289
     0
340
97
  0
DIMSTYLE
105
100
102
{ACAD_REACTORS
330
FF
102
}
330
A
100
AcDbSymbolTableRecord
100
AcDbDimStyleTableRecord
  2
SLDDIMSTYLE1
 70
     0
 41
3.302
 44
0.0
 45
0.000000001
 73
     0
 74
     0
 77
     1
 78
    12
 79
     3
140
3.5
147
0.875
173
     1
178
     0
271
     2
272
     2
276
     2
284
    12
340
97
  0
DIMSTYLE
105
10B
102
{ACAD_REACTORS
330
10A
330
118
102
}
330
A
100
AcDbSymbolTableRecord
100
AcDbDimStyleTableRecord
  2
SLDDIMSTYLE2
 70
     0
 41
3.302
 44
0.0
 45
0.000000001
 73
     0
 74
     0
 77
     1
 78
    12
 79
     3
140
3.5
147
0.875
172
     1
173
     1
178
     0
271
     2
272
     2
276
     2
284
    12
289
     0
340
97
  0
ENDTAB
  0
TABLE
  2
BLOCK_RECORD
  5
1
330
0
100
AcDbSymbolTable
 70
     7
  0
BLOCK_RECORD
  5
1F
330
1
100
AcDbSymbolTableRecord
100
AcDbBlockTableRecord
  2
*Model_Space
340
22
  0
BLOCK_RECORD
  5
1B
330
1
100
AcDbSymbolTableRecord
100
AcDbBlockTableRecord
  2
*Paper_Space
340
1E
  0
BLOCK_RECORD
  5
23
330
1
100
AcDbSymbolTableRecord
100
AcDbBlockTableRecord
  2
*Paper_Space0
340
26
  0
BLOCK_RECORD
  5
82
330
1
100
AcDbSymbolTableRecord
100
AcDbBlockTableRecord
  2
블럭10
340
0
102
{BLKREFS
331
EA
102
}
  0
BLOCK_RECORD
  5
F3
330
1
100
AcDbSymbolTableRecord
100
AcDbBlockTableRecord
  2
_D
340
0
  0
BLOCK_RECORD
  5
101
330
1
100
AcDbSymbolTableRecord
100
AcDbBlockTableRecord
  2
_D_1
340
0
  0
BLOCK_RECORD
  5
10C
330
1
100
AcDbSymbolTableRecord
100
AcDbBlockTableRecord
  2
_D_2
340
0
  0
BLOCK_RECORD
  5
119
330
1
100
AcDbSymbolTableRecord
100
AcDbBlockTableRecord
  2
_D_3
340
0
  0
BLOCK_RECORD
  5
124
330
1
100
AcDbSymbolTableRecord
100
AcDbBlockTableRecord
  2
SW_DOWELSYMBOL_0
340
0
102
{BLKREFS
331
12A
102
}
  0
ENDTAB
  0
ENDSEC
  0
SECTION
  2
BLOCKS
  0
BLOCK
  5
20
330
1F
100
AcDbEntity
  8
0
100
AcDbBlockBegin
  2
*Model_Space
 70
     0
 10
0.0
 20
0.0
 30
0.0
  3
*Model_Space
  1

  0
ENDBLK
  5
21
330
1F
100
AcDbEntity
  8
0
100
AcDbBlockEnd
  0
BLOCK
  5
1C
330
1B
100
AcDbEntity
 67
     1
  8
0
100
AcDbBlockBegin
  2
*Paper_Space
 70
     0
 10
0.0
 20
0.0
 30
0.0
  3
*Paper_Space
  1

  0
ENDBLK
  5
1D
330
1B
100
AcDbEntity
 67
     1
  8
0
100
AcDbBlockEnd
  0
BLOCK
  5
24
330
23
100
AcDbEntity
  8
0
100
AcDbBlockBegin
  2
*Paper_Space0
 70
     0
 10
0.0
 20
0.0
 30
0.0
  3
*Paper_Space0
  1

  0
ENDBLK
  5
25
330
23
100
AcDbEntity
  8
0
100
AcDbBlockEnd
  0
BLOCK
  5
83
330
82
100
AcDbEntity
  8
0
100
AcDbBlockBegin
  2
블럭10
 70
     2
 10
0.0
 20
0.0
 30
0.0
  3
블럭10
  1

  0
ELLIPSE
  5
85
330
82
100
AcDbEntity
  8
중심선
100
AcDbEllipse
 10
20.54032771741204
 20
12.0471743016438
 30
0.0
 11
6.600054785286829
 21
-1.261213355974178E-13
 31
0.0
210
0.0
220
0.0
230
1.0
 40
0.636358354079598
 41
0.9219305317359503
 42
6.513795318482858
  0
ELLIPSE
  5
86
330
82
100
AcDbEntity
  8
중심선
100
AcDbEllipse
 10
20.54032771746488
 20
12.04717430159265
 30
0.0
 11
3.960054785062283
 21
1.540847449632565E-10
 31
0.0
210
0.0
220
0.0
230
1.0
 40
0.3939339440162632
 41
1.131841032648279
 42
5.62031148352944
  0
LINE
  5
87
330
82
100
AcDbEntity
  8
중심선
100
AcDbLine
 10
2.268634060543552
 20
16.24717430164393
 30
0.0
 11
5.714909304380834
 21
16.24717430164393
 31
0.0
  0
LINE
  5
88
330
82
100
AcDbEntity
  8
중심선
100
AcDbLine
 10
5.245725140726316
 20
7.84717430164391
 30
0.0
 11
8.692000384563599
 21
7.84717430164391
 31
0.0
  0
LINE
  5
89
330
82
100
AcDbEntity
  8
중심선
100
AcDbLine
 10
15.74043728645272
 20
16.24717430164393
 30
0.0
 11
8.692000384563599
 21
7.84717430164391
 31
0.0
  0
LINE
  5
8A
330
82
100
AcDbEntity
  8
중심선
100
AcDbLine
 10
0.1404042013395286
 20
13.71084872107135
 30
0.0
 11
3.58671253028996
 21
13.71088815037384
 31
0.0
  0
LINE
  5
8B
330
82
100
AcDbEntity
  8
중심선
100
AcDbLine
 10
2.750260043222114
 20
10.84717430164391
 30
0.0
 11
6.196535287059397
 21
10.84717430164391
 31
0.0
  0
LINE
  5
8C
330
82
100
AcDbEntity
  8
중심선
100
AcDbLine
 10
12.29416204261559
 20
16.24717430164393
 30
0.0
 11
5.245725140726316
 21
7.84717430164391
 31
0.0
  0
LINE
  5
8D
330
82
100
AcDbEntity
  8
중심선
100
AcDbLine
 10
10.72767329541681
 20
16.24717430164393
 30
0.0
 11
6.196535287059397
 21
10.84717430164391
 31
0.0
  0
LINE
  5
8E
330
82
100
AcDbEntity
  8
중심선
100
AcDbLine
 10
7.28139805157953
 20
16.24717430164393
 30
0.0
 11
2.750260043222114
 21
10.84717430164391
 31
0.0
  0
LINE
  5
8F
330
82
100
AcDbEntity
  8
중심선
100
AcDbLine
 10
5.714909304380834
 20
16.24717430164393
 30
0.0
 11
3.58671253028996
 21
13.71088815037384
 31
0.0
  0
LINE
  5
90
330
82
100
AcDbEntity
  8
중심선
100
AcDbLine
 10
2.268634060543552
 20
16.24717430164393
 30
0.0
 11
0.1404042013395286
 21
13.71084872107135
 31
0.0
  0
LINE
  5
91
330
82
100
AcDbEntity
  8
중심선
100
AcDbLine
 10
7.28139805157953
 20
16.24717430164393
 30
0.0
 11
10.72767329541681
 21
16.24717430164393
 31
0.0
  0
LINE
  5
92
330
82
100
AcDbEntity
  8
중심선
100
AcDbLine
 10
12.29416204261559
 20
16.24717430164393
 30
0.0
 11
15.74043728645272
 21
16.24717430164393
 31
0.0
  0
LINE
  5
93
330
82
100
AcDbEntity
  8
중심선
100
AcDbLine
 10
19.22036997980202
 20
11.08717430171403
 30
0.0
 11
23.66174974927406
 21
11.08717430171406
 31
0.0
  0
LINE
  5
94
330
82
100
AcDbEntity
  8
중심선
100
AcDbLine
 10
19.22039502424796
 20
13.00717430171391
 30
0.0
 11
19.22036997980202
 21
11.08717430171403
 31
0.0
  0
LINE
  5
95
330
82
100
AcDbEntity
  8
중심선
100
AcDbLine
 10
19.22039502424796
 20
13.00717430171391
 30
0.0
 11
26.96566020931264
 21
13.00717430171391
 31
0.0
  0
LINE
  5
96
330
82
100
AcDbEntity
  8
중심선
100
AcDbLine
 10
22.22332737316547
 20
13.45928029700563
 30
0.0
 11
24.52862924686651
 21
15.39360700705356
 31
0.0
  0
ATTDEF
  5
98
330
82
100
AcDbEntity
  8
FORMAT
 62
     2
100
AcDbText
 10
-16.11926103943555
 20
2.075366912832191
 30
0.0
 40
4.233333333333333
  1
SEME7201208E [ 4 FLUTE ]
 41
0.75
  7
SLDTEXTSTYLE0
 11
-16.11926103943555
 21
-0.0412997538344756
 31
0.0
100
AcDbAttributeDefinition
  3

  2
AUTOATTR0
 70
     0
 74
     1
  0
ENDBLK
  5
84
330
82
100
AcDbEntity
  8
0
100
AcDbBlockEnd
  0
BLOCK
  5
F4
330
F3
100
AcDbEntity
  8
0
100
AcDbBlockBegin
  2
_D
 70
     0
 10
0.0
 20
0.0
 30
0.0
  3
_D
  1

  0
LINE
  5
F6
330
F3
100
AcDbEntity
  8
치수문자_일반주서
 62
     0
370
    -2
100
AcDbLine
 10
20.0194219381653
 20
-0.600000000000004
 30
0.0
 11
30.68458678611205
 21
-0.5999999999999641
 31
0.0
  0
LINE
  5
F7
330
F3
100
AcDbEntity
  8
치수문자_일반주서
 62
     0
370
    -2
100
AcDbLine
 10
20.0194219381653
 20
0.6000000000000035
 30
0.0
 11
30.68458678611205
 21
0.600000000000044
 31
0.0
  0
LINE
  5
F8
330
F3
100
AcDbEntity
  8
치수문자_일반주서
 62
     0
370
    -2
100
AcDbLine
 10
30.68458678611205
 20
-0.5999999999999641
 30
0.0
 11
30.684586786112
 21
15.95400000000004
 31
0.0
  0
LINE
  5
F9
330
F3
100
AcDbEntity
  8
치수문자_일반주서
 62
     0
370
    -2
100
AcDbLine
 10
30.68458678611205
 20
-0.5999999999999641
 30
0.0
 11
30.68458678611205
 21
0.600000000000044
 31
0.0
  0
LINE
  5
FA
330
F3
100
AcDbEntity
  8
치수문자_일반주서
 62
     0
370
    -2
100
AcDbLine
 10
30.68458678611206
 20
-3.901999999999964
 30
0.0
 11
30.68458678611207
 21
-7.203999999999963
 31
0.0
  0
LINE
  5
FB
330
F3
100
AcDbEntity
  8
치수문자_일반주서
 62
     0
370
    -2
100
AcDbLine
 10
30.68458678611204
 20
3.902000000000044
 30
0.0
 11
30.68458678611202
 21
7.204000000000043
 31
0.0
  0
SOLID
  5
FC
330
F3
100
AcDbEntity
  8
치수문자_일반주서
 62
     0
100
AcDbTrace
 10
31.23492011944539
 20
-3.901999999999962
 30
0.0
 11
30.13425345277873
 21
-3.901999999999965
 31
0.0
 12
30.68458678611205
 22
-0.5999999999999641
 32
0.0
 13
30.68458678611205
 23
-0.5999999999999641
 33
0.0
  0
SOLID
  5
FD
330
F3
100
AcDbEntity
  8
치수문자_일반주서
 62
     0
100
AcDbTrace
 10
30.1342534527787
 20
3.902000000000042
 30
0.0
 11
31.23492011944537
 21
3.902000000000045
 31
0.0
 12
30.68458678611205
 22
0.600000000000044
 32
0.0
 13
30.68458678611205
 23
0.600000000000044
 33
0.0
  0
MTEXT
  5
FE
330
F3
100
AcDbEntity
  8
치수문자_일반주서
 62
     0
100
AcDbMText
 10
26.30958678611201
 20
11.57900000000003
 30
0.0
 40
3.5
 41
0.0
 71
     2
 72
     1
  1
\A1;%%c1.2
  7
SLDTEXTSTYLE0
 11
-2.960594732333732E-15
 21
1.0
 31
0.0
 73
     1
 44
1.0
  0
POINT
  5
157
330
F3
100
AcDbEntity
  8
Defpoints
 62
     0
100
AcDbPoint
 10
19.9569219381653
 20
-0.6000000000000042
 30
0.0
  0
POINT
  5
158
330
F3
100
AcDbEntity
  8
Defpoints
 62
     0
100
AcDbPoint
 10
19.9569219381653
 20
0.6000000000000033
 30
0.0
  0
POINT
  5
159
330
F3
100
AcDbEntity
  8
Defpoints
 62
     0
100
AcDbPoint
 10
30.68458678611207
 20
0.6000000000000434
 30
0.0
  0
ENDBLK
  5
F5
330
F3
100
AcDbEntity
  8
0
100
AcDbBlockEnd
  0
BLOCK
  5
102
330
101
100
AcDbEntity
  8
0
100
AcDbBlockBegin
  2
_D_1
 70
     0
 10
0.0
 20
0.0
 30
0.0
  3
_D_1
  1

  0
LINE
  5
104
330
101
100
AcDbEntity
  8
치수문자_일반주서
 62
     0
370
    -2
100
AcDbLine
 10
-40.04307806183471
 20
2.562499999999994
 30
0.0
 11
-40.04307806183471
 21
20.38913260158164
 31
0.0
  0
LINE
  5
105
330
101
100
AcDbEntity
  8
치수문자_일반주서
 62
     0
370
    -2
100
AcDbLine
 10
19.95692193816529
 20
0.6625000000000019
 30
0.0
 11
19.95692193816529
 21
20.38913260158164
 31
0.0
  0
LINE
  5
106
330
101
100
AcDbEntity
  8
치수문자_일반주서
 62
     0
370
    -2
100
AcDbLine
 10
-36.74107806183471
 20
20.38913260158164
 30
0.0
 11
16.65492193816529
 21
20.38913260158164
 31
0.0
  0
SOLID
  5
107
330
101
100
AcDbEntity
  8
치수문자_일반주서
 62
     0
100
AcDbTrace
 10
-36.74107806183471
 20
20.93946593491498
 30
0.0
 11
-36.74107806183471
 21
19.83879926824831
 31
0.0
 12
-40.04307806183471
 22
20.38913260158164
 32
0.0
 13
-40.04307806183471
 23
20.38913260158164
 33
0.0
  0
SOLID
  5
108
330
101
100
AcDbEntity
  8
치수문자_일반주서
 62
     0
100
AcDbTrace
 10
16.65492193816529
 20
19.83879926824831
 30
0.0
 11
16.65492193816529
 21
20.93946593491498
 31
0.0
 12
19.95692193816529
 22
20.38913260158164
 32
0.0
 13
19.95692193816529
 23
20.38913260158164
 33
0.0
  0
MTEXT
  5
109
330
101
100
AcDbEntity
  8
치수문자_일반주서
 62
     0
100
AcDbMText
 10
-10.04307806183471
 20
24.76413260158164
 30
0.0
 40
3.5
 41
0.0
 71
     2
 72
     1
  1
\A1;60
  7
SLDTEXTSTYLE0
 73
     1
 44
1.0
  0
POINT
  5
150
330
101
100
AcDbEntity
  8
Defpoints
 62
     0
100
AcDbPoint
 10
-40.04307806183471
 20
2.499999999999994
 30
0.0
  0
POINT
  5
151
330
101
100
AcDbEntity
  8
Defpoints
 62
     0
100
AcDbPoint
 10
19.95692193816529
 20
0.6000000000000019
 30
0.0
  0
POINT
  5
152
330
101
100
AcDbEntity
  8
Defpoints
 62
     0
100
AcDbPoint
 10
19.95692193816529
 20
20.38913260158164
 30
0.0
  0
ENDBLK
  5
103
330
101
100
AcDbEntity
  8
0
100
AcDbBlockEnd
  0
BLOCK
  5
10D
330
10C
100
AcDbEntity
  8
0
100
AcDbBlockBegin
  2
_D_2
 70
     0
 10
0.0
 20
0.0
 30
0.0
  3
_D_2
  1

  0
LINE
  5
10F
330
10C
100
AcDbEntity
  8
치수문자_일반주서
 62
     0
370
    -2
100
AcDbLine
 10
-39.60557806183471
 20
3.000000000000003
 30
0.0
 11
-46.01737797958095
 21
2.999999999999979
 31
0.0
  0
LINE
  5
110
330
10C
100
AcDbEntity
  8
치수문자_일반주서
 62
     0
370
    -2
100
AcDbLine
 10
-39.60557806183471
 20
-3.000000000000003
 30
0.0
 11
-46.01737797958093
 21
-3.000000000000027
 31
0.0
  0
LINE
  5
111
330
10C
100
AcDbEntity
  8
치수문자_일반주서
 62
     0
370
    -2
100
AcDbLine
 10
-46.01737797958095
 20
2.999999999999979
 30
0.0
 11
-46.017377979581
 21
15.72899999999998
 31
0.0
  0
LINE
  5
112
330
10C
100
AcDbEntity
  8
치수문자_일반주서
 62
     0
370
    -2
100
AcDbLine
 10
-46.01737797958095
 20
2.999999999999979
 30
0.0
 11
-46.01737797958093
 21
-3.000000000000027
 31
0.0
  0
LINE
  5
113
330
10C
100
AcDbEntity
  8
치수문자_일반주서
 62
     0
370
    -2
100
AcDbLine
 10
-46.01737797958096
 20
6.301999999999978
 30
0.0
 11
-46.01737797958098
 21
9.603999999999978
 31
0.0
  0
LINE
  5
114
330
10C
100
AcDbEntity
  8
치수문자_일반주서
 62
     0
370
    -2
100
AcDbLine
 10
-46.01737797958091
 20
-6.302000000000026
 30
0.0
 11
-46.0173779795809
 21
-9.604000000000026
 31
0.0
  0
SOLID
  5
115
330
10C
100
AcDbEntity
  8
치수문자_일반주서
 62
     0
100
AcDbTrace
 10
-46.5677113129143
 20
6.301999999999977
 30
0.0
 11
-45.46704464624763
 21
6.30199999999998
 31
0.0
 12
-46.01737797958095
 22
2.999999999999979
 32
0.0
 13
-46.01737797958095
 23
2.999999999999979
 33
0.0
  0
SOLID
  5
116
330
10C
100
AcDbEntity
  8
치수문자_일반주서
 62
     0
100
AcDbTrace
 10
-45.46704464624758
 20
-6.302000000000024
 30
0.0
 11
-46.56771131291425
 21
-6.302000000000028
 31
0.0
 12
-46.01737797958093
 22
-3.000000000000027
 32
0.0
 13
-46.01737797958093
 23
-3.000000000000027
 33
0.0
  0
MTEXT
  5
117
330
10C
100
AcDbEntity
  8
치수문자_일반주서
 62
     0
100
AcDbMText
 10
-50.39237797958098
 20
12.66649999999996
 30
0.0
 40
3.5
 41
0.0
 71
     2
 72
     1
  1
\A1;%%c6
  7
SLDTEXTSTYLE0
 11
-3.552713678800498E-15
 21
1.0
 31
0.0
 73
     1
 44
1.0
  0
POINT
  5
154
330
10C
100
AcDbEntity
  8
Defpoints
 62
     0
100
AcDbPoint
 10
-39.54307806183471
 20
3.000000000000003
 30
0.0
  0
POINT
  5
155
330
10C
100
AcDbEntity
  8
Defpoints
 62
     0
100
AcDbPoint
 10
-39.54307806183471
 20
-3.000000000000002
 30
0.0
  0
POINT
  5
156
330
10C
100
AcDbEntity
  8
Defpoints
 62
     0
100
AcDbPoint
 10
-46.01737797958096
 20
-3.000000000000026
 30
0.0
  0
ENDBLK
  5
10E
330
10C
100
AcDbEntity
  8
0
100
AcDbBlockEnd
  0
BLOCK
  5
11A
330
119
100
AcDbEntity
  8
0
100
AcDbBlockBegin
  2
_D_3
 70
     0
 10
0.0
 20
0.0
 30
0.0
  3
_D_3
  1

  0
LINE
  5
11C
330
119
100
AcDbEntity
  8
치수문자_일반주서
 62
     0
370
    -2
100
AcDbLine
 10
11.95692193816529
 20
0.6625000000000004
 30
0.0
 11
11.95692193816529
 21
11.40342276587093
 31
0.0
  0
LINE
  5
11D
330
119
100
AcDbEntity
  8
치수문자_일반주서
 62
     0
370
    -2
100
AcDbLine
 10
19.95692193816529
 20
0.6625000000000019
 30
0.0
 11
19.95692193816529
 21
11.40342276587093
 31
0.0
  0
LINE
  5
11E
330
119
100
AcDbEntity
  8
치수문자_일반주서
 62
     0
370
    -2
100
AcDbLine
 10
15.25892193816528
 20
11.40342276587093
 30
0.0
 11
16.65492193816529
 21
11.40342276587093
 31
0.0
  0
SOLID
  5
11F
330
119
100
AcDbEntity
  8
치수문자_일반주서
 62
     0
100
AcDbTrace
 10
15.25892193816528
 20
11.95375609920426
 30
0.0
 11
15.25892193816528
 21
10.8530894325376
 31
0.0
 12
11.95692193816529
 22
11.40342276587093
 32
0.0
 13
11.95692193816529
 23
11.40342276587093
 33
0.0
  0
SOLID
  5
120
330
119
100
AcDbEntity
  8
치수문자_일반주서
 62
     0
100
AcDbTrace
 10
16.65492193816529
 20
10.8530894325376
 30
0.0
 11
16.65492193816529
 21
11.95375609920426
 31
0.0
 12
19.95692193816529
 22
11.40342276587093
 32
0.0
 13
19.95692193816529
 23
11.40342276587093
 33
0.0
  0
MTEXT
  5
121
330
119
100
AcDbEntity
  8
치수문자_일반주서
 62
     0
100
AcDbMText
 10
15.95692193816529
 20
15.77842276587093
 30
0.0
 40
3.5
 41
0.0
 71
     2
 72
     1
  1
\A1;8
  7
SLDTEXTSTYLE0
 73
     1
 44
1.0
  0
POINT
  5
122
330
119
100
AcDbEntity
  8
Defpoints
 62
     0
100
AcDbPoint
 10
11.95692193816529
 20
0.6000000000000004
 30
0.0
  0
POINT
  5
123
330
119
100
AcDbEntity
  8
Defpoints
 62
     0
100
AcDbPoint
 10
19.95692193816529
 20
0.6000000000000019
 30
0.0
  0
POINT
  5
153
330
119
100
AcDbEntity
  8
Defpoints
 62
     0
100
AcDbPoint
 10
19.95692193816529
 20
11.40342276587093
 30
0.0
  0
ENDBLK
  5
11B
330
119
100
AcDbEntity
  8
0
100
AcDbBlockEnd
  0
BLOCK
  5
125
330
124
100
AcDbEntity
  8
0
100
AcDbBlockBegin
  2
SW_DOWELSYMBOL_0
 70
     0
 10
0.0
 20
0.0
 30
0.0
  3
SW_DOWELSYMBOL_0
  1

  0
CIRCLE
  5
127
330
124
100
AcDbEntity
  8
해칭선
 62
     0
100
AcDbCircle
 10
0.0
 20
0.0
 30
0.0
 40
3.0
  0
HATCH
  5
128
330
124
100
AcDbEntity
  8
0
  6
Continuous
 62
     0
370
    18
100
AcDbHatch
 10
0.0
 20
0.0
 30
0.0
210
0.0
220
0.0
230
1.0
  2
SOLID
 70
     1
 71
     0
 91
        1
 92
        0
 93
        3
 72
     2
 10
0.0
 20
0.0
 40
3.0
 50
0.0
 51
90.0
 73
     1
 72
     1
 10
0.0
 20
3.0
 11
0.0
 21
0.0
 72
     1
 10
0.0
 20
0.0
 11
3.0
 21
0.0
 97
        0
 75
     0
 76
     1
 98
        1
 10
0.0
 20
0.0
  0
HATCH
  5
129
330
124
100
AcDbEntity
  8
0
  6
Continuous
 62
     0
370
    18
100
AcDbHatch
 10
0.0
 20
0.0
 30
0.0
210
0.0
220
0.0
230
1.0
  2
SOLID
 70
     1
 71
     0
 91
        1
 92
        0
 93
        3
 72
     2
 10
0.0
 20
0.0
 40
3.0
 50
180.0
 51
270.0000000000008
 73
     1
 72
     1
 10
0.0
 20
-3.0
 11
0.0
 21
0.0
 72
     1
 10
0.0
 20
0.0
 11
-3.0
 21
0.0
 97
        0
 75
     0
 76
     1
 98
        1
 10
0.0
 20
0.0
  0
ENDBLK
  5
126
330
124
100
AcDbEntity
  8
0
100
AcDbBlockEnd
  0
ENDSEC
  0
SECTION
  2
ENTITIES
  0
LINE
  5
99
330
1F
100
AcDbEntity
  8
0
  6
Continuous
 62
     4
370
    25
100
AcDbLine
 10
2.0
 20
2.999999999999998
 30
0.0
 11
-39.54307806183472
 21
2.999999999999996
 31
0.0
  0
LINE
  5
9A
330
1F
100
AcDbEntity
  8
0
  6
Continuous
 62
     4
370
    25
100
AcDbLine
 10
-39.54307806183471
 20
-3.000000000000001
 30
0.0
 11
2.000000000000004
 21
-2.999999999999998
 31
0.0
  0
LINE
  5
9B
330
1F
100
AcDbEntity
  8
0
  6
Continuous
 62
     4
370
    25
100
AcDbLine
 10
2.0
 20
-3.0
 30
0.0
 11
10.45918423787387
 21
-0.7333684148356099
 31
0.0
  0
LINE
  5
9C
330
1F
100
AcDbEntity
  8
0
  6
Continuous
 62
     4
370
    25
100
AcDbLine
 10
10.46023728684173
 20
0.73308625121508
 30
0.0
 11
2.0
 21
3.0
 31
0.0
  0
LINE
  5
9D
330
1F
100
AcDbEntity
  8
0
  6
Continuous
 62
     4
370
    25
100
AcDbLine
 10
-39.54307806183471
 20
2.999999999999994
 30
0.0
 11
-40.04307806183471
 21
2.499999999999993
 31
0.0
  0
LINE
  5
9E
330
1F
100
AcDbEntity
  8
0
  6
Continuous
 62
     4
370
    25
100
AcDbLine
 10
-40.04307806183471
 20
-2.5
 30
0.0
 11
-39.54307806183471
 21
-2.999999999999999
 31
0.0
  0
LINE
  5
9F
330
1F
100
AcDbEntity
  8
0
  6
Continuous
 62
     4
370
    25
100
AcDbLine
 10
11.56241299107721
 20
-0.5999999999999994
 30
0.0
 11
11.95692193816529
 21
-0.5999999999999993
 31
0.0
  0
LINE
  5
A0
330
1F
100
AcDbEntity
  8
0
  6
Continuous
 62
     4
370
    25
100
AcDbLine
 10
11.95692193816529
 20
0.6000000000000004
 30
0.0
 11
11.56241299107722
 21
0.6000000000000003
 31
0.0
  0
LINE
  5
A1
330
1F
100
AcDbEntity
  8
0
  6
Continuous
 62
     1
370
    25
100
AcDbLine
 10
18.0924649241874
 20
-0.6000000000000003
 30
0.0
 11
18.55663206867158
 21
-0.6000000000000003
 31
0.0
  0
LINE
  5
A2
330
1F
100
AcDbEntity
  8
0
  6
Continuous
 62
     1
370
    25
100
AcDbLine
 10
11.95692193816529
 20
-0.6000000000000003
 30
0.0
 11
12.02723687963629
 21
-0.6000000000000003
 31
0.0
  0
LINE
  5
A3
330
1F
100
AcDbEntity
  8
0
  6
Continuous
 62
     1
370
    25
100
AcDbLine
 10
15.29200193291289
 20
0.6000000000000011
 30
0.0
 11
14.82765429726722
 21
0.6000000000000011
 31
0.0
  0
LINE
  5
A4
330
1F
100
AcDbEntity
  8
0
  6
Continuous
 62
     1
370
    25
100
AcDbLine
 10
16.4590016654583
 20
-0.6000000000000003
 30
0.0
 11
16.92319657960913
 21
-0.6000000000000003
 31
0.0
  0
LINE
  5
A5
330
1F
100
AcDbEntity
  8
0
  6
Continuous
 62
     1
370
    25
100
AcDbLine
 10
13.65957127610986
 20
0.6000000000000011
 30
0.0
 11
13.19576620173147
 21
0.6000000000000011
 31
0.0
  0
LINE
  5
A6
330
1F
100
AcDbEntity
  8
0
  6
Continuous
 62
     1
370
    25
100
AcDbLine
 10
19.95692193816529
 20
0.6000000000000011
 30
0.0
 11
19.72544391297465
 21
0.6000000000000011
 31
0.0
  0
LINE
  5
A7
330
1F
100
AcDbEntity
  8
0
  6
Continuous
 62
     1
370
    25
100
AcDbLine
 10
19.72544391297465
 20
-0.6000000000000003
 30
0.0
 11
19.95692193816529
 21
-0.6000000000000003
 31
0.0
  0
LINE
  5
A8
330
1F
100
AcDbEntity
  8
0
  6
Continuous
 62
     1
370
    25
100
AcDbLine
 10
13.19576620173147
 20
-0.6000000000000003
 30
0.0
 11
13.65957127610987
 21
-0.6000000000000003
 31
0.0
  0
LINE
  5
A9
330
1F
100
AcDbEntity
  8
0
  6
Continuous
 62
     1
370
    25
100
AcDbLine
 10
16.92319657960914
 20
0.6000000000000011
 30
0.0
 11
16.45900166545831
 21
0.6000000000000011
 31
0.0
  0
LINE
  5
AA
330
1F
100
AcDbEntity
  8
0
  6
Continuous
 62
     1
370
    25
100
AcDbLine
 10
14.82765429726722
 20
-0.6000000000000003
 30
0.0
 11
15.29200193291289
 21
-0.6000000000000003
 31
0.0
  0
LINE
  5
AB
330
1F
100
AcDbEntity
  8
0
  6
Continuous
 62
     1
370
    25
100
AcDbLine
 10
12.02723687963631
 20
0.6000000000000011
 30
0.0
 11
11.95692193816529
 21
0.6000000000000011
 31
0.0
  0
LINE
  5
AC
330
1F
100
AcDbEntity
  8
0
  6
Continuous
 62
     1
370
    25
100
AcDbLine
 10
18.55663206867158
 20
0.6000000000000011
 30
0.0
 11
18.0924649241874
 21
0.6000000000000011
 31
0.0
  0
LINE
  5
AD
330
1F
100
AcDbEntity
  8
0
  6
Continuous
 62
     4
370
    25
100
AcDbLine
 10
2.0
 20
3.0
 30
0.0
 11
2.0
 21
-3.0
 31
0.0
  0
LINE
  5
AE
330
1F
100
AcDbEntity
  8
0
  6
Continuous
 62
     4
370
    25
100
AcDbLine
 10
-39.54307806183471
 20
2.999999999999994
 30
0.0
 11
-39.54307806183471
 21
-2.999999999999999
 31
0.0
  0
SPLINE
  5
AF
330
1F
100
AcDbEntity
  8
0
  6
Continuous
 62
     4
370
    25
100
AcDbSpline
210
0.0
220
0.0
230
1.0
 70
     8
 71
     3
 72
    10
 73
     6
 74
     0
 42
0.000000001
 43
0.00000001
 40
0.0
 40
0.0
 40
0.0
 40
0.0
 40
0.4302206838488108
 40
0.8610683843614841
 40
1.0
 40
1.0
 40
1.0
 40
1.0
 10
10.50928556969575
 20
0.7156109565968696
 30
0.0
 10
10.49910476864076
 20
0.7192225743558723
 30
0.0
 10
10.47872832872276
 20
0.7264510735550617
 30
0.0
 10
10.46280726793725
 20
0.7324479593778093
 30
0.0
 10
10.46070163601511
 20
0.7328138755593749
 30
0.0
 10
10.46018821119151
 20
0.7329030983950452
 30
0.0
  0
SPLINE
  5
B0
330
1F
100
AcDbEntity
  8
0
  6
Continuous
 62
     4
370
    25
100
AcDbSpline
210
0.0
220
0.0
230
1.0
 70
     8
 71
     3
 72
     8
 73
     4
 74
     0
 42
0.000000001
 43
0.00000001
 40
0.0
 40
0.0
 40
0.0
 40
0.0
 40
1.0
 40
1.0
 40
1.0
 40
1.0
 10
10.95692193816529
 20
0.5144538345787906
 30
0.0
 10
10.79986925320639
 20
0.5938727061490688
 30
0.0
 10
10.65382991711281
 20
0.6655594446163335
 30
0.0
 10
10.50928556969575
 20
0.7156109565968696
 30
0.0
  0
LINE
  5
B1
330
1F
100
AcDbEntity
  8
0
  6
Continuous
 62
     4
370
    25
100
AcDbLine
 10
10.95692193816529
 20
0.5144538345785671
 30
0.0
 11
10.95692193816529
 21
0.3306111368957633
 31
0.0
  0
SPLINE
  5
B2
330
1F
100
AcDbEntity
  8
0
  6
Continuous
 62
     4
370
    25
100
AcDbSpline
210
0.0
220
0.0
230
1.0
 70
     8
 71
     3
 72
     8
 73
     4
 74
     0
 42
0.000000001
 43
0.00000001
 40
0.0
 40
0.0
 40
0.0
 40
0.0
 40
1.0
 40
1.0
 40
1.0
 40
1.0
 10
10.64354929510714
 20
0.5313051236739724
 30
0.0
 10
10.74659709710562
 20
0.4676386074690413
 30
0.0
 10
10.85137124465942
 20
0.4002378436601809
 30
0.0
 10
10.95692193816529
 20
0.3306111368957741
 30
0.0
  0
SPLINE
  5
B3
330
1F
100
AcDbEntity
  8
0
  6
Continuous
 62
     4
370
    25
100
AcDbSpline
210
0.0
220
0.0
230
1.0
 70
     8
 71
     3
 72
    26
 73
    22
 74
     0
 42
0.000000001
 43
0.00000001
 40
0.0
 40
0.0
 40
0.0
 40
0.0
 40
0.0000386397923749
 40
0.0000386397923749
 40
0.0000386397923749
 40
0.0000771702803679
 40
0.0000771702803679
 40
0.0000771702803679
 40
0.0001173005601494
 40
0.0001173005601494
 40
0.0001173005601494
 40
0.000159551165261
 40
0.000159551165261
 40
0.000159551165261
 40
0.0002025851301594
 40
0.0002025851301594
 40
0.0002025851301594
 40
0.0002450066057417
 40
0.0002450066057417
 40
0.0002450066057417
 40
0.0002655803521486
 40
0.0002655803521486
 40
0.0002655803521486
 40
0.0002655803521486
 10
10.45703131762066
 20
0.4970031366964462
 30
0.0
 10
10.45703131762066
 20
0.5064805743235056
 30
0.0
 10
10.4591568273952
 20
0.5154588135289206
 30
0.0
 10
10.46314491012586
 20
0.5232310621870975
 30
0.0
 10
10.46712637345408
 20
0.5309904105005938
 30
0.0
 10
10.4730571799239
 20
0.5377673763580211
 30
0.0
 10
10.48042558215358
 20
0.5431817136935078
 30
0.0
 10
10.48809856070834
 20
0.5488198551750043
 30
0.0
 10
10.49752661895769
 20
0.5531354534825245
 30
0.0
 10
10.50800425228446
 20
0.5559598174633893
 30
0.0
 10
10.51902380901127
 20
0.558930262995663
 30
0.0
 10
10.53150511631553
 20
0.5603341033658474
 30
0.0
 10
10.5444924139003
 20
0.5601669029386054
 30
0.0
 10
10.55770981101662
 20
0.5599967401753011
 30
0.0
 10
10.57182668935079
 20
0.5581933539608415
 30
0.0
 10
10.58566021290258
 20
0.5549169773542273
 30
0.0
 10
10.59929645050223
 20
0.5516873265926928
 30
0.0
 10
10.61304378373919
 20
0.5469310822162273
 30
0.0
 10
10.62568045731832
 20
0.5409706758984602
 30
0.0
 10
10.63187953525757
 20
0.5380467241890119
 30
0.0
 10
10.63788113748883
 20
0.534807108596117
 30
0.0
 10
10.64354929510714
 20
0.5313051236739728
 30
0.0
  0
LINE
  5
B4
330
1F
100
AcDbEntity
  8
0
  6
Continuous
 62
     4
370
    25
100
AcDbLine
 10
10.45703131762066
 20
0.4970031366964461
 30
0.0
 11
10.45703131762066
 21
0.0215634439300413
 31
0.0
  0
SPLINE
  5
B5
330
1F
100
AcDbEntity
  8
0
  6
Continuous
 62
     4
370
    25
100
AcDbSpline
210
0.0
220
0.0
230
1.0
 70
     8
 71
     3
 72
    14
 73
    10
 74
     0
 42
0.000000001
 43
0.00000001
 40
0.0
 40
0.0
 40
0.0
 40
0.0
 40
0.0000418055596825
 40
0.0000418055596825
 40
0.0000418055596825
 40
0.000083718848517
 40
0.000083718848517
 40
0.000083718848517
 40
0.0001189336819907
 40
0.0001189336819907
 40
0.0001189336819907
 40
0.0001189336819907
 10
10.50928556969575
 20
-0.0788672232415533
 30
0.0
 10
10.49828339741953
 20
-0.0712103593382129
 30
0.0
 10
10.48839116221885
 20
-0.061498727070164
 30
0.0
 10
10.48040756935334
 20
-0.0504546265788221
 30
0.0
 10
10.47241234095763
 20
-0.0393944300806971
 30
0.0
 10
10.46610874859861
 20
-0.0266677675262884
 30
0.0
 10
10.46214264123098
 20
-0.0133515667409299
 30
0.0
 10
10.45879795776992
 20
-0.0021217959852368
 30
0.0
 10
10.45703131762065
 20
0.009799625442371
 30
0.0
 10
10.45703131762065
 20
0.0215634439300365
 30
0.0
  0
SPLINE
  5
B6
330
1F
100
AcDbEntity
  8
0
  6
Continuous
 62
     4
370
    25
100
AcDbSpline
210
0.0
220
0.0
230
1.0
 70
     8
 71
     3
 72
     8
 73
     4
 74
     0
 42
0.000000001
 43
0.00000001
 40
0.0
 40
0.0
 40
0.0
 40
0.0
 40
1.0
 40
1.0
 40
1.0
 40
1.0
 10
10.95692193816529
 20
-0.3087673105870786
 30
0.0
 10
10.79986925320639
 20
-0.2582177270665694
 30
0.0
 10
10.65382991711281
 20
-0.1794615757367597
 30
0.0
 10
10.50928556969575
 20
-0.0788672232415533
 30
0.0
  0
LINE
  5
B7
330
1F
100
AcDbEntity
  8
0
  6
Continuous
 62
     4
370
    25
100
AcDbLine
 10
10.95692193816529
 20
-0.3087673105868962
 30
0.0
 11
10.95692193816529
 21
-0.5006957920339374
 31
0.0
  0
SPLINE
  5
B8
330
1F
100
AcDbEntity
  8
0
  6
Continuous
 62
     4
370
    25
100
AcDbSpline
210
0.0
220
0.0
230
1.0
 70
     8
 71
     3
 72
     8
 73
     4
 74
     0
 42
0.000000001
 43
0.00000001
 40
0.0
 40
0.0
 40
0.0
 40
0.0
 40
1.0
 40
1.0
 40
1.0
 40
1.0
 10
10.64354929510714
 20
-0.430728473153586
 30
0.0
 10
10.74659709710562
 20
-0.4654160192931016
 30
0.0
 10
10.85137124465942
 20
-0.4886125452268582
 30
0.0
 10
10.9569219381653
 20
-0.5006957920339568
 30
0.0
  0
SPLINE
  5
B9
330
1F
100
AcDbEntity
  8
0
  6
Continuous
 62
     4
370
    25
100
AcDbSpline
210
0.0
220
0.0
230
1.0
 70
     8
 71
     3
 72
    26
 73
    22
 74
     0
 42
0.000000001
 43
0.00000001
 40
0.0
 40
0.0
 40
0.0
 40
0.0
 40
0.0000386397923749
 40
0.0000386397923749
 40
0.0000386397923749
 40
0.0000771702803679
 40
0.0000771702803679
 40
0.0000771702803679
 40
0.0001173005601494
 40
0.0001173005601494
 40
0.0001173005601494
 40
0.000159551165261
 40
0.000159551165261
 40
0.000159551165261
 40
0.0002025851301594
 40
0.0002025851301594
 40
0.0002025851301594
 40
0.0002450066057417
 40
0.0002450066057417
 40
0.0002450066057417
 40
0.0002655803521486
 40
0.0002655803521486
 40
0.0002655803521486
 40
0.0002655803521486
 10
10.45703131762066
 20
-0.5400588560583085
 30
0.0
 10
10.45703131762066
 20
-0.5313369988465367
 30
0.0
 10
10.4591568273952
 20
-0.5218151607665559
 30
0.0
 10
10.46314491012586
 20
-0.5123504915105189
 30
0.0
 10
10.46712637345408
 20
-0.5029015316715448
 30
0.0
 10
10.4730571799239
 20
-0.4932587875777926
 30
0.0
 10
10.48042558215358
 20
-0.4842181029620178
 30
0.0
 10
10.48809856070834
 20
-0.4748037174527805
 30
0.0
 10
10.49752661895769
 20
-0.4657988930444997
 30
0.0
 10
10.50800425228446
 20
-0.4579544005971075
 30
0.0
 10
10.51902380901127
 20
-0.4497041758735306
 30
0.0
 10
10.53150511631553
 20
-0.4425212845388197
 30
0.0
 10
10.5444924139003
 20
-0.4370786261289051
 30
0.0
 10
10.55770981101662
 20
-0.4315395386395498
 30
0.0
 10
10.57182668935079
 20
-0.427657549228628
 30
0.0
 10
10.58566021290258
 20
-0.4258384795254497
 30
0.0
 10
10.59929645050223
 20
-0.4240453523738597
 30
0.0
 10
10.61304378373919
 20
-0.4242112766503768
 30
0.0
 10
10.62568045731832
 20
-0.4263043514887348
 30
0.0
 10
10.63187953525757
 20
-0.4273311354738092
 30
0.0
 10
10.63788113748883
 20
-0.4288204802114913
 30
0.0
 10
10.64354929510714
 20
-0.430728473153586
 30
0.0
  0
LINE
  5
BA
330
1F
100
AcDbEntity
  8
0
  6
Continuous
 62
     4
370
    25
100
AcDbLine
 10
10.45703131762066
 20
-0.5400588560583086
 30
0.0
 11
10.45703131762066
 21
-0.7336284507698604
 31
0.0
  0
SPLINE
  5
BB
330
1F
100
AcDbEntity
  8
0
  6
Continuous
 62
     4
370
    25
100
AcDbSpline
210
0.0
220
0.0
230
1.0
 70
     8
 71
     3
 72
    14
 73
    10
 74
     0
 42
0.000000001
 43
0.00000001
 40
0.0
 40
0.0
 40
0.0
 40
0.0
 40
0.0000418055596825
 40
0.0000418055596825
 40
0.0000418055596825
 40
0.000083718848517
 40
0.000083718848517
 40
0.000083718848517
 40
0.0001189336819907
 40
0.0001189336819907
 40
0.0001189336819907
 40
0.0001189336819907
 10
10.50928556969575
 20
-0.715610956596868
 30
0.0
 10
10.49828339741953
 20
-0.7194206895081583
 30
0.0
 10
10.48839116221885
 20
-0.7230184082936546
 30
0.0
 10
10.48040756935334
 20
-0.7259303687639362
 30
0.0
 10
10.47241234095763
 20
-0.7288465732136635
 30
0.0
 10
10.46610874859861
 20
-0.7311484066831894
 30
0.0
 10
10.46214264123098
 20
-0.7324540333763101
 30
0.0
 10
10.45879795776992
 20
-0.7335550898031837
 30
0.0
 10
10.45703131762065
 20
-0.7339742231292864
 30
0.0
 10
10.45703131762065
 20
-0.7336284507698645
 30
0.0
  0
SPLINE
  5
BC
330
1F
100
AcDbEntity
  8
0
  6
Continuous
 62
     4
370
    25
100
AcDbSpline
210
0.0
220
0.0
230
1.0
 70
     8
 71
     3
 72
     8
 73
     4
 74
     0
 42
0.000000001
 43
0.00000001
 40
0.0
 40
0.0
 40
0.0
 40
0.0
 40
1.0
 40
1.0
 40
1.0
 40
1.0
 10
10.95692193816529
 20
-0.5144538345787876
 30
0.0
 10
10.79986925320639
 20
-0.5938727061490662
 30
0.0
 10
10.65382991711281
 20
-0.6655594446163313
 30
0.0
 10
10.50928556969575
 20
-0.7156109565968681
 30
0.0
  0
LINE
  5
BD
330
1F
100
AcDbEntity
  8
0
  6
Continuous
 62
     4
370
    25
100
AcDbLine
 10
-40.04307806183471
 20
2.499999999999994
 30
0.0
 11
-40.04307806183471
 21
-2.500000000000001
 31
0.0
  0
LINE
  5
BE
330
1F
100
AcDbEntity
  8
0
  6
Continuous
 62
     4
370
    25
100
AcDbLine
 10
10.51370542149112
 20
-0.0743342650360055
 30
0.0
 11
10.50928556969575
 21
-0.0788672232415533
 31
0.0
  0
SPLINE
  5
BF
330
1F
100
AcDbEntity
  8
0
  6
Continuous
 62
     4
370
    25
100
AcDbSpline
210
0.0
220
0.0
230
1.0
 70
    24
 71
     3
 72
     9
 73
     5
 74
     0
 42
0.000000001
 43
0.00000001
 40
0.0
 40
0.0
 40
0.0
 40
0.0
 40
0.5314485858996496
 40
1.0
 40
1.0
 40
1.0
 40
1.0
 10
10.45703131762066
 20
0.0215634439300413
 30
0.0
 10
10.45703131762066
 20
0.0208967944636241
 30
0.0
 10
10.45703131762066
 20
0.0196423937857322
 30
0.0
 10
10.45703131762066
 20
0.0211385032358331
 30
0.0
 10
10.45703131762066
 20
0.0218395074343268
 30
0.0
  0
SPLINE
  5
C0
330
1F
100
AcDbEntity
  8
0
  6
Continuous
 62
     4
370
    25
100
AcDbSpline
210
0.0
220
0.0
230
1.0
 70
     8
 71
     3
 72
    14
 73
    10
 74
     0
 42
0.000000001
 43
0.00000001
 40
0.0
 40
0.0
 40
0.0
 40
0.0
 40
0.2499999999999999
 40
0.2499999999999999
 40
0.4999999999999998
 40
0.4999999999999998
 40
0.7499999999999999
 40
0.7499999999999999
 40
1.0
 40
1.0
 40
1.0
 40
1.0
 10
11.95692193816526
 20
0.5575044632832734
 30
0.0
 10
11.8740534217979
 20
0.5752552577192447
 30
0.0
 10
11.78883177779924
 20
0.5877365193169036
 30
0.0
 10
11.62099270284755
 20
0.6009493257329671
 30
0.0
 10
11.5404538806801
 20
0.6017762431170119
 30
0.0
 10
11.37359101001178
 20
0.5919319102484457
 30
0.0
 10
11.28829026499694
 20
0.5811291895943864
 30
0.0
 10
11.12128255448817
 20
0.5486816010755169
 30
0.0
 10
11.04078820154784
 20
0.5272620363600456
 30
0.0
 10
10.95692193816528
 20
0.5006957920339348
 30
0.0
  0
SPLINE
  5
C1
330
1F
100
AcDbEntity
  8
0
  6
Continuous
 62
     4
370
    25
100
AcDbSpline
210
0.0
220
0.0
230
1.0
 70
    24
 71
     3
 72
    16
 73
    12
 74
     0
 42
0.000000001
 43
0.00000001
 40
0.0
 40
0.0
 40
0.0
 40
0.0
 40
0.1250000000000004
 40
0.1250000000000004
 40
0.2500000000000003
 40
0.2500000000000003
 40
0.5000000000000002
 40
0.5000000000000002
 40
0.7500000000000001
 40
0.7500000000000001
 40
1.0
 40
1.0
 40
1.0
 40
1.0
 10
11.95692193816529
 20
0.5575044632832798
 30
0.0
 10
11.95692193816529
 20
0.5369775665463505
 30
0.0
 10
11.95692193816529
 20
0.5183288313923743
 30
0.0
 10
11.95692193816529
 20
0.4768793169955647
 30
0.0
 10
11.95692193816529
 20
0.4545502749984685
 30
0.0
 10
11.95692193816529
 20
0.3830472747539826
 30
0.0
 10
11.95692193816529
 20
0.328809312778559
 30
0.0
 10
11.95692193816529
 20
0.2183141804597806
 30
0.0
 10
11.95692193816529
 20
0.1622404460448751
 30
0.0
 10
11.95692193816529
 20
0.0757082997056034
 30
0.0
 10
11.95692193816529
 20
0.0466617682519358
 30
0.0
 10
11.95692193816529
 20
0.0407880906525106
 30
0.0
  0
SPLINE
  5
C2
330
1F
100
AcDbEntity
  8
0
  6
Continuous
 62
     4
370
    25
100
AcDbSpline
210
0.0
220
0.0
230
1.0
 70
     8
 71
     3
 72
    14
 73
    10
 74
     0
 42
0.000000001
 43
0.00000001
 40
0.0
 40
0.0
 40
0.0
 40
0.0
 40
0.25
 40
0.25
 40
0.5
 40
0.5
 40
0.75
 40
0.75
 40
1.0
 40
1.0
 40
1.0
 40
1.0
 10
11.95692193816526
 20
0.0407880906525273
 30
0.0
 10
11.8740534217979
 20
0.0886985373272246
 30
0.0
 10
11.78883177779923
 20
0.1366581672533468
 30
0.0
 10
11.62099270284755
 20
0.2285299358340469
 30
0.0
 10
11.5404538806801
 20
0.2721000208017935
 30
0.0
 10
11.37359101001178
 20
0.3542084803206673
 30
0.0
 10
11.28829026499694
 20
0.3924963722854584
 30
0.0
 10
11.12128255448817
 20
0.4602421229496046
 30
0.0
 10
11.04078820154784
 20
0.489642850018318
 30
0.0
 10
10.95692193816528
 20
0.5144538345785683
 30
0.0
  0
SPLINE
  5
C3
330
1F
100
AcDbEntity
  8
0
  6
Continuous
 62
     4
370
    25
100
AcDbSpline
210
0.0
220
0.0
230
1.0
 70
     8
 71
     3
 72
    14
 73
    10
 74
     0
 42
0.000000001
 43
0.00000001
 40
0.0
 40
0.0
 40
0.0
 40
0.0
 40
0.25
 40
0.25
 40
0.5
 40
0.5
 40
0.75
 40
0.75
 40
1.0
 40
1.0
 40
1.0
 40
1.0
 10
11.95692193816526
 20
-0.2217854220169273
 30
0.0
 10
11.8740534217979
 20
-0.1771650541186145
 30
0.0
 10
11.78883177779924
 20
-0.1299663720087061
 30
0.0
 10
11.62099270284755
 20
-0.0344293754364931
 30
0.0
 10
11.5404538806801
 20
0.0134840008930708
 30
0.0
 10
11.37359101001178
 20
0.1092386318558401
 30
0.0
 10
11.28829026499694
 20
0.1568651238816599
 30
0.0
 10
11.12128255448817
 20
0.2475203077128103
 30
0.0
 10
11.04078820154784
 20
0.2903777470918921
 30
0.0
 10
10.95692193816528
 20
0.3306111368957654
 30
0.0
  0
SPLINE
  5
C4
330
1F
100
AcDbEntity
  8
0
  6
Continuous
 62
     4
370
    25
100
AcDbSpline
210
0.0
220
0.0
230
1.0
 70
    24
 71
     3
 72
    12
 73
     8
 74
     0
 42
0.000000001
 43
0.00000001
 40
0.0
 40
0.0
 40
0.0
 40
0.0
 40
0.2136093439072197
 40
0.4358322179055322
 40
0.6580550919038444
 40
0.8802779659019769
 40
1.0
 40
1.0
 40
1.0
 40
1.0
 10
11.95692193816529
 20
-0.2112014695969929
 30
0.0
 10
11.95692193816529
 20
-0.2141250326607024
 30
0.0
 10
11.95692193816529
 20
-0.2200900478184506
 30
0.0
 10
11.95692193816529
 20
-0.2874183923182652
 30
0.0
 10
11.95692193816529
 20
-0.3905204556590823
 30
0.0
 10
11.95692193816529
 20
-0.5015748896413103
 30
0.0
 10
11.95692193816529
 20
-0.5734478010678628
 30
0.0
 10
11.95692193816529
 20
-0.5986120042737026
 30
0.0
  0
SPLINE
  5
C5
330
1F
100
AcDbEntity
  8
0
  6
Continuous
 62
     4
370
    25
100
AcDbSpline
210
0.0
220
0.0
230
1.0
 70
     8
 71
     3
 72
    14
 73
    10
 74
     0
 42
0.000000001
 43
0.00000001
 40
0.0
 40
0.0
 40
0.0
 40
0.0
 40
0.25
 40
0.25
 40
0.5
 40
0.5
 40
0.75
 40
0.75
 40
1.0
 40
1.0
 40
1.0
 40
1.0
 10
11.95692193816526
 20
-0.5986120042737015
 30
0.0
 10
11.8740534217979
 20
-0.595347492990568
 30
0.0
 10
11.78883177779924
 20
-0.5862166999621107
 30
0.0
 10
11.62099270284755
 20
-0.5568658208394525
 30
0.0
 10
11.5404538806801
 20
-0.536915304065202
 30
0.0
 10
11.37359101001178
 20
-0.4866752690744498
 30
0.0
 10
11.28829026499694
 20
-0.4563599454722623
 30
0.0
 10
11.12128255448817
 20
-0.3879368380954983
 30
0.0
 10
11.04078820154784
 20
-0.3501062273343595
 30
0.0
 10
10.95692193816528
 20
-0.3087673105868942
 30
0.0
  0
LINE
  5
C6
330
1F
100
AcDbEntity
  8
0
  6
Continuous
 62
     4
370
    25
100
AcDbLine
 10
11.95692193816529
 20
0.0407880906525106
 30
0.0
 11
11.95692193816529
 21
-0.2217854220169458
 31
0.0
  0
SPLINE
  5
C7
330
1F
100
AcDbEntity
  8
0
  6
Continuous
 62
     4
370
    25
100
AcDbSpline
210
0.0
220
0.0
230
1.0
 70
     8
 71
     3
 72
     9
 73
     5
 74
     0
 42
0.000000001
 43
0.00000001
 40
0.0
 40
0.0
 40
0.0
 40
0.0
 40
0.5659417089726579
 40
1.0
 40
1.0
 40
1.0
 40
1.0
 10
10.95692193816499
 20
-0.5006957920338436
 30
0.0
 10
11.0711220684719
 20
-0.5333655545936025
 30
0.0
 10
11.27290986480557
 20
-0.591091928249758
 30
0.0
 10
11.47478668395791
 20
-0.5932168256171859
 30
0.0
 10
11.56241299107721
 20
-0.5941391549371002
 30
0.0
  0
LINE
  5
C8
330
1F
100
AcDbEntity
  8
0
  6
Continuous
 62
     4
370
    25
100
AcDbLine
 10
10.97955531309122
 20
-0.5059936879821797
 30
0.0
 11
10.95692193816499
 21
-0.5144538345786518
 31
0.0
  0
LINE
  5
C9
330
1F
100
AcDbEntity
  8
0
  6
Continuous
 62
     4
370
    25
100
AcDbLine
 10
11.95692193816529
 20
-0.5986120042737025
 30
0.0
 11
11.95692193816529
 21
-0.5999999999999993
 31
0.0
  0
LINE
  5
CA
330
1F
100
AcDbEntity
  8
0
  6
Continuous
 62
     4
370
    25
100
AcDbLine
 10
11.95692193816529
 20
0.6000000000000004
 30
0.0
 11
11.95692193816529
 21
0.5575044632832794
 31
0.0
  0
SPLINE
  5
CB
330
1F
100
AcDbEntity
  8
0
  6
Continuous
 62
     1
370
    25
100
AcDbSpline
210
0.0
220
0.0
230
1.0
 70
     8
 71
     3
 72
    18
 73
    14
 74
     0
 42
0.000000001
 43
0.00000001
 40
0.0
 40
0.0
 40
0.0
 40
0.0
 40
0.0445482184354398
 40
0.1476628550095982
 40
0.2506638068640289
 40
0.3534442092402055
 40
0.456108609488488
 40
0.5587640745894297
 40
0.6615178665054201
 40
0.7644751086505511
 40
0.8676087168521344
 40
0.9850419196873155
 40
1.0
 40
1.0
 40
1.0
 40
1.0
 10
14.24247184097762
 20
0.4986759545924811
 30
0.0
 10
14.29963218555338
 20
0.5183336530490149
 30
0.0
 10
14.48910013668189
 20
0.5834925298560912
 30
0.0
 10
14.8110020988043
 20
0.6119343512503206
 30
0.0
 10
15.20748408026238
 20
0.5749796183867864
 30
0.0
 10
15.60320682862264
 20
0.4513346037778276
 30
0.0
 10
15.99839909775218
 20
0.2642385538988344
 30
0.0
 10
16.39355049478677
 20
0.0388232900081294
 30
0.0
 10
16.78915030446149
 20
-0.1915314774481903
 30
0.0
 10
17.18553510048746
 20
-0.3968838997719103
 30
0.0
 10
17.60094745927888
 20
-0.5427906602838798
 30
0.0
 10
17.90330116787752
 20
-0.6135751105186933
 30
0.0
 10
18.0732620814151
 20
-0.5957717234868609
 30
0.0
 10
18.0924649241874
 20
-0.5937602278148798
 30
0.0
  0
SPLINE
  5
CC
330
1F
100
AcDbEntity
  8
0
  6
Continuous
 62
     1
370
    25
100
AcDbSpline
210
0.0
220
0.0
230
1.0
 70
     8
 71
     3
 72
    18
 73
    14
 74
     0
 42
0.000000001
 43
0.00000001
 40
0.0
 40
0.0
 40
0.0
 40
0.0
 40
0.0065670842655985
 40
0.100171035475602
 40
0.2024217730658404
 40
0.3047467787112071
 40
0.407251440747313
 40
0.509985763194537
 40
0.6125444023933201
 40
0.7149003790283964
 40
0.8171584095244928
 40
0.9194253405751609
 40
1.0
 40
1.0
 40
1.0
 40
1.0
 10
19.15595030834674
 20
-0.5008834210868729
 30
0.0
 10
19.14748877020708
 20
-0.5041498731739644
 30
0.0
 10
19.01842067805441
 20
-0.553974707858886
 30
0.0
 10
18.75802037999293
 20
-0.5977286518011663
 30
0.0
 10
18.37397284636347
 20
-0.6063346923645787
 30
0.0
 10
17.97853831046625
 20
-0.5214533188827349
 30
0.0
 10
17.58232422271002
 20
-0.3635320621868542
 30
0.0
 10
17.18552610244167
 20
-0.1532117690058673
 30
0.0
 10
16.78915251170736
 20
0.0790062399275475
 30
0.0
 10
16.39355063705504
 20
0.3005512379840238
 30
0.0
 10
15.9983963282686
 20
0.4763166423972431
 30
0.0
 10
15.63129784836601
 20
0.5852799653754549
 30
0.0
 10
15.39578692279949
 20
0.5904648003192404
 30
0.0
 10
15.29200193291289
 20
0.59274965415738
 30
0.0
  0
SPLINE
  5
CD
330
1F
100
AcDbEntity
  8
0
  6
Continuous
 62
     1
370
    25
100
AcDbSpline
210
0.0
220
0.0
230
1.0
 70
     8
 71
     3
 72
    10
 73
     6
 74
     0
 42
0.000000001
 43
0.00000001
 40
0.0
 40
0.0
 40
0.0
 40
0.0
 40
0.0378770751428627
 40
0.5777580558427603
 40
1.0
 40
1.0
 40
1.0
 40
1.0
 10
12.62627259710356
 20
-0.5008834210868738
 30
0.0
 10
12.61781115438921
 20
-0.5041478373954542
 30
0.0
 10
12.48874451780682
 20
-0.5539416193280124
 30
0.0
 10
12.2655929579634
 20
-0.5938236121829156
 30
0.0
 10
12.05106897585237
 20
-0.5971515078168792
 30
0.0
 10
11.95692193815615
 20
-0.5986120042733438
 30
0.0
  0
SPLINE
  5
CE
330
1F
100
AcDbEntity
  8
0
  6
Continuous
 62
     1
370
    25
100
AcDbSpline
210
0.0
220
0.0
230
1.0
 70
     8
 71
     3
 72
    18
 73
    14
 74
     0
 42
0.000000001
 43
0.00000001
 40
0.0
 40
0.0
 40
0.0
 40
0.0
 40
0.0837295263677159
 40
0.1867189474574063
 40
0.2895048547302621
 40
0.3921924044563494
 40
0.4948888921224276
 40
0.5977014181724798
 40
0.7007345626327953
 40
0.80388142734462
 40
0.9067794780701026
 40
0.9965633621153175
 40
1.0
 40
1.0
 40
1.0
 40
1.0
 10
17.50773452098052
 20
-0.5020845506241193
 30
0.0
 10
17.40026277064783
 20
-0.5326801681044826
 30
0.0
 10
17.16059806723847
 20
-0.6009091637834258
 30
0.0
 10
16.78915015115034
 20
-0.6082078058620656
 30
0.0
 10
16.39355046459317
 20
-0.5368075385823361
 30
0.0
 10
15.99839937128855
 20
-0.3863554551076391
 30
0.0
 10
15.60320576396495
 20
-0.1811709936165896
 30
0.0
 10
15.2074880738274
 20
0.0504243131487482
 30
0.0
 10
14.81098714948117
 20
0.274084002444136
 30
0.0
 10
14.4142644855349
 20
0.4607681574639956
 30
0.0
 10
14.03467623419119
 20
0.5677562137407319
 30
0.0
 10
13.78345587657628
 20
0.6100840659417357
 30
0.0
 10
13.66397598355325
 20
0.5991893766356476
 30
0.0
 10
13.65957127610986
 20
0.5987877365113917
 30
0.0
  0
SPLINE
  5
CF
330
1F
100
AcDbEntity
  8
0
  6
Continuous
 62
     1
370
    25
100
AcDbSpline
210
0.0
220
0.0
230
1.0
 70
     8
 71
     3
 72
    15
 73
    11
 74
     0
 42
0.000000001
 43
0.00000001
 40
0.0
 40
0.0
 40
0.0
 40
0.0
 40
0.1238664500455433
 40
0.2476818426508312
 40
0.3709579051044697
 40
0.5056217536937769
 40
0.6403834130408987
 40
0.775381679199578
 40
0.9106824072823337
 40
1.0
 40
1.0
 40
1.0
 40
1.0
 10
19.85752604760269
 20
-0.5695977518359743
 30
0.0
 10
19.73634168330668
 20
-0.5409032048008998
 30
0.0
 10
19.49402290660587
 20
-0.4835259385511201
 30
0.0
 10
19.13099907600882
 20
-0.3211784684892234
 30
0.0
 10
18.75799515154452
 20
-0.1185348239541288
 30
0.0
 10
18.37398017144696
 20
0.1076055852140156
 30
0.0
 10
17.97853519602663
 20
0.3255234784704502
 30
0.0
 10
17.58232935448561
 20
0.4936193110084987
 30
0.0
 10
17.23029570213185
 20
0.5908484193918089
 30
0.0
 10
17.01056904375971
 20
0.5904411556460091
 30
0.0
 10
16.92319657960914
 20
0.5902792106308101
 30
0.0
  0
SPLINE
  5
D0
330
1F
100
AcDbEntity
  8
0
  6
Continuous
 62
     1
370
    25
100
AcDbSpline
210
0.0
220
0.0
230
1.0
 70
     8
 71
     3
 72
    14
 73
    10
 74
     0
 42
0.000000001
 43
0.00000001
 40
0.0
 40
0.0
 40
0.0
 40
0.0
 40
0.0981759845604505
 40
0.249277105314402
 40
0.4002529706206115
 40
0.5592023301319469
 40
0.7180861711156753
 40
0.8762779265335521
 40
0.9999999999999999
 40
0.9999999999999999
 40
0.9999999999999999
 40
0.9999999999999999
 10
14.24247184097763
 20
-0.4986759545924798
 30
0.0
 10
14.16762203768148
 20
-0.5230169583357401
 30
0.0
 10
13.97757207401113
 20
-0.5848208198476242
 30
0.0
 10
13.67289343719163
 20
-0.6093878247200792
 30
0.0
 10
13.32187520149033
 20
-0.580073374237684
 30
0.0
 10
12.96430817367828
 20
-0.4802566862747514
 30
0.0
 10
12.60136101578872
 20
-0.3220815256624107
 30
0.0
 10
12.26558051495664
 20
-0.1385715599059448
 30
0.0
 10
12.0510651806395
 20
-0.0139179837684654
 30
0.0
 10
11.95692193815615
 20
0.0407880906577907
 30
0.0
  0
SPLINE
  5
D1
330
1F
100
AcDbEntity
  8
0
  6
Continuous
 62
     4
370
    25
100
AcDbSpline
210
0.0
220
0.0
230
1.0
 70
    24
 71
     3
 72
    16
 73
    12
 74
     0
 42
0.000000001
 43
0.00000001
 40
0.0
 40
0.0
 40
0.0
 40
0.0
 40
0.1249999999999999
 40
0.1249999999999999
 40
0.2499999999999998
 40
0.2499999999999998
 40
0.4999999999999999
 40
0.4999999999999999
 40
0.75
 40
0.75
 40
1.0
 40
1.0
 40
1.0
 40
1.0
 10
11.95692193816529
 20
0.5575044632832796
 30
0.0
 10
11.95692193816529
 20
0.5369775665463589
 30
0.0
 10
11.95692193816529
 20
0.5183288313923898
 30
0.0
 10
11.95692193816529
 20
0.4768793169956002
 30
0.0
 10
11.95692193816529
 20
0.4545502749985147
 30
0.0
 10
11.95692193816529
 20
0.3830472747540662
 30
0.0
 10
11.95692193816529
 20
0.3288093127786726
 30
0.0
 10
11.95692193816529
 20
0.218314180459941
 30
0.0
 10
11.95692193816529
 20
0.162240446045051
 30
0.0
 10
11.95692193816529
 20
0.0757082997057501
 30
0.0
 10
11.95692193816529
 20
0.0466617682520347
 30
0.0
 10
11.95692193816529
 20
0.0407880906525398
 30
0.0
  0
SPLINE
  5
D2
330
1F
100
AcDbEntity
  8
0
  6
Continuous
 62
     1
370
    25
100
AcDbSpline
210
0.0
220
0.0
230
1.0
 70
     8
 71
     3
 72
    15
 73
    11
 74
     0
 42
0.000000001
 43
0.00000001
 40
0.0
 40
0.0
 40
0.0
 40
0.0
 40
0.1524850324525701
 40
0.3049260649849731
 40
0.4426434280129475
 40
0.5802927940566854
 40
0.7180182749977342
 40
0.8559623235488772
 40
0.9942399295228305
 40
1.0
 40
1.0
 40
1.0
 40
1.0
 10
11.95692193815618
 20
0.5575044632852186
 30
0.0
 10
12.10287646035005
 20
0.5167046836503832
 30
0.0
 10
12.39474338921196
 20
0.4351168972545341
 30
0.0
 10
12.81849424480537
 20
0.217718671296895
 30
0.0
 10
13.22767032012048
 20
-0.0188956227674041
 30
0.0
 10
13.62278822678203
 20
-0.2456696065626305
 30
0.0
 10
14.01816322889456
 20
-0.4394429584382182
 30
0.0
 10
14.41422500470963
 20
-0.5607272170620995
 30
0.0
 10
14.68427538570191
 20
-0.6131132966050041
 30
0.0
 10
14.82214104588333
 20
-0.5988471674461967
 30
0.0
 10
14.82765429726722
 20
-0.5982766645651744
 30
0.0
  0
SPLINE
  5
D3
330
1F
100
AcDbEntity
  8
0
  6
Continuous
 62
     1
370
    25
100
AcDbSpline
210
0.0
220
0.0
230
1.0
 70
     8
 71
     3
 72
    14
 73
    10
 74
     0
 42
0.000000001
 43
0.00000001
 40
0.0
 40
0.0
 40
0.0
 40
0.0
 40
0.0305437398487283
 40
0.2151450950174273
 40
0.3995298886795351
 40
0.5782772580873661
 40
0.7569730495150013
 40
0.918409329306532
 40
0.9999999999999999
 40
0.9999999999999999
 40
0.9999999999999999
 40
0.9999999999999999
 10
17.50773452098053
 20
0.5020845506241215
 30
0.0
 10
17.5326808114178
 20
0.5113924706800299
 30
0.0
 10
17.708398390635
 20
0.5769559332671574
 30
0.0
 10
18.03467412026645
 20
0.6137543113013568
 30
0.0
 10
18.48201269350124
 20
0.5769334989298677
 30
0.0
 10
18.92442874091526
 20
0.4302612556059901
 30
0.0
 10
19.34812702243574
 20
0.2190383501810903
 30
0.0
 10
19.692387241602
 20
0.0182277453592322
 30
0.0
 10
19.89043274624793
 20
-0.0949044225401701
 30
0.0
 10
19.95692193816529
 20
-0.1328859280378002
 30
0.0
  0
LINE
  5
D4
330
1F
100
AcDbEntity
  8
0
  6
Continuous
 62
     1
370
    25
100
AcDbLine
 10
19.95692193816529
 20
-0.4999999999999989
 30
0.0
 11
19.95692193816529
 21
-0.1334295366590167
 31
0.0
  0
SPLINE
  5
D5
330
1F
100
AcDbEntity
  8
0
  6
Continuous
 62
     1
370
    25
100
AcDbSpline
210
0.0
220
0.0
230
1.0
 70
    24
 71
     3
 72
     8
 73
     4
 74
     0
 42
0.000000001
 43
0.00000001
 40
0.0
 40
0.0
 40
0.0
 40
0.0
 40
1.0
 40
1.0
 40
1.0
 40
1.0
 10
19.95692193816529
 20
-0.4999999999999988
 30
0.0
 10
19.92214974265161
 20
-0.5243477534187754
 30
0.0
 10
19.88909225046464
 20
-0.5474948586424045
 30
0.0
 10
19.85752604760611
 20
-0.569597751836596
 30
0.0
  0
SPLINE
  5
D6
330
1F
100
AcDbEntity
  8
0
  6
Continuous
 62
     4
370
    25
100
AcDbSpline
210
0.0
220
0.0
230
1.0
 70
    24
 71
     3
 72
    16
 73
    12
 74
     0
 42
0.000000001
 43
0.00000001
 40
0.0
 40
0.0
 40
0.0
 40
0.0
 40
0.0963089461164712
 40
0.2096388195691214
 40
0.3197747437591252
 40
0.433104617211776
 40
0.5432405414018897
 40
0.6565704148544306
 40
0.7667063390443459
 40
0.8800362124969011
 40
1.0
 40
1.0
 40
1.0
 40
1.0
 10
11.95692193816529
 20
-0.2108937834597117
 30
0.0
 10
11.95692193816529
 20
-0.2112039764564448
 30
0.0
 10
11.95692193816528
 20
-0.2118791836546949
 30
0.0
 10
11.95692193816529
 20
-0.227333503746687
 30
0.0
 10
11.95692193816529
 20
-0.2539417757503893
 30
0.0
 10
11.95692193816529
 20
-0.2912439729841375
 30
0.0
 10
11.95692193816528
 20
-0.3384706654024173
 30
0.0
 10
11.95692193816529
 20
-0.3935317888834485
 30
0.0
 10
11.95692193816528
 20
-0.455857299160695
 30
0.0
 10
11.95692193816529
 20
-0.5244373578927234
 30
0.0
 10
11.95692193816529
 20
-0.5734228071159965
 30
0.0
 10
11.95692193816529
 20
-0.5986120042733147
 30
0.0
  0
SPLINE
  5
D7
330
1F
100
AcDbEntity
  8
0
  6
Continuous
 62
     1
370
    25
100
AcDbSpline
210
0.0
220
0.0
230
1.0
 70
     8
 71
     3
 72
    10
 73
     6
 74
     0
 42
0.000000001
 43
0.00000001
 40
0.0
 40
0.0
 40
0.0
 40
0.0
 40
0.3533815478694342
 40
0.7066611266495441
 40
0.9999999999999999
 40
0.9999999999999999
 40
0.9999999999999999
 40
0.9999999999999999
 10
11.95692193815618
 20
-0.2217854220120385
 30
0.0
 10
12.10287628574952
 20
-0.2957632467506034
 30
0.0
 10
12.39474286546075
 20
-0.4436975497497854
 30
0.0
 10
12.80783080176347
 20
-0.5775668914544511
 30
0.0
 10
13.07470056388335
 20
-0.5907957913132218
 30
0.0
 10
13.19576620173147
 20
-0.5967970901741676
 30
0.0
  0
SPLINE
  5
D8
330
1F
100
AcDbEntity
  8
0
  6
Continuous
 62
     1
370
    25
100
AcDbSpline
210
0.0
220
0.0
230
1.0
 70
     8
 71
     3
 72
    17
 73
    13
 74
     0
 42
0.000000001
 43
0.00000001
 40
0.0
 40
0.0
 40
0.0
 40
0.0
 40
0.0319903843840858
 40
0.1346465099933806
 40
0.2374009630503809
 40
0.3403588676455663
 40
0.4434931394319828
 40
0.5609270978588055
 40
0.6782232909104031
 40
0.7919332424368174
 40
0.9056103826852403
 40
1.0
 40
1.0
 40
1.0
 40
1.0
 10
15.87530632780273
 20
0.4998361324445898
 30
0.0
 10
15.91634095449591
 20
0.5146303164511986
 30
0.0
 10
16.089054392596
 20
0.5768985662094206
 30
0.0
 10
16.39354864706594
 20
0.6102331470342058
 30
0.0
 10
16.78915086040687
 20
0.5848257201323349
 30
0.0
 10
17.18553472807639
 20
0.4704326133084802
 30
0.0
 10
17.60094845352205
 20
0.2817387617083276
 30
0.0
 10
18.03467203454493
 20
0.0348227463433956
 30
0.0
 10
18.48201670088323
 20
-0.2265899083622078
 30
0.0
 10
18.9244152208557
 20
-0.4418081523274774
 30
0.0
 10
19.3375095903024
 20
-0.5779469320601988
 30
0.0
 10
19.60437861132555
 20
-0.5909143931689601
 30
0.0
 10
19.72544391297465
 20
-0.5967970901741667
 30
0.0
  0
SPLINE
  5
D9
330
1F
100
AcDbEntity
  8
0
  6
Continuous
 62
     1
370
    25
100
AcDbSpline
210
0.0
220
0.0
230
1.0
 70
     8
 71
     3
 72
    11
 73
     7
 74
     0
 42
0.000000001
 43
0.00000001
 40
0.0
 40
0.0
 40
0.0
 40
0.0
 40
0.2793652806856164
 40
0.5586154077027258
 40
0.8366491430403896
 40
1.0
 40
1.0
 40
1.0
 40
1.0
 10
19.85752604760269
 20
0.1885693535627216
 30
0.0
 10
19.73634201276498
 20
0.2528027959095442
 30
0.0
 10
19.49402389484499
 20
0.3812432037392465
 30
0.0
 10
19.13099513212401
 20
0.5181535409066619
 30
0.0
 10
18.81881707971941
 20
0.5959562109804114
 30
0.0
 10
18.62745336133642
 20
0.5910460973351216
 30
0.0
 10
18.55663206867158
 20
0.5892289263560608
 30
0.0
  0
SPLINE
  5
DA
330
1F
100
AcDbEntity
  8
0
  6
Continuous
 62
     1
370
    25
100
AcDbSpline
210
0.0
220
0.0
230
1.0
 70
     8
 71
     3
 72
    18
 73
    14
 74
     0
 42
0.000000001
 43
0.00000001
 40
0.0
 40
0.0
 40
0.0
 40
0.0
 40
0.0706858099614703
 40
0.1734830649684727
 40
0.2765009056166451
 40
0.3796324496251275
 40
0.4825152166043318
 40
0.5722857647885277
 40
0.6619818975736136
 40
0.7564151556835546
 40
0.850809488641187
 40
0.9447926472784244
 40
1.0
 40
1.0
 40
1.0
 40
1.0
 10
15.87530632780273
 20
-0.4998361324445881
 30
0.0
 10
15.78465389142455
 20
-0.5275721026940755
 30
0.0
 10
15.56216705116172
 20
-0.5956440556274616
 30
0.0
 10
15.20748684930832
 20
-0.6108911664316794
 30
0.0
 10
14.81098878007645
 20
-0.5504634337456096
 30
0.0
 10
14.41425919004856
 20
-0.4084909641080114
 30
0.0
 10
14.0346946801098
 20
-0.2169612127704539
 30
0.0
 10
13.67288461557439
 20
-0.0078753415313787
 30
0.0
 10
13.3218778716446
 20
0.1956471801385539
 30
0.0
 10
12.96430677594103
 20
0.3799261158361861
 30
0.0
 10
12.60136386117322
 20
0.5194756993058691
 30
0.0
 10
12.28903250145702
 20
0.5927198578230257
 30
0.0
 10
12.09794722340554
 20
0.594998160811389
 30
0.0
 10
12.02723687963631
 20
0.5958412377305552
 30
0.0
  0
SPLINE
  5
DB
330
1F
100
AcDbEntity
  8
0
  6
Continuous
 62
     1
370
    25
100
AcDbSpline
210
0.0
220
0.0
230
1.0
 70
     8
 71
     3
 72
     9
 73
     5
 74
     0
 42
0.000000001
 43
0.00000001
 40
0.0
 40
0.0
 40
0.0
 40
0.0
 40
0.0537922159675035
 40
0.154158375719064
 40
0.154158375719064
 40
0.154158375719064
 40
0.154158375719064
 10
12.62627259710356
 20
0.5008834210868744
 30
0.0
 10
12.69502867401356
 20
0.5239815246499302
 30
0.0
 10
12.89207066134615
 20
0.5901763460274784
 30
0.0
 10
13.08893986313762
 20
0.6031805508402384
 30
0.0
 10
13.21711909755274
 20
0.600000000000001
 30
0.0
  0
SPLINE
  5
DC
330
1F
100
AcDbEntity
  8
0
  6
Continuous
 62
     1
370
    25
100
AcDbSpline
210
0.0
220
0.0
230
1.0
 70
     8
 71
     3
 72
    10
 73
     6
 74
     0
 42
0.000000001
 43
0.00000001
 40
0.0
 40
0.0
 40
0.0
 40
0.0
 40
0.2573097027071241
 40
0.7506589316422444
 40
1.0
 40
1.0
 40
1.0
 40
1.0
 10
19.15595030834674
 20
0.5008834210868747
 30
0.0
 10
19.22470170605147
 20
0.5239255870523403
 30
0.0
 10
19.42527265307358
 20
0.5911473338593285
 30
0.0
 10
19.69238645965609
 20
0.6091708884223859
 30
0.0
 10
19.89043254971056
 20
0.591149636886563
 30
0.0
 10
19.95692193816529
 20
0.5850994190131579
 30
0.0
  0
LINE
  5
DD
330
1F
100
AcDbEntity
  8
0
  6
Continuous
 62
     1
370
    25
100
AcDbLine
 10
19.95692193816529
 20
0.134718038980106
 30
0.0
 11
19.95692193816529
 21
0.5850994190131579
 31
0.0
  0
SPLINE
  5
DE
330
1F
100
AcDbEntity
  8
0
  6
Continuous
 62
     1
370
    25
100
AcDbSpline
210
0.0
220
0.0
230
1.0
 70
     8
 71
     3
 72
     8
 73
     4
 74
     0
 42
0.000000001
 43
0.00000001
 40
0.0
 40
0.0
 40
0.0
 40
0.0
 40
1.0
 40
1.0
 40
1.0
 40
1.0
 10
19.95692193816529
 20
0.1347180389801063
 30
0.0
 10
19.92214974265161
 20
0.1481566925502295
 30
0.0
 10
19.88909225046464
 20
0.1663119789696786
 30
0.0
 10
19.85752604760611
 20
0.1885693535608435
 30
0.0
  0
LINE
  5
DF
330
1F
100
AcDbEntity
  8
0
  6
Continuous
 62
     1
370
    25
100
AcDbLine
 10
19.95692193816529
 20
0.5850994190131579
 30
0.0
 11
19.95692193816529
 21
0.6000000000000019
 31
0.0
  0
LINE
  5
E0
330
1F
100
AcDbEntity
  8
0
  6
Continuous
 62
     1
370
    25
100
AcDbLine
 10
19.85752604760573
 20
-0.569597751836867
 30
0.0
 11
19.83267939799209
 21
-0.5869955631955939
 31
0.0
  0
ELLIPSE
  5
E1
330
1F
100
AcDbEntity
  8
0
  6
Continuous
 62
     1
370
    25
100
AcDbEllipse
 10
19.71269424518718
 20
0.000000000000001
 30
0.0
 11
0.8335939833959854
 21
-0.330204603625057
 31
0.0
210
0.0
220
0.0
230
1.0
 40
0.600968817488722
 41
5.086581568774599
 42
5.235119673336834
  0
LINE
  5
E2
330
1F
100
AcDbEntity
  8
0
  6
Continuous
 62
     1
370
    25
100
AcDbLine
 10
19.95692193816529
 20
-0.6000000000000011
 30
0.0
 11
19.95692193816529
 21
-0.5989188155876871
 31
0.0
  0
ELLIPSE
  5
E3
330
1F
100
AcDbEntity
  8
0
  6
Continuous
 62
     1
370
    25
100
AcDbEllipse
 10
20.67099594153634
 20
0.0000000000000004
 30
0.0
 11
0.8568888040452656
 21
0.0
 31
0.0
210
0.0
220
0.0
230
1.0
 40
0.700207538209713
 41
2.821892147869357
 42
2.93301263923469
  0
ELLIPSE
  5
E4
330
1F
100
AcDbEntity
  8
0
  6
Continuous
 62
     1
370
    25
100
AcDbEllipse
 10
19.71269424518718
 20
0.0000000000000004
 30
0.0
 11
0.8514615395884775
 21
-0.5833044422444444
 31
0.0
210
0.0
220
0.0
230
1.0
 40
0.1650759015746668
 41
1.394381293938608
 42
1.542919398500842
  0
LINE
  5
E5
330
1F
100
AcDbEntity
  8
0
  6
Continuous
 62
     1
370
    25
100
AcDbLine
 10
19.95692193816529
 20
-0.1328859280378002
 30
0.0
 11
19.95692193816529
 21
0.0360035044827861
 31
0.0
  0
LINE
  5
E6
330
1F
100
AcDbEntity
  8
0
  6
Continuous
 62
     1
370
    25
100
AcDbLine
 10
19.95692193816529
 20
0.0360035044827857
 30
0.0
 11
19.95692193816529
 21
0.134718038980106
 31
0.0
  0
LINE
  5
E7
330
1F
100
AcDbEntity
  8
0
  6
Continuous
 62
     1
370
    25
100
AcDbLine
 10
19.95692193816529
 20
-0.4999999999999991
 30
0.0
 11
19.95692193816529
 21
-0.5989188155876871
 31
0.0
  0
LINE
  5
E8
330
1F
100
AcDbEntity
  8
중심선
100
AcDbLine
 10
-43.04307806183471
 20
-0.0000000000000043
 30
0.0
 11
21.45692193816528
 21
0.0000000000000036
 31
0.0
  0
CIRCLE
  5
E9
330
1F
100
AcDbEntity
  8
해칭선
100
AcDbCircle
 10
0.0002830626388024
 20
-0.0000000000000042
 30
0.0
 40
3.0
  0
INSERT
  5
EA
330
1F
100
AcDbEntity
  8
0
  6
Continuous
 62
     7
100
AcDbBlockReference
 66
     1
  2
블럭10
 10
-24.44009924894177
 20
-52.04717430164393
 30
0.0
  0
ATTRIB
  5
EB
330
EA
100
AcDbEntity
  8
FORMAT
 62
     2
100
AcDbText
 10
-40.55936028837733
 20
-49.97180738881174
 30
0.0
 40
4.233333333333333
  1
SEME7201208E [ 4 FLUTE ]
 41
0.75
  7
SLDTEXTSTYLE0
 11
-40.55936028837733
 21
-52.08847405547841
 31
0.0
100
AcDbAttribute
  2
AUTOATTR0
 70
     0
 74
     1
  0
SEQEND
  5
EC
330
EA
100
AcDbEntity
  8
0
  6
Continuous
 62
     7
  0
HATCH
  5
ED
330
1F
100
AcDbEntity
  8
중심선
100
AcDbHatch
 10
0.0
 20
0.0
 30
0.0
210
0.0
220
0.0
230
1.0
  2
SOLID
 70
     1
 71
     0
 91
        1
 92
        0
 93
        4
 72
     1
 10
-18.72518994456093
 20
-35.8
 11
-22.17146518839822
 21
-35.8
 72
     1
 10
-22.17146518839822
 20
-35.8
 11
-24.29969504760224
 21
-38.33632558057259
 72
     1
 10
-24.29969504760224
 20
-38.33632558057259
 11
-20.85338671865181
 21
-38.3362861512701
 72
     1
 10
-20.85338671865181
 20
-38.3362861512701
 11
-18.72518994456093
 21
-35.8
 97
        0
 75
     0
 76
     1
 98
        1
 10
0.0
 20
0.0
  0
HATCH
  5
EE
330
1F
100
AcDbEntity
  8
중심선
100
AcDbHatch
 10
0.0
 20
0.0
 30
0.0
210
0.0
220
0.0
230
1.0
  2
SOLID
 70
     1
 71
     0
 91
        1
 92
        0
 93
        4
 72
     1
 10
-13.71242595352498
 20
-35.80000000000003
 11
-17.15870119736226
 21
-35.8
 72
     1
 10
-17.15870119736226
 20
-35.8
 11
-21.68983920571965
 21
-41.20000000000002
 72
     1
 10
-21.68983920571965
 20
-41.20000000000002
 11
-18.24356396188237
 21
-41.20000000000002
 72
     1
 10
-18.24356396188237
 20
-41.20000000000002
 11
-13.71242595352498
 21
-35.80000000000003
 97
        0
 75
     0
 76
     1
 98
        1
 10
0.0
 20
0.0
  0
HATCH
  5
EF
330
1F
100
AcDbEntity
  8
중심선
100
AcDbHatch
 10
0.0
 20
0.0
 30
0.0
210
0.0
220
0.0
230
1.0
  2
SOLID
 70
     1
 71
     0
 91
        1
 92
        0
 93
        4
 72
     1
 10
-8.699661962489087
 20
-35.8
 11
-12.1459372063262
 21
-35.8
 72
     1
 10
-12.1459372063262
 20
-35.8
 11
-19.19437410821545
 21
-44.20000000000002
 72
     1
 10
-19.19437410821545
 20
-44.20000000000002
 11
-15.74809886437817
 21
-44.20000000000002
 72
     1
 10
-15.74809886437817
 20
-44.20000000000002
 11
-8.699661962489087
 21
-35.8
 97
        0
 75
     0
 76
     1
 98
        1
 10
0.0
 20
0.0
  0
HATCH
  5
F0
330
1F
100
AcDbEntity
  8
중심선
100
AcDbHatch
 10
0.0
 20
0.0
 30
0.0
210
0.0
220
0.0
230
1.0
  2
SOLID
 70
     1
 71
     0
 91
        1
 92
        0
 93
        6
 72
     3
 10
-3.899771531476887
 20
-40.00000000005127
 11
3.960054785062284
 21
1.540850780301639E-10
 40
0.3939339440162633
 50
17.09539180608433
 51
320.0019657685079
 73
     0
 72
     1
 10
-2.216771875776291
 20
-38.5878940046383
 11
0.0885299979247742
 21
-36.65356729459038
 72
     3
 10
-3.899771531529733
 20
-40.00000000000015
 11
6.600054785286829
 21
-1.249000902703301E-13
 40
0.6363583540795982
 50
39.99873849337387
 51
368.4976242363725
 73
     1
 72
     1
 10
2.525560960370876
 20
-39.03999999993002
 11
-5.21970422469381
 21
-39.03999999993002
 72
     1
 10
-5.21970422469381
 20
-39.03999999993002
 11
-5.219729269139744
 21
-40.95999999992991
 72
     1
 10
-5.219729269139744
 20
-40.95999999992991
 11
-0.7783494996677076
 21
-40.95999999992988
 97
        0
 75
     0
 76
     1
 98
        1
 10
0.0
 20
0.0
  0
DIMENSION
  5
F1
330
1F
100
AcDbEntity
  8
치수문자_일반주서
100
AcDbDimension
  2
_D
 10
30.68458678611205
 20
0.600000000000044
 30
0.0
 11
30.68458678611201
 21
11.57900000000004
 31
0.0
 70
   160
  1
%%c<>
 71
     2
 42
1.200000000000008
 52
-270.0
  3
SLDDIMSTYLE0
100
AcDbAlignedDimension
 13
19.9569219381653
 23
-0.6000000000000042
 33
0.0
 14
19.9569219381653
 24
0.6000000000000033
 34
0.0
 50
90.0000000000002
100
AcDbRotatedDimension
  0
DIMENSION
  5
FF
330
1F
100
AcDbEntity
  8
치수문자_일반주서
100
AcDbDimension
  2
_D_1
 10
19.95692193816529
 20
20.38913260158164
 30
0.0
 11
-10.04307806183471
 21
20.38913260158164
 31
0.0
 70
   160
  1
<>
 71
     2
 42
60.0
  3
SLDDIMSTYLE1
100
AcDbAlignedDimension
 13
-40.04307806183471
 23
2.499999999999994
 33
0.0
 14
19.95692193816529
 24
0.6000000000000019
 34
0.0
 50
-0.0000000000000068
100
AcDbRotatedDimension
  0
DIMENSION
  5
10A
330
1F
100
AcDbEntity
  8
치수문자_일반주서
100
AcDbDimension
  2
_D_2
 10
-46.01737797958093
 20
-3.000000000000027
 30
0.0
 11
-46.01737797958098
 21
12.66649999999998
 31
0.0
 70
   160
  1
%%c<>
 71
     2
 42
6.000000000000005
 52
-270.0
  3
SLDDIMSTYLE2
100
AcDbAlignedDimension
 13
-39.54307806183471
 23
3.000000000000003
 33
0.0
 14
-39.54307806183471
 24
-3.000000000000002
 34
0.0
 50
90.0000000000002
100
AcDbRotatedDimension
  0
DIMENSION
  5
118
330
1F
100
AcDbEntity
  8
치수문자_일반주서
100
AcDbDimension
  2
_D_3
 10
19.95692193816529
 20
11.40342276587093
 30
0.0
 11
15.95692193816529
 21
11.40342276587093
 31
0.0
 70
   160
  1
<>
 71
     2
 42
8.000000000000002
  3
SLDDIMSTYLE2
100
AcDbAlignedDimension
 13
11.95692193816529
 23
0.6000000000000004
 33
0.0
 14
19.95692193816529
 24
0.6000000000000019
 34
0.0
100
AcDbRotatedDimension
  0
INSERT
  5
12A
330
1F
100
AcDbEntity
  8
해칭선
100
AcDbBlockReference
  2
SW_DOWELSYMBOL_0
 10
0.0002830626388024
 20
-0.0000000000000042
 30
0.0
  0
SPLINE
  5
15A
330
1F
100
AcDbEntity
  8
0
  6
Continuous
 62
     1
370
    25
100
AcDbSpline
210
0.0
220
0.0
230
1.0
 70
     8
 71
     3
 72
    12
 73
     8
 74
     0
 42
0.000000001
 43
0.00000001
 40
0.5743917668283292
 40
0.5743917668283292
 40
0.5743917668283292
 40
0.5743917668283292
 40
0.6734687124018849
 40
0.7766903816108273
 40
0.8797955506602432
 40
0.9828917462010737
 40
1.0
 40
1.0
 40
1.0
 40
1.0
 10
14.8278588349817
 20
0.0000000000000023
 30
0.0
 10
14.9545108571978
 20
-0.0729115750035036
 30
0.0
 10
15.21306423970285
 20
-0.2217089138344601
 30
0.0
 10
15.6032045838413
 20
-0.4184086549147444
 30
0.0
 10
15.99840557566129
 20
-0.5500359768881748
 30
0.0
 10
16.28358794879305
 20
-0.6092146937651746
 30
0.0
 10
16.43714627760325
 20
-0.5959182926737091
 30
0.0
 10
16.4590016654583
 20
-0.5940258651825924
 30
0.0
  0
LINE
  5
15B
330
1F
100
AcDbEntity
  8
중심선
100
AcDbLine
 10
19.72502959345226
 20
0.0000000000000033
 30
0.0
 11
19.95692193816528
 21
0.0000000000000034
 31
0.0
  0
ENDSEC
  0
SECTION
  2
OBJECTS
  0
DICTIONARY
  5
C
330
0
100
AcDbDictionary
281
     1
  3
ACAD_GROUP
350
D
  3
ACAD_IMAGE_VARS
350
14E
  3
ACAD_LAYOUT
350
1A
  3
ACAD_MLINESTYLE
350
17
  3
ACAD_PLOTSETTINGS
350
19
  3
ACAD_PLOTSTYLENAME
350
E
  3
ACAD_SCALELIST
350
47
  3
APPDATA
350
14C
  3
DWGPROPS
350
15E
  0
DICTIONARY
  5
D
102
{ACAD_REACTORS
330
C
102
}
330
C
100
AcDbDictionary
281
     1
  0
RASTERVARIABLES
  5
14E
102
{ACAD_REACTORS
330
C
102
}
330
C
100
AcDbRasterVariables
 90
        0
 70
     1
 71
     1
 72
     1
  0
DICTIONARY
  5
1A
102
{ACAD_REACTORS
330
C
102
}
330
C
100
AcDbDictionary
281
     1
  3
Layout1
350
1E
  3
Layout2
350
26
  3
Model
350
22
  0
DICTIONARY
  5
17
102
{ACAD_REACTORS
330
C
102
}
330
C
100
AcDbDictionary
281
     1
  3
Standard
350
18
  0
DICTIONARY
  5
19
102
{ACAD_REACTORS
330
C
102
}
330
C
100
AcDbDictionary
281
     1
  0
ACDBDICTIONARYWDFLT
  5
E
102
{ACAD_REACTORS
330
C
102
}
330
C
100
AcDbDictionary
281
     1
  3
Normal
350
F
100
AcDbDictionaryWithDefault
340
F
  0
DICTIONARY
  5
47
102
{ACAD_REACTORS
330
C
102
}
330
C
100
AcDbDictionary
281
     1
  3
A0
350
48
  3
A1
350
49
  3
A2
350
4A
  3
A3
350
4B
  3
A4
350
4C
  3
A5
350
4D
  3
A6
350
4E
  3
A7
350
4F
  3
A8
350
50
  3
A9
350
51
  3
B0
350
52
  3
B1
350
53
  3
B2
350
54
  3
B3
350
55
  3
B4
350
56
  3
B5
350
57
  3
B6
350
58
  3
B7
350
59
  3
B8
350
5A
  3
B9
350
5B
  3
C0
350
5C
  3
C1
350
5D
  3
C2
350
5E
  3
C3
350
5F
  3
C4
350
60
  3
C5
350
61
  3
C6
350
62
  3
C7
350
63
  3
C8
350
64
  3
C9
350
65
  3
D0
350
66
  3
D1
350
67
  3
D2
350
68
  0
DICTIONARY
  5
14C
102
{ACAD_REACTORS
330
C
102
}
330
C
100
AcDbDictionary
281
     1
  0
XRECORD
  5
15E
102
{ACAD_REACTORS
330
C
102
}
330
C
100
AcDbXrecord
280
     1
  1
DWGPROPS COOKIE
  2

  3

  4

  6

  7

  8
12014102
  9

300
=
301
=
302
=
303
=
304
=
305
=
306
=
307
=
308
=
309
=
 40
0.0
 41
2458260.191059977
 42
2458268.089561424
  1

 90
        0
  0
LAYOUT
  5
1E
102
{ACAD_REACTORS
330
1A
102
}
330
1A
100
AcDbPlotSettings
  1

  2
none_device
  4

  6

 40
0.0
 41
0.0
 42
0.0
 43
0.0
 44
0.0
 45
0.0
 46
0.0
 47
0.0
 48
0.0
 49
0.0
140
0.0
141
0.0
142
1.0
143
1.0
 70
   688
 72
     1
 73
     0
 74
     5
  7

 75
    16
147
1.0
148
0.0
149
0.0
100
AcDbLayout
  1
Layout1
 70
     1
 71
     1
 10
0.0
 20
0.0
 11
420.0
 21
297.0
 12
0.0
 22
0.0
 32
0.0
 14
1.000000000000000E+20
 24
1.000000000000000E+20
 34
1.000000000000000E+20
 15
-1.000000000000000E+20
 25
-1.000000000000000E+20
 35
-1.000000000000000E+20
146
0.0
 13
0.0
 23
0.0
 33
0.0
 16
1.0
 26
0.0
 36
0.0
 17
0.0
 27
1.0
 37
0.0
 76
     0
330
1B
  0
LAYOUT
  5
26
102
{ACAD_REACTORS
330
1A
102
}
330
1A
100
AcDbPlotSettings
  1

  2
none_device
  4

  6

 40
0.0
 41
0.0
 42
0.0
 43
0.0
 44
0.0
 45
0.0
 46
0.0
 47
0.0
 48
0.0
 49
0.0
140
0.0
141
0.0
142
1.0
143
1.0
 70
   688
 72
     1
 73
     0
 74
     5
  7

 75
    16
147
1.0
148
0.0
149
0.0
100
AcDbLayout
  1
Layout2
 70
     1
 71
     2
 10
0.0
 20
0.0
 11
0.0
 21
0.0
 12
0.0
 22
0.0
 32
0.0
 14
0.0
 24
0.0
 34
0.0
 15
0.0
 25
0.0
 35
0.0
146
0.0
 13
0.0
 23
0.0
 33
0.0
 16
1.0
 26
0.0
 36
0.0
 17
0.0
 27
1.0
 37
0.0
 76
     0
330
23
  0
LAYOUT
  5
22
102
{ACAD_REACTORS
330
1A
102
}
330
1A
100
AcDbPlotSettings
  1

  2
none_device
  4
ANSI_A_(11.00_x_8.50_Inches)
  6

 40
6.35
 41
19.05
 42
6.35000508
 43
19.05000254
 44
279.4
 45
215.9
 46
164.8000950970896
 47
125.3847137330092
 48
0.0
 49
0.0
140
0.0
141
0.0
142
0.1112850254374008
143
1.0
 70
  1696
 72
     0
 73
     0
 74
     0
  7

 75
     0
147
0.0235690232323232
148
0.0
149
0.0
100
AcDbLayout
  1
Model
 70
     1
 71
     0
 10
0.0
 20
0.0
 11
420.0
 21
297.0
 12
0.0
 22
0.0
 32
0.0
 14
-50.39237797958099
 24
-49.97180738881174
 34
0.0
 15
31.23492011944538
 25
24.76413260158164
 35
0.0
146
0.0
 13
0.0
 23
0.0
 33
0.0
 16
1.0
 26
0.0
 36
0.0
 17
0.0
 27
1.0
 37
0.0
 76
     0
330
1F
331
29
  0
MLINESTYLE
  5
18
102
{ACAD_REACTORS
330
17
102
}
330
17
100
AcDbMlineStyle
  2
Standard
 70
     0
  3

 62
   256
 51
90.0
 52
90.0
 71
     2
 49
0.5
 62
   256
  6
BYLAYER
 49
-0.5
 62
   256
  6
BYLAYER
  0
ACDBPLACEHOLDER
  5
F
102
{ACAD_REACTORS
330
E
102
}
330
E
  0
SCALE
  5
48
102
{ACAD_REACTORS
330
47
102
}
330
47
100
AcDbScale
 70
     0
300
1:1
140
1.0
141
1.0
290
     1
  0
SCALE
  5
49
102
{ACAD_REACTORS
330
47
102
}
330
47
100
AcDbScale
 70
     0
300
1:2
140
1.0
141
2.0
290
     0
  0
SCALE
  5
4A
102
{ACAD_REACTORS
330
47
102
}
330
47
100
AcDbScale
 70
     0
300
1:4
140
1.0
141
4.0
290
     0
  0
SCALE
  5
4B
102
{ACAD_REACTORS
330
47
102
}
330
47
100
AcDbScale
 70
     0
300
1:5
140
1.0
141
5.0
290
     0
  0
SCALE
  5
4C
102
{ACAD_REACTORS
330
47
102
}
330
47
100
AcDbScale
 70
     0
300
1:8
140
1.0
141
8.0
290
     0
  0
SCALE
  5
4D
102
{ACAD_REACTORS
330
47
102
}
330
47
100
AcDbScale
 70
     0
300
1:10
140
1.0
141
10.0
290
     0
  0
SCALE
  5
4E
102
{ACAD_REACTORS
330
47
102
}
330
47
100
AcDbScale
 70
     0
300
1:16
140
1.0
141
16.0
290
     0
  0
SCALE
  5
4F
102
{ACAD_REACTORS
330
47
102
}
330
47
100
AcDbScale
 70
     0
300
1:20
140
1.0
141
20.0
290
     0
  0
SCALE
  5
50
102
{ACAD_REACTORS
330
47
102
}
330
47
100
AcDbScale
 70
     0
300
1:30
140
1.0
141
30.0
290
     0
  0
SCALE
  5
51
102
{ACAD_REACTORS
330
47
102
}
330
47
100
AcDbScale
 70
     0
300
1:40
140
1.0
141
40.0
290
     0
  0
SCALE
  5
52
102
{ACAD_REACTORS
330
47
102
}
330
47
100
AcDbScale
 70
     0
300
1:50
140
1.0
141
50.0
290
     0
  0
SCALE
  5
53
102
{ACAD_REACTORS
330
47
102
}
330
47
100
AcDbScale
 70
     0
300
1:100
140
1.0
141
100.0
290
     0
  0
SCALE
  5
54
102
{ACAD_REACTORS
330
47
102
}
330
47
100
AcDbScale
 70
     0
300
2:1
140
2.0
141
1.0
290
     0
  0
SCALE
  5
55
102
{ACAD_REACTORS
330
47
102
}
330
47
100
AcDbScale
 70
     0
300
4:1
140
4.0
141
1.0
290
     0
  0
SCALE
  5
56
102
{ACAD_REACTORS
330
47
102
}
330
47
100
AcDbScale
 70
     0
300
8:1
140
8.0
141
1.0
290
     0
  0
SCALE
  5
57
102
{ACAD_REACTORS
330
47
102
}
330
47
100
AcDbScale
 70
     0
300
10:1
140
10.0
141
1.0
290
     0
  0
SCALE
  5
58
102
{ACAD_REACTORS
330
47
102
}
330
47
100
AcDbScale
 70
     0
300
100:1
140
100.0
141
1.0
290
     0
  0
SCALE
  5
59
102
{ACAD_REACTORS
330
47
102
}
330
47
100
AcDbScale
 70
     0
300
1/128" = 1'-0"
140
0.0078125
141
12.0
290
     0
  0
SCALE
  5
5A
102
{ACAD_REACTORS
330
47
102
}
330
47
100
AcDbScale
 70
     0
300
1/64" = 1'-0"
140
0.015625
141
12.0
290
     0
  0
SCALE
  5
5B
102
{ACAD_REACTORS
330
47
102
}
330
47
100
AcDbScale
 70
     0
300
1/32" = 1'-0"
140
0.03125
141
12.0
290
     0
  0
SCALE
  5
5C
102
{ACAD_REACTORS
330
47
102
}
330
47
100
AcDbScale
 70
     0
300
1/16" = 1'-0"
140
0.0625
141
12.0
290
     0
  0
SCALE
  5
5D
102
{ACAD_REACTORS
330
47
102
}
330
47
100
AcDbScale
 70
     0
300
3/32" = 1'-0"
140
0.09375
141
12.0
290
     0
  0
SCALE
  5
5E
102
{ACAD_REACTORS
330
47
102
}
330
47
100
AcDbScale
 70
     0
300
1/8" = 1'-0"
140
0.125
141
12.0
290
     0
  0
SCALE
  5
5F
102
{ACAD_REACTORS
330
47
102
}
330
47
100
AcDbScale
 70
     0
300
3/16" = 1'-0"
140
0.1875
141
12.0
290
     0
  0
SCALE
  5
60
102
{ACAD_REACTORS
330
47
102
}
330
47
100
AcDbScale
 70
     0
300
1/4" = 1'-0"
140
0.25
141
12.0
290
     0
  0
SCALE
  5
61
102
{ACAD_REACTORS
330
47
102
}
330
47
100
AcDbScale
 70
     0
300
3/8" = 1'-0"
140
0.375
141
12.0
290
     0
  0
SCALE
  5
62
102
{ACAD_REACTORS
330
47
102
}
330
47
100
AcDbScale
 70
     0
300
1/2" = 1'-0"
140
0.5
141
12.0
290
     0
  0
SCALE
  5
63
102
{ACAD_REACTORS
330
47
102
}
330
47
100
AcDbScale
 70
     0
300
3/4" = 1'-0"
140
0.75
141
12.0
290
     0
  0
SCALE
  5
64
102
{ACAD_REACTORS
330
47
102
}
330
47
100
AcDbScale
 70
     0
300
1" = 1'-0"
140
1.0
141
12.0
290
     0
  0
SCALE
  5
65
102
{ACAD_REACTORS
330
47
102
}
330
47
100
AcDbScale
 70
     0
300
1-1/2" = 1'-0"
140
1.5
141
12.0
290
     0
  0
SCALE
  5
66
102
{ACAD_REACTORS
330
47
102
}
330
47
100
AcDbScale
 70
     0
300
3" = 1'-0"
140
3.0
141
12.0
290
     0
  0
SCALE
  5
67
102
{ACAD_REACTORS
330
47
102
}
330
47
100
AcDbScale
 70
     0
300
6" = 1'-0"
140
6.0
141
12.0
290
     0
  0
SCALE
  5
68
102
{ACAD_REACTORS
330
47
102
}
330
47
100
AcDbScale
 70
     0
300
1'-0" = 1'-0"
140
12.0
141
12.0
290
     0
  0
ENDSEC
  0
EOF
