  0
SECTION
  2
HEADER
  9
$ACADVER
  1
AC1015
  9
$ACADMAINTVER
 70
     6
  9
$DWGCODEPAGE
  3
ANSI_949
  9
$INSBASE
 10
0.0
 20
0.0
 30
0.0
  9
$EXTMIN
 10
-48.27042752975577
 20
-49.97073246008785
 30
0.0
  9
$EXTMAX
 10
86.08495504637732
 20
24.46856086770649
 30
0.0
  9
$LIMMIN
 10
0.0
 20
0.0
  9
$LIMMAX
 10
420.0
 20
297.0
  9
$ORTHOMODE
 70
     0
  9
$REGENMODE
 70
     1
  9
$FILLMODE
 70
     1
  9
$QTEXTMODE
 70
     0
  9
$MIRRTEXT
 70
     1
  9
$LTSCALE
 40
1.0
  9
$ATTMODE
 70
     1
  9
$TEXTSIZE
 40
3.5
  9
$TRACEWID
 40
1.0
  9
$TEXTSTYLE
  7
Standard
  9
$CLAYER
  8
0
  9
$CELTYPE
  6
ByLayer
  9
$CECOLOR
 62
   256
  9
$CELTSCALE
 40
1.0
  9
$DISPSILH
 70
     0
  9
$DIMSCALE
 40
1.0
  9
$DIMASZ
 40
3.302
  9
$DIMEXO
 40
1.0
  9
$DIMDLI
 40
3.75
  9
$DIMRND
 40
0.0
  9
$DIMDLE
 40
0.0
  9
$DIMEXE
 40
1.0
  9
$DIMTP
 40
0.0
  9
$DIMTM
 40
0.0
  9
$DIMTXT
 40
3.5
  9
$DIMCEN
 40
2.5
  9
$DIMTSZ
 40
0.0
  9
$DIMTOL
 70
     0
  9
$DIMLIM
 70
     0
  9
$DIMTIH
 70
     1
  9
$DIMTOH
 70
     1
  9
$DIMSE1
 70
     0
  9
$DIMSE2
 70
     0
  9
$DIMTAD
 70
     1
  9
$DIMZIN
 70
     0
  9
$DIMBLK
  1

  9
$DIMASO
 70
     1
  9
$DIMSHO
 70
     1
  9
$DIMPOST
  1

  9
$DIMAPOST
  1

  9
$DIMALT
 70
     0
  9
$DIMALTD
 70
     3
  9
$DIMALTF
 40
0.0393700787401575
  9
$DIMLFAC
 40
1.0
  9
$DIMTOFL
 70
     1
  9
$DIMTVP
 40
0.0
  9
$DIMTIX
 70
     0
  9
$DIMSOXD
 70
     0
  9
$DIMSAH
 70
     0
  9
$DIMBLK1
  1

  9
$DIMBLK2
  1

  9
$DIMSTYLE
  2
ISO-25
  9
$DIMCLRD
 70
     0
  9
$DIMCLRE
 70
     0
  9
$DIMCLRT
 70
     0
  9
$DIMTFAC
 40
1.0
  9
$DIMGAP
 40
1.524
  9
$DIMJUST
 70
     0
  9
$DIMSD1
 70
     0
  9
$DIMSD2
 70
     0
  9
$DIMTOLJ
 70
     0
  9
$DIMTZIN
 70
     0
  9
$DIMALTZ
 70
     0
  9
$DIMALTTZ
 70
     0
  9
$DIMUPT
 70
     0
  9
$DIMDEC
 70
     2
  9
$DIMTDEC
 70
     2
  9
$DIMALTU
 70
     2
  9
$DIMALTTD
 70
     3
  9
$DIMTXSTY
  7
Standard
  9
$DIMAUNIT
 70
     0
  9
$DIMADEC
 70
     2
  9
$DIMALTRND
 40
0.0
  9
$DIMAZIN
 70
     0
  9
$DIMDSEP
 70
    44
  9
$DIMATFIT
 70
     3
  9
$DIMFRAC
 70
     0
  9
$DIMLDRBLK
  1

  9
$DIMLUNIT
 70
     2
  9
$DIMLWD
 70
    -2
  9
$DIMLWE
 70
    -2
  9
$DIMTMOVE
 70
     0
  9
$LUNITS
 70
     2
  9
$LUPREC
 70
     2
  9
$SKETCHINC
 40
1.0
  9
$FILLETRAD
 40
10.0
  9
$AUNITS
 70
     0
  9
$AUPREC
 70
     2
  9
$MENU
  1
.
  9
$ELEVATION
 40
0.0
  9
$PELEVATION
 40
0.0
  9
$THICKNESS
 40
0.0
  9
$LIMCHECK
 70
     0
  9
$CHAMFERA
 40
0.0
  9
$CHAMFERB
 40
0.0
  9
$CHAMFERC
 40
0.0
  9
$CHAMFERD
 40
0.0
  9
$SKPOLY
 70
     0
  9
$TDCREATE
 40
2458270.8534236
  9
$TDUCREATE
 40
2458270.4784236
  9
$TDUPDATE
 40
2458271.453648715
  9
$TDUUPDATE
 40
2458271.078648715
  9
$TDINDWG
 40
0.000426088
  9
$TDUSRTIMER
 40
2458271.078222789
  9
$USRTIMER
 70
     1
  9
$ANGBASE
 50
0.0
  9
$ANGDIR
 70
     0
  9
$PDMODE
 70
     0
  9
$PDSIZE
 40
-1.0
  9
$PLINEWID
 40
0.0
  9
$SPLFRAME
 70
     0
  9
$SPLINETYPE
 70
     6
  9
$SPLINESEGS
 70
     8
  9
$HANDSEED
  5
176
  9
$SURFTAB1
 70
     6
  9
$SURFTAB2
 70
     6
  9
$SURFTYPE
 70
     6
  9
$SURFU
 70
     6
  9
$SURFV
 70
     6
  9
$UCSBASE
  2

  9
$UCSNAME
  2

  9
$UCSORG
 10
0.0
 20
0.0
 30
0.0
  9
$UCSXDIR
 10
1.0
 20
0.0
 30
0.0
  9
$UCSYDIR
 10
0.0
 20
1.0
 30
0.0
  9
$UCSORTHOREF
  2

  9
$UCSORTHOVIEW
 70
     0
  9
$UCSORGTOP
 10
0.0
 20
0.0
 30
0.0
  9
$UCSORGBOTTOM
 10
0.0
 20
0.0
 30
0.0
  9
$UCSORGLEFT
 10
0.0
 20
0.0
 30
0.0
  9
$UCSORGRIGHT
 10
0.0
 20
0.0
 30
0.0
  9
$UCSORGFRONT
 10
0.0
 20
0.0
 30
0.0
  9
$UCSORGBACK
 10
0.0
 20
0.0
 30
0.0
  9
$PUCSBASE
  2

  9
$PUCSNAME
  2

  9
$PUCSORG
 10
0.0
 20
0.0
 30
0.0
  9
$PUCSXDIR
 10
1.0
 20
0.0
 30
0.0
  9
$PUCSYDIR
 10
0.0
 20
1.0
 30
0.0
  9
$PUCSORTHOREF
  2

  9
$PUCSORTHOVIEW
 70
     0
  9
$PUCSORGTOP
 10
0.0
 20
0.0
 30
0.0
  9
$PUCSORGBOTTOM
 10
0.0
 20
0.0
 30
0.0
  9
$PUCSORGLEFT
 10
0.0
 20
0.0
 30
0.0
  9
$PUCSORGRIGHT
 10
0.0
 20
0.0
 30
0.0
  9
$PUCSORGFRONT
 10
0.0
 20
0.0
 30
0.0
  9
$PUCSORGBACK
 10
0.0
 20
0.0
 30
0.0
  9
$USERI1
 70
     0
  9
$USERI2
 70
     0
  9
$USERI3
 70
     0
  9
$USERI4
 70
     0
  9
$USERI5
 70
     0
  9
$USERR1
 40
0.0
  9
$USERR2
 40
0.0
  9
$USERR3
 40
0.0
  9
$USERR4
 40
0.0
  9
$USERR5
 40
0.0
  9
$WORLDVIEW
 70
     1
  9
$SHADEDGE
 70
     3
  9
$SHADEDIF
 70
    70
  9
$TILEMODE
 70
     1
  9
$MAXACTVP
 70
    64
  9
$PINSBASE
 10
0.0
 20
0.0
 30
0.0
  9
$PLIMCHECK
 70
     0
  9
$PEXTMIN
 10
1.000000000000000E+20
 20
1.000000000000000E+20
 30
1.000000000000000E+20
  9
$PEXTMAX
 10
-1.000000000000000E+20
 20
-1.000000000000000E+20
 30
-1.000000000000000E+20
  9
$PLIMMIN
 10
0.0
 20
0.0
  9
$PLIMMAX
 10
0.0
 20
0.0
  9
$UNITMODE
 70
     0
  9
$VISRETAIN
 70
     1
  9
$PLINEGEN
 70
     0
  9
$PSLTSCALE
 70
     1
  9
$TREEDEPTH
 70
  3020
  9
$CMLSTYLE
  2
Standard
  9
$CMLJUST
 70
     0
  9
$CMLSCALE
 40
20.0
  9
$PROXYGRAPHICS
 70
     1
  9
$MEASUREMENT
 70
     1
  9
$CELWEIGHT
370
    -1
  9
$ENDCAPS
280
     0
  9
$JOINSTYLE
280
     0
  9
$LWDISPLAY
290
     1
  9
$INSUNITS
 70
     4
  9
$HYPERLINKBASE
  1

  9
$STYLESHEET
  1

  9
$XEDIT
290
     1
  9
$CEPSNTYPE
380
     0
  9
$PSTYLEMODE
290
     1
  9
$FINGERPRINTGUID
  2
{82CF22DD-931C-411C-96B3-4D252D712EC1}
  9
$VERSIONGUID
  2
{FAEB1C32-E019-11D5-929B-00C0DF256EC4}
  9
$EXTNAMES
290
     1
  9
$PSVPSCALE
 40
0.0
  9
$OLESTARTUP
290
     0
  0
ENDSEC
  0
SECTION
  2
CLASSES
  0
CLASS
  1
ACDBDICTIONARYWDFLT
  2
AcDbDictionaryWithDefault
  3
ObjectDBX Classes
 90
        0
280
     0
281
     0
  0
CLASS
  1
VISUALSTYLE
  2
AcDbVisualStyle
  3
ObjectDBX Classes
 90
     4095
280
     0
281
     0
  0
CLASS
  1
MATERIAL
  2
AcDbMaterial
  3
ObjectDBX Classes
 90
     1153
280
     0
281
     0
  0
CLASS
  1
SCALE
  2
AcDbScale
  3
ObjectDBX Classes
 90
     1153
280
     0
281
     0
  0
CLASS
  1
SUN
  2
AcDbSun
  3
SCENEOE
 90
     1153
280
     0
281
     0
  0
CLASS
  1
ACDBPLACEHOLDER
  2
AcDbPlaceHolder
  3
ObjectDBX Classes
 90
        0
280
     0
281
     0
  0
CLASS
  1
LAYOUT
  2
AcDbLayout
  3
ObjectDBX Classes
 90
        0
280
     0
281
     0
  0
CLASS
  1
TABLESTYLE
  2
AcDbTableStyle
  3
ObjectDBX Classes
 90
     4095
280
     0
281
     0
  0
CLASS
  1
MLEADERSTYLE
  2
AcDbMLeaderStyle
  3
ACDB_MLEADERSTYLE_CLASS
 90
     4095
280
     0
281
     0
  0
CLASS
  1
RASTERVARIABLES
  2
AcDbRasterVariables
  3
ISM
 90
        0
280
     0
281
     0
  0
CLASS
  1
DIMASSOC
  2
AcDbDimAssoc
  3
"AcDbDimAssoc|Product Desc:     AcDim ARX App For Dimension|Company:          Autodesk, Inc.|WEB Address:      www.autodesk.com"
 90
        0
280
     0
281
     0
  0
ENDSEC
  0
SECTION
  2
TABLES
  0
TABLE
  2
VPORT
  5
8
330
0
100
AcDbSymbolTable
 70
     1
  0
VPORT
  5
29
330
8
100
AcDbSymbolTableRecord
100
AcDbViewportTableRecord
  2
*Active
 70
     0
 10
0.0
 20
0.0
 11
1.0
 21
1.0
 12
31.23185270980404
 22
4.375229974525482
 13
0.0
 23
0.0
 14
10.0
 24
10.0
 15
10.0
 25
10.0
 16
0.0
 26
0.0
 36
1.0
 17
0.0
 27
0.0
 37
0.0
 40
137.8094361393549
 41
1.43050193050193
 42
50.0
 43
0.0
 44
0.0
 50
0.0
 51
0.0
 71
    16
 72
  2000
 73
     1
 74
     3
 75
     0
 76
     0
 77
     0
 78
     0
281
     0
 65
     1
110
0.0
120
0.0
130
0.0
111
1.0
121
0.0
131
0.0
112
0.0
122
1.0
132
0.0
 79
     0
146
0.0
  0
ENDTAB
  0
TABLE
  2
LTYPE
  5
5
330
0
100
AcDbSymbolTable
 70
     6
  0
LTYPE
  5
14
330
5
100
AcDbSymbolTableRecord
100
AcDbLinetypeTableRecord
  2
ByBlock
 70
     0
  3

 72
    65
 73
     0
 40
0.0
  0
LTYPE
  5
15
330
5
100
AcDbSymbolTableRecord
100
AcDbLinetypeTableRecord
  2
ByLayer
 70
     0
  3

 72
    65
 73
     0
 40
0.0
  0
LTYPE
  5
16
330
5
100
AcDbSymbolTableRecord
100
AcDbLinetypeTableRecord
  2
Continuous
 70
     0
  3
Solid line
 72
    65
 73
     0
 40
0.0
  0
LTYPE
  5
6A
330
5
100
AcDbSymbolTableRecord
100
AcDbLinetypeTableRecord
  2
HIDDEN
 70
     0
  3
Hidden __ __ __ __ __ __ __ __ __ __ __ __ __ __
 72
    65
 73
     2
 40
1.905
 49
1.27
 74
     0
 49
-0.635
 74
     0
  0
LTYPE
  5
6B
330
5
100
AcDbSymbolTableRecord
100
AcDbLinetypeTableRecord
  2
PHANTOM
 70
     0
  3
Phantom ______  __  __  ______  __  __  ______
 72
    65
 73
     6
 40
12.7
 49
6.35
 74
     0
 49
-1.27
 74
     0
 49
1.27
 74
     0
 49
-1.27
 74
     0
 49
1.27
 74
     0
 49
-1.27
 74
     0
  0
LTYPE
  5
6C
330
5
100
AcDbSymbolTableRecord
100
AcDbLinetypeTableRecord
  2
CENTER
 70
     0
  3
Center ____ _ ____ _ ____ _ ____ _ ____ _ ____
 72
    65
 73
     4
 40
10.16
 49
6.35
 74
     0
 49
-1.27
 74
     0
 49
1.27
 74
     0
 49
-1.27
 74
     0
  0
LTYPE
  5
6D
330
5
100
AcDbSymbolTableRecord
100
AcDbLinetypeTableRecord
  2
CENTERX2
 70
     0
  3
Center (2x) ________  __  ________  __  _____
 72
    65
 73
     4
 40
20.32
 49
12.7
 74
     0
 49
-2.54
 74
     0
 49
2.54
 74
     0
 49
-2.54
 74
     0
  0
LTYPE
  5
6E
330
5
100
AcDbSymbolTableRecord
100
AcDbLinetypeTableRecord
  2
DOT2
 70
     0
  3
Dot (.5x) ........................................
 72
    65
 73
     2
 40
0.635
 49
0.0
 74
     0
 49
-0.635
 74
     0
  0
ENDTAB
  0
TABLE
  2
LAYER
  5
2
330
0
100
AcDbSymbolTable
 70
    18
  0
LAYER
  5
10
330
2
100
AcDbSymbolTableRecord
100
AcDbLayerTableRecord
  2
0
 70
     0
 62
     7
  6
Continuous
370
    -3
390
F
  0
LAYER
  5
6F
330
2
100
AcDbSymbolTableRecord
100
AcDbLayerTableRecord
  2
FORMAT
 70
     0
 62
     2
  6
Continuous
370
    -3
390
F
  0
LAYER
  5
70
330
2
100
AcDbSymbolTableRecord
100
AcDbLayerTableRecord
  2
외형선
 70
     0
 62
     4
  6
Continuous
370
    30
390
F
  0
LAYER
  5
71
330
2
100
AcDbSymbolTableRecord
100
AcDbLayerTableRecord
  2
숨은선
 70
     0
 62
     2
  6
HIDDEN
370
    15
390
F
  0
LAYER
  5
72
330
2
100
AcDbSymbolTableRecord
100
AcDbLayerTableRecord
  2
중심선
 70
     0
 62
     1
  6
CENTERX2
370
    -3
390
F
  0
LAYER
  5
73
330
2
100
AcDbSymbolTableRecord
100
AcDbLayerTableRecord
  2
파단선
 70
     0
 62
     4
  6
Continuous
370
    -3
390
F
  0
LAYER
  5
74
330
2
100
AcDbSymbolTableRecord
100
AcDbLayerTableRecord
  2
해칭선
 70
     0
 62
   100
  6
Continuous
370
    -3
390
F
  0
LAYER
  5
75
330
2
100
AcDbSymbolTableRecord
100
AcDbLayerTableRecord
  2
가는실선
 70
     0
 62
     4
  6
Continuous
370
    -3
390
F
  0
LAYER
  5
76
330
2
100
AcDbSymbolTableRecord
100
AcDbLayerTableRecord
  2
치수_보조선
 70
     0
 62
     4
  6
Continuous
370
    -3
390
F
  0
LAYER
  5
77
330
2
100
AcDbSymbolTableRecord
100
AcDbLayerTableRecord
  2
치수문자_일반주서
 70
     0
 62
     7
  6
Continuous
370
    15
390
F
  0
LAYER
  5
78
330
2
100
AcDbSymbolTableRecord
100
AcDbLayerTableRecord
  2
개별주서
 70
     0
 62
   100
  6
Continuous
370
    30
390
F
  0
LAYER
  5
79
330
2
100
AcDbSymbolTableRecord
100
AcDbLayerTableRecord
  2
중간선
 70
     0
 62
     2
  6
Continuous
370
    15
390
F
  0
LAYER
  5
7A
330
2
100
AcDbSymbolTableRecord
100
AcDbLayerTableRecord
  2
윤곽선
 70
     0
 62
     3
  6
Continuous
370
    40
390
F
  0
LAYER
  5
7B
330
2
100
AcDbSymbolTableRecord
100
AcDbLayerTableRecord
  2
중심마크
 70
     0
 62
   100
  6
Continuous
370
    30
390
F
  0
LAYER
  5
7C
330
2
100
AcDbSymbolTableRecord
100
AcDbLayerTableRecord
  2
가상선
 70
     0
 62
     4
  6
PHANTOM
370
    -3
390
F
  0
LAYER
  5
7D
330
2
100
AcDbSymbolTableRecord
100
AcDbLayerTableRecord
  2
특수지정선
 70
     0
 62
     5
  6
CENTERX2
370
    60
390
F
  0
LAYER
  5
7E
330
2
100
AcDbSymbolTableRecord
100
AcDbLayerTableRecord
  2
참조1
 70
     0
 62
    -4
  6
Continuous
370
    -3
390
F
  0
LAYER
  5
158
330
2
100
AcDbSymbolTableRecord
100
AcDbLayerTableRecord
  2
Defpoints
 70
     0
 62
     7
  6
Continuous
290
     0
370
    -3
390
F
  0
ENDTAB
  0
TABLE
  2
STYLE
  5
3
330
0
100
AcDbSymbolTable
 70
     2
  0
STYLE
  5
11
330
3
100
AcDbSymbolTableRecord
100
AcDbTextStyleTableRecord
  2
Standard
 70
     0
 40
0.0
 41
1.0
 50
0.0
 71
     0
 42
3.5
  3
txt
  4

  0
STYLE
  5
94
330
3
100
AcDbSymbolTableRecord
100
AcDbTextStyleTableRecord
  2
SLDTEXTSTYLE0
 70
     0
 40
0.0
 41
0.75
 50
0.0
 71
     0
 42
3.5
  3
TXT
  4

  0
ENDTAB
  0
TABLE
  2
VIEW
  5
6
330
0
100
AcDbSymbolTable
 70
     0
  0
ENDTAB
  0
TABLE
  2
UCS
  5
7
330
0
100
AcDbSymbolTable
 70
     0
  0
ENDTAB
  0
TABLE
  2
APPID
  5
9
330
0
100
AcDbSymbolTable
 70
     2
  0
APPID
  5
12
330
9
100
AcDbSymbolTableRecord
100
AcDbRegAppTableRecord
  2
ACAD
 70
     0
  0
APPID
  5
16C
330
9
100
AcDbSymbolTableRecord
100
AcDbRegAppTableRecord
  2
PE_DIMMEASUREMENT
 70
     0
  0
ENDTAB
  0
TABLE
  2
DIMSTYLE
  5
A
330
0
100
AcDbSymbolTable
 70
     4
100
AcDbDimStyleTable
  0
DIMSTYLE
105
27
330
A
100
AcDbSymbolTableRecord
100
AcDbDimStyleTableRecord
  2
ISO-25
 70
     0
 41
2.5
 42
0.625
 43
3.75
 44
1.25
 73
     0
 74
     0
 77
     1
 78
     8
140
2.5
141
2.5
143
0.03937007874016
147
0.625
171
     3
172
     1
178
     0
271
     2
272
     2
274
     3
278
    44
283
     0
284
     8
340
11
  0
DIMSTYLE
105
F9
102
{ACAD_REACTORS
330
F8
330
103
330
15A
102
}
330
A
100
AcDbSymbolTableRecord
100
AcDbDimStyleTableRecord
  2
SLDDIMSTYLE0
 70
     0
 41
3.302
 44
0.0
 45
0.000000001
 73
     0
 74
     0
 77
     1
 78
    12
 79
     3
140
3.5
147
0.875
173
     1
178
     0
271
     2
272
     2
276
     2
284
    12
340
94
  0
DIMSTYLE
105
10F
102
{ACAD_REACTORS
330
10E
102
}
330
A
100
AcDbSymbolTableRecord
100
AcDbDimStyleTableRecord
  2
SLDDIMSTYLE1
 70
     0
 41
3.302
 44
0.0
 45
0.000000001
 73
     0
 74
     0
 77
     1
 78
    12
 79
     3
140
3.5
147
0.875
172
     1
173
     1
178
     0
271
     2
272
     2
276
     2
284
    12
289
     0
340
94
  0
DIMSTYLE
105
11D
330
A
100
AcDbSymbolTableRecord
100
AcDbDimStyleTableRecord
  2
SLDDIMSTYLE2
 70
     0
 41
3.302
 44
0.0
 45
0.000000001
 73
     0
 74
     0
 77
     1
 78
     8
 79
     2
140
3.5
147
0.875
172
     1
173
     1
178
     0
271
     2
272
     2
276
     2
284
    12
289
     0
340
94
341
11E
343
11E
344
11E
  0
ENDTAB
  0
TABLE
  2
BLOCK_RECORD
  5
1
330
0
100
AcDbSymbolTable
 70
     9
  0
BLOCK_RECORD
  5
1F
330
1
100
AcDbSymbolTableRecord
100
AcDbBlockTableRecord
  2
*Model_Space
340
22
  0
BLOCK_RECORD
  5
1B
330
1
100
AcDbSymbolTableRecord
100
AcDbBlockTableRecord
  2
*Paper_Space
340
1E
  0
BLOCK_RECORD
  5
23
330
1
100
AcDbSymbolTableRecord
100
AcDbBlockTableRecord
  2
*Paper_Space0
340
26
  0
BLOCK_RECORD
  5
7F
330
1
100
AcDbSymbolTableRecord
100
AcDbBlockTableRecord
  2
블럭10
340
0
102
{BLKREFS
331
EF
102
}
  0
BLOCK_RECORD
  5
FA
330
1
100
AcDbSymbolTableRecord
100
AcDbBlockTableRecord
  2
_D
340
0
  0
BLOCK_RECORD
  5
104
330
1
100
AcDbSymbolTableRecord
100
AcDbBlockTableRecord
  2
_D_1
340
0
  0
BLOCK_RECORD
  5
110
330
1
100
AcDbSymbolTableRecord
100
AcDbBlockTableRecord
  2
_D_2
340
0
  0
BLOCK_RECORD
  5
11E
330
1
100
AcDbSymbolTableRecord
100
AcDbBlockTableRecord
  2
_NONE
340
0
  0
BLOCK_RECORD
  5
121
330
1
100
AcDbSymbolTableRecord
100
AcDbBlockTableRecord
  2
_D_3
340
0
  0
BLOCK_RECORD
  5
12D
330
1
100
AcDbSymbolTableRecord
100
AcDbBlockTableRecord
  2
SW_DOWELSYMBOL_0
340
0
102
{BLKREFS
331
133
102
}
  0
BLOCK_RECORD
  5
15D
330
1
100
AcDbSymbolTableRecord
100
AcDbBlockTableRecord
  2
*D8
340
0
  0
ENDTAB
  0
ENDSEC
  0
SECTION
  2
BLOCKS
  0
BLOCK
  5
20
330
1F
100
AcDbEntity
  8
0
100
AcDbBlockBegin
  2
*Model_Space
 70
     0
 10
0.0
 20
0.0
 30
0.0
  3
*Model_Space
  1
*Model_Space
  0
ENDBLK
  5
21
330
1F
100
AcDbEntity
  8
0
100
AcDbBlockEnd
  0
BLOCK
  5
1C
330
1B
100
AcDbEntity
 67
     1
  8
0
100
AcDbBlockBegin
  2
*Paper_Space
 70
     0
 10
0.0
 20
0.0
 30
0.0
  3
*Paper_Space
  1
*Paper_Space
  0
ENDBLK
  5
1D
330
1B
100
AcDbEntity
 67
     1
  8
0
100
AcDbBlockEnd
  0
BLOCK
  5
24
330
23
100
AcDbEntity
  8
0
100
AcDbBlockBegin
  2
*Paper_Space0
 70
     0
 10
0.0
 20
0.0
 30
0.0
  3
*Paper_Space0
  1
*Paper_Space0
  0
ENDBLK
  5
25
330
23
100
AcDbEntity
  8
0
100
AcDbBlockEnd
  0
BLOCK
  5
80
330
7F
100
AcDbEntity
  8
0
100
AcDbBlockBegin
  2
블럭10
 70
     2
 10
0.0
 20
0.0
 30
0.0
  3
블럭10
  1
블럭10
  0
ELLIPSE
  5
82
330
7F
100
AcDbEntity
  8
중심선
100
AcDbEllipse
 10
20.54032771741204
 20
12.0471743016438
 30
0.0
 11
6.600054785286829
 21
-1.261213355974178E-13
 31
0.0
210
0.0
220
0.0
230
1.0
 40
0.636358354079598
 41
0.9219305317359503
 42
6.513795318482858
  0
ELLIPSE
  5
83
330
7F
100
AcDbEntity
  8
중심선
100
AcDbEllipse
 10
20.54032771746488
 20
12.04717430159265
 30
0.0
 11
3.960054785062283
 21
1.540847449632565E-10
 31
0.0
210
0.0
220
0.0
230
1.0
 40
0.3939339440162632
 41
1.131841032648279
 42
5.62031148352944
  0
LINE
  5
84
330
7F
100
AcDbEntity
  8
중심선
100
AcDbLine
 10
2.268634060543552
 20
16.24717430164393
 30
0.0
 11
5.714909304380834
 21
16.24717430164393
 31
0.0
  0
LINE
  5
85
330
7F
100
AcDbEntity
  8
중심선
100
AcDbLine
 10
5.245725140726316
 20
7.84717430164391
 30
0.0
 11
8.692000384563599
 21
7.84717430164391
 31
0.0
  0
LINE
  5
86
330
7F
100
AcDbEntity
  8
중심선
100
AcDbLine
 10
15.74043728645272
 20
16.24717430164393
 30
0.0
 11
8.692000384563599
 21
7.84717430164391
 31
0.0
  0
LINE
  5
87
330
7F
100
AcDbEntity
  8
중심선
100
AcDbLine
 10
0.1404042013395286
 20
13.71084872107135
 30
0.0
 11
3.58671253028996
 21
13.71088815037384
 31
0.0
  0
LINE
  5
88
330
7F
100
AcDbEntity
  8
중심선
100
AcDbLine
 10
2.750260043222114
 20
10.84717430164391
 30
0.0
 11
6.196535287059397
 21
10.84717430164391
 31
0.0
  0
LINE
  5
89
330
7F
100
AcDbEntity
  8
중심선
100
AcDbLine
 10
12.29416204261559
 20
16.24717430164393
 30
0.0
 11
5.245725140726316
 21
7.84717430164391
 31
0.0
  0
LINE
  5
8A
330
7F
100
AcDbEntity
  8
중심선
100
AcDbLine
 10
10.72767329541681
 20
16.24717430164393
 30
0.0
 11
6.196535287059397
 21
10.84717430164391
 31
0.0
  0
LINE
  5
8B
330
7F
100
AcDbEntity
  8
중심선
100
AcDbLine
 10
7.28139805157953
 20
16.24717430164393
 30
0.0
 11
2.750260043222114
 21
10.84717430164391
 31
0.0
  0
LINE
  5
8C
330
7F
100
AcDbEntity
  8
중심선
100
AcDbLine
 10
5.714909304380834
 20
16.24717430164393
 30
0.0
 11
3.58671253028996
 21
13.71088815037384
 31
0.0
  0
LINE
  5
8D
330
7F
100
AcDbEntity
  8
중심선
100
AcDbLine
 10
2.268634060543552
 20
16.24717430164393
 30
0.0
 11
0.1404042013395286
 21
13.71084872107135
 31
0.0
  0
LINE
  5
8E
330
7F
100
AcDbEntity
  8
중심선
100
AcDbLine
 10
7.28139805157953
 20
16.24717430164393
 30
0.0
 11
10.72767329541681
 21
16.24717430164393
 31
0.0
  0
LINE
  5
8F
330
7F
100
AcDbEntity
  8
중심선
100
AcDbLine
 10
12.29416204261559
 20
16.24717430164393
 30
0.0
 11
15.74043728645272
 21
16.24717430164393
 31
0.0
  0
LINE
  5
90
330
7F
100
AcDbEntity
  8
중심선
100
AcDbLine
 10
19.22036997980202
 20
11.08717430171403
 30
0.0
 11
23.66174974927406
 21
11.08717430171406
 31
0.0
  0
LINE
  5
91
330
7F
100
AcDbEntity
  8
중심선
100
AcDbLine
 10
19.22039502424796
 20
13.00717430171391
 30
0.0
 11
19.22036997980202
 21
11.08717430171403
 31
0.0
  0
LINE
  5
92
330
7F
100
AcDbEntity
  8
중심선
100
AcDbLine
 10
19.22039502424796
 20
13.00717430171391
 30
0.0
 11
26.96566020931264
 21
13.00717430171391
 31
0.0
  0
LINE
  5
93
330
7F
100
AcDbEntity
  8
중심선
100
AcDbLine
 10
22.22332737316547
 20
13.45928029700563
 30
0.0
 11
24.52862924686651
 21
15.39360700705356
 31
0.0
  0
ATTDEF
  5
95
330
7F
100
AcDbEntity
  8
FORMAT
 62
     2
100
AcDbText
 10
-16.11926103943555
 20
2.075366912832191
 30
0.0
 40
4.233333333333333
  1
SEME7201012E [ 4 FLUTE ]
 41
0.75
  7
SLDTEXTSTYLE0
 11
-16.11926103943555
 21
-0.0412997538344756
 31
0.0
100
AcDbAttributeDefinition
  3

  2
AUTOATTR0
 70
     0
 74
     1
  0
ENDBLK
  5
81
330
7F
100
AcDbEntity
  8
0
100
AcDbBlockEnd
  0
BLOCK
  5
FB
330
FA
100
AcDbEntity
  8
0
100
AcDbBlockBegin
  2
_D
 70
     0
 10
0.0
 20
0.0
 30
0.0
  3
_D
  1
_D
  0
LINE
  5
FD
330
FA
100
AcDbEntity
  8
치수문자_일반주서
 62
     0
370
    -2
100
AcDbLine
 10
24.32990825288495
 20
0.5617362244880562
 30
0.0
 11
24.32990825288495
 21
20.09356086770649
 31
0.0
  0
LINE
  5
FE
330
FA
100
AcDbEntity
  8
치수문자_일반주서
 62
     0
370
    -2
100
AcDbLine
 10
-35.67009174711505
 20
2.463574928723899
 30
0.0
 11
-35.67009174711505
 21
20.09356086770649
 31
0.0
  0
LINE
  5
FF
330
FA
100
AcDbEntity
  8
치수문자_일반주서
 62
     0
370
    -2
100
AcDbLine
 10
21.02790825288495
 20
20.09356086770649
 30
0.0
 11
-32.36809174711505
 21
20.09356086770649
 31
0.0
  0
SOLID
  5
100
330
FA
100
AcDbEntity
  8
치수문자_일반주서
 62
     0
100
AcDbTrace
 10
21.02790825288495
 20
19.54322753437316
 30
0.0
 11
21.02790825288495
 21
20.64389420103982
 31
0.0
 12
24.32990825288495
 22
20.09356086770649
 32
0.0
 13
24.32990825288495
 23
20.09356086770649
 33
0.0
  0
SOLID
  5
101
330
FA
100
AcDbEntity
  8
치수문자_일반주서
 62
     0
100
AcDbTrace
 10
-32.36809174711505
 20
20.64389420103982
 30
0.0
 11
-32.36809174711505
 21
19.54322753437316
 31
0.0
 12
-35.67009174711505
 22
20.09356086770649
 32
0.0
 13
-35.67009174711505
 23
20.09356086770649
 33
0.0
  0
MTEXT
  5
102
330
FA
100
AcDbEntity
  8
치수문자_일반주서
 62
     0
100
AcDbMText
 10
-5.670091747115053
 20
24.46856086770649
 30
0.0
 40
3.5
 41
0.0
 71
     2
 72
     1
  1
\A1;60
  7
SLDTEXTSTYLE0
 73
     1
 44
1.0
  0
POINT
  5
16E
330
FA
100
AcDbEntity
  8
Defpoints
 62
     0
100
AcDbPoint
 10
24.32990825288495
 20
0.4992362244880562
 30
0.0
  0
POINT
  5
16F
330
FA
100
AcDbEntity
  8
Defpoints
 62
     0
100
AcDbPoint
 10
-35.67009174711505
 20
2.401074928723899
 30
0.0
  0
POINT
  5
170
330
FA
100
AcDbEntity
  8
Defpoints
 62
     0
100
AcDbPoint
 10
-35.67009174711505
 20
20.09356086770649
 30
0.0
  0
ENDBLK
  5
FC
330
FA
100
AcDbEntity
  8
0
100
AcDbBlockEnd
  0
BLOCK
  5
105
330
104
100
AcDbEntity
  8
0
100
AcDbBlockBegin
  2
_D_1
 70
     0
 10
0.0
 20
0.0
 30
0.0
  3
_D_1
  1
_D_1
  0
LINE
  5
107
330
104
100
AcDbEntity
  8
치수문자_일반주서
 62
     0
370
    -2
100
AcDbLine
 10
24.32990825288495
 20
0.5617362244880562
 30
0.0
 11
24.32990825288495
 21
13.09963225914752
 31
0.0
  0
LINE
  5
108
330
104
100
AcDbEntity
  8
치수문자_일반주서
 62
     0
370
    -2
100
AcDbLine
 10
12.32990825288507
 20
0.5540405694736774
 30
0.0
 11
12.32990825288507
 21
13.09963225914752
 31
0.0
  0
LINE
  5
109
330
104
100
AcDbEntity
  8
치수문자_일반주서
 62
     0
370
    -2
100
AcDbLine
 10
24.32990825288495
 20
13.09963225914752
 30
0.0
 11
64.76293774843523
 21
13.09963225914752
 31
0.0
  0
LINE
  5
10A
330
104
100
AcDbEntity
  8
치수문자_일반주서
 62
     0
370
    -2
100
AcDbLine
 10
21.02790825288495
 20
13.09963225914752
 30
0.0
 11
15.63190825288507
 21
13.09963225914752
 31
0.0
  0
SOLID
  5
10B
330
104
100
AcDbEntity
  8
치수문자_일반주서
 62
     0
100
AcDbTrace
 10
21.02790825288495
 20
12.54929892581418
 30
0.0
 11
21.02790825288495
 21
13.64996559248085
 31
0.0
 12
24.32990825288495
 22
13.09963225914752
 32
0.0
 13
24.32990825288495
 23
13.09963225914752
 33
0.0
  0
SOLID
  5
10C
330
104
100
AcDbEntity
  8
치수문자_일반주서
 62
     0
100
AcDbTrace
 10
15.63190825288507
 20
13.64996559248085
 30
0.0
 11
15.63190825288507
 21
12.54929892581418
 31
0.0
 12
12.32990825288507
 22
13.09963225914752
 32
0.0
 13
12.32990825288507
 23
13.09963225914752
 33
0.0
  0
MTEXT
  5
10D
330
104
100
AcDbEntity
  8
치수문자_일반주서
 62
     0
100
AcDbMText
 10
62.13793774843523
 20
17.47463225914752
 30
0.0
 40
3.5
 41
0.0
 71
     2
 72
     1
  1
\A1;12
  7
SLDTEXTSTYLE0
 73
     1
 44
1.0
  0
POINT
  5
171
330
104
100
AcDbEntity
  8
Defpoints
 62
     0
100
AcDbPoint
 10
24.32990825288495
 20
0.4992362244880562
 30
0.0
  0
POINT
  5
172
330
104
100
AcDbEntity
  8
Defpoints
 62
     0
100
AcDbPoint
 10
12.32990825288507
 20
0.4915405694736775
 30
0.0
  0
POINT
  5
173
330
104
100
AcDbEntity
  8
Defpoints
 62
     0
100
AcDbPoint
 10
12.32990825288507
 20
13.09963225915454
 30
0.0
  0
ENDBLK
  5
106
330
104
100
AcDbEntity
  8
0
100
AcDbBlockEnd
  0
BLOCK
  5
111
330
110
100
AcDbEntity
  8
0
100
AcDbBlockBegin
  2
_D_2
 70
     0
 10
0.0
 20
0.0
 30
0.0
  3
_D_2
  1
_D_2
  0
LINE
  5
113
330
110
100
AcDbEntity
  8
치수문자_일반주서
 62
     0
370
    -2
100
AcDbLine
 10
-35.13259174711506
 20
3.001074928723896
 30
0.0
 11
-43.89542752975577
 21
3.001074928723863
 31
0.0
  0
LINE
  5
114
330
110
100
AcDbEntity
  8
치수문자_일반주서
 62
     0
370
    -2
100
AcDbLine
 10
-35.13259174711506
 20
-2.99892507127611
 30
0.0
 11
-43.89542752975575
 21
-2.998925071276142
 31
0.0
  0
LINE
  5
115
330
110
100
AcDbEntity
  8
치수문자_일반주서
 62
     0
370
    -2
100
AcDbLine
 10
-43.89542752975576
 20
-0.3009250712761364
 30
0.0
 11
-43.89542752975576
 21
0.3030749287238574
 31
0.0
  0
SOLID
  5
116
330
110
100
AcDbEntity
  8
치수문자_일반주서
 62
     0
100
AcDbTrace
 10
-43.34509419642242
 20
-0.3009250712761345
 30
0.0
 11
-44.44576086308909
 21
-0.3009250712761384
 31
0.0
 12
-43.89542752975577
 22
3.001074928723863
 32
0.0
 13
-43.89542752975577
 23
3.001074928723863
 33
0.0
  0
SOLID
  5
117
330
110
100
AcDbEntity
  8
치수문자_일반주서
 62
     0
100
AcDbTrace
 10
-44.4457608630891
 20
0.3030749287238555
 30
0.0
 11
-43.34509419642243
 21
0.3030749287238594
 31
0.0
 12
-43.89542752975575
 22
-2.998925071276142
 32
0.0
 13
-43.89542752975575
 23
-2.998925071276142
 33
0.0
  0
MTEXT
  5
118
330
110
100
AcDbEntity
  8
치수문자_일반주서
 62
     0
100
AcDbMText
 10
-48.27042752975576
 20
0.0010749287238794
 30
0.0
 40
3.5
 41
0.0
 71
     2
 72
     1
  1
\A1;%%c6
  7
SLDTEXTSTYLE0
 11
-3.552713678800498E-15
 21
1.0
 31
0.0
 73
     1
 44
1.0
  0
POINT
  5
119
330
110
100
AcDbEntity
  8
Defpoints
 62
     0
100
AcDbPoint
 10
-35.07009174711506
 20
3.001074928723896
 30
0.0
  0
POINT
  5
11A
330
110
100
AcDbEntity
  8
Defpoints
 62
     0
100
AcDbPoint
 10
-35.07009174711506
 20
-2.998925071276109
 30
0.0
  0
POINT
  5
11B
330
110
100
AcDbEntity
  8
Defpoints
 62
     0
100
AcDbPoint
 10
-43.89542752975576
 20
-2.998925071276142
 30
0.0
  0
ENDBLK
  5
112
330
110
100
AcDbEntity
  8
0
100
AcDbBlockEnd
  0
BLOCK
  5
11F
330
11E
100
AcDbEntity
  8
0
100
AcDbBlockBegin
  2
_NONE
 70
     0
 10
0.0
 20
0.0
 30
0.0
  3
_NONE
  1
_NONE
  0
ENDBLK
  5
120
330
11E
100
AcDbEntity
  8
0
100
AcDbBlockEnd
  0
BLOCK
  5
122
330
121
100
AcDbEntity
  8
0
100
AcDbBlockBegin
  2
_D_3
 70
     0
 10
0.0
 20
0.0
 30
0.0
  3
_D_3
  1
_D_3
  0
MTEXT
  5
124
330
121
100
AcDbEntity
  8
치수문자_일반주서
100
AcDbMText
 10
5.294274912943388
 20
-3.431199483639888
 30
0.0
 40
3.5
 41
0.0
 71
     1
 72
     1
  1
%%c
  7
SLDTEXTSTYLE0
 11
6.123233995736766E-17
 21
1.0
 31
0.0
 73
     1
 44
1.0
  0
MTEXT
  5
125
330
121
100
AcDbEntity
  8
치수문자_일반주서
100
AcDbMText
 10
5.240802736283536
 20
1.847237914734193
 30
0.0
 40
3.5
 41
0.0
 71
     1
 72
     1
  1
0
  7
SLDTEXTSTYLE0
 11
6.123233995736766E-17
 21
1.0
 31
0.0
 73
     1
 44
1.0
  0
ENDBLK
  5
123
330
121
100
AcDbEntity
  8
0
100
AcDbBlockEnd
  0
BLOCK
  5
12E
330
12D
100
AcDbEntity
  8
0
100
AcDbBlockBegin
  2
SW_DOWELSYMBOL_0
 70
     0
 10
0.0
 20
0.0
 30
0.0
  3
SW_DOWELSYMBOL_0
  1
SW_DOWELSYMBOL_0
  0
CIRCLE
  5
130
330
12D
100
AcDbEntity
  8
해칭선
 62
     0
100
AcDbCircle
 10
0.0
 20
0.0
 30
0.0
 40
3.000000000000001
  0
HATCH
  5
131
330
12D
100
AcDbEntity
  8
0
  6
Continuous
 62
     0
370
     0
100
AcDbHatch
 10
0.0
 20
0.0
 30
0.0
210
0.0
220
0.0
230
1.0
  2
SOLID
 70
     1
 71
     0
 91
        1
 92
        0
 93
        3
 72
     2
 10
0.0
 20
0.0
 40
3.000000000000001
 50
0.0
 51
90.0
 73
     1
 72
     1
 10
0.0
 20
3.000000000000001
 11
0.0
 21
0.0
 72
     1
 10
0.0
 20
0.0
 11
3.000000000000001
 21
0.0
 97
        0
 75
     0
 76
     1
 98
        1
 10
0.0
 20
0.0
  0
HATCH
  5
132
330
12D
100
AcDbEntity
  8
0
  6
Continuous
 62
     0
370
     0
100
AcDbHatch
 10
0.0
 20
0.0
 30
0.0
210
0.0
220
0.0
230
1.0
  2
SOLID
 70
     1
 71
     0
 91
        1
 92
        0
 93
        3
 72
     2
 10
0.0
 20
0.0
 40
3.000000000000001
 50
180.0
 51
270.0000000000008
 73
     1
 72
     1
 10
0.0
 20
-3.000000000000001
 11
0.0
 21
0.0
 72
     1
 10
0.0
 20
0.0
 11
-3.000000000000001
 21
0.0
 97
        0
 75
     0
 76
     1
 98
        1
 10
0.0
 20
0.0
  0
ENDBLK
  5
12F
330
12D
100
AcDbEntity
  8
0
100
AcDbBlockEnd
  0
BLOCK
  5
15E
330
15D
100
AcDbEntity
  8
0
100
AcDbBlockBegin
  2
*D8
 70
     1
 10
0.0
 20
0.0
 30
0.0
  3
*D8
  1
*D8
  0
LINE
  5
160
330
15D
100
AcDbEntity
  8
치수문자_일반주서
 62
     0
370
    -2
100
AcDbLine
 10
24.39240825288493
 20
0.4992362244880563
 30
0.0
 11
38.4652185004466
 21
0.4992362244880555
 31
0.0
  0
LINE
  5
161
330
15D
100
AcDbEntity
  8
치수문자_일반주서
 62
     0
370
    -2
100
AcDbLine
 10
24.39240825288495
 20
-0.497086367040267
 30
0.0
 11
38.4652185004466
 21
-0.4970863670402679
 31
0.0
  0
LINE
  5
162
330
15D
100
AcDbEntity
  8
치수문자_일반주서
 62
     0
370
    -2
100
AcDbLine
 10
38.4652185004466
 20
-3.799086367040267
 30
0.0
 11
38.4652185004466
 21
-12.35108636704027
 31
0.0
  0
LINE
  5
163
330
15D
100
AcDbEntity
  8
치수문자_일반주서
 62
     0
370
    -2
100
AcDbLine
 10
38.4652185004466
 20
3.801236224488055
 30
0.0
 11
38.4652185004466
 21
7.103236224488055
 31
0.0
  0
SOLID
  5
164
330
15D
100
AcDbEntity
  8
치수문자_일반주서
 62
     0
100
AcDbTrace
 10
37.91488516711326
 20
3.801236224488055
 30
0.0
 11
39.01555183377993
 21
3.801236224488055
 31
0.0
 12
38.4652185004466
 22
0.4992362244880555
 32
0.0
 13
38.4652185004466
 23
0.4992362244880555
 33
0.0
  0
SOLID
  5
165
330
15D
100
AcDbEntity
  8
치수문자_일반주서
 62
     0
100
AcDbTrace
 10
39.01555183377993
 20
-3.799086367040267
 30
0.0
 11
37.91488516711326
 21
-3.799086367040267
 31
0.0
 12
38.4652185004466
 22
-0.4970863670402679
 32
0.0
 13
38.4652185004466
 23
-0.4970863670402679
 33
0.0
  0
MTEXT
  5
166
330
15D
100
AcDbEntity
  8
치수문자_일반주서
 62
     0
100
AcDbMText
 10
35.8402185004466
 20
-9.726086367040267
 30
0.0
 40
3.5
 41
0.0
 71
     5
 72
     1
  1
\A1;{%%C1}
  7
SLDTEXTSTYLE0
 11
0.0
 21
1.0
 31
0.0
 73
     1
 44
1.0
  0
POINT
  5
167
330
15D
100
AcDbEntity
  8
Defpoints
 62
     0
100
AcDbPoint
 10
24.32990825288493
 20
0.4992362244880563
 30
0.0
  0
POINT
  5
168
330
15D
100
AcDbEntity
  8
Defpoints
 62
     0
100
AcDbPoint
 10
24.32990825288495
 20
-0.497086367040267
 30
0.0
  0
POINT
  5
169
330
15D
100
AcDbEntity
  8
Defpoints
 62
     0
100
AcDbPoint
 10
38.4652185004466
 20
-0.4970863670402679
 30
0.0
  0
ENDBLK
  5
15F
330
15D
100
AcDbEntity
  8
0
100
AcDbBlockEnd
  0
ENDSEC
  0
SECTION
  2
ENTITIES
  0
LINE
  5
96
330
1F
100
AcDbEntity
  8
외형선
  6
Continuous
370
    15
100
AcDbLine
 10
16.06677421509277
 20
0.1053096051485021
 30
0.0
 11
15.97698924092443
 21
0.1517758891928145
 31
0.0
  0
LINE
  5
97
330
1F
100
AcDbEntity
  8
외형선
  6
Continuous
370
    15
100
AcDbLine
 10
21.52425060893046
 20
0.0979538925456747
 30
0.0
 11
21.42093480617549
 21
0.1503845802421183
 31
0.0
  0
LINE
  5
98
330
1F
100
AcDbEntity
  8
외형선
  6
Continuous
370
    15
100
AcDbLine
 10
20.84399134227417
 20
-0.1244897712120777
 30
0.0
 11
20.89051178525411
 21
-0.1484913418815963
 31
0.0
  0
LINE
  5
99
330
1F
100
AcDbEntity
  8
외형선
  6
Continuous
370
    15
100
AcDbLine
 10
15.38685120865116
 20
-0.1162937753984253
 30
0.0
 11
15.45022221713316
 21
-0.1491041906165629
 31
0.0
  0
LINE
  5
9A
330
1F
100
AcDbEntity
  8
외형선
  6
Continuous
370
    15
100
AcDbLine
 10
13.33728208099832
 20
0.1099410098796858
 30
0.0
 11
13.25803168199252
 21
0.1508249116142966
 31
0.0
  0
LINE
  5
9B
330
1F
100
AcDbEntity
  8
외형선
  6
Continuous
370
    15
100
AcDbLine
 10
18.79562971572921
 20
0.1011750757650701
 30
0.0
 11
18.69885671859006
 21
0.1511379085206833
 31
0.0
  0
LINE
  5
9C
330
1F
100
AcDbEntity
  8
외형선
  6
Continuous
370
    15
100
AcDbLine
 10
24.08931036599649
 20
0.1781945987972465
 30
0.0
 11
24.05909081963681
 21
0.1948039205565935
 31
0.0
  0
LINE
  5
9D
330
1F
100
AcDbEntity
  8
외형선
  6
Continuous
370
    15
100
AcDbLine
 10
23.57323527038017
 20
-0.1288682311784691
 30
0.0
 11
23.61231082232874
 21
-0.1490994740816578
 31
0.0
  0
LINE
  5
9E
330
1F
100
AcDbEntity
  8
외형선
  6
Continuous
370
    15
100
AcDbLine
 10
18.11530349377499
 20
-0.1211923221511299
 30
0.0
 11
18.16959499414997
 21
-0.1483709179481791
 31
0.0
  0
LINE
  5
9F
330
1F
100
AcDbEntity
  8
외형선
  6
Continuous
 62
     1
370
    15
100
AcDbLine
 10
21.68306567442087
 20
-0.4989250712761081
 30
0.0
 11
21.98850847951049
 21
-0.4989250712761081
 31
0.0
  0
LINE
  5
A0
330
1F
100
AcDbEntity
  8
외형선
  6
Continuous
 62
     1
370
    15
100
AcDbLine
 10
16.24202362673692
 20
-0.4989250712761081
 30
0.0
 11
16.54704447833326
 21
-0.4989250712761081
 31
0.0
  0
LINE
  5
A1
330
1F
100
AcDbEntity
  8
외형선
  6
Continuous
 62
     1
370
    15
100
AcDbLine
 10
13.82631691816015
 20
0.5010749287238944
 30
0.0
 11
13.52147554311188
 21
0.5010749287238944
 31
0.0
  0
LINE
  5
A2
330
1F
100
AcDbEntity
  8
외형선
  6
Continuous
 62
     1
370
    15
100
AcDbLine
 10
19.26777499189102
 20
0.5010749287238944
 30
0.0
 11
18.96255360588957
 21
0.5010749287238944
 31
0.0
  0
LINE
  5
A3
330
1F
100
AcDbEntity
  8
외형선
  6
Continuous
 62
     1
370
    15
100
AcDbLine
 10
18.96255360588956
 20
-0.4989250712761081
 30
0.0
 11
19.26777499189103
 21
-0.4989250712761081
 31
0.0
  0
LINE
  5
A4
330
1F
100
AcDbEntity
  8
외형선
  6
Continuous
 62
     1
370
    15
100
AcDbLine
 10
13.52147554311189
 20
-0.4989250712761081
 30
0.0
 11
13.82631691816015
 21
-0.4989250712761081
 31
0.0
  0
LINE
  5
A5
330
1F
100
AcDbEntity
  8
외형선
  6
Continuous
 62
     1
370
    15
100
AcDbLine
 10
16.54704447833326
 20
0.5010749287238944
 30
0.0
 11
16.24202362673693
 21
0.5010749287238944
 31
0.0
  0
LINE
  5
A6
330
1F
100
AcDbEntity
  8
외형선
  6
Continuous
 62
     1
370
    15
100
AcDbLine
 10
21.9885084795105
 20
0.5010749287238944
 30
0.0
 11
21.68306567442087
 21
0.5010749287238944
 31
0.0
  0
LINE
  5
A7
330
1F
100
AcDbEntity
  8
외형선
  6
Continuous
 62
     1
370
    15
100
AcDbLine
 10
23.04452774827027
 20
-0.4989250712761081
 30
0.0
 11
23.34875573367849
 21
-0.4989250712761081
 31
0.0
  0
LINE
  5
A8
330
1F
100
AcDbEntity
  8
외형선
  6
Continuous
 62
     1
370
    15
100
AcDbLine
 10
17.60352340365271
 20
-0.4989250712761081
 30
0.0
 11
17.90792610734954
 21
-0.4989250712761081
 31
0.0
  0
LINE
  5
A9
330
1F
100
AcDbEntity
  8
외형선
  6
Continuous
370
    15
100
AcDbLine
 10
12.32990825288495
 20
-0.4989250712761081
 30
0.0
 11
12.46522722689171
 21
-0.4989250712761081
 31
0.0
  0
LINE
  5
AA
330
1F
100
AcDbEntity
  8
외형선
  6
Continuous
 62
     1
370
    15
100
AcDbLine
 10
15.18744214020117
 20
0.5010749287238944
 30
0.0
 11
14.88291962753328
 21
0.5010749287238944
 31
0.0
  0
LINE
  5
AB
330
1F
100
AcDbEntity
  8
외형선
  6
Continuous
 62
     1
370
    15
100
AcDbLine
 10
20.62836384989507
 20
0.5010749287238944
 30
0.0
 11
20.32405930147452
 21
0.5010749287238944
 31
0.0
  0
LINE
  5
AC
330
1F
100
AcDbEntity
  8
외형선
  6
Continuous
 62
     1
370
    15
100
AcDbLine
 10
20.32405930147454
 20
-0.4989250712761081
 30
0.0
 11
20.62836384989507
 21
-0.4989250712761081
 31
0.0
  0
LINE
  5
AD
330
1F
100
AcDbEntity
  8
외형선
  6
Continuous
 62
     1
370
    15
100
AcDbLine
 10
14.88291962753328
 20
-0.4989250712761081
 30
0.0
 11
15.18744214020117
 21
-0.4989250712761081
 31
0.0
  0
LINE
  5
AE
330
1F
100
AcDbEntity
  8
외형선
  6
Continuous
370
    15
100
AcDbLine
 10
12.46522722689171
 20
0.5010749287238944
 30
0.0
 11
12.32990825288495
 21
0.5010749287238944
 31
0.0
  0
LINE
  5
AF
330
1F
100
AcDbEntity
  8
외형선
  6
Continuous
 62
     1
370
    15
100
AcDbLine
 10
17.90792610734954
 20
0.5010749287238944
 30
0.0
 11
17.60352340365271
 21
0.5010749287238944
 31
0.0
  0
LINE
  5
B0
330
1F
100
AcDbEntity
  8
외형선
  6
Continuous
 62
     1
370
    15
100
AcDbLine
 10
23.3487557336785
 20
0.5010749287238944
 30
0.0
 11
23.04452774827027
 21
0.5010749287238944
 31
0.0
  0
LINE
  5
B1
330
1F
100
AcDbEntity
  8
외형선
  6
Continuous
370
    15
100
AcDbLine
 10
-35.07009174711504
 20
3.001074928723893
 30
0.0
 11
-35.67009174711505
 21
2.401074928723899
 31
0.0
  0
LINE
  5
B2
330
1F
100
AcDbEntity
  8
외형선
  6
Continuous
370
    15
100
AcDbLine
 10
-35.67009174711505
 20
-2.398925071276113
 30
0.0
 11
-35.07009174711504
 21
-2.998925071276107
 31
0.0
  0
LINE
  5
B3
330
1F
100
AcDbEntity
  8
외형선
  6
Continuous
370
    15
100
AcDbLine
 10
2.000000000000016
 20
3.001074928723894
 30
0.0
 11
-35.07009174711504
 21
3.001074928723893
 31
0.0
  0
LINE
  5
B4
330
1F
100
AcDbEntity
  8
외형선
  6
Continuous
370
    15
100
AcDbLine
 10
-35.07009174711504
 20
-2.998925071276107
 30
0.0
 11
2.000000000000016
 21
-2.998925071276106
 31
0.0
  0
LINE
  5
B5
330
1F
100
AcDbEntity
  8
외형선
  6
Continuous
370
    15
100
AcDbLine
 10
2.000000000000016
 20
-2.998925071276105
 30
0.0
 11
6.555908252884949
 21
-1.340710077178283
 31
0.0
  0
LINE
  5
B6
330
1F
100
AcDbEntity
  8
외형선
  6
Continuous
370
    15
100
AcDbLine
 10
6.555908252884949
 20
1.342859934626071
 30
0.0
 11
2.000000000000016
 21
3.001074928723894
 31
0.0
  0
LINE
  5
B7
330
1F
100
AcDbEntity
  8
외형선
  6
Continuous
370
    15
100
AcDbLine
 10
6.555908252884949
 20
-1.340710077178283
 30
0.0
 11
11.32990825288495
 21
-0.4989250712761056
 31
0.0
  0
LINE
  5
B8
330
1F
100
AcDbEntity
  8
외형선
  6
Continuous
370
    15
100
AcDbLine
 10
11.32990825288495
 20
0.5010749287238943
 30
0.0
 11
6.555908252884949
 21
1.342859934626071
 31
0.0
  0
LINE
  5
B9
330
1F
100
AcDbEntity
  8
외형선
  6
Continuous
370
    15
100
AcDbLine
 10
11.83003016738086
 20
0.5010749287238944
 30
0.0
 11
11.32990825288495
 21
0.5010749287238944
 31
0.0
  0
LINE
  5
BA
330
1F
100
AcDbEntity
  8
외형선
  6
Continuous
370
    15
100
AcDbLine
 10
12.32990825288495
 20
0.5010749287238944
 30
0.0
 11
12.1607063299198
 21
0.5010749287238944
 31
0.0
  0
LINE
  5
BB
330
1F
100
AcDbEntity
  8
외형선
  6
Continuous
370
    15
100
AcDbLine
 10
12.16070632991979
 20
-0.4989250712761057
 30
0.0
 11
12.32990825288495
 21
-0.4989250712761057
 31
0.0
  0
LINE
  5
BC
330
1F
100
AcDbEntity
  8
외형선
  6
Continuous
370
    15
100
AcDbLine
 10
11.32990825288495
 20
-0.4989250712761057
 30
0.0
 11
11.83003016738086
 21
-0.4989250712761057
 31
0.0
  0
SPLINE
  5
BD
330
1F
100
AcDbEntity
  8
외형선
  6
Continuous
 62
     1
370
    15
100
AcDbSpline
210
0.0
220
0.0
230
1.0
 70
     8
 71
     3
 72
    16
 73
    12
 74
     0
 42
0.000000001
 43
0.00000001
 40
0.0
 40
0.0
 40
0.0
 40
0.0
 40
0.1069560367667806
 40
0.22717584075351
 40
0.3473953543896464
 40
0.4676145738928683
 40
0.5878334954881034
 40
0.7080521154076148
 40
0.828270429891092
 40
0.9484884351857162
 40
1.0
 40
1.0
 40
1.0
 40
1.0
 10
13.82631691816015
 20
0.4961408214145508
 30
0.0
 10
13.94216193709793
 20
0.4903296266691883
 30
0.0
 10
14.18821807726404
 20
0.4779865828170797
 30
0.0
 10
14.56448479767761
 20
0.3401646204355577
 30
0.0
 10
14.95511680805339
 20
0.1384457192564432
 30
0.0
 10
15.34574766832236
 20
-0.0933013498812545
 30
0.0
 10
15.73637736850702
 20
-0.3051733543138455
 30
0.0
 10
16.12700589650887
 20
-0.4572164487593098
 30
0.0
 10
16.51763322281997
 20
-0.512842023382431
 30
0.0
 10
16.83384343897882
 20
-0.4888378373546945
 30
0.0
 10
17.01984447065536
 20
-0.4195423196842938
 30
0.0
 10
17.07563686676194
 20
-0.3987566125544475
 30
0.0
  0
SPLINE
  5
BE
330
1F
100
AcDbEntity
  8
외형선
  6
Continuous
 62
     1
370
    15
100
AcDbSpline
210
0.0
220
0.0
230
1.0
 70
     8
 71
     3
 72
    16
 73
    12
 74
     0
 42
0.000000001
 43
0.00000001
 40
0.0
 40
0.0
 40
0.0
 40
0.0
 40
0.1153558957703726
 40
0.2355692163787393
 40
0.3557821943809552
 40
0.4759948261040652
 40
0.5962071078835309
 40
0.7164190360633543
 40
0.836630606996133
 40
0.9568418170431423
 40
1.0
 40
1.0
 40
1.0
 40
1.0
 10
19.26777499189102
 20
0.4991317905965895
 30
0.0
 10
19.39271923381354
 20
0.490790073781169
 30
0.0
 10
19.64786889013723
 20
0.4737553857807081
 30
0.0
 10
20.03322331661544
 20
0.3278236857238274
 30
0.0
 10
20.42383796187909
 20
0.1224416668331268
 30
0.0
 10
20.814451254441
 20
-0.109428818442464
 30
0.0
 10
21.20506318446822
 20
-0.3182546929775562
 30
0.0
 10
21.5956737415604
 20
-0.4647501026476263
 30
0.0
 10
21.9862828919854
 20
-0.5128142698555578
 30
0.0
 10
22.29343377718562
 20
-0.4850711213684593
 30
0.0
 10
22.47038152895436
 20
-0.4172846651797878
 30
0.0
 10
22.51712678095183
 20
-0.3993771475940521
 30
0.0
  0
SPLINE
  5
BF
330
1F
100
AcDbEntity
  8
외형선
  6
Continuous
 62
     1
370
    15
100
AcDbSpline
210
0.0
220
0.0
230
1.0
 70
     8
 71
     3
 72
    16
 73
    12
 74
     0
 42
0.000000001
 43
0.00000001
 40
0.0
 40
0.0
 40
0.0
 40
0.0
 40
0.0852898181687741
 40
0.2055463847864609
 40
0.3258033160585098
 40
0.4460606083535797
 40
0.5663182580315812
 40
0.686576261443704
 40
0.8068346149325671
 40
0.9270933148322418
 40
1.0
 40
1.0
 40
1.0
 40
1.0
 10
23.04452774827026
 20
-0.4885026769671896
 30
0.0
 10
22.95218429457138
 20
-0.487717254136644
 30
0.0
 10
22.72963881992939
 20
-0.4858244042418544
 30
0.0
 10
22.37689065417672
 20
-0.367879176057098
 30
0.0
 10
21.98628290319024
 20
-0.1766195492823396
 30
0.0
 10
21.59567373867804
 20
0.0537716217676568
 30
0.0
 10
21.20506318479273
 20
0.2724252609844791
 30
0.0
 10
20.81445125602528
 20
0.4379995080200896
 30
0.0
 10
20.42383795521736
 20
0.5125684954715211
 30
0.0
 10
20.08449204549879
 20
0.4999446693957002
 30
0.0
 10
19.87535048091915
 20
0.4282325674161719
 30
0.0
 10
19.7964138836661
 20
0.4011661670882121
 30
0.0
  0
SPLINE
  5
C0
330
1F
100
AcDbEntity
  8
외형선
  6
Continuous
 62
     1
370
    15
100
AcDbSpline
210
0.0
220
0.0
230
1.0
 70
     8
 71
     3
 72
    16
 73
    12
 74
     0
 42
0.000000001
 43
0.00000001
 40
0.0
 40
0.0
 40
0.0
 40
0.0
 40
0.093772207576312
 40
0.2140121085321357
 40
0.3342523224798272
 40
0.4544928456734868
 40
0.5747336743596061
 40
0.6949748047771794
 40
0.8152162331577775
 40
0.9354579557256221
 40
1.0
 40
1.0
 40
1.0
 40
1.0
 10
17.60352340365272
 20
-0.4902637080231446
 30
0.0
 10
17.50197714020146
 20
-0.487765550301378
 30
0.0
 10
17.27022265220907
 20
-0.4820641168457776
 30
0.0
 10
16.90825935782855
 20
-0.356525968313829
 30
0.0
 10
16.51763323137471
 20
-0.1609992538860112
 30
0.0
 10
16.12700589433225
 20
0.070097982293573
 30
0.0
 10
15.73637736865863
 20
0.2862801309031749
 30
0.0
 10
15.34574766989261
 20
0.4466919756615819
 30
0.0
 10
14.95511680162074
 20
0.5139390174331544
 30
0.0
 10
14.62480273481567
 20
0.4965703693310534
 30
0.0
 10
14.42469888650932
 20
0.4255532388705426
 30
0.0
 10
14.35480578032597
 20
0.4007480795389047
 30
0.0
  0
LINE
  5
C1
330
1F
100
AcDbEntity
  8
외형선
  6
Continuous
 62
     1
370
    15
100
AcDbLine
 10
24.32990825288495
 20
-0.4517657459039822
 30
0.0
 11
24.32990825288495
 21
0.0439156033517663
 31
0.0
  0
SPLINE
  5
C2
330
1F
100
AcDbEntity
  8
외형선
  6
Continuous
 62
     1
370
    15
100
AcDbSpline
210
0.0
220
0.0
230
1.0
 70
     8
 71
     3
 72
    13
 73
     9
 74
     0
 42
0.000000001
 43
0.00000001
 40
0.0
 40
0.0
 40
0.0
 40
0.0
 40
0.1749148338744828
 40
0.3499432207231102
 40
0.5248317607261003
 40
0.7177364823337985
 40
0.9106407502195739
 40
1.0
 40
1.0
 40
1.0
 40
1.0
 10
12.32990825288721
 20
0.0789693321292078
 30
0.0
 10
12.44795385258818
 20
0.0104251623595904
 30
0.0
 10
12.68412168602191
 20
-0.126707675374367
 30
0.0
 10
13.03842145624566
 20
-0.3143723614985959
 30
0.0
 10
13.40471767164275
 20
-0.4550444542883647
 30
0.0
 10
13.78322471985991
 20
-0.5126702228538325
 30
0.0
 10
14.10395780317878
 20
-0.4906678400318446
 30
0.0
 10
14.29448765934317
 20
-0.4207369948129342
 30
0.0
 10
14.35480578032597
 20
-0.3985982220911159
 30
0.0
  0
SPLINE
  5
C3
330
1F
100
AcDbEntity
  8
외형선
  6
Continuous
 62
     1
370
    15
100
AcDbSpline
210
0.0
220
0.0
230
1.0
 70
     8
 71
     3
 72
    16
 73
    12
 74
     0
 42
0.000000001
 43
0.00000001
 40
0.0
 40
0.0
 40
0.0
 40
0.0
 40
0.1111644834600877
 40
0.2313799141992668
 40
0.3515950282728073
 40
0.4718098219510311
 40
0.5920242915120851
 40
0.7122384332420729
 40
0.8324522434351138
 40
0.9526657183934188
 40
1.0
 40
1.0
 40
1.0
 40
1.0
 10
16.54704447833326
 20
0.4975803944668569
 30
0.0
 10
16.66744955390887
 20
0.4905424211185502
 30
0.0
 10
16.91806301594907
 20
0.475893446744891
 30
0.0
 10
17.29888427166395
 20
0.3340347718663506
 30
0.0
 10
17.68950795454707
 20
0.1304533430456232
 30
0.0
 10
18.08013038521935
 20
-0.1013838309347183
 30
0.0
 10
18.47075155380727
 20
-0.3117589319504263
 30
0.0
 10
18.86137144901916
 20
-0.4610435924616896
 30
0.0
 10
19.2519900393218
 20
-0.5128970323763955
 30
0.0
 10
19.56367073325798
 20
-0.4869710484991776
 30
0.0
 10
19.74514515075026
 20
-0.4183910066285978
 30
0.0
 10
19.79641388366611
 20
-0.399016309640423
 30
0.0
  0
SPLINE
  5
C4
330
1F
100
AcDbEntity
  8
외형선
  6
Continuous
 62
     1
370
    15
100
AcDbSpline
210
0.0
220
0.0
230
1.0
 70
     8
 71
     3
 72
    13
 73
     9
 74
     0
 42
0.000000001
 43
0.00000001
 40
0.0
 40
0.0
 40
0.0
 40
0.0
 40
0.1658759637652894
 40
0.3327018028091829
 40
0.4995271309612571
 40
0.6663519432085991
 40
0.8331762345507839
 40
1.0
 40
1.0
 40
1.0
 40
1.0
 10
21.9885084795105
 20
0.5007915759171626
 30
0.0
 10
22.1179693411235
 20
0.4910631863771094
 30
0.0
 10
22.37763241149346
 20
0.4715506984618291
 30
0.0
 10
22.76749699500666
 20
0.3216193726676379
 30
0.0
 10
23.15810190485239
 20
0.1140951155176976
 30
0.0
 10
23.54870535815511
 20
-0.1162437744673534
 30
0.0
 10
23.93930736908518
 20
-0.3290983901092455
 30
0.0
 10
24.19970809509878
 20
-0.4108766702717918
 30
0.0
 10
24.32990825288495
 20
-0.4517657459039821
 30
0.0
  0
SPLINE
  5
C5
330
1F
100
AcDbEntity
  8
외형선
  6
Continuous
370
    15
100
AcDbSpline
210
0.0
220
0.0
230
1.0
 70
    24
 71
     3
 72
    12
 73
     8
 74
     0
 42
0.000000001
 43
0.00000001
 40
0.0
 40
0.0
 40
0.0
 40
0.0
 40
0.1920077811842036
 40
0.4027678837331879
 40
0.6135279862821911
 40
0.8242880888311596
 40
1.0
 40
1.0
 40
1.0
 40
1.0
 10
12.32990825288508
 20
0.4915405694736776
 30
0.0
 10
12.32990825288502
 20
0.4632871989279636
 30
0.0
 10
12.32990825288492
 20
0.4040211098515539
 30
0.0
 10
12.32990825288502
 20
0.3033723216160821
 30
0.0
 10
12.32990825288489
 20
0.2066062826143416
 30
0.0
 10
12.32990825288498
 20
0.1270169255626815
 30
0.0
 10
12.32990825288498
 20
0.0962534363134546
 30
0.0
 10
12.32990825288498
 20
0.0822666240778068
 30
0.0
  0
SPLINE
  5
C6
330
1F
100
AcDbEntity
  8
외형선
  6
Continuous
 62
     1
370
    15
100
AcDbSpline
210
0.0
220
0.0
230
1.0
 70
     8
 71
     3
 72
    12
 73
     8
 74
     0
 42
0.000000001
 43
0.00000001
 40
0.0
 40
0.0
 40
0.0
 40
0.0
 40
0.2154705226696289
 40
0.4309417245856049
 40
0.6464135993056338
 40
0.8618861403711298
 40
1.0
 40
1.0
 40
1.0
 40
1.0
 10
24.32990825288493
 20
0.0439156033517664
 30
0.0
 10
24.19970809494883
 20
0.1178981971366345
 30
0.0
 10
23.93930736863544
 20
0.2658636179280938
 30
0.0
 10
23.54870535995391
 20
0.4333780160836961
 30
0.0
 10
23.15810189810662
 20
0.5117163524124299
 30
0.0
 10
22.81424224384406
 20
0.5015616633099642
 30
0.0
 10
22.60058364816703
 20
0.4296257755020866
 30
0.0
 10
22.51712678095184
 20
0.4015270050418411
 30
0.0
  0
SPLINE
  5
C7
330
1F
100
AcDbEntity
  8
외형선
  6
Continuous
 62
     1
370
    15
100
AcDbSpline
210
0.0
220
0.0
230
1.0
 70
     8
 71
     3
 72
    16
 73
    12
 74
     0
 42
0.000000001
 43
0.00000001
 40
0.0
 40
0.0
 40
0.0
 40
0.0
 40
0.0895315442120208
 40
0.2097796373417066
 40
0.3300280694942578
 40
0.4502768369790159
 40
0.5705259360971292
 40
0.690775363141646
 40
0.8110251143975772
 40
0.9312751861419986
 40
1.0
 40
1.0
 40
1.0
 40
1.0
 10
20.32405930147454
 20
-0.4893203820635945
 30
0.0
 10
20.22711409557559
 20
-0.4877190756047805
 30
0.0
 10
19.99996365028293
 20
-0.4839670852737813
 30
0.0
 10
19.64260733896793
 20
-0.3622567709696681
 30
0.0
 10
19.25199004914867
 20
-0.1688359376075749
 30
0.0
 10
18.86137144650433
 20
0.0619359042923583
 30
0.0
 10
18.47075155403941
 20
0.2793829243962659
 30
0.0
 10
18.08013038680554
 20
0.442397650726146
 30
0.0
 10
17.68950794797011
 20
0.513320772662671
 30
0.0
 10
17.35467666316942
 20
0.4982790894960587
 30
0.0
 10
17.15005277841117
 20
0.4268743510808351
 30
0.0
 10
17.07563686676195
 20
0.4009064700022363
 30
0.0
  0
SPLINE
  5
C8
330
1F
100
AcDbEntity
  8
외형선
  6
Continuous
 62
     1
370
    15
100
AcDbSpline
210
0.0
220
0.0
230
1.0
 70
     8
 71
     3
 72
    14
 73
    10
 74
     0
 42
0.000000001
 43
0.00000001
 40
0.0
 40
0.0
 40
0.0
 40
0.0
 40
0.1247232995377386
 40
0.2777250133036445
 40
0.430727091771047
 40
0.5837295301081322
 40
0.7224424285520523
 40
0.8612662465639307
 40
0.9999999999999999
 40
0.9999999999999999
 40
0.9999999999999999
 40
0.9999999999999999
 10
14.88291962753328
 20
-0.4913314636399723
 30
0.0
 10
14.77677490670766
 20
-0.487856585452723
 30
0.0
 10
14.54041935716189
 20
-0.4801189727183011
 30
0.0
 10
14.17384973608433
 20
-0.3506664751307276
 30
0.0
 10
13.78322457205894
 20
-0.1531955929154953
 30
0.0
 10
13.40471770713603
 20
0.0713507520400649
 30
0.0
 10
13.03842144716623
 20
0.272306886769395
 30
0.0
 10
12.68412168828922
 20
0.4278509190632837
 30
0.0
 10
12.44795385334239
 20
0.4703152790861687
 30
0.0
 10
12.32990825288509
 20
0.491540569473681
 30
0.0
  0
LINE
  5
C9
330
1F
100
AcDbEntity
  8
외형선
  6
Continuous
 62
     1
370
    15
100
AcDbLine
 10
24.32990825288495
 20
0.2130544640629716
 30
0.0
 11
24.32990825288495
 21
0.4992362244880562
 31
0.0
  0
SPLINE
  5
CA
330
1F
100
AcDbEntity
  8
외형선
  6
Continuous
 62
     1
370
    15
100
AcDbSpline
210
0.0
220
0.0
230
1.0
 70
     8
 71
     3
 72
    16
 73
    12
 74
     0
 42
0.000000001
 43
0.00000001
 40
0.0
 40
0.0
 40
0.0
 40
0.0
 40
0.067362002243081
 40
0.1764487634479446
 40
0.2854483648513043
 40
0.4056765842858406
 40
0.5259045209373612
 40
0.6461321710090661
 40
0.7663595307112284
 40
0.8865865962612798
 40
1.0
 40
1.0
 40
1.0
 40
1.0
 10
12.46522722689171
 20
0.4912619239430992
 30
0.0
 10
12.53816950728885
 20
0.4920440300075561
 30
0.0
 10
12.72923531220222
 20
0.4940926871638643
 30
0.0
 10
13.03842263893434
 20
0.4047994454952354
 30
0.0
 10
13.40471735154875
 20
0.2434684788220851
 30
0.0
 10
13.78322466938436
 20
0.0268988485554632
 30
0.0
 10
14.17384971692213
 20
-0.2005561276843698
 30
0.0
 10
14.56448532241959
 20
-0.3884605008154324
 30
0.0
 10
14.95511666540143
 20
-0.4965414190659927
 30
0.0
 10
15.33836858954389
 20
-0.5116002112093294
 30
0.0
 10
15.59140955002096
 20
-0.4409983359128861
 30
0.0
 10
15.71424031089206
 20
-0.4067268802353611
 30
0.0
  0
SPLINE
  5
CB
330
1F
100
AcDbEntity
  8
외형선
  6
Continuous
 62
     1
370
    15
100
AcDbSpline
210
0.0
220
0.0
230
1.0
 70
     8
 71
     3
 72
    16
 73
    12
 74
     0
 42
0.000000001
 43
0.00000001
 40
0.0
 40
0.0
 40
0.0
 40
0.0
 40
0.0530354478300806
 40
0.1733387418742237
 40
0.2936417078450715
 40
0.4139443420340053
 40
0.5342466407405038
 40
0.654548600272273
 40
0.7748502169452718
 40
0.8951514870838367
 40
0.9999999999999999
 40
0.9999999999999999
 40
0.9999999999999999
 40
0.9999999999999999
 10
17.90792610734954
 20
0.4885914736674414
 30
0.0
 10
17.9653276427979
 20
0.4914385063898381
 30
0.0
 10
18.15293631479681
 20
0.5007436238229197
 30
0.0
 10
18.47075154684602
 20
0.4091468933055802
 30
0.0
 10
18.86137144872477
 20
0.236117837067615
 30
0.0
 10
19.25199004746048
 20
0.0103575572664297
 30
0.0
 10
19.6426073435005
 20
-0.2155855128960158
 30
0.0
 10
20.03322332040799
 20
-0.3991695879657553
 30
0.0
 10
20.42383795750056
 20
-0.5004370297562092
 30
0.0
 10
20.79772682316855
 20
-0.5090275379752058
 30
0.0
 10
21.04141069588642
 20
-0.4375801777530537
 30
0.0
 10
21.15489022639928
 20
-0.4043083292553931
 30
0.0
  0
SPLINE
  5
CC
330
1F
100
AcDbEntity
  8
외형선
  6
Continuous
 62
     1
370
    15
100
AcDbSpline
210
0.0
220
0.0
230
1.0
 70
     8
 71
     3
 72
    10
 73
     6
 74
     0
 42
0.000000001
 43
0.00000001
 40
0.0
 40
0.0
 40
0.0
 40
0.0
 40
0.2037907886996716
 40
0.6018960218386181
 40
1.0
 40
1.0
 40
1.0
 40
1.0
 10
23.3487557336785
 20
0.4884197526071143
 30
0.0
 10
23.41540573733464
 20
0.4906713553303605
 30
0.0
 10
23.6122564993938
 20
0.4973214631714963
 30
0.0
 10
23.9393073620845
 20
0.401643869260817
 30
0.0
 10
24.19970809276521
 20
0.2759175330726922
 30
0.0
 10
24.32990825288495
 20
0.2130544640629716
 30
0.0
  0
SPLINE
  5
CD
102
{ACAD_REACTORS
102
}
330
1F
100
AcDbEntity
  8
외형선
  6
Continuous
 62
     1
370
    15
100
AcDbSpline
210
0.0
220
0.0
230
1.0
 70
     8
 71
     3
 72
     9
 73
     5
 74
     0
 42
0.000000001
 43
0.00000001
 40
0.0
 40
0.0
 40
0.0
 40
0.0
 40
0.8591417277137785
 40
1.0
 40
1.0
 40
1.0
 40
1.0
 10
24.32990825288493
 20
0.4992362244880563
 30
0.0
 10
24.19970811279039
 20
0.4887097038363785
 30
0.0
 10
24.0481613587513
 20
0.4764573357903173
 30
0.0
 10
23.89661446277848
 20
0.4141863756674597
 30
0.0
 10
23.87526782884141
 20
0.4054149958109498
 30
0.0
  0
SPLINE
  5
CE
330
1F
100
AcDbEntity
  8
외형선
  6
Continuous
 62
     1
370
    15
100
AcDbSpline
210
0.0
220
0.0
230
1.0
 70
     8
 71
     3
 72
    17
 73
    13
 74
     0
 42
0.000000001
 43
0.00000001
 40
0.0
 40
0.0
 40
0.0
 40
0.0
 40
0.0269020241766217
 40
0.1471448168713023
 40
0.2673879632564028
 40
0.3876314596749942
 40
0.5078753024616005
 40
0.6281194879423269
 40
0.7483640124349015
 40
0.8686088722487859
 40
0.9888540636852486
 40
1.0
 40
1.0
 40
1.0
 40
1.0
 10
21.68306567442086
 20
-0.4901617556527766
 30
0.0
 10
21.65393514684808
 20
-0.492836623351614
 30
0.0
 10
21.49460118309429
 20
-0.5074672294025303
 30
0.0
 10
21.20506317302605
 20
-0.4338862169292557
 30
0.0
 10
20.81445125771524
 20
-0.2781451591818819
 30
0.0
 10
20.42383796022418
 20
-0.0584048089386587
 30
0.0
 10
20.0332233199608
 20
0.1711888444711849
 30
0.0
 10
19.64260734256547
 20
0.3667892709211481
 30
0.0
 10
19.25199005164772
 20
0.4911354851768933
 30
0.0
 10
18.86137143291052
 20
0.5098055801582462
 30
0.0
 10
18.58888927717481
 20
0.4718461251445608
 30
0.0
 10
18.44661326904473
 20
0.4126344129415604
 30
0.0
 10
18.43454396609499
 20
0.4076114712513751
 30
0.0
  0
SPLINE
  5
CF
330
1F
100
AcDbEntity
  8
외형선
  6
Continuous
 62
     1
370
    15
100
AcDbSpline
210
0.0
220
0.0
230
1.0
 70
     8
 71
     3
 72
    17
 73
    13
 74
     0
 42
0.000000001
 43
0.00000001
 40
0.0
 40
0.0
 40
0.0
 40
0.0
 40
0.0354007227684579
 40
0.1556305415848233
 40
0.2758606621050146
 40
0.3960910805609476
 40
0.5163217931771897
 40
0.6365527961710693
 40
0.7567840857527632
 40
0.8770156581253608
 40
0.9860182993220197
 40
0.9999999999999999
 40
0.9999999999999999
 40
0.9999999999999999
 40
0.9999999999999999
 10
16.24202362673693
 20
-0.4884243904431949
 30
0.0
 10
16.20368448404875
 20
-0.4914405078764313
 30
0.0
 10
16.03513590441989
 20
-0.5047001238647312
 30
0.0
 10
15.73637734810843
 20
-0.4256143533817867
 30
0.0
 10
15.34574771307535
 20
-0.26396260964295
 30
0.0
 10
14.95511664943946
 20
-0.0420615613862396
 30
0.0
 10
14.56448538738233
 20
0.1866571915057428
 30
0.0
 10
14.17384947303239
 20
0.3782680718353223
 30
0.0
 10
13.7832255799836
 20
0.4961699858119032
 30
0.0
 10
13.40471408718247
 20
0.5076613196810755
 30
0.0
 10
13.14140067352579
 20
0.4673469552121227
 30
0.0
 10
13.00820809075183
 20
0.4134158574449251
 30
0.0
 10
12.99306584746714
 20
0.407284601589733
 30
0.0
  0
SPLINE
  5
D0
330
1F
100
AcDbEntity
  8
외형선
  6
Continuous
 62
     1
370
    15
100
AcDbSpline
210
0.0
220
0.0
230
1.0
 70
     8
 71
     3
 72
     9
 73
     5
 74
     0
 42
0.000000001
 43
0.00000001
 40
0.0
 40
0.0
 40
0.0
 40
0.0
 40
0.5340741734396429
 40
1.0
 40
1.0
 40
1.0
 40
1.0
 10
12.32990825288721
 20
-0.4928202645288143
 30
0.0
 10
12.44795558070401
 20
-0.4966778727965875
 30
0.0
 10
12.66898729069389
 20
-0.5039008550331726
 30
0.0
 10
12.89006161171439
 20
-0.4365262927587814
 30
0.0
 10
12.99306584746714
 20
-0.4051347441419434
 30
0.0
  0
SPLINE
  5
D1
330
1F
100
AcDbEntity
  8
외형선
  6
Continuous
 62
     1
370
    15
100
AcDbSpline
210
0.0
220
0.0
230
1.0
 70
     8
 71
     3
 72
    16
 73
    12
 74
     0
 42
0.000000001
 43
0.00000001
 40
0.0
 40
0.0
 40
0.0
 40
0.0
 40
0.0487528531411117
 40
0.1690536869074612
 40
0.2893542187925379
 40
0.4096544450334688
 40
0.5299543618748783
 40
0.6502539655690149
 40
0.7705532523757888
 40
0.8908522185629101
 40
1.0
 40
1.0
 40
1.0
 40
1.0
 10
15.18744214020117
 20
0.4888719812783256
 30
0.0
 10
15.24021074971772
 20
0.4918727675081387
 30
0.0
 10
15.42318933285696
 20
0.5022781887929757
 30
0.0
 10
15.73637736163724
 20
0.4138519762058437
 30
0.0
 10
16.1270058964669
 20
0.2434915641490653
 30
0.0
 10
16.51763322985762
 20
0.0185727604923714
 30
0.0
 10
16.90825936176223
 20
-0.2080890165142888
 30
0.0
 10
17.29888427532746
 20
-0.3938723566057795
 30
0.0
 10
17.68950795068124
 20
-0.4985544417253927
 30
0.0
 10
18.06806108738283
 20
-0.5103340965153675
 30
0.0
 10
18.31640622400858
 20
-0.4392678269563041
 30
0.0
 10
18.43454396609499
 20
-0.4054616138035862
 30
0.0
  0
SPLINE
  5
D2
330
1F
100
AcDbEntity
  8
외형선
  6
Continuous
 62
     1
370
    15
100
AcDbSpline
210
0.0
220
0.0
230
1.0
 70
     8
 71
     3
 72
    16
 73
    12
 74
     0
 42
0.000000001
 43
0.00000001
 40
0.0
 40
0.0
 40
0.0
 40
0.0
 40
0.0573122236763603
 40
0.1776148870893219
 40
0.297917196636787
 40
0.4182191486686113
 40
0.5385207395433339
 40
0.6588219656282813
 40
0.7791228232996029
 40
0.8994233089423933
 40
1.0
 40
1.0
 40
1.0
 40
1.0
 10
20.62836384989507
 20
0.4884408387792115
 30
0.0
 10
20.69039310356325
 20
0.4910598771577916
 30
0.0
 10
20.88262642099171
 20
0.4991764738635999
 30
0.0
 10
21.20506317748141
 20
0.4043329462467458
 30
0.0
 10
21.59567374097313
 20
0.2286994368331306
 30
0.0
 10
21.98628290132114
 20
0.0021518031278974
 30
0.0
 10
22.37689065935799
 20
-0.2230150168646922
 30
0.0
 10
22.7674969991359
 20
-0.4043582059881005
 30
0.0
 10
23.15810189907915
 20
-0.5021869141528753
 30
0.0
 10
23.5273587297997
 20
-0.5076810909500251
 30
0.0
 10
23.76641380815565
 20
-0.4359348681693695
 30
0.0
 10
23.87526782884141
 20
-0.4032651383631606
 30
0.0
  0
SPLINE
  5
D3
330
1F
100
AcDbEntity
  8
외형선
  6
Continuous
370
    15
100
AcDbSpline
210
0.0
220
0.0
230
1.0
 70
    24
 71
     3
 72
    12
 73
     8
 74
     0
 42
0.000000001
 43
0.00000001
 40
0.0
 40
0.0
 40
0.0
 40
0.0
 40
0.2100489923434549
 40
0.4296449535239035
 40
0.6492409146973546
 40
0.8688368758861769
 40
1.0
 40
1.0
 40
1.0
 40
1.0
 10
12.32990825288492
 20
-0.096102513328702
 30
0.0
 10
12.32990825288493
 20
-0.1138907180269142
 30
0.0
 10
12.32990825288497
 20
-0.1502756218323107
 30
0.0
 10
12.32990825288497
 20
-0.2366419720229633
 30
0.0
 10
12.32990825288496
 20
-0.3355014991390359
 30
0.0
 10
12.32990825288499
 20
-0.4247998895691221
 30
0.0
 10
12.32990825288496
 20
-0.4743073910519131
 30
0.0
 10
12.32990825288495
 20
-0.4928202645130516
 30
0.0
  0
SPLINE
  5
D4
330
1F
100
AcDbEntity
  8
외형선
  6
Continuous
 62
     1
370
    15
100
AcDbSpline
210
0.0
220
0.0
230
1.0
 70
     8
 71
     3
 72
    16
 73
    12
 74
     0
 42
0.000000001
 43
0.00000001
 40
0.0
 40
0.0
 40
0.0
 40
0.0
 40
0.1230233579886824
 40
0.2460471037945265
 40
0.3690712337392905
 40
0.4920957441354309
 40
0.6151206312862134
 40
0.7381458914857448
 40
0.8611715210190906
 40
0.9841975161623655
 40
1.0
 40
1.0
 40
1.0
 40
1.0
 10
24.32990825288493
 20
-0.4970863670402669
 30
0.0
 10
24.19970809508034
 20
-0.4807277194733675
 30
0.0
 10
23.93930736902997
 20
-0.4480103727707906
 30
0.0
 10
23.54870535837579
 20
-0.2823923183174573
 30
0.0
 10
23.15810190402458
 20
-0.0672630091300799
 30
0.0
 10
22.76749699809699
 20
0.1635938421338772
 30
0.0
 10
22.37689065856809
 20
0.3609041611586778
 30
0.0
 10
21.98628290551965
 20
0.4883287812886409
 30
0.0
 10
21.59567372496896
 20
0.5109531102029515
 30
0.0
 10
21.31854269549217
 20
0.4739662521268668
 30
0.0
 10
21.17161466147162
 20
0.4133571614836704
 30
0.0
 10
21.15489022639928
 20
0.4064581867031822
 30
0.0
  0
SPLINE
  5
D5
330
1F
100
AcDbEntity
  8
외형선
  6
Continuous
 62
     1
370
    15
100
AcDbSpline
210
0.0
220
0.0
230
1.0
 70
     8
 71
     3
 72
    17
 73
    13
 74
     0
 42
0.000000001
 43
0.00000001
 40
0.0
 40
0.0
 40
0.0
 40
0.0
 40
0.0311491113751694
 40
0.1514024740192063
 40
0.2716561646012735
 40
0.3919101794062503
 40
0.5121645147110803
 40
0.6324191667848622
 40
0.7526741318889101
 40
0.8729294062768644
 40
0.9931849861947566
 40
0.9999999999999999
 40
0.9999999999999999
 40
0.9999999999999999
 40
0.9999999999999999
 10
18.96255360588956
 20
-0.4892314769734663
 30
0.0
 10
18.92882632899868
 20
-0.4921097307284409
 30
0.0
 10
18.76489249789487
 20
-0.5060996880697471
 30
0.0
 10
18.47075154378321
 20
-0.4298174463559889
 30
0.0
 10
18.08013038811385
 20
-0.2710905291653185
 30
0.0
 10
17.68950795299314
 20
-0.0502488829883253
 30
0.0
 10
17.29888427498522
 20
0.1789492733618389
 30
0.0
 10
16.90825936081929
 20
0.372537240580995
 30
0.0
 10
16.51763323397169
 20
0.493841591830028
 30
0.0
 10
16.12700588095351
 20
0.5085049019916238
 30
0.0
 10
15.85920812223506
 20
0.4697035792924785
 30
0.0
 10
15.72161942843771
 20
0.4119729313140382
 30
0.0
 10
15.71424031089207
 20
0.4088767376831502
 30
0.0
  0
SPLINE
  5
D6
330
1F
100
AcDbEntity
  8
외형선
  6
Continuous
 62
     1
370
    15
100
AcDbSpline
210
0.0
220
0.0
230
1.0
 70
     8
 71
     3
 72
    11
 73
     7
 74
     0
 42
0.000000001
 43
0.00000001
 40
0.0
 40
0.0
 40
0.0
 40
0.0
 40
0.1081603404752367
 40
0.4053461200767882
 40
0.702769539570855
 40
1.0
 40
1.0
 40
1.0
 40
1.0
 10
13.52147554311188
 20
-0.4877425600484804
 30
0.0
 10
13.47850970324062
 20
-0.4908725613646562
 30
0.0
 10
13.31748916270671
 20
-0.5026026824402053
 30
0.0
 10
13.03842425731739
 20
-0.4309425755483149
 30
0.0
 10
12.68412098604935
 20
-0.2927383062254111
 30
0.0
 10
12.44795361931308
 20
-0.1616335969179687
 30
0.0
 10
12.32990825288508
 20
-0.0961025133287852
 30
0.0
  0
LINE
  5
D7
330
1F
100
AcDbEntity
  8
외형선
  6
Continuous
370
    15
100
AcDbLine
 10
12.32990825288507
 20
-0.0961025133287988
 30
0.0
 11
12.32990825288507
 21
0.0789693321304109
 31
0.0
  0
LINE
  5
D8
102
{ACAD_REACTORS
102
}
330
1F
100
AcDbEntity
  8
외형선
  6
Continuous
 62
     1
370
    15
100
AcDbLine
 10
24.32990825288495
 20
-0.497086367040267
 30
0.0
 11
24.32990825288495
 21
-0.4517657459039822
 31
0.0
  0
LINE
  5
D9
330
1F
100
AcDbEntity
  8
외형선
  6
Continuous
370
    15
100
AcDbLine
 10
12.32990825288495
 20
-0.4989250712761081
 30
0.0
 11
12.32990825288507
 21
-0.4928202645286265
 31
0.0
  0
LINE
  5
DA
330
1F
100
AcDbEntity
  8
외형선
  6
Continuous
370
    15
100
AcDbLine
 10
12.32990825288507
 20
0.4915405694736775
 30
0.0
 11
12.32990825288495
 21
0.5010749287238944
 31
0.0
  0
LINE
  5
DB
330
1F
100
AcDbEntity
  8
외형선
  6
Continuous
 62
     1
370
    15
100
AcDbLine
 10
24.32990825288495
 20
0.0439156033517663
 30
0.0
 11
24.32990825288495
 21
0.2130544640629716
 31
0.0
  0
LINE
  5
DC
330
1F
100
AcDbEntity
  8
외형선
  6
Continuous
370
    15
100
AcDbLine
 10
-35.07009174711504
 20
3.001074928723893
 30
0.0
 11
-35.07009174711504
 21
-2.998925071276107
 31
0.0
  0
LINE
  5
DD
330
1F
100
AcDbEntity
  8
외형선
  6
Continuous
370
    15
100
AcDbLine
 10
-35.67009174711505
 20
2.401074928723899
 30
0.0
 11
-35.67009174711505
 21
-2.398925071276113
 31
0.0
  0
LINE
  5
DE
330
1F
100
AcDbEntity
  8
외형선
  6
Continuous
370
    15
100
AcDbLine
 10
2.000000000000016
 20
3.001074928723893
 30
0.0
 11
2.000000000000016
 21
-2.998925071276106
 31
0.0
  0
LINE
  5
DF
330
1F
100
AcDbEntity
  8
외형선
  6
Continuous
370
    15
100
AcDbLine
 10
6.555908252884949
 20
1.342859934626071
 30
0.0
 11
6.555908252884949
 21
-1.340710077178283
 31
0.0
  0
LINE
  5
E0
330
1F
100
AcDbEntity
  8
외형선
  6
Continuous
370
    15
100
AcDbLine
 10
11.32990825288495
 20
0.5010749287238943
 30
0.0
 11
11.32990825288495
 21
-0.4989250712761056
 31
0.0
  0
SPLINE
  5
E1
330
1F
100
AcDbEntity
  8
외형선
  6
Continuous
370
    15
100
AcDbSpline
210
0.0
220
0.0
230
1.0
 70
     8
 71
     3
 72
    10
 73
     6
 74
     0
 42
0.000000001
 43
0.00000001
 40
0.0
 40
0.0
 40
0.0
 40
0.0
 40
0.5
 40
0.5
 40
1.0
 40
1.0
 40
1.0
 40
1.0
 10
12.32990825288496
 20
-0.0961025133287138
 30
0.0
 10
12.24701530109751
 20
-0.0488897709021819
 30
0.0
 10
12.16449397896079
 20
-0.0003917313903233
 30
0.0
 10
11.99518175882507
 20
0.0961200757755489
 30
0.0
 10
11.91323829997443
 20
0.1431940988880445
 30
0.0
 10
11.83003016738087
 20
0.1878949851178765
 30
0.0
  0
SPLINE
  5
E2
330
1F
100
AcDbEntity
  8
외형선
  6
Continuous
370
    15
100
AcDbSpline
210
0.0
220
0.0
230
1.0
 70
    24
 71
     3
 72
    12
 73
     8
 74
     0
 42
0.000000001
 43
0.00000001
 40
0.0
 40
0.0
 40
0.0
 40
0.0
 40
0.2100489923354974
 40
0.4296449535076607
 40
0.6492409146728539
 40
0.8688368758534104
 40
1.0
 40
1.0
 40
1.0
 40
1.0
 10
12.32990825288496
 20
-0.096102513328723
 30
0.0
 10
12.32990825288496
 20
-0.1138907180269288
 30
0.0
 10
12.32990825288498
 20
-0.1502756218323151
 30
0.0
 10
12.32990825288495
 20
-0.2366419720229684
 30
0.0
 10
12.32990825288495
 20
-0.3355014991390002
 30
0.0
 10
12.32990825288497
 20
-0.4247998895751018
 30
0.0
 10
12.32990825288494
 20
-0.4743073910624381
 30
0.0
 10
12.32990825288493
 20
-0.4928202645286081
 30
0.0
  0
SPLINE
  5
E3
330
1F
100
AcDbEntity
  8
외형선
  6
Continuous
370
    15
100
AcDbSpline
210
0.0
220
0.0
230
1.0
 70
     8
 71
     3
 72
    10
 73
     6
 74
     0
 42
0.000000001
 43
0.00000001
 40
0.0
 40
0.0
 40
0.0
 40
0.0
 40
0.5
 40
0.5
 40
1.0
 40
1.0
 40
1.0
 40
1.0
 10
12.32990825288494
 20
-0.4928202645286078
 30
0.0
 10
12.24701530109746
 20
-0.485322066695865
 30
0.0
 10
12.16449397896077
 20
-0.4709668387607248
 30
0.0
 10
11.99518175882507
 20
-0.4291746161253428
 30
0.0
 10
11.91323829997441
 20
-0.4021700281792725
 30
0.0
 10
11.83003016738086
 20
-0.3698552064179089
 30
0.0
  0
SPLINE
  5
E4
330
1F
100
AcDbEntity
  8
외형선
  6
Continuous
370
    15
100
AcDbSpline
210
0.0
220
0.0
230
1.0
 70
     8
 71
     3
 72
    10
 73
     6
 74
     0
 42
0.000000001
 43
0.00000001
 40
0.0
 40
0.0
 40
0.0
 40
0.0
 40
0.5
 40
0.5
 40
1.0
 40
1.0
 40
1.0
 40
1.0
 10
12.32990825288496
 20
0.4915405694736956
 30
0.0
 10
12.24701530109751
 20
0.5008949730447292
 30
0.0
 10
12.16449397896079
 20
0.5034164987355034
 30
0.0
 10
11.99518175882507
 20
0.49434526441777
 30
0.0
 10
11.91323829997443
 20
0.482867967909067
 30
0.0
 10
11.83003016738087
 20
0.4648618049169922
 30
0.0
  0
LINE
  5
E5
330
1F
100
AcDbEntity
  8
외형선
  6
Continuous
370
    15
100
AcDbLine
 10
11.83003016738086
 20
0.5010749287238944
 30
0.0
 11
11.83003016738085
 21
0.3363277714124081
 31
0.0
  0
SPLINE
  5
E6
330
1F
100
AcDbEntity
  8
외형선
  6
Continuous
370
    15
100
AcDbSpline
210
0.0
220
0.0
230
1.0
 70
     8
 71
     3
 72
    10
 73
     6
 74
     0
 42
0.000000001
 43
0.00000001
 40
0.0
 40
0.0
 40
0.0
 40
0.0
 40
0.5
 40
0.5
 40
1.0
 40
1.0
 40
1.0
 40
1.0
 10
12.32990825288494
 20
0.0789693321305123
 30
0.0
 10
12.24701530109746
 20
0.126512206915958
 30
0.0
 10
12.16449397896077
 20
0.1729055831590482
 30
0.0
 10
11.99518175882507
 20
0.2603711554813244
 30
0.0
 10
11.91323829997441
 20
0.3006010475642909
 30
0.0
 10
11.83003016738086
 20
0.3363521794339339
 30
0.0
  0
LINE
  5
E7
330
1F
100
AcDbEntity
  8
외형선
  6
Continuous
370
    15
100
AcDbLine
 10
11.83003016738086
 20
0.1879375604892805
 30
0.0
 11
11.83003016738085
 21
-0.3698772669418947
 31
0.0
  0
SPLINE
  5
E8
330
1F
100
AcDbEntity
  8
외형선
  6
Continuous
370
    15
100
AcDbSpline
210
0.0
220
0.0
230
1.0
 70
     8
 71
     3
 72
     9
 73
     5
 74
     0
 42
0.000000001
 43
0.00000001
 40
0.0
 40
0.0
 40
0.0
 40
0.0
 40
0.7554776618086779
 40
1.0
 40
1.0
 40
1.0
 40
1.0
 10
11.83003016738087
 20
-0.4627119474692049
 30
0.0
 10
11.91329386434643
 20
-0.4792585137452199
 30
0.0
 10
12.02350717861732
 20
-0.5011606388674918
 30
0.0
 10
12.1337495962037
 20
-0.4956940070424236
 30
0.0
 10
12.16070632991979
 20
-0.4943572934465269
 30
0.0
  0
LINE
  5
E9
330
1F
100
AcDbEntity
  8
외형선
  6
Continuous
370
    15
100
AcDbLine
 10
11.83003016738086
 20
-0.4626947952229321
 30
0.0
 11
11.83003016738086
 21
-0.4989250712761057
 31
0.0
  0
SPLINE
  5
EA
330
1F
100
AcDbEntity
  8
외형선
  6
Continuous
370
    15
100
AcDbSpline
210
0.0
220
0.0
230
1.0
 70
    24
 71
     3
 72
    12
 73
     8
 74
     0
 42
0.000000001
 43
0.00000001
 40
0.0
 40
0.0
 40
0.0
 40
0.0
 40
0.1918717319114979
 40
0.4024824980150067
 40
0.6130932641185088
 40
0.823704030222033
 40
1.0
 40
1.0
 40
1.0
 40
1.0
 10
12.32990825288494
 20
0.4915405694754748
 30
0.0
 10
12.32990825288495
 20
0.463287135724653
 30
0.0
 10
12.32990825288496
 20
0.4040209140658136
 30
0.0
 10
12.32990825288495
 20
0.3033731947986125
 30
0.0
 10
12.32990825288496
 20
0.206603018343405
 30
0.0
 10
12.32990825288497
 20
0.1269337780300733
 30
0.0
 10
12.32990825288496
 20
0.0961203081748665
 30
0.0
 10
12.32990825288495
 20
0.0820799980779864
 30
0.0
  0
LINE
  5
EB
330
1F
100
AcDbEntity
  8
중심선
 62
     1
100
AcDbLine
 10
-38.67009174711507
 20
0.0010749287238931
 30
0.0
 11
27.32990825288494
 21
0.0010749287238892
 31
0.0
  0
LINE
  5
EC
330
1F
100
AcDbEntity
  8
참조1
100
AcDbLine
 10
-9.4290421365245
 20
-2.498925071276081
 30
0.0
 11
-9.429042136524494
 21
-39.9989250712761
 31
0.0
  0
LINE
  5
ED
330
1F
100
AcDbEntity
  8
참조1
100
AcDbLine
 10
-9.429042136524494
 20
-39.9989250712761
 30
0.0
 11
-24.58738558327694
 21
-39.9989250712761
 31
0.0
  0
CIRCLE
  5
EE
330
1F
100
AcDbEntity
  8
해칭선
100
AcDbCircle
 10
0.0
 20
0.0
 30
0.0
 40
3.000000000000001
  0
INSERT
  5
EF
330
1F
100
AcDbEntity
  8
0
  6
Continuous
 62
     7
100
AcDbBlockReference
 66
     1
  2
블럭10
 10
-23.3693150686497
 20
-52.04609937292004
 30
0.0
  0
ATTRIB
  5
F0
330
EF
100
AcDbEntity
  8
FORMAT
 62
     2
100
AcDbText
 10
-39.48857610808526
 20
-49.97073246008785
 30
0.0
 40
4.233333333333333
  1
SEME7201012E [ 4 FLUTE ]
 41
0.75
  7
SLDTEXTSTYLE0
 11
-39.48857610808526
 21
-52.08739912675452
 31
0.0
100
AcDbAttribute
  2
AUTOATTR0
 70
     0
 74
     1
  0
SEQEND
  5
F1
330
EF
100
AcDbEntity
  8
0
  6
Continuous
 62
     7
  0
HATCH
  5
F2
330
1F
100
AcDbEntity
  8
중심선
100
AcDbHatch
 10
0.0
 20
0.0
 30
0.0
210
0.0
220
0.0
230
1.0
  2
SOLID
 70
     1
 71
     0
 91
        1
 92
        0
 93
        4
 72
     1
 10
-17.65440576426885
 20
-35.7989250712761
 11
-21.10068100810614
 21
-35.7989250712761
 72
     1
 10
-21.10068100810614
 20
-35.7989250712761
 11
-23.22891086731016
 21
-38.3352506518487
 72
     1
 10
-23.22891086731016
 20
-38.3352506518487
 11
-19.78260253835973
 21
-38.33521122254621
 72
     1
 10
-19.78260253835973
 20
-38.33521122254621
 11
-17.65440576426885
 21
-35.7989250712761
 97
        0
 75
     0
 76
     1
 98
        1
 10
0.0
 20
0.0
  0
HATCH
  5
F3
330
1F
100
AcDbEntity
  8
중심선
100
AcDbHatch
 10
0.0
 20
0.0
 30
0.0
210
0.0
220
0.0
230
1.0
  2
SOLID
 70
     1
 71
     0
 91
        1
 92
        0
 93
        4
 72
     1
 10
-12.6416417732329
 20
-35.7989250712761
 11
-16.08791701707019
 21
-35.7989250712761
 72
     1
 10
-16.08791701707019
 20
-35.7989250712761
 11
-20.61905502542757
 21
-41.19892507127612
 72
     1
 10
-20.61905502542757
 20
-41.19892507127612
 11
-17.17277978159029
 21
-41.19892507127612
 72
     1
 10
-17.17277978159029
 20
-41.19892507127612
 11
-12.6416417732329
 21
-35.7989250712761
 97
        0
 75
     0
 76
     1
 98
        1
 10
0.0
 20
0.0
  0
HATCH
  5
F4
330
1F
100
AcDbEntity
  8
중심선
100
AcDbHatch
 10
0.0
 20
0.0
 30
0.0
210
0.0
220
0.0
230
1.0
  2
SOLID
 70
     1
 71
     0
 91
        1
 92
        0
 93
        4
 72
     1
 10
-7.628877782197008
 20
-35.79892507127613
 11
-11.07515302603412
 21
-35.7989250712761
 72
     1
 10
-11.07515302603412
 20
-35.7989250712761
 11
-18.12358992792337
 21
-44.19892507127612
 72
     1
 10
-18.12358992792337
 20
-44.19892507127612
 11
-14.67731468408609
 21
-44.19892507127612
 72
     1
 10
-14.67731468408609
 20
-44.19892507127612
 11
-7.628877782197008
 21
-35.79892507127613
 97
        0
 75
     0
 76
     1
 98
        1
 10
0.0
 20
0.0
  0
HATCH
  5
F5
330
1F
100
AcDbEntity
  8
중심선
100
AcDbHatch
 10
0.0
 20
0.0
 30
0.0
210
0.0
220
0.0
230
1.0
  2
SOLID
 70
     1
 71
     0
 91
        1
 92
        0
 93
        6
 72
     3
 10
-2.828987351184808
 20
-39.99892507132738
 11
3.960054785062284
 21
1.540850780301639E-10
 40
0.3939339440162633
 50
17.09539180608433
 51
320.0019657685079
 73
     0
 72
     1
 10
-1.145987695484213
 20
-38.58681907591441
 11
1.159314178216825
 21
-36.65249236586649
 72
     3
 10
-2.828987351237655
 20
-39.99892507127625
 11
6.600054785286829
 21
-1.249000902703301E-13
 40
0.6363583540795982
 50
39.99873849337408
 51
368.4976242363725
 73
     1
 72
     1
 10
3.596345140662955
 20
-39.03892507120613
 11
-4.148920044401732
 21
-39.0389250712061
 72
     1
 10
-4.148920044401732
 20
-39.0389250712061
 11
-4.148945088847666
 21
-40.95892507120602
 72
     1
 10
-4.148945088847666
 20
-40.95892507120602
 11
0.2924346806243703
 21
-40.95892507120599
 97
        0
 75
     0
 76
     1
 98
        1
 10
0.0
 20
0.0
  0
POINT
  5
F6
330
1F
100
AcDbEntity
  8
치수문자_일반주서
100
AcDbPoint
 10
-44.55115877171628
 20
-7.164101193405076
 30
0.0
  0
POINT
  5
F7
330
1F
100
AcDbEntity
  8
치수문자_일반주서
100
AcDbPoint
 10
-44.55115877171628
 20
-7.164101193405076
 30
0.0
  0
DIMENSION
  5
F8
330
1F
100
AcDbEntity
  8
치수문자_일반주서
100
AcDbDimension
  2
_D
 10
-35.67009174711505
 20
20.09356086770649
 30
0.0
 11
-5.670091747115053
 21
20.09356086770649
 31
0.0
 70
   160
  1
<>
 71
     2
 42
60.0
  3
SLDDIMSTYLE0
100
AcDbAlignedDimension
 13
24.32990825288495
 23
0.4992362244880562
 33
0.0
 14
-35.67009174711505
 24
2.401074928723899
 34
0.0
 50
0.0000000000000068
100
AcDbRotatedDimension
  0
DIMENSION
  5
103
330
1F
100
AcDbEntity
  8
치수문자_일반주서
100
AcDbDimension
  2
_D_1
 10
12.32990825288507
 20
13.09963225914752
 30
0.0
 11
62.13793774843523
 21
13.09963225914752
 31
0.0
 70
   160
  1
<>
 71
     2
 42
11.99999999999988
  3
SLDDIMSTYLE0
100
AcDbAlignedDimension
 13
24.32990825288495
 23
0.4992362244880562
 33
0.0
 14
12.32990825288507
 24
0.4915405694736775
 34
0.0
 50
-0.0000000000080744
100
AcDbRotatedDimension
  0
DIMENSION
  5
10E
330
1F
100
AcDbEntity
  8
치수문자_일반주서
100
AcDbDimension
  2
_D_2
 10
-43.89542752975575
 20
-2.998925071276142
 30
0.0
 11
-43.89542752975576
 21
0.0010749287238949
 31
0.0
 70
   160
  1
%%c<>
 71
     2
 42
6.000000000000005
 52
-270.0
  3
SLDDIMSTYLE1
100
AcDbAlignedDimension
 13
-35.07009174711506
 23
3.001074928723896
 33
0.0
 14
-35.07009174711506
 24
-2.998925071276109
 34
0.0
 50
90.0000000000002
100
AcDbRotatedDimension
  0
LINE
  5
126
330
1F
100
AcDbEntity
  8
참조1
100
AcDbLine
 10
73.38495504637731
 20
7.441074928723896
 30
0.0
 11
73.38495504637731
 21
-7.438925071276109
 31
0.0
  0
LINE
  5
127
330
1F
100
AcDbEntity
  8
참조1
100
AcDbLine
 10
86.08495504637732
 20
5.441074928723896
 30
0.0
 11
73.38495504637731
 21
5.441074928723896
 31
0.0
  0
SOLID
  5
128
330
1F
100
AcDbEntity
  8
참조1
100
AcDbTrace
 10
73.38495504637731
 20
5.441074928723896
 30
0.0
 11
79.73495504637731
 21
4.425074928723896
 31
0.0
 12
79.73495504637731
 22
6.457074928723896
 32
0.0
 13
79.73495504637731
 23
6.457074928723896
 33
0.0
  0
LINE
  5
129
330
1F
100
AcDbEntity
  8
참조1
100
AcDbLine
 10
86.08495504637732
 20
-5.438925071276109
 30
0.0
 11
73.38495504637731
 21
-5.438925071276109
 31
0.0
  0
SOLID
  5
12A
330
1F
100
AcDbEntity
  8
참조1
100
AcDbTrace
 10
73.38495504637731
 20
-5.438925071276109
 30
0.0
 11
79.73495504637731
 21
-6.454925071276109
 31
0.0
 12
79.73495504637731
 22
-4.422925071276109
 32
0.0
 13
79.73495504637731
 23
-4.422925071276109
 33
0.0
  0
MTEXT
  5
12B
330
1F
100
AcDbEntity
  8
참조1
100
AcDbMText
 10
82.78244513884759
 20
10.98929157337383
 30
0.0
 40
3.5
 41
0.0
 71
     1
 72
     1
  1
A
  7
SLDTEXTSTYLE0
 73
     1
 44
1.0
  0
MTEXT
  5
12C
330
1F
100
AcDbEntity
  8
참조1
100
AcDbMText
 10
82.78244513884759
 20
0.1092915733738259
 30
0.0
 40
3.5
 41
0.0
 71
     1
 72
     1
  1
A
  7
SLDTEXTSTYLE0
 73
     1
 44
1.0
  0
INSERT
  5
133
330
1F
100
AcDbEntity
  8
해칭선
100
AcDbBlockReference
  2
SW_DOWELSYMBOL_0
 10
0.0
 20
0.0
 30
0.0
  0
DIMENSION
  5
15A
102
{ACAD_REACTORS
102
}
102
{ACAD_XDICTIONARY
360
15B
102
}
330
1F
100
AcDbEntity
  8
치수문자_일반주서
100
AcDbDimension
  2
*D8
 10
38.4652185004466
 20
-0.4970863670402679
 30
0.0
 11
35.8402185004466
 21
-9.726086367040267
 31
0.0
 70
    32
  1
{%%C<>}
 71
     5
 42
0.9963225915283234
  3
SLDDIMSTYLE0
100
AcDbAlignedDimension
 13
24.32990825288493
 23
0.4992362244880563
 33
0.0
 14
24.32990825288495
 24
-0.497086367040267
 34
0.0
 50
90.0
100
AcDbRotatedDimension
1001
ACAD
1000
DSTYLE
1002
{
1070
   170
1070
     0
1070
   283
1070
     1
1002
}
  0
ENDSEC
  0
SECTION
  2
OBJECTS
  0
DICTIONARY
  5
C
330
0
100
AcDbDictionary
281
     1
  3
ACAD_GROUP
350
D
  3
ACAD_IMAGE_VARS
350
157
  3
ACAD_LAYOUT
350
1A
  3
ACAD_MLINESTYLE
350
17
  3
ACAD_PLOTSETTINGS
350
19
  3
ACAD_PLOTSTYLENAME
350
E
  3
ACAD_SCALELIST
350
47
  3
APPDATA
350
155
  3
DWGPROPS
350
175
  0
DICTIONARY
  5
15B
330
15A
100
AcDbDictionary
280
     1
281
     1
  0
DICTIONARY
  5
D
102
{ACAD_REACTORS
330
C
102
}
330
C
100
AcDbDictionary
281
     1
  0
RASTERVARIABLES
  5
157
102
{ACAD_REACTORS
330
C
102
}
330
C
100
AcDbRasterVariables
 90
        0
 70
     1
 71
     1
 72
     1
  0
DICTIONARY
  5
1A
102
{ACAD_REACTORS
330
C
102
}
330
C
100
AcDbDictionary
281
     1
  3
Layout1
350
1E
  3
Layout2
350
26
  3
Model
350
22
  0
DICTIONARY
  5
17
102
{ACAD_REACTORS
330
C
102
}
330
C
100
AcDbDictionary
281
     1
  3
Standard
350
18
  0
DICTIONARY
  5
19
102
{ACAD_REACTORS
330
C
102
}
330
C
100
AcDbDictionary
281
     1
  0
ACDBDICTIONARYWDFLT
  5
E
102
{ACAD_REACTORS
330
C
102
}
330
C
100
AcDbDictionary
281
     1
  3
Normal
350
F
100
AcDbDictionaryWithDefault
340
F
  0
DICTIONARY
  5
47
102
{ACAD_REACTORS
330
C
102
}
330
C
100
AcDbDictionary
281
     1
  3
A0
350
48
  3
A1
350
49
  3
A2
350
4A
  3
A3
350
4B
  3
A4
350
4C
  3
A5
350
4D
  3
A6
350
4E
  3
A7
350
4F
  3
A8
350
50
  3
A9
350
51
  3
B0
350
52
  3
B1
350
53
  3
B2
350
54
  3
B3
350
55
  3
B4
350
56
  3
B5
350
57
  3
B6
350
58
  3
B7
350
59
  3
B8
350
5A
  3
B9
350
5B
  3
C0
350
5C
  3
C1
350
5D
  3
C2
350
5E
  3
C3
350
5F
  3
C4
350
60
  3
C5
350
61
  3
C6
350
62
  3
C7
350
63
  3
C8
350
64
  3
C9
350
65
  3
D0
350
66
  3
D1
350
67
  3
D2
350
68
  0
DICTIONARY
  5
155
102
{ACAD_REACTORS
330
C
102
}
330
C
100
AcDbDictionary
281
     1
  0
XRECORD
  5
175
102
{ACAD_REACTORS
330
C
102
}
330
C
100
AcDbXrecord
280
     1
  1
DWGPROPS COOKIE
  2

  3

  4

  6

  7

  8
12016016
  9

300
=
301
=
302
=
303
=
304
=
305
=
306
=
307
=
308
=
309
=
 40
0.0
 41
2458270.4784236
 42
2458271.078648715
  1

 90
        0
  0
LAYOUT
  5
1E
102
{ACAD_REACTORS
330
1A
102
}
330
1A
100
AcDbPlotSettings
  1

  2
none_device
  4

  6

 40
0.0
 41
0.0
 42
0.0
 43
0.0
 44
0.0
 45
0.0
 46
0.0
 47
0.0
 48
0.0
 49
0.0
140
0.0
141
0.0
142
1.0
143
1.0
 70
   688
 72
     1
 73
     0
 74
     5
  7

 75
    16
147
1.0
148
0.0
149
0.0
100
AcDbLayout
  1
Layout1
 70
     1
 71
     1
 10
0.0
 20
0.0
 11
420.0
 21
297.0
 12
0.0
 22
0.0
 32
0.0
 14
1.000000000000000E+20
 24
1.000000000000000E+20
 34
1.000000000000000E+20
 15
-1.000000000000000E+20
 25
-1.000000000000000E+20
 35
-1.000000000000000E+20
146
0.0
 13
0.0
 23
0.0
 33
0.0
 16
1.0
 26
0.0
 36
0.0
 17
0.0
 27
1.0
 37
0.0
 76
     0
330
1B
  0
LAYOUT
  5
26
102
{ACAD_REACTORS
330
1A
102
}
330
1A
100
AcDbPlotSettings
  1

  2
none_device
  4

  6

 40
0.0
 41
0.0
 42
0.0
 43
0.0
 44
0.0
 45
0.0
 46
0.0
 47
0.0
 48
0.0
 49
0.0
140
0.0
141
0.0
142
1.0
143
1.0
 70
   688
 72
     1
 73
     0
 74
     5
  7

 75
    16
147
1.0
148
0.0
149
0.0
100
AcDbLayout
  1
Layout2
 70
     1
 71
     2
 10
0.0
 20
0.0
 11
0.0
 21
0.0
 12
0.0
 22
0.0
 32
0.0
 14
0.0
 24
0.0
 34
0.0
 15
0.0
 25
0.0
 35
0.0
146
0.0
 13
0.0
 23
0.0
 33
0.0
 16
1.0
 26
0.0
 36
0.0
 17
0.0
 27
1.0
 37
0.0
 76
     0
330
23
  0
LAYOUT
  5
22
102
{ACAD_REACTORS
330
1A
102
}
330
1A
100
AcDbPlotSettings
  1

  2
none_device
  4
ANSI_A_(11.00_x_8.50_Inches)
  6

 40
6.35
 41
19.05
 42
6.35000508
 43
19.05000254
 44
279.4
 45
215.9
 46
89.37862952591462
 47
116.541730408558
 48
0.0
 49
0.0
140
0.0
141
0.0
142
0.0833613285156657
143
1.0
 70
  1696
 72
     0
 73
     0
 74
     0
  7

 75
     0
147
0.0235690232323232
148
0.0
149
0.0
100
AcDbLayout
  1
Model
 70
     1
 71
     0
 10
0.0
 20
0.0
 11
420.0
 21
297.0
 12
0.0
 22
0.0
 32
0.0
 14
-48.27042752975577
 24
-49.97073246008785
 34
0.0
 15
86.08495504637732
 25
24.46856086770649
 35
0.0
146
0.0
 13
0.0
 23
0.0
 33
0.0
 16
1.0
 26
0.0
 36
0.0
 17
0.0
 27
1.0
 37
0.0
 76
     0
330
1F
331
29
  0
MLINESTYLE
  5
18
102
{ACAD_REACTORS
330
17
102
}
330
17
100
AcDbMlineStyle
  2
Standard
 70
     0
  3

 62
   256
 51
90.0
 52
90.0
 71
     2
 49
0.5
 62
   256
  6
BYLAYER
 49
-0.5
 62
   256
  6
BYLAYER
  0
ACDBPLACEHOLDER
  5
F
102
{ACAD_REACTORS
330
E
102
}
330
E
  0
SCALE
  5
48
102
{ACAD_REACTORS
330
47
102
}
330
47
100
AcDbScale
 70
     0
300
1:1
140
1.0
141
1.0
290
     1
  0
SCALE
  5
49
102
{ACAD_REACTORS
330
47
102
}
330
47
100
AcDbScale
 70
     0
300
1:2
140
1.0
141
2.0
290
     0
  0
SCALE
  5
4A
102
{ACAD_REACTORS
330
47
102
}
330
47
100
AcDbScale
 70
     0
300
1:4
140
1.0
141
4.0
290
     0
  0
SCALE
  5
4B
102
{ACAD_REACTORS
330
47
102
}
330
47
100
AcDbScale
 70
     0
300
1:5
140
1.0
141
5.0
290
     0
  0
SCALE
  5
4C
102
{ACAD_REACTORS
330
47
102
}
330
47
100
AcDbScale
 70
     0
300
1:8
140
1.0
141
8.0
290
     0
  0
SCALE
  5
4D
102
{ACAD_REACTORS
330
47
102
}
330
47
100
AcDbScale
 70
     0
300
1:10
140
1.0
141
10.0
290
     0
  0
SCALE
  5
4E
102
{ACAD_REACTORS
330
47
102
}
330
47
100
AcDbScale
 70
     0
300
1:16
140
1.0
141
16.0
290
     0
  0
SCALE
  5
4F
102
{ACAD_REACTORS
330
47
102
}
330
47
100
AcDbScale
 70
     0
300
1:20
140
1.0
141
20.0
290
     0
  0
SCALE
  5
50
102
{ACAD_REACTORS
330
47
102
}
330
47
100
AcDbScale
 70
     0
300
1:30
140
1.0
141
30.0
290
     0
  0
SCALE
  5
51
102
{ACAD_REACTORS
330
47
102
}
330
47
100
AcDbScale
 70
     0
300
1:40
140
1.0
141
40.0
290
     0
  0
SCALE
  5
52
102
{ACAD_REACTORS
330
47
102
}
330
47
100
AcDbScale
 70
     0
300
1:50
140
1.0
141
50.0
290
     0
  0
SCALE
  5
53
102
{ACAD_REACTORS
330
47
102
}
330
47
100
AcDbScale
 70
     0
300
1:100
140
1.0
141
100.0
290
     0
  0
SCALE
  5
54
102
{ACAD_REACTORS
330
47
102
}
330
47
100
AcDbScale
 70
     0
300
2:1
140
2.0
141
1.0
290
     0
  0
SCALE
  5
55
102
{ACAD_REACTORS
330
47
102
}
330
47
100
AcDbScale
 70
     0
300
4:1
140
4.0
141
1.0
290
     0
  0
SCALE
  5
56
102
{ACAD_REACTORS
330
47
102
}
330
47
100
AcDbScale
 70
     0
300
8:1
140
8.0
141
1.0
290
     0
  0
SCALE
  5
57
102
{ACAD_REACTORS
330
47
102
}
330
47
100
AcDbScale
 70
     0
300
10:1
140
10.0
141
1.0
290
     0
  0
SCALE
  5
58
102
{ACAD_REACTORS
330
47
102
}
330
47
100
AcDbScale
 70
     0
300
100:1
140
100.0
141
1.0
290
     0
  0
SCALE
  5
59
102
{ACAD_REACTORS
330
47
102
}
330
47
100
AcDbScale
 70
     0
300
1/128" = 1'-0"
140
0.0078125
141
12.0
290
     0
  0
SCALE
  5
5A
102
{ACAD_REACTORS
330
47
102
}
330
47
100
AcDbScale
 70
     0
300
1/64" = 1'-0"
140
0.015625
141
12.0
290
     0
  0
SCALE
  5
5B
102
{ACAD_REACTORS
330
47
102
}
330
47
100
AcDbScale
 70
     0
300
1/32" = 1'-0"
140
0.03125
141
12.0
290
     0
  0
SCALE
  5
5C
102
{ACAD_REACTORS
330
47
102
}
330
47
100
AcDbScale
 70
     0
300
1/16" = 1'-0"
140
0.0625
141
12.0
290
     0
  0
SCALE
  5
5D
102
{ACAD_REACTORS
330
47
102
}
330
47
100
AcDbScale
 70
     0
300
3/32" = 1'-0"
140
0.09375
141
12.0
290
     0
  0
SCALE
  5
5E
102
{ACAD_REACTORS
330
47
102
}
330
47
100
AcDbScale
 70
     0
300
1/8" = 1'-0"
140
0.125
141
12.0
290
     0
  0
SCALE
  5
5F
102
{ACAD_REACTORS
330
47
102
}
330
47
100
AcDbScale
 70
     0
300
3/16" = 1'-0"
140
0.1875
141
12.0
290
     0
  0
SCALE
  5
60
102
{ACAD_REACTORS
330
47
102
}
330
47
100
AcDbScale
 70
     0
300
1/4" = 1'-0"
140
0.25
141
12.0
290
     0
  0
SCALE
  5
61
102
{ACAD_REACTORS
330
47
102
}
330
47
100
AcDbScale
 70
     0
300
3/8" = 1'-0"
140
0.375
141
12.0
290
     0
  0
SCALE
  5
62
102
{ACAD_REACTORS
330
47
102
}
330
47
100
AcDbScale
 70
     0
300
1/2" = 1'-0"
140
0.5
141
12.0
290
     0
  0
SCALE
  5
63
102
{ACAD_REACTORS
330
47
102
}
330
47
100
AcDbScale
 70
     0
300
3/4" = 1'-0"
140
0.75
141
12.0
290
     0
  0
SCALE
  5
64
102
{ACAD_REACTORS
330
47
102
}
330
47
100
AcDbScale
 70
     0
300
1" = 1'-0"
140
1.0
141
12.0
290
     0
  0
SCALE
  5
65
102
{ACAD_REACTORS
330
47
102
}
330
47
100
AcDbScale
 70
     0
300
1-1/2" = 1'-0"
140
1.5
141
12.0
290
     0
  0
SCALE
  5
66
102
{ACAD_REACTORS
330
47
102
}
330
47
100
AcDbScale
 70
     0
300
3" = 1'-0"
140
3.0
141
12.0
290
     0
  0
SCALE
  5
67
102
{ACAD_REACTORS
330
47
102
}
330
47
100
AcDbScale
 70
     0
300
6" = 1'-0"
140
6.0
141
12.0
290
     0
  0
SCALE
  5
68
102
{ACAD_REACTORS
330
47
102
}
330
47
100
AcDbScale
 70
     0
300
1'-0" = 1'-0"
140
12.0
141
12.0
290
     0
  0
ENDSEC
  0
EOF
