  0
SECTION
  2
HEADER
  9
$ACADVER
  1
AC1015
  9
$ACADMAINTVER
 70
     6
  9
$DWGCODEPAGE
  3
ANSI_949
  9
$INSBASE
 10
0.0
 20
0.0
 30
0.0
  9
$EXTMIN
 10
-55.79272174986306
 20
-49.97073246008785
 30
0.0
  9
$EXTMAX
 10
86.08495504637732
 20
24.46856086770649
 30
0.0
  9
$LIMMIN
 10
0.0
 20
0.0
  9
$LIMMAX
 10
420.0
 20
297.0
  9
$ORTHOMODE
 70
     0
  9
$REGENMODE
 70
     1
  9
$FILLMODE
 70
     1
  9
$QTEXTMODE
 70
     0
  9
$MIRRTEXT
 70
     1
  9
$LTSCALE
 40
1.0
  9
$ATTMODE
 70
     1
  9
$TEXTSIZE
 40
3.5
  9
$TRACEWID
 40
1.0
  9
$TEXTSTYLE
  7
Standard
  9
$CLAYER
  8
0
  9
$CELTYPE
  6
ByLayer
  9
$CECOLOR
 62
   256
  9
$CELTSCALE
 40
1.0
  9
$DISPSILH
 70
     0
  9
$DIMSCALE
 40
1.0
  9
$DIMASZ
 40
3.302
  9
$DIMEXO
 40
1.0
  9
$DIMDLI
 40
3.75
  9
$DIMRND
 40
0.0
  9
$DIMDLE
 40
0.0
  9
$DIMEXE
 40
1.0
  9
$DIMTP
 40
0.0
  9
$DIMTM
 40
0.0
  9
$DIMTXT
 40
3.5
  9
$DIMCEN
 40
2.5
  9
$DIMTSZ
 40
0.0
  9
$DIMTOL
 70
     0
  9
$DIMLIM
 70
     0
  9
$DIMTIH
 70
     1
  9
$DIMTOH
 70
     1
  9
$DIMSE1
 70
     0
  9
$DIMSE2
 70
     0
  9
$DIMTAD
 70
     1
  9
$DIMZIN
 70
     0
  9
$DIMBLK
  1

  9
$DIMASO
 70
     1
  9
$DIMSHO
 70
     1
  9
$DIMPOST
  1

  9
$DIMAPOST
  1

  9
$DIMALT
 70
     0
  9
$DIMALTD
 70
     3
  9
$DIMALTF
 40
0.0393700787401575
  9
$DIMLFAC
 40
1.0
  9
$DIMTOFL
 70
     1
  9
$DIMTVP
 40
0.0
  9
$DIMTIX
 70
     0
  9
$DIMSOXD
 70
     0
  9
$DIMSAH
 70
     0
  9
$DIMBLK1
  1

  9
$DIMBLK2
  1

  9
$DIMSTYLE
  2
ISO-25
  9
$DIMCLRD
 70
     0
  9
$DIMCLRE
 70
     0
  9
$DIMCLRT
 70
     0
  9
$DIMTFAC
 40
1.0
  9
$DIMGAP
 40
1.524
  9
$DIMJUST
 70
     0
  9
$DIMSD1
 70
     0
  9
$DIMSD2
 70
     0
  9
$DIMTOLJ
 70
     0
  9
$DIMTZIN
 70
     0
  9
$DIMALTZ
 70
     0
  9
$DIMALTTZ
 70
     0
  9
$DIMUPT
 70
     0
  9
$DIMDEC
 70
     2
  9
$DIMTDEC
 70
     2
  9
$DIMALTU
 70
     2
  9
$DIMALTTD
 70
     3
  9
$DIMTXSTY
  7
Standard
  9
$DIMAUNIT
 70
     0
  9
$DIMADEC
 70
     2
  9
$DIMALTRND
 40
0.0
  9
$DIMAZIN
 70
     0
  9
$DIMDSEP
 70
    44
  9
$DIMATFIT
 70
     3
  9
$DIMFRAC
 70
     0
  9
$DIMLDRBLK
  1

  9
$DIMLUNIT
 70
     2
  9
$DIMLWD
 70
    -2
  9
$DIMLWE
 70
    -2
  9
$DIMTMOVE
 70
     0
  9
$LUNITS
 70
     2
  9
$LUPREC
 70
     2
  9
$SKETCHINC
 40
1.0
  9
$FILLETRAD
 40
10.0
  9
$AUNITS
 70
     0
  9
$AUPREC
 70
     2
  9
$MENU
  1
.
  9
$ELEVATION
 40
0.0
  9
$PELEVATION
 40
0.0
  9
$THICKNESS
 40
0.0
  9
$LIMCHECK
 70
     0
  9
$CHAMFERA
 40
0.0
  9
$CHAMFERB
 40
0.0
  9
$CHAMFERC
 40
0.0
  9
$CHAMFERD
 40
0.0
  9
$SKPOLY
 70
     0
  9
$TDCREATE
 40
2458270.85285647
  9
$TDUCREATE
 40
2458270.47785647
  9
$TDUPDATE
 40
2458271.452138287
  9
$TDUUPDATE
 40
2458271.077138287
  9
$TDINDWG
 40
0.0005310069
  9
$TDUSRTIMER
 40
2458271.076607408
  9
$USRTIMER
 70
     1
  9
$ANGBASE
 50
0.0
  9
$ANGDIR
 70
     0
  9
$PDMODE
 70
     0
  9
$PDSIZE
 40
-1.0
  9
$PLINEWID
 40
0.0
  9
$SPLFRAME
 70
     0
  9
$SPLINETYPE
 70
     6
  9
$SPLINESEGS
 70
     8
  9
$HANDSEED
  5
163
  9
$SURFTAB1
 70
     6
  9
$SURFTAB2
 70
     6
  9
$SURFTYPE
 70
     6
  9
$SURFU
 70
     6
  9
$SURFV
 70
     6
  9
$UCSBASE
  2

  9
$UCSNAME
  2

  9
$UCSORG
 10
0.0
 20
0.0
 30
0.0
  9
$UCSXDIR
 10
1.0
 20
0.0
 30
0.0
  9
$UCSYDIR
 10
0.0
 20
1.0
 30
0.0
  9
$UCSORTHOREF
  2

  9
$UCSORTHOVIEW
 70
     0
  9
$UCSORGTOP
 10
0.0
 20
0.0
 30
0.0
  9
$UCSORGBOTTOM
 10
0.0
 20
0.0
 30
0.0
  9
$UCSORGLEFT
 10
0.0
 20
0.0
 30
0.0
  9
$UCSORGRIGHT
 10
0.0
 20
0.0
 30
0.0
  9
$UCSORGFRONT
 10
0.0
 20
0.0
 30
0.0
  9
$UCSORGBACK
 10
0.0
 20
0.0
 30
0.0
  9
$PUCSBASE
  2

  9
$PUCSNAME
  2

  9
$PUCSORG
 10
0.0
 20
0.0
 30
0.0
  9
$PUCSXDIR
 10
1.0
 20
0.0
 30
0.0
  9
$PUCSYDIR
 10
0.0
 20
1.0
 30
0.0
  9
$PUCSORTHOREF
  2

  9
$PUCSORTHOVIEW
 70
     0
  9
$PUCSORGTOP
 10
0.0
 20
0.0
 30
0.0
  9
$PUCSORGBOTTOM
 10
0.0
 20
0.0
 30
0.0
  9
$PUCSORGLEFT
 10
0.0
 20
0.0
 30
0.0
  9
$PUCSORGRIGHT
 10
0.0
 20
0.0
 30
0.0
  9
$PUCSORGFRONT
 10
0.0
 20
0.0
 30
0.0
  9
$PUCSORGBACK
 10
0.0
 20
0.0
 30
0.0
  9
$USERI1
 70
     0
  9
$USERI2
 70
     0
  9
$USERI3
 70
     0
  9
$USERI4
 70
     0
  9
$USERI5
 70
     0
  9
$USERR1
 40
0.0
  9
$USERR2
 40
0.0
  9
$USERR3
 40
0.0
  9
$USERR4
 40
0.0
  9
$USERR5
 40
0.0
  9
$WORLDVIEW
 70
     1
  9
$SHADEDGE
 70
     3
  9
$SHADEDIF
 70
    70
  9
$TILEMODE
 70
     1
  9
$MAXACTVP
 70
    64
  9
$PINSBASE
 10
0.0
 20
0.0
 30
0.0
  9
$PLIMCHECK
 70
     0
  9
$PEXTMIN
 10
1.000000000000000E+20
 20
1.000000000000000E+20
 30
1.000000000000000E+20
  9
$PEXTMAX
 10
-1.000000000000000E+20
 20
-1.000000000000000E+20
 30
-1.000000000000000E+20
  9
$PLIMMIN
 10
0.0
 20
0.0
  9
$PLIMMAX
 10
0.0
 20
0.0
  9
$UNITMODE
 70
     0
  9
$VISRETAIN
 70
     1
  9
$PLINEGEN
 70
     0
  9
$PSLTSCALE
 70
     1
  9
$TREEDEPTH
 70
  3020
  9
$CMLSTYLE
  2
Standard
  9
$CMLJUST
 70
     0
  9
$CMLSCALE
 40
20.0
  9
$PROXYGRAPHICS
 70
     1
  9
$MEASUREMENT
 70
     1
  9
$CELWEIGHT
370
    -1
  9
$ENDCAPS
280
     0
  9
$JOINSTYLE
280
     0
  9
$LWDISPLAY
290
     1
  9
$INSUNITS
 70
     4
  9
$HYPERLINKBASE
  1

  9
$STYLESHEET
  1

  9
$XEDIT
290
     1
  9
$CEPSNTYPE
380
     0
  9
$PSTYLEMODE
290
     1
  9
$FINGERPRINTGUID
  2
{4DF0562F-7F9E-4EF5-A3FC-F11F6E2EDF31}
  9
$VERSIONGUID
  2
{FAEB1C32-E019-11D5-929B-00C0DF256EC4}
  9
$EXTNAMES
290
     1
  9
$PSVPSCALE
 40
0.0
  9
$OLESTARTUP
290
     0
  0
ENDSEC
  0
SECTION
  2
CLASSES
  0
CLASS
  1
ACDBDICTIONARYWDFLT
  2
AcDbDictionaryWithDefault
  3
ObjectDBX Classes
 90
        0
280
     0
281
     0
  0
CLASS
  1
VISUALSTYLE
  2
AcDbVisualStyle
  3
ObjectDBX Classes
 90
     4095
280
     0
281
     0
  0
CLASS
  1
MATERIAL
  2
AcDbMaterial
  3
ObjectDBX Classes
 90
     1153
280
     0
281
     0
  0
CLASS
  1
SCALE
  2
AcDbScale
  3
ObjectDBX Classes
 90
     1153
280
     0
281
     0
  0
CLASS
  1
SUN
  2
AcDbSun
  3
SCENEOE
 90
     1153
280
     0
281
     0
  0
CLASS
  1
ACDBPLACEHOLDER
  2
AcDbPlaceHolder
  3
ObjectDBX Classes
 90
        0
280
     0
281
     0
  0
CLASS
  1
LAYOUT
  2
AcDbLayout
  3
ObjectDBX Classes
 90
        0
280
     0
281
     0
  0
CLASS
  1
TABLESTYLE
  2
AcDbTableStyle
  3
ObjectDBX Classes
 90
     4095
280
     0
281
     0
  0
CLASS
  1
MLEADERSTYLE
  2
AcDbMLeaderStyle
  3
ACDB_MLEADERSTYLE_CLASS
 90
     4095
280
     0
281
     0
  0
CLASS
  1
RASTERVARIABLES
  2
AcDbRasterVariables
  3
ISM
 90
        0
280
     0
281
     0
  0
CLASS
  1
DIMASSOC
  2
AcDbDimAssoc
  3
"AcDbDimAssoc|Product Desc:     AcDim ARX App For Dimension|Company:          Autodesk, Inc.|WEB Address:      www.autodesk.com"
 90
        0
280
     0
281
     0
  0
ENDSEC
  0
SECTION
  2
TABLES
  0
TABLE
  2
VPORT
  5
8
330
0
100
AcDbSymbolTable
 70
     1
  0
VPORT
  5
29
330
8
100
AcDbSymbolTableRecord
100
AcDbViewportTableRecord
  2
*Active
 70
     0
 10
0.0
 20
0.0
 11
1.0
 21
1.0
 12
18.09112809670022
 22
11.48435210974823
 13
0.0
 23
0.0
 14
10.0
 24
10.0
 15
10.0
 25
10.0
 16
0.0
 26
0.0
 36
1.0
 17
0.0
 27
0.0
 37
0.0
 40
93.14830917264221
 41
1.43050193050193
 42
50.0
 43
0.0
 44
0.0
 50
0.0
 51
0.0
 71
    16
 72
  2000
 73
     1
 74
     3
 75
     0
 76
     0
 77
     0
 78
     0
281
     0
 65
     1
110
0.0
120
0.0
130
0.0
111
1.0
121
0.0
131
0.0
112
0.0
122
1.0
132
0.0
 79
     0
146
0.0
  0
ENDTAB
  0
TABLE
  2
LTYPE
  5
5
330
0
100
AcDbSymbolTable
 70
     6
  0
LTYPE
  5
14
330
5
100
AcDbSymbolTableRecord
100
AcDbLinetypeTableRecord
  2
ByBlock
 70
     0
  3

 72
    65
 73
     0
 40
0.0
  0
LTYPE
  5
15
330
5
100
AcDbSymbolTableRecord
100
AcDbLinetypeTableRecord
  2
ByLayer
 70
     0
  3

 72
    65
 73
     0
 40
0.0
  0
LTYPE
  5
16
330
5
100
AcDbSymbolTableRecord
100
AcDbLinetypeTableRecord
  2
Continuous
 70
     0
  3
Solid line
 72
    65
 73
     0
 40
0.0
  0
LTYPE
  5
6A
330
5
100
AcDbSymbolTableRecord
100
AcDbLinetypeTableRecord
  2
HIDDEN
 70
     0
  3
Hidden __ __ __ __ __ __ __ __ __ __ __ __ __ __
 72
    65
 73
     2
 40
1.905
 49
1.27
 74
     0
 49
-0.635
 74
     0
  0
LTYPE
  5
6B
330
5
100
AcDbSymbolTableRecord
100
AcDbLinetypeTableRecord
  2
PHANTOM
 70
     0
  3
Phantom ______  __  __  ______  __  __  ______
 72
    65
 73
     6
 40
12.7
 49
6.35
 74
     0
 49
-1.27
 74
     0
 49
1.27
 74
     0
 49
-1.27
 74
     0
 49
1.27
 74
     0
 49
-1.27
 74
     0
  0
LTYPE
  5
6C
330
5
100
AcDbSymbolTableRecord
100
AcDbLinetypeTableRecord
  2
CENTER
 70
     0
  3
Center ____ _ ____ _ ____ _ ____ _ ____ _ ____
 72
    65
 73
     4
 40
10.16
 49
6.35
 74
     0
 49
-1.27
 74
     0
 49
1.27
 74
     0
 49
-1.27
 74
     0
  0
LTYPE
  5
6D
330
5
100
AcDbSymbolTableRecord
100
AcDbLinetypeTableRecord
  2
CENTERX2
 70
     0
  3
Center (2x) ________  __  ________  __  _____
 72
    65
 73
     4
 40
20.32
 49
12.7
 74
     0
 49
-2.54
 74
     0
 49
2.54
 74
     0
 49
-2.54
 74
     0
  0
LTYPE
  5
6E
330
5
100
AcDbSymbolTableRecord
100
AcDbLinetypeTableRecord
  2
DOT2
 70
     0
  3
Dot (.5x) ........................................
 72
    65
 73
     2
 40
0.635
 49
0.0
 74
     0
 49
-0.635
 74
     0
  0
ENDTAB
  0
TABLE
  2
LAYER
  5
2
330
0
100
AcDbSymbolTable
 70
    18
  0
LAYER
  5
10
330
2
100
AcDbSymbolTableRecord
100
AcDbLayerTableRecord
  2
0
 70
     0
 62
     7
  6
Continuous
370
    -3
390
F
  0
LAYER
  5
6F
330
2
100
AcDbSymbolTableRecord
100
AcDbLayerTableRecord
  2
FORMAT
 70
     0
 62
     2
  6
Continuous
370
    -3
390
F
  0
LAYER
  5
70
330
2
100
AcDbSymbolTableRecord
100
AcDbLayerTableRecord
  2
외형선
 70
     0
 62
     4
  6
Continuous
370
    30
390
F
  0
LAYER
  5
71
330
2
100
AcDbSymbolTableRecord
100
AcDbLayerTableRecord
  2
숨은선
 70
     0
 62
     2
  6
HIDDEN
370
    15
390
F
  0
LAYER
  5
72
330
2
100
AcDbSymbolTableRecord
100
AcDbLayerTableRecord
  2
중심선
 70
     0
 62
     1
  6
CENTERX2
370
    -3
390
F
  0
LAYER
  5
73
330
2
100
AcDbSymbolTableRecord
100
AcDbLayerTableRecord
  2
파단선
 70
     0
 62
     4
  6
Continuous
370
    -3
390
F
  0
LAYER
  5
74
330
2
100
AcDbSymbolTableRecord
100
AcDbLayerTableRecord
  2
해칭선
 70
     0
 62
   100
  6
Continuous
370
    -3
390
F
  0
LAYER
  5
75
330
2
100
AcDbSymbolTableRecord
100
AcDbLayerTableRecord
  2
가는실선
 70
     0
 62
     4
  6
Continuous
370
    -3
390
F
  0
LAYER
  5
76
330
2
100
AcDbSymbolTableRecord
100
AcDbLayerTableRecord
  2
치수_보조선
 70
     0
 62
     4
  6
Continuous
370
    -3
390
F
  0
LAYER
  5
77
330
2
100
AcDbSymbolTableRecord
100
AcDbLayerTableRecord
  2
치수문자_일반주서
 70
     0
 62
     7
  6
Continuous
370
    15
390
F
  0
LAYER
  5
78
330
2
100
AcDbSymbolTableRecord
100
AcDbLayerTableRecord
  2
개별주서
 70
     0
 62
   100
  6
Continuous
370
    30
390
F
  0
LAYER
  5
79
330
2
100
AcDbSymbolTableRecord
100
AcDbLayerTableRecord
  2
중간선
 70
     0
 62
     2
  6
Continuous
370
    15
390
F
  0
LAYER
  5
7A
330
2
100
AcDbSymbolTableRecord
100
AcDbLayerTableRecord
  2
윤곽선
 70
     0
 62
     3
  6
Continuous
370
    40
390
F
  0
LAYER
  5
7B
330
2
100
AcDbSymbolTableRecord
100
AcDbLayerTableRecord
  2
중심마크
 70
     0
 62
   100
  6
Continuous
370
    30
390
F
  0
LAYER
  5
7C
330
2
100
AcDbSymbolTableRecord
100
AcDbLayerTableRecord
  2
가상선
 70
     0
 62
     4
  6
PHANTOM
370
    -3
390
F
  0
LAYER
  5
7D
330
2
100
AcDbSymbolTableRecord
100
AcDbLayerTableRecord
  2
특수지정선
 70
     0
 62
     5
  6
CENTERX2
370
    60
390
F
  0
LAYER
  5
7E
330
2
100
AcDbSymbolTableRecord
100
AcDbLayerTableRecord
  2
참조1
 70
     0
 62
    -4
  6
Continuous
370
    -3
390
F
  0
LAYER
  5
145
330
2
100
AcDbSymbolTableRecord
100
AcDbLayerTableRecord
  2
Defpoints
 70
     0
 62
     7
  6
Continuous
290
     0
370
    -3
390
F
  0
ENDTAB
  0
TABLE
  2
STYLE
  5
3
330
0
100
AcDbSymbolTable
 70
     2
  0
STYLE
  5
11
330
3
100
AcDbSymbolTableRecord
100
AcDbTextStyleTableRecord
  2
Standard
 70
     0
 40
0.0
 41
1.0
 50
0.0
 71
     0
 42
3.5
  3
txt
  4

  0
STYLE
  5
94
330
3
100
AcDbSymbolTableRecord
100
AcDbTextStyleTableRecord
  2
SLDTEXTSTYLE0
 70
     0
 40
0.0
 41
0.75
 50
0.0
 71
     0
 42
3.5
  3
TXT
  4

  0
ENDTAB
  0
TABLE
  2
VIEW
  5
6
330
0
100
AcDbSymbolTable
 70
     0
  0
ENDTAB
  0
TABLE
  2
UCS
  5
7
330
0
100
AcDbSymbolTable
 70
     0
  0
ENDTAB
  0
TABLE
  2
APPID
  5
9
330
0
100
AcDbSymbolTable
 70
     2
  0
APPID
  5
12
330
9
100
AcDbSymbolTableRecord
100
AcDbRegAppTableRecord
  2
ACAD
 70
     0
  0
APPID
  5
158
330
9
100
AcDbSymbolTableRecord
100
AcDbRegAppTableRecord
  2
PE_DIMMEASUREMENT
 70
     0
  0
ENDTAB
  0
TABLE
  2
DIMSTYLE
  5
A
330
0
100
AcDbSymbolTable
 70
     4
100
AcDbDimStyleTable
  0
DIMSTYLE
105
27
330
A
100
AcDbSymbolTableRecord
100
AcDbDimStyleTableRecord
  2
ISO-25
 70
     0
 41
2.5
 42
0.625
 43
3.75
 44
1.25
 73
     0
 74
     0
 77
     1
 78
     8
140
2.5
141
2.5
143
0.03937007874016
147
0.625
171
     3
172
     1
178
     0
271
     2
272
     2
274
     3
278
    44
283
     0
284
     8
340
11
  0
DIMSTYLE
105
E5
102
{ACAD_REACTORS
330
E4
102
}
330
A
100
AcDbSymbolTableRecord
100
AcDbDimStyleTableRecord
  2
SLDDIMSTYLE0
 70
     0
 41
3.302
 44
0.0
 45
0.000000001
 73
     0
 74
     0
 77
     1
 78
    12
 79
     3
140
3.5
147
0.875
173
     1
178
     0
271
     2
272
     2
276
     2
284
    12
340
94
  0
DIMSTYLE
105
F0
102
{ACAD_REACTORS
330
EF
330
FC
330
146
102
}
330
A
100
AcDbSymbolTableRecord
100
AcDbDimStyleTableRecord
  2
SLDDIMSTYLE1
 70
     0
 41
3.302
 44
0.0
 45
0.000000001
 73
     0
 74
     0
 77
     1
 78
    12
 79
     3
140
3.5
147
0.875
172
     1
173
     1
178
     0
271
     2
272
     2
276
     2
284
    12
289
     0
340
94
  0
DIMSTYLE
105
10A
330
A
100
AcDbSymbolTableRecord
100
AcDbDimStyleTableRecord
  2
SLDDIMSTYLE2
 70
     0
 41
3.302
 44
0.0
 45
0.000000001
 73
     0
 74
     0
 77
     1
 78
     8
 79
     2
140
3.5
147
0.875
172
     1
173
     1
178
     0
271
     2
272
     2
276
     2
284
    12
289
     0
340
94
341
10B
343
10B
344
10B
  0
ENDTAB
  0
TABLE
  2
BLOCK_RECORD
  5
1
330
0
100
AcDbSymbolTable
 70
     9
  0
BLOCK_RECORD
  5
1F
330
1
100
AcDbSymbolTableRecord
100
AcDbBlockTableRecord
  2
*Model_Space
340
22
  0
BLOCK_RECORD
  5
1B
330
1
100
AcDbSymbolTableRecord
100
AcDbBlockTableRecord
  2
*Paper_Space
340
1E
  0
BLOCK_RECORD
  5
23
330
1
100
AcDbSymbolTableRecord
100
AcDbBlockTableRecord
  2
*Paper_Space0
340
26
  0
BLOCK_RECORD
  5
7F
330
1
100
AcDbSymbolTableRecord
100
AcDbBlockTableRecord
  2
블럭10
340
0
102
{BLKREFS
331
DB
102
}
  0
BLOCK_RECORD
  5
E6
330
1
100
AcDbSymbolTableRecord
100
AcDbBlockTableRecord
  2
_D
340
0
  0
BLOCK_RECORD
  5
F1
330
1
100
AcDbSymbolTableRecord
100
AcDbBlockTableRecord
  2
_D_1
340
0
  0
BLOCK_RECORD
  5
FD
330
1
100
AcDbSymbolTableRecord
100
AcDbBlockTableRecord
  2
_D_2
340
0
  0
BLOCK_RECORD
  5
10B
330
1
100
AcDbSymbolTableRecord
100
AcDbBlockTableRecord
  2
_NONE
340
0
  0
BLOCK_RECORD
  5
10E
330
1
100
AcDbSymbolTableRecord
100
AcDbBlockTableRecord
  2
_D_3
340
0
  0
BLOCK_RECORD
  5
11A
330
1
100
AcDbSymbolTableRecord
100
AcDbBlockTableRecord
  2
SW_DOWELSYMBOL_0
340
0
102
{BLKREFS
331
120
102
}
  0
BLOCK_RECORD
  5
149
330
1
100
AcDbSymbolTableRecord
100
AcDbBlockTableRecord
  2
*D8
340
0
  0
ENDTAB
  0
ENDSEC
  0
SECTION
  2
BLOCKS
  0
BLOCK
  5
20
330
1F
100
AcDbEntity
  8
0
100
AcDbBlockBegin
  2
*Model_Space
 70
     0
 10
0.0
 20
0.0
 30
0.0
  3
*Model_Space
  1
*Model_Space
  0
ENDBLK
  5
21
330
1F
100
AcDbEntity
  8
0
100
AcDbBlockEnd
  0
BLOCK
  5
1C
330
1B
100
AcDbEntity
 67
     1
  8
0
100
AcDbBlockBegin
  2
*Paper_Space
 70
     0
 10
0.0
 20
0.0
 30
0.0
  3
*Paper_Space
  1
*Paper_Space
  0
ENDBLK
  5
1D
330
1B
100
AcDbEntity
 67
     1
  8
0
100
AcDbBlockEnd
  0
BLOCK
  5
24
330
23
100
AcDbEntity
  8
0
100
AcDbBlockBegin
  2
*Paper_Space0
 70
     0
 10
0.0
 20
0.0
 30
0.0
  3
*Paper_Space0
  1
*Paper_Space0
  0
ENDBLK
  5
25
330
23
100
AcDbEntity
  8
0
100
AcDbBlockEnd
  0
BLOCK
  5
80
330
7F
100
AcDbEntity
  8
0
100
AcDbBlockBegin
  2
블럭10
 70
     2
 10
0.0
 20
0.0
 30
0.0
  3
블럭10
  1
블럭10
  0
ELLIPSE
  5
82
330
7F
100
AcDbEntity
  8
중심선
100
AcDbEllipse
 10
20.54032771741204
 20
12.0471743016438
 30
0.0
 11
6.600054785286829
 21
-1.261213355974178E-13
 31
0.0
210
0.0
220
0.0
230
1.0
 40
0.636358354079598
 41
0.9219305317359503
 42
6.513795318482858
  0
ELLIPSE
  5
83
330
7F
100
AcDbEntity
  8
중심선
100
AcDbEllipse
 10
20.54032771746488
 20
12.04717430159265
 30
0.0
 11
3.960054785062283
 21
1.540847449632565E-10
 31
0.0
210
0.0
220
0.0
230
1.0
 40
0.3939339440162632
 41
1.131841032648279
 42
5.62031148352944
  0
LINE
  5
84
330
7F
100
AcDbEntity
  8
중심선
100
AcDbLine
 10
2.268634060543552
 20
16.24717430164393
 30
0.0
 11
5.714909304380834
 21
16.24717430164393
 31
0.0
  0
LINE
  5
85
330
7F
100
AcDbEntity
  8
중심선
100
AcDbLine
 10
5.245725140726316
 20
7.84717430164391
 30
0.0
 11
8.692000384563599
 21
7.84717430164391
 31
0.0
  0
LINE
  5
86
330
7F
100
AcDbEntity
  8
중심선
100
AcDbLine
 10
15.74043728645272
 20
16.24717430164393
 30
0.0
 11
8.692000384563599
 21
7.84717430164391
 31
0.0
  0
LINE
  5
87
330
7F
100
AcDbEntity
  8
중심선
100
AcDbLine
 10
0.1404042013395286
 20
13.71084872107135
 30
0.0
 11
3.58671253028996
 21
13.71088815037384
 31
0.0
  0
LINE
  5
88
330
7F
100
AcDbEntity
  8
중심선
100
AcDbLine
 10
2.750260043222114
 20
10.84717430164391
 30
0.0
 11
6.196535287059397
 21
10.84717430164391
 31
0.0
  0
LINE
  5
89
330
7F
100
AcDbEntity
  8
중심선
100
AcDbLine
 10
12.29416204261559
 20
16.24717430164393
 30
0.0
 11
5.245725140726316
 21
7.84717430164391
 31
0.0
  0
LINE
  5
8A
330
7F
100
AcDbEntity
  8
중심선
100
AcDbLine
 10
10.72767329541681
 20
16.24717430164393
 30
0.0
 11
6.196535287059397
 21
10.84717430164391
 31
0.0
  0
LINE
  5
8B
330
7F
100
AcDbEntity
  8
중심선
100
AcDbLine
 10
7.28139805157953
 20
16.24717430164393
 30
0.0
 11
2.750260043222114
 21
10.84717430164391
 31
0.0
  0
LINE
  5
8C
330
7F
100
AcDbEntity
  8
중심선
100
AcDbLine
 10
5.714909304380834
 20
16.24717430164393
 30
0.0
 11
3.58671253028996
 21
13.71088815037384
 31
0.0
  0
LINE
  5
8D
330
7F
100
AcDbEntity
  8
중심선
100
AcDbLine
 10
2.268634060543552
 20
16.24717430164393
 30
0.0
 11
0.1404042013395286
 21
13.71084872107135
 31
0.0
  0
LINE
  5
8E
330
7F
100
AcDbEntity
  8
중심선
100
AcDbLine
 10
7.28139805157953
 20
16.24717430164393
 30
0.0
 11
10.72767329541681
 21
16.24717430164393
 31
0.0
  0
LINE
  5
8F
330
7F
100
AcDbEntity
  8
중심선
100
AcDbLine
 10
12.29416204261559
 20
16.24717430164393
 30
0.0
 11
15.74043728645272
 21
16.24717430164393
 31
0.0
  0
LINE
  5
90
330
7F
100
AcDbEntity
  8
중심선
100
AcDbLine
 10
19.22036997980202
 20
11.08717430171403
 30
0.0
 11
23.66174974927406
 21
11.08717430171406
 31
0.0
  0
LINE
  5
91
330
7F
100
AcDbEntity
  8
중심선
100
AcDbLine
 10
19.22039502424796
 20
13.00717430171391
 30
0.0
 11
19.22036997980202
 21
11.08717430171403
 31
0.0
  0
LINE
  5
92
330
7F
100
AcDbEntity
  8
중심선
100
AcDbLine
 10
19.22039502424796
 20
13.00717430171391
 30
0.0
 11
26.96566020931264
 21
13.00717430171391
 31
0.0
  0
LINE
  5
93
330
7F
100
AcDbEntity
  8
중심선
100
AcDbLine
 10
22.22332737316547
 20
13.45928029700563
 30
0.0
 11
24.52862924686651
 21
15.39360700705356
 31
0.0
  0
ATTDEF
  5
95
330
7F
100
AcDbEntity
  8
FORMAT
 62
     2
100
AcDbText
 10
-16.11926103943555
 20
2.075366912832191
 30
0.0
 40
4.233333333333333
  1
SEME7201007E [ 4 FLUTE ]
 41
0.75
  7
SLDTEXTSTYLE0
 11
-16.11926103943555
 21
-0.0412997538344756
 31
0.0
100
AcDbAttributeDefinition
  3

  2
AUTOATTR0
 70
     0
 74
     1
  0
ENDBLK
  5
81
330
7F
100
AcDbEntity
  8
0
100
AcDbBlockEnd
  0
BLOCK
  5
E7
330
E6
100
AcDbEntity
  8
0
100
AcDbBlockBegin
  2
_D
 70
     0
 10
0.0
 20
0.0
 30
0.0
  3
_D
  1
_D
  0
LINE
  5
E9
330
E6
100
AcDbEntity
  8
치수문자_일반주서
 62
     0
370
    -2
100
AcDbLine
 10
19.32990825288494
 20
0.5617362244880567
 30
0.0
 11
19.32990825288494
 21
20.09356086770649
 31
0.0
  0
LINE
  5
EA
330
E6
100
AcDbEntity
  8
치수문자_일반주서
 62
     0
370
    -2
100
AcDbLine
 10
-40.67009174711506
 20
2.463574928723899
 30
0.0
 11
-40.67009174711506
 21
20.09356086770649
 31
0.0
  0
LINE
  5
EB
330
E6
100
AcDbEntity
  8
치수문자_일반주서
 62
     0
370
    -2
100
AcDbLine
 10
16.02790825288494
 20
20.09356086770649
 30
0.0
 11
-37.36809174711506
 21
20.09356086770649
 31
0.0
  0
SOLID
  5
EC
330
E6
100
AcDbEntity
  8
치수문자_일반주서
 62
     0
100
AcDbTrace
 10
16.02790825288494
 20
19.54322753437316
 30
0.0
 11
16.02790825288494
 21
20.64389420103982
 31
0.0
 12
19.32990825288494
 22
20.09356086770649
 32
0.0
 13
19.32990825288494
 23
20.09356086770649
 33
0.0
  0
SOLID
  5
ED
330
E6
100
AcDbEntity
  8
치수문자_일반주서
 62
     0
100
AcDbTrace
 10
-37.36809174711506
 20
20.64389420103982
 30
0.0
 11
-37.36809174711506
 21
19.54322753437316
 31
0.0
 12
-40.67009174711506
 22
20.09356086770649
 32
0.0
 13
-40.67009174711506
 23
20.09356086770649
 33
0.0
  0
MTEXT
  5
EE
330
E6
100
AcDbEntity
  8
치수문자_일반주서
 62
     0
100
AcDbMText
 10
-10.67009174711506
 20
24.46856086770649
 30
0.0
 40
3.5
 41
0.0
 71
     2
 72
     1
  1
\A1;60
  7
SLDTEXTSTYLE0
 73
     1
 44
1.0
  0
POINT
  5
15B
330
E6
100
AcDbEntity
  8
Defpoints
 62
     0
100
AcDbPoint
 10
19.32990825288494
 20
0.4992362244880567
 30
0.0
  0
POINT
  5
15C
330
E6
100
AcDbEntity
  8
Defpoints
 62
     0
100
AcDbPoint
 10
-40.67009174711506
 20
2.401074928723899
 30
0.0
  0
POINT
  5
15D
330
E6
100
AcDbEntity
  8
Defpoints
 62
     0
100
AcDbPoint
 10
-40.67009174711506
 20
20.09356086770649
 30
0.0
  0
ENDBLK
  5
E8
330
E6
100
AcDbEntity
  8
0
100
AcDbBlockEnd
  0
BLOCK
  5
F2
330
F1
100
AcDbEntity
  8
0
100
AcDbBlockBegin
  2
_D_1
 70
     0
 10
0.0
 20
0.0
 30
0.0
  3
_D_1
  1
_D_1
  0
LINE
  5
F4
330
F1
100
AcDbEntity
  8
치수문자_일반주서
 62
     0
370
    -2
100
AcDbLine
 10
19.32990825288494
 20
0.5617362244880567
 30
0.0
 11
19.32990825288494
 21
13.09963225915285
 31
0.0
  0
LINE
  5
F5
330
F1
100
AcDbEntity
  8
치수문자_일반주서
 62
     0
370
    -2
100
AcDbLine
 10
12.32990825288492
 20
0.5390066067821627
 30
0.0
 11
12.32990825288492
 21
13.09963225915285
 31
0.0
  0
LINE
  5
F6
330
F1
100
AcDbEntity
  8
치수문자_일반주서
 62
     0
370
    -2
100
AcDbLine
 10
19.32990825288494
 20
13.09963225915285
 30
0.0
 11
43.13459212528828
 21
13.09963225915285
 31
0.0
  0
LINE
  5
F7
330
F1
100
AcDbEntity
  8
치수문자_일반주서
 62
     0
370
    -2
100
AcDbLine
 10
19.32990825288494
 20
13.09963225915285
 30
0.0
 11
12.32990825288492
 21
13.09963225915285
 31
0.0
  0
LINE
  5
F8
330
F1
100
AcDbEntity
  8
치수문자_일반주서
 62
     0
370
    -2
100
AcDbLine
 10
22.63190825288494
 20
13.09963225915285
 30
0.0
 11
25.93390825288494
 21
13.09963225915285
 31
0.0
  0
LINE
  5
F9
330
F1
100
AcDbEntity
  8
치수문자_일반주서
 62
     0
370
    -2
100
AcDbLine
 10
9.02790825288492
 20
13.09963225915285
 30
0.0
 11
5.725908252884921
 21
13.09963225915285
 31
0.0
  0
SOLID
  5
FA
330
F1
100
AcDbEntity
  8
치수문자_일반주서
 62
     0
100
AcDbTrace
 10
22.63190825288494
 20
13.64996559248618
 30
0.0
 11
22.63190825288494
 21
12.54929892581952
 31
0.0
 12
19.32990825288494
 22
13.09963225915285
 32
0.0
 13
19.32990825288494
 23
13.09963225915285
 33
0.0
  0
SOLID
  5
FB
330
F1
100
AcDbEntity
  8
치수문자_일반주서
 62
     0
100
AcDbTrace
 10
9.02790825288492
 20
12.54929892581952
 30
0.0
 11
9.02790825288492
 21
13.64996559248618
 31
0.0
 12
12.32990825288492
 22
13.09963225915285
 32
0.0
 13
12.32990825288492
 23
13.09963225915285
 33
0.0
  0
MTEXT
  5
15E
330
F1
100
AcDbEntity
  8
치수문자_일반주서
 62
     0
100
AcDbMText
 10
41.38459212528828
 20
17.47463225915285
 30
0.0
 40
3.5
 41
0.0
 71
     2
 72
     1
  1
\A1;7
  7
SLDTEXTSTYLE0
 73
     1
 44
1.0
  0
POINT
  5
15F
330
F1
100
AcDbEntity
  8
Defpoints
 62
     0
100
AcDbPoint
 10
19.32990825288494
 20
0.4992362244880567
 30
0.0
  0
POINT
  5
160
330
F1
100
AcDbEntity
  8
Defpoints
 62
     0
100
AcDbPoint
 10
12.32990825288492
 20
0.4765066067821627
 30
0.0
  0
POINT
  5
161
330
F1
100
AcDbEntity
  8
Defpoints
 62
     0
100
AcDbPoint
 10
12.32990825288492
 20
13.09963225915285
 30
0.0
  0
ENDBLK
  5
F3
330
F1
100
AcDbEntity
  8
0
100
AcDbBlockEnd
  0
BLOCK
  5
FE
330
FD
100
AcDbEntity
  8
0
100
AcDbBlockBegin
  2
_D_2
 70
     0
 10
0.0
 20
0.0
 30
0.0
  3
_D_2
  1
_D_2
  0
LINE
  5
100
330
FD
100
AcDbEntity
  8
치수문자_일반주서
 62
     0
370
    -2
100
AcDbLine
 10
-40.13259174711506
 20
3.001074928723896
 30
0.0
 11
-48.89542752975578
 21
3.001074928723863
 31
0.0
  0
LINE
  5
101
330
FD
100
AcDbEntity
  8
치수문자_일반주서
 62
     0
370
    -2
100
AcDbLine
 10
-40.13259174711506
 20
-2.99892507127611
 30
0.0
 11
-48.89542752975576
 21
-2.998925071276142
 31
0.0
  0
LINE
  5
102
330
FD
100
AcDbEntity
  8
치수문자_일반주서
 62
     0
370
    -2
100
AcDbLine
 10
-48.89542752975576
 20
-0.3009250712761364
 30
0.0
 11
-48.89542752975577
 21
0.3030749287238574
 31
0.0
  0
SOLID
  5
103
330
FD
100
AcDbEntity
  8
치수문자_일반주서
 62
     0
100
AcDbTrace
 10
-48.34509419642243
 20
-0.3009250712761345
 30
0.0
 11
-49.4457608630891
 21
-0.3009250712761384
 31
0.0
 12
-48.89542752975578
 22
3.001074928723863
 32
0.0
 13
-48.89542752975578
 23
3.001074928723863
 33
0.0
  0
SOLID
  5
104
330
FD
100
AcDbEntity
  8
치수문자_일반주서
 62
     0
100
AcDbTrace
 10
-49.44576086308911
 20
0.3030749287238555
 30
0.0
 11
-48.34509419642244
 21
0.3030749287238594
 31
0.0
 12
-48.89542752975576
 22
-2.998925071276142
 32
0.0
 13
-48.89542752975576
 23
-2.998925071276142
 33
0.0
  0
MTEXT
  5
105
330
FD
100
AcDbEntity
  8
치수문자_일반주서
 62
     0
100
AcDbMText
 10
-53.27042752975577
 20
0.0010749287238794
 30
0.0
 40
3.5
 41
0.0
 71
     2
 72
     1
  1
\A1;%%c6
  7
SLDTEXTSTYLE0
 11
-3.552713678800498E-15
 21
1.0
 31
0.0
 73
     1
 44
1.0
  0
POINT
  5
106
330
FD
100
AcDbEntity
  8
Defpoints
 62
     0
100
AcDbPoint
 10
-40.07009174711506
 20
3.001074928723896
 30
0.0
  0
POINT
  5
107
330
FD
100
AcDbEntity
  8
Defpoints
 62
     0
100
AcDbPoint
 10
-40.07009174711506
 20
-2.998925071276109
 30
0.0
  0
POINT
  5
108
330
FD
100
AcDbEntity
  8
Defpoints
 62
     0
100
AcDbPoint
 10
-48.89542752975577
 20
-2.998925071276142
 30
0.0
  0
ENDBLK
  5
FF
330
FD
100
AcDbEntity
  8
0
100
AcDbBlockEnd
  0
BLOCK
  5
10C
330
10B
100
AcDbEntity
  8
0
100
AcDbBlockBegin
  2
_NONE
 70
     0
 10
0.0
 20
0.0
 30
0.0
  3
_NONE
  1
_NONE
  0
ENDBLK
  5
10D
330
10B
100
AcDbEntity
  8
0
100
AcDbBlockEnd
  0
BLOCK
  5
10F
330
10E
100
AcDbEntity
  8
0
100
AcDbBlockBegin
  2
_D_3
 70
     0
 10
0.0
 20
0.0
 30
0.0
  3
_D_3
  1
_D_3
  0
MTEXT
  5
111
330
10E
100
AcDbEntity
  8
치수문자_일반주서
100
AcDbMText
 10
5.294274912943388
 20
-3.43119948363986
 30
0.0
 40
3.5
 41
0.0
 71
     1
 72
     1
  1
%%c
  7
SLDTEXTSTYLE0
 11
6.123233995736766E-17
 21
1.0
 31
0.0
 73
     1
 44
1.0
  0
MTEXT
  5
112
330
10E
100
AcDbEntity
  8
치수문자_일반주서
100
AcDbMText
 10
5.240802736283536
 20
1.84723791473422
 30
0.0
 40
3.5
 41
0.0
 71
     1
 72
     1
  1
0
  7
SLDTEXTSTYLE0
 11
6.123233995736766E-17
 21
1.0
 31
0.0
 73
     1
 44
1.0
  0
ENDBLK
  5
110
330
10E
100
AcDbEntity
  8
0
100
AcDbBlockEnd
  0
BLOCK
  5
11B
330
11A
100
AcDbEntity
  8
0
100
AcDbBlockBegin
  2
SW_DOWELSYMBOL_0
 70
     0
 10
0.0
 20
0.0
 30
0.0
  3
SW_DOWELSYMBOL_0
  1
SW_DOWELSYMBOL_0
  0
CIRCLE
  5
11D
330
11A
100
AcDbEntity
  8
해칭선
 62
     0
100
AcDbCircle
 10
0.0
 20
0.0
 30
0.0
 40
3.000000000000001
  0
HATCH
  5
11E
330
11A
100
AcDbEntity
  8
0
  6
Continuous
 62
     0
370
     0
100
AcDbHatch
 10
0.0
 20
0.0
 30
0.0
210
0.0
220
0.0
230
1.0
  2
SOLID
 70
     1
 71
     0
 91
        1
 92
        0
 93
        3
 72
     2
 10
0.0
 20
0.0
 40
3.000000000000001
 50
0.0
 51
90.0
 73
     1
 72
     1
 10
0.0
 20
3.000000000000001
 11
0.0
 21
0.0
 72
     1
 10
0.0
 20
0.0
 11
3.000000000000001
 21
0.0
 97
        0
 75
     0
 76
     1
 98
        1
 10
0.0
 20
0.0
  0
HATCH
  5
11F
330
11A
100
AcDbEntity
  8
0
  6
Continuous
 62
     0
370
     0
100
AcDbHatch
 10
0.0
 20
0.0
 30
0.0
210
0.0
220
0.0
230
1.0
  2
SOLID
 70
     1
 71
     0
 91
        1
 92
        0
 93
        3
 72
     2
 10
0.0
 20
0.0
 40
3.000000000000001
 50
180.0
 51
270.0000000000008
 73
     1
 72
     1
 10
0.0
 20
-3.000000000000001
 11
0.0
 21
0.0
 72
     1
 10
0.0
 20
0.0
 11
-3.000000000000001
 21
0.0
 97
        0
 75
     0
 76
     1
 98
        1
 10
0.0
 20
0.0
  0
ENDBLK
  5
11C
330
11A
100
AcDbEntity
  8
0
100
AcDbBlockEnd
  0
BLOCK
  5
14A
330
149
100
AcDbEntity
  8
0
100
AcDbBlockBegin
  2
*D8
 70
     1
 10
0.0
 20
0.0
 30
0.0
  3
*D8
  1
*D8
  0
LINE
  5
14C
330
149
100
AcDbEntity
  8
치수문자_일반주서
 62
     0
370
    -2
100
AcDbLine
 10
19.39240825288493
 20
0.4992362244880567
 30
0.0
 11
39.53445985930978
 21
0.4992362244880546
 31
0.0
  0
LINE
  5
14D
330
149
100
AcDbEntity
  8
치수문자_일반주서
 62
     0
370
    -2
100
AcDbLine
 10
19.39240825288494
 20
-0.4970863670402664
 30
0.0
 11
39.53445985930978
 21
-0.4970863670402679
 31
0.0
  0
LINE
  5
14E
330
149
100
AcDbEntity
  8
치수문자_일반주서
 62
     0
370
    -2
100
AcDbLine
 10
39.53445985930978
 20
0.4992362244880546
 30
0.0
 11
39.53445985930978
 21
12.35323622448805
 31
0.0
  0
LINE
  5
14F
330
149
100
AcDbEntity
  8
치수문자_일반주서
 62
     0
370
    -2
100
AcDbLine
 10
39.53445985930978
 20
0.4992362244880546
 30
0.0
 11
39.53445985930978
 21
-0.4970863670402679
 31
0.0
  0
LINE
  5
150
330
149
100
AcDbEntity
  8
치수문자_일반주서
 62
     0
370
    -2
100
AcDbLine
 10
39.53445985930978
 20
3.801236224488054
 30
0.0
 11
39.53445985930978
 21
7.103236224488054
 31
0.0
  0
LINE
  5
151
330
149
100
AcDbEntity
  8
치수문자_일반주서
 62
     0
370
    -2
100
AcDbLine
 10
39.53445985930978
 20
-3.799086367040267
 30
0.0
 11
39.53445985930978
 21
-7.101086367040267
 31
0.0
  0
SOLID
  5
152
330
149
100
AcDbEntity
  8
치수문자_일반주서
 62
     0
100
AcDbTrace
 10
38.98412652597645
 20
3.801236224488054
 30
0.0
 11
40.08479319264312
 21
3.801236224488054
 31
0.0
 12
39.53445985930978
 22
0.4992362244880546
 32
0.0
 13
39.53445985930978
 23
0.4992362244880546
 33
0.0
  0
SOLID
  5
153
330
149
100
AcDbEntity
  8
치수문자_일반주서
 62
     0
100
AcDbTrace
 10
40.08479319264312
 20
-3.799086367040267
 30
0.0
 11
38.98412652597645
 21
-3.799086367040267
 31
0.0
 12
39.53445985930978
 22
-0.4970863670402679
 32
0.0
 13
39.53445985930978
 23
-0.4970863670402679
 33
0.0
  0
MTEXT
  5
154
330
149
100
AcDbEntity
  8
치수문자_일반주서
 62
     0
100
AcDbMText
 10
36.90945985930978
 20
9.728236224488054
 30
0.0
 40
3.5
 41
0.0
 71
     5
 72
     1
  1
\A1;{%%C1}
  7
SLDTEXTSTYLE0
 11
0.0
 21
1.0
 31
0.0
 73
     1
 44
1.0
  0
POINT
  5
155
330
149
100
AcDbEntity
  8
Defpoints
 62
     0
100
AcDbPoint
 10
19.32990825288493
 20
0.4992362244880567
 30
0.0
  0
POINT
  5
156
330
149
100
AcDbEntity
  8
Defpoints
 62
     0
100
AcDbPoint
 10
19.32990825288494
 20
-0.4970863670402664
 30
0.0
  0
POINT
  5
159
330
149
100
AcDbEntity
  8
Defpoints
 62
     0
100
AcDbPoint
 10
39.53445985930978
 20
-0.4970863670402677
 30
0.0
  0
ENDBLK
  5
14B
330
149
100
AcDbEntity
  8
0
100
AcDbBlockEnd
  0
ENDSEC
  0
SECTION
  2
ENTITIES
  0
LINE
  5
96
330
1F
100
AcDbEntity
  8
외형선
  6
Continuous
370
    15
100
AcDbLine
 10
16.48203639296447
 20
0.1197569332304551
 30
0.0
 11
16.42132256363997
 21
0.1501726915871879
 31
0.0
  0
LINE
  5
97
330
1F
100
AcDbEntity
  8
외형선
  6
Continuous
370
    15
100
AcDbLine
 10
15.85042586868449
 20
-0.1280674141093021
 30
0.0
 11
15.89192594245586
 21
-0.1492730946806392
 31
0.0
  0
LINE
  5
98
330
1F
100
AcDbEntity
  8
외형선
  6
Continuous
370
    15
100
AcDbLine
 10
18.57374069225786
 20
-0.1296634155039413
 30
0.0
 11
18.61288764887026
 21
-0.149418227991067
 31
0.0
  0
LINE
  5
99
330
1F
100
AcDbEntity
  8
외형선
  6
Continuous
370
    15
100
AcDbLine
 10
15.09204886619055
 20
0.1341227789668206
 30
0.0
 11
15.06037561916791
 21
0.1504194841644506
 31
0.0
  0
LINE
  5
9A
330
1F
100
AcDbEntity
  8
외형선
  6
Continuous
370
    15
100
AcDbLine
 10
14.49378117958959
 20
-0.129164362969352
 30
0.0
 11
14.53230308863353
 21
-0.1490928968521827
 31
0.0
  0
LINE
  5
9B
330
1F
100
AcDbEntity
  8
외형선
  6
Continuous
 62
     1
370
    15
100
AcDbLine
 10
16.68320268442785
 20
-0.4989250712761086
 30
0.0
 11
16.98848717230495
 21
-0.4989250712761086
 31
0.0
  0
LINE
  5
9C
330
1F
100
AcDbEntity
  8
외형선
  6
Continuous
 62
     1
370
    15
100
AcDbLine
 10
14.26710518168561
 20
0.5010749287238949
 30
0.0
 11
13.96346328668404
 21
0.5010749287238949
 31
0.0
  0
LINE
  5
9D
330
1F
100
AcDbEntity
  8
외형선
  6
Continuous
 62
     1
370
    15
100
AcDbLine
 10
13.96346328668405
 20
-0.4989250712761086
 30
0.0
 11
14.26710518168561
 21
-0.4989250712761086
 31
0.0
  0
LINE
  5
9E
330
1F
100
AcDbEntity
  8
외형선
  6
Continuous
 62
     1
370
    15
100
AcDbLine
 10
16.98848717230495
 20
0.5010749287238949
 30
0.0
 11
16.68320268442785
 21
0.5010749287238949
 31
0.0
  0
LINE
  5
9F
330
1F
100
AcDbEntity
  8
외형선
  6
Continuous
370
    15
100
AcDbLine
 10
17.21228417251409
 20
-0.128464190654001
 30
0.0
 11
17.25459923139309
 21
-0.1499669726054421
 31
0.0
  0
LINE
  5
A0
330
1F
100
AcDbEntity
  8
외형선
  6
Continuous
 62
     1
370
    15
100
AcDbLine
 10
18.04257600703135
 20
-0.4989250712761086
 30
0.0
 11
18.34972976615473
 21
-0.4989250712761086
 31
0.0
  0
LINE
  5
A1
330
1F
100
AcDbEntity
  8
외형선
  6
Continuous
 62
     1
370
    15
100
AcDbLine
 10
12.60261164970002
 20
-0.4989250712761086
 30
0.0
 11
12.90575547384318
 21
-0.4989250712761086
 31
0.0
  0
LINE
  5
A2
330
1F
100
AcDbEntity
  8
외형선
  6
Continuous
 62
     1
370
    15
100
AcDbLine
 10
15.62678269018419
 20
0.5010749287238949
 30
0.0
 11
15.32237033717791
 21
0.5010749287238949
 31
0.0
  0
LINE
  5
A3
330
1F
100
AcDbEntity
  8
외형선
  6
Continuous
 62
     1
370
    15
100
AcDbLine
 10
15.32237033717792
 20
-0.4989250712761086
 30
0.0
 11
15.62678269018419
 21
-0.4989250712761086
 31
0.0
  0
LINE
  5
A4
330
1F
100
AcDbEntity
  8
외형선
  6
Continuous
 62
     1
370
    15
100
AcDbLine
 10
12.90575547384318
 20
0.5010749287238949
 30
0.0
 11
12.60261164970004
 21
0.5010749287238949
 31
0.0
  0
LINE
  5
A5
330
1F
100
AcDbEntity
  8
외형선
  6
Continuous
 62
     1
370
    15
100
AcDbLine
 10
18.34972976615474
 20
0.5010749287238949
 30
0.0
 11
18.04257600703136
 21
0.5010749287238949
 31
0.0
  0
LINE
  5
A6
330
1F
100
AcDbEntity
  8
외형선
  6
Continuous
370
    15
100
AcDbLine
 10
-40.07009174711506
 20
3.001074928723893
 30
0.0
 11
-40.67009174711506
 21
2.401074928723899
 31
0.0
  0
LINE
  5
A7
330
1F
100
AcDbEntity
  8
외형선
  6
Continuous
370
    15
100
AcDbLine
 10
-40.67009174711506
 20
-2.398925071276113
 30
0.0
 11
-40.07009174711506
 21
-2.998925071276107
 31
0.0
  0
LINE
  5
A8
330
1F
100
AcDbEntity
  8
외형선
  6
Continuous
370
    15
100
AcDbLine
 10
2.000000000000014
 20
3.001074928723894
 30
0.0
 11
-40.07009174711506
 21
3.001074928723892
 31
0.0
  0
LINE
  5
A9
330
1F
100
AcDbEntity
  8
외형선
  6
Continuous
370
    15
100
AcDbLine
 10
-40.07009174711506
 20
-2.998925071276106
 30
0.0
 11
2.000000000000014
 21
-2.998925071276105
 31
0.0
  0
LINE
  5
AA
330
1F
100
AcDbEntity
  8
외형선
  6
Continuous
370
    15
100
AcDbLine
 10
2.000000000000014
 20
-2.998925071276105
 30
0.0
 11
6.555908252884949
 21
-1.340710077178283
 31
0.0
  0
LINE
  5
AB
330
1F
100
AcDbEntity
  8
외형선
  6
Continuous
370
    15
100
AcDbLine
 10
6.555908252884949
 20
1.342859934626072
 30
0.0
 11
2.000000000000014
 21
3.001074928723893
 31
0.0
  0
LINE
  5
AC
330
1F
100
AcDbEntity
  8
외형선
  6
Continuous
370
    15
100
AcDbLine
 10
6.555908252884949
 20
-1.340710077178283
 30
0.0
 11
11.32990825288494
 21
-0.4989250712761052
 31
0.0
  0
LINE
  5
AD
330
1F
100
AcDbEntity
  8
외형선
  6
Continuous
370
    15
100
AcDbLine
 10
11.32990825288494
 20
0.501074928723895
 30
0.0
 11
6.555908252884949
 21
1.342859934626072
 31
0.0
  0
LINE
  5
AE
330
1F
100
AcDbEntity
  8
외형선
  6
Continuous
370
    15
100
AcDbLine
 10
11.83002004697328
 20
0.5010749287238949
 30
0.0
 11
11.32990825288494
 21
0.5010749287238949
 31
0.0
  0
LINE
  5
AF
330
1F
100
AcDbEntity
  8
외형선
  6
Continuous
370
    15
100
AcDbLine
 10
11.32990825288494
 20
-0.4989250712761051
 30
0.0
 11
11.83002004697328
 21
-0.4989250712761051
 31
0.0
  0
SPLINE
  5
B0
330
1F
100
AcDbEntity
  8
외형선
  6
Continuous
 62
     1
370
    15
100
AcDbSpline
210
0.0
220
0.0
230
1.0
 70
     8
 71
     3
 72
    15
 73
    11
 74
     0
 42
0.000000001
 43
0.00000001
 40
0.0
 40
0.0
 40
0.0
 40
0.0
 40
0.1154842175872036
 40
0.2593507791679348
 40
0.4036149804779285
 40
0.5480728256243644
 40
0.6924564942473818
 40
0.8365012575174783
 40
0.9804094608341163
 40
1.0
 40
1.0
 40
1.0
 40
1.0
 10
14.26710518168561
 20
0.4895658136826485
 30
0.0
 10
14.39223515931179
 20
0.485117272526236
 30
0.0
 10
14.67324807928169
 20
0.4751268804260776
 30
0.0
 10
15.11024458701843
 20
0.293489378669113
 30
0.0
 10
15.57907547340284
 20
0.031022061686992
 30
0.0
 10
16.04854505285603
 20
-0.2435836302167552
 30
0.0
 10
16.51774894788918
 20
-0.4497528256063682
 30
0.0
 10
16.98610336143825
 20
-0.5174457177742154
 30
0.0
 10
17.31907597742806
 20
-0.4864524166211537
 30
0.0
 10
17.49626631811771
 20
-0.4110234894317498
 30
0.0
 10
17.51749739461648
 20
-0.401985540087873
 30
0.0
  0
SPLINE
  5
B1
330
1F
100
AcDbEntity
  8
외형선
  6
Continuous
 62
     1
370
    15
100
AcDbSpline
210
0.0
220
0.0
230
1.0
 70
     8
 71
     3
 72
    15
 73
    11
 74
     0
 42
0.000000001
 43
0.00000001
 40
0.0
 40
0.0
 40
0.0
 40
0.0
 40
0.0368402494246843
 40
0.1813826248267792
 40
0.3255226831939159
 40
0.4697995215305608
 40
0.6144158112412439
 40
0.7591063969834815
 40
0.9036030269035787
 40
1.0
 40
1.0
 40
1.0
 40
1.0
 10
18.04257600703135
 20
-0.4851472767138812
 30
0.0
 10
18.00270776978869
 20
-0.4892439595803945
 30
0.0
 10
17.80641687514976
 20
-0.5094139395076527
 30
0.0
 10
17.45417306298044
 20
-0.4000695458940884
 30
0.0
 10
16.98608586755173
 20
-0.1803551446972167
 30
0.0
 10
16.51775356668681
 20
0.1017283239871391
 30
0.0
 10
16.04854412308917
 20
0.3531926048557986
 30
0.0
 10
15.57907456600396
 20
0.5003232137657878
 30
0.0
 10
15.16186317275076
 20
0.5190901992424121
 30
0.0
 10
14.90141337375403
 20
0.432540927261099
 30
0.0
 10
14.79719071299232
 20
0.3979070152840949
 30
0.0
  0
LINE
  5
B2
330
1F
100
AcDbEntity
  8
외형선
  6
Continuous
 62
     1
370
    15
100
AcDbLine
 10
12.60261164970002
 20
-0.4822149793660529
 30
0.0
 11
12.32990825288461
 21
-0.4743567493343146
 31
0.0
  0
LINE
  5
B3
330
1F
100
AcDbEntity
  8
외형선
  6
Continuous
 62
     1
370
    15
100
AcDbLine
 10
19.32990825288494
 20
-0.4517657459039819
 30
0.0
 11
19.32990825288494
 21
0.0439156033517668
 31
0.0
  0
SPLINE
  5
B4
330
1F
100
AcDbEntity
  8
외형선
  6
Continuous
 62
     1
370
    15
100
AcDbSpline
210
0.0
220
0.0
230
1.0
 70
     8
 71
     3
 72
    13
 73
     9
 74
     0
 42
0.000000001
 43
0.00000001
 40
0.0
 40
0.0
 40
0.0
 40
0.0
 40
0.1853738841478828
 40
0.3711666596792735
 40
0.5571560381368384
 40
0.7474051362118621
 40
0.9372589296063495
 40
1.0
 40
1.0
 40
1.0
 40
1.0
 10
12.32990825288495
 20
0.3103159350661895
 30
0.0
 10
12.48228392065851
 20
0.2325351731032985
 30
0.0
 10
12.78737958116047
 20
0.0767978871431895
 30
0.0
 10
13.24565598363862
 20
-0.1994238696274633
 30
0.0
 10
13.7079798983477
 20
-0.4185430150074586
 30
0.0
 10
14.17377812699499
 20
-0.5158965175637743
 30
0.0
 10
14.53796203234837
 20
-0.499067543269533
 30
0.0
 10
14.74561306789285
 20
-0.416312392626402
 30
0.0
 10
14.79719071299232
 20
-0.3957571578363046
 30
0.0
  0
SPLINE
  5
B5
330
1F
100
AcDbEntity
  8
외형선
  6
Continuous
 62
     1
370
    15
100
AcDbSpline
210
0.0
220
0.0
230
1.0
 70
     8
 71
     3
 72
    12
 73
     8
 74
     0
 42
0.000000001
 43
0.00000001
 40
0.0
 40
0.0
 40
0.0
 40
0.0
 40
0.1988141792671476
 40
0.3991605488443475
 40
0.5997206517036733
 40
0.8001223241528662
 40
1.0
 40
1.0
 40
1.0
 40
1.0
 10
16.98848717230496
 20
0.5007283792381656
 30
0.0
 10
17.14357314020044
 20
0.4866054029215013
 30
0.0
 10
17.45494026849782
 20
0.4582506095226835
 30
0.0
 10
17.92312816016395
 20
0.2463375188028896
 30
0.0
 10
18.39262012263046
 20
-0.0232187185207603
 30
0.0
 10
18.86170874434148
 20
-0.2978309333452674
 30
0.0
 10
19.17397801157186
 20
-0.4004989418369762
 30
0.0
 10
19.32990825288495
 20
-0.4517657459039818
 30
0.0
  0
SPLINE
  5
B6
330
1F
100
AcDbEntity
  8
외형선
  6
Continuous
370
    15
100
AcDbSpline
210
0.0
220
0.0
230
1.0
 70
    24
 71
     3
 72
    10
 73
     6
 74
     0
 42
0.000000001
 43
0.00000001
 40
0.0
 40
0.0
 40
0.0
 40
0.0
 40
0.5588413589677365
 40
0.9099480486249965
 40
1.0
 40
1.0
 40
1.0
 40
1.0
 10
12.32990825288462
 20
0.4765066067820934
 30
0.0
 10
12.32990825288473
 20
0.4501247806550286
 30
0.0
 10
12.32990825288491
 20
0.407167882747849
 30
0.0
 10
12.32990825288499
 20
0.361853558418157
 30
0.0
 10
12.32990825288496
 20
0.3439606245505699
 30
0.0
 10
12.32990825288496
 20
0.3403082114258267
 30
0.0
  0
SPLINE
  5
B7
330
1F
100
AcDbEntity
  8
외형선
  6
Continuous
 62
     1
370
    15
100
AcDbSpline
210
0.0
220
0.0
230
1.0
 70
     8
 71
     3
 72
    11
 73
     7
 74
     0
 42
0.000000001
 43
0.00000001
 40
0.0
 40
0.0
 40
0.0
 40
0.0
 40
0.2582438472858488
 40
0.5171647031365871
 40
0.7762902525753792
 40
1.0
 40
1.0
 40
1.0
 40
1.0
 10
19.32990825288493
 20
0.0439156033517669
 30
0.0
 10
19.17397759287136
 20
0.1326541021626276
 30
0.0
 10
18.8617074871424
 20
0.3103637354283801
 30
0.0
 10
18.39262516847337
 20
0.4819878392572806
 30
0.0
 10
17.94434583589143
 20
0.52656956805926
 30
0.0
 10
17.65264823568202
 20
0.4429011033960397
 30
0.0
 10
17.51749739461648
 20
0.4041353975356626
 30
0.0
  0
SPLINE
  5
B8
330
1F
100
AcDbEntity
  8
외형선
  6
Continuous
 62
     1
370
    15
100
AcDbSpline
210
0.0
220
0.0
230
1.0
 70
     8
 71
     3
 72
    14
 73
    10
 74
     0
 42
0.000000001
 43
0.00000001
 40
0.0
 40
0.0
 40
0.0
 40
0.0
 40
0.0709921462833751
 40
0.227255264840685
 40
0.383784602317589
 40
0.5406398578530102
 40
0.693983089332297
 40
0.8471642269959665
 40
1.0
 40
1.0
 40
1.0
 40
1.0
 10
15.32237033717792
 20
-0.4808808221204012
 30
0.0
 10
15.25153654521758
 20
-0.4848758709046011
 30
0.0
 10
15.0247881935427
 20
-0.4976645513014555
 30
0.0
 10
14.64224423543948
 20
-0.3644859105816433
 30
0.0
 10
14.17377452569522
 20
-0.1266172005887097
 30
0.0
 10
13.70798083982903
 20
0.1541241786679872
 30
0.0
 10
13.24565573525643
 20
0.3850467788850064
 30
0.0
 10
12.78737964306516
 20
0.5190606896358513
 30
0.0
 10
12.48228394127765
 20
0.4906806246725227
 30
0.0
 10
12.32990825288462
 20
0.4765066067821029
 30
0.0
  0
LINE
  5
B9
330
1F
100
AcDbEntity
  8
외형선
  6
Continuous
 62
     1
370
    15
100
AcDbLine
 10
19.32990825288494
 20
0.2130544640629719
 30
0.0
 11
19.32990825288494
 21
0.4992362244880567
 31
0.0
  0
SPLINE
  5
BA
330
1F
100
AcDbEntity
  8
외형선
  6
Continuous
 62
     1
370
    15
100
AcDbSpline
210
0.0
220
0.0
230
1.0
 70
     8
 71
     3
 72
    15
 73
    11
 74
     0
 42
0.000000001
 43
0.00000001
 40
0.0
 40
0.0
 40
0.0
 40
0.0
 40
0.1044648575998256
 40
0.2455677014639863
 40
0.3899022274654391
 40
0.5339368513161397
 40
0.67772650676307
 40
0.82191358937469
 40
0.9662942123073929
 40
0.9999999999999999
 40
0.9999999999999999
 40
0.9999999999999999
 40
0.9999999999999999
 10
12.90575547384318
 20
0.4877753777814801
 30
0.0
 10
13.01899963570711
 20
0.4856589290727628
 30
0.0
 10
13.28520502929188
 20
0.4806837493175089
 30
0.0
 10
13.70798468849307
 20
0.3140500111747807
 30
0.0
 10
14.1737759729919
 20
0.0590380140096547
 30
0.0
 10
14.64223461854248
 20
-0.2185240649354995
 30
0.0
 10
15.11025102118078
 20
-0.4346324432177031
 30
0.0
 10
15.57906809753067
 20
-0.5174130095544036
 30
0.0
 10
15.9286094159096
 20
-0.4930477928544634
 30
0.0
 10
16.12172168162378
 20
-0.4133652086917476
 30
0.0
 10
16.15827135998578
 20
-0.3982839666410131
 30
0.0
  0
SPLINE
  5
BB
330
1F
100
AcDbEntity
  8
외형선
  6
Continuous
 62
     1
370
    15
100
AcDbSpline
210
0.0
220
0.0
230
1.0
 70
     8
 71
     3
 72
    10
 73
     6
 74
     0
 42
0.000000001
 43
0.00000001
 40
0.0
 40
0.0
 40
0.0
 40
0.0
 40
0.0438600451324926
 40
0.5225558531138076
 40
1.0
 40
1.0
 40
1.0
 40
1.0
 10
18.34972976615474
 20
0.4950838660796562
 30
0.0
 10
18.36406572212981
 20
0.497032064310474
 30
0.0
 10
18.53486667963282
 20
0.5202432211951639
 30
0.0
 10
18.86170867492086
 20
0.4312334258528946
 30
0.0
 10
19.17397798845185
 20
0.2857172873691707
 30
0.0
 10
19.32990825288495
 20
0.213054464062972
 30
0.0
  0
LINE
  5
BC
102
{ACAD_REACTORS
102
}
330
1F
100
AcDbEntity
  8
외형선
  6
Continuous
 62
     1
370
    15
100
AcDbLine
 10
19.32990825288493
 20
0.4992362244880567
 30
0.0
 11
18.87775261372227
 21
0.4091726002189139
 31
0.0
  0
SPLINE
  5
BD
330
1F
100
AcDbEntity
  8
외형선
  6
Continuous
 62
     1
370
    15
100
AcDbSpline
210
0.0
220
0.0
230
1.0
 70
     8
 71
     3
 72
    15
 73
    11
 74
     0
 42
0.000000001
 43
0.00000001
 40
0.0
 40
0.0
 40
0.0
 40
0.0
 40
0.0508626980750136
 40
0.195395300739442
 40
0.3400021564415446
 40
0.4844151685605217
 40
0.6284301307785534
 40
0.772690445246054
 40
0.9172511317867403
 40
1.0
 40
1.0
 40
1.0
 40
1.0
 10
16.68320268442785
 20
-0.482342312589517
 30
0.0
 10
16.62816318453157
 20
-0.4867687867387237
 30
0.0
 10
16.41672218667258
 20
-0.5037736307665419
 30
0.0
 10
16.04853443033932
 20
-0.3828847839624431
 30
0.0
 10
15.57907705378218
 20
-0.1536903790268211
 30
0.0
 10
15.11024886431164
 20
0.128550889764138
 30
0.0
 10
14.64223432552662
 20
0.3736363960485317
 30
0.0
 10
14.17377931363845
 20
0.5073854446522079
 30
0.0
 10
13.77140315480767
 20
0.514235134669621
 30
0.0
 10
13.52532432084951
 20
0.4284501128127414
 30
0.0
 10
13.4357427587224
 20
0.397221273901898
 30
0.0
  0
LINE
  5
BE
330
1F
100
AcDbEntity
  8
외형선
  6
Continuous
370
    15
100
AcDbLine
 10
12.32990825288462
 20
0.1558803533664641
 30
0.0
 11
12.32990825288462
 21
0.3103159350663675
 31
0.0
  0
LINE
  5
BF
102
{ACAD_REACTORS
102
}
330
1F
100
AcDbEntity
  8
외형선
  6
Continuous
 62
     1
370
    15
100
AcDbLine
 10
19.32990825288494
 20
-0.4970863670402664
 30
0.0
 11
19.32990825288494
 21
-0.4517657459039819
 31
0.0
  0
SPLINE
  5
C0
330
1F
100
AcDbEntity
  8
외형선
  6
Continuous
 62
     1
370
    15
100
AcDbSpline
210
0.0
220
0.0
230
1.0
 70
     8
 71
     3
 72
    14
 73
    10
 74
     0
 42
0.000000001
 43
0.00000001
 40
0.0
 40
0.0
 40
0.0
 40
0.0
 40
0.1475566445948763
 40
0.2955001216864296
 40
0.4435605576110423
 40
0.5914632082011259
 40
0.738954188817734
 40
0.8865851292210941
 40
0.9999999999999999
 40
0.9999999999999999
 40
0.9999999999999999
 40
0.9999999999999999
 10
19.32990825288493
 20
-0.4970863670402664
 30
0.0
 10
19.17397805150297
 20
-0.4749654169603167
 30
0.0
 10
18.86170886423954
 20
-0.4306655248179363
 30
0.0
 10
18.39261964141251
 20
-0.2026725817223136
 30
0.0
 10
17.92312996535403
 20
0.0731149253012635
 30
0.0
 10
17.45417273740654
 20
0.3319488727294607
 30
0.0
 10
16.98608400848487
 20
0.4919515850441203
 30
0.0
 10
16.5542922015069
 20
0.5229761577296024
 30
0.0
 10
16.2782162693729
 20
0.4375488634088937
 30
0.0
 10
16.15827135998578
 20
0.4004338240888031
 30
0.0
  0
SPLINE
  5
C1
330
1F
100
AcDbEntity
  8
외형선
  6
Continuous
 62
     1
370
    15
100
AcDbSpline
210
0.0
220
0.0
230
1.0
 70
     8
 71
     3
 72
    11
 73
     7
 74
     0
 42
0.000000001
 43
0.00000001
 40
0.0
 40
0.0
 40
0.0
 40
0.0
 40
0.1584752874636134
 40
0.4393923870336399
 40
0.7200125388733871
 40
0.9999999999999999
 40
0.9999999999999999
 40
0.9999999999999999
 40
0.9999999999999999
 10
13.96346328668404
 20
-0.4808995437598653
 30
0.0
 10
13.87713991977266
 20
-0.4836096267796928
 30
0.0
 10
13.63779768003907
 20
-0.4911236680299084
 30
0.0
 10
13.24565388994038
 20
-0.3498078567616854
 30
0.0
 10
12.78738010297806
 20
-0.1094611364057334
 30
0.0
 10
12.48228409446657
 20
0.0674997616373883
 30
0.0
 10
12.32990825288462
 20
0.1558803533664417
 30
0.0
  0
SPLINE
  5
C2
330
1F
100
AcDbEntity
  8
외형선
  6
Continuous
 62
     1
370
    15
100
AcDbSpline
210
0.0
220
0.0
230
1.0
 70
     8
 71
     3
 72
    10
 73
     6
 74
     0
 42
0.000000001
 43
0.00000001
 40
0.0
 40
0.0
 40
0.0
 40
0.0
 40
0.413546168834046
 40
0.8280268324465967
 40
1.0
 40
1.0
 40
1.0
 40
1.0
 10
12.32990825288495
 20
-0.3918245495099206
 30
0.0
 10
12.48228485317607
 20
-0.4342185609170497
 30
0.0
 10
12.78738238082033
 20
-0.5191023819402758
 30
0.0
 10
13.15607284321538
 20
-0.5013294151592166
 30
0.0
 10
13.37232766231848
 20
-0.4191653960276946
 30
0.0
 10
13.43574275872242
 20
-0.3950714164541043
 30
0.0
  0
SPLINE
  5
C3
330
1F
100
AcDbEntity
  8
외형선
  6
Continuous
 62
     1
370
    15
100
AcDbSpline
210
0.0
220
0.0
230
1.0
 70
     8
 71
     3
 72
    15
 73
    11
 74
     0
 42
0.000000001
 43
0.00000001
 40
0.0
 40
0.0
 40
0.0
 40
0.0
 40
0.1297240611382571
 40
0.2741054485642514
 40
0.418147935991877
 40
0.56205386562363
 40
0.7063614588010946
 40
0.8508230020381015
 40
0.9951704293506688
 40
1.0
 40
1.0
 40
1.0
 40
1.0
 10
15.62678269018419
 20
0.4944741565774877
 30
0.0
 10
15.76739540026578
 20
0.4856213431561081
 30
0.0
 10
16.06450843876119
 20
0.4669154502582855
 30
0.0
 10
16.51775441459387
 20
0.2707609834372301
 30
0.0
 10
16.9860861668496
 20
0.0030801016728478
 30
0.0
 10
17.45417101933242
 20
-0.2679677435573172
 30
0.0
 10
17.92313469111276
 20
-0.463919515432996
 30
0.0
 10
18.3926024489737
 20
-0.5157108706467103
 30
0.0
 10
18.71093235936739
 20
-0.4799648950013828
 30
0.0
 10
18.87252121215668
 20
-0.4093101729806726
 30
0.0
 10
18.87775261372227
 20
-0.4070227427711235
 30
0.0
  0
SPLINE
  5
C4
330
1F
100
AcDbEntity
  8
외형선
  6
Continuous
370
    15
100
AcDbSpline
210
0.0
220
0.0
230
1.0
 70
    24
 71
     3
 72
    14
 73
    10
 74
     0
 42
0.000000001
 43
0.00000001
 40
0.0
 40
0.0
 40
0.0
 40
0.0
 40
0.25
 40
0.25
 40
0.5
 40
0.5
 40
0.75
 40
0.75
 40
1.0
 40
1.0
 40
1.0
 40
1.0
 10
12.32990825288495
 20
0.1558803533662504
 30
0.0
 10
12.32990825288495
 20
0.1553929530527778
 30
0.0
 10
12.32990825288494
 20
0.1471540631965227
 30
0.0
 10
12.32990825288494
 20
0.105202689887147
 30
0.0
 10
12.32990825288494
 20
0.0685367548010808
 30
0.0
 10
12.32990825288495
 20
-0.048510850510906
 30
0.0
 10
12.32990825288494
 20
-0.1302461911104463
 30
0.0
 10
12.32990825288495
 20
-0.2853513119023908
 30
0.0
 10
12.32990825288495
 20
-0.3529490512288027
 30
0.0
 10
12.32990825288495
 20
-0.3918245495099739
 30
0.0
  0
LINE
  5
C5
330
1F
100
AcDbEntity
  8
외형선
  6
Continuous
370
    15
100
AcDbLine
 10
12.32990825288462
 20
-0.4743567493343081
 30
0.0
 11
12.32990825288462
 21
-0.3918245495097823
 31
0.0
  0
LINE
  5
C6
330
1F
100
AcDbEntity
  8
외형선
  6
Continuous
 62
     1
370
    15
100
AcDbLine
 10
19.32990825288494
 20
0.0439156033517668
 30
0.0
 11
19.32990825288494
 21
0.2130544640629719
 31
0.0
  0
LINE
  5
C7
330
1F
100
AcDbEntity
  8
외형선
  6
Continuous
370
    15
100
AcDbLine
 10
-40.07009174711506
 20
3.001074928723893
 30
0.0
 11
-40.07009174711506
 21
-2.998925071276107
 31
0.0
  0
LINE
  5
C8
330
1F
100
AcDbEntity
  8
외형선
  6
Continuous
370
    15
100
AcDbLine
 10
-40.67009174711506
 20
2.401074928723899
 30
0.0
 11
-40.67009174711506
 21
-2.398925071276113
 31
0.0
  0
LINE
  5
C9
330
1F
100
AcDbEntity
  8
외형선
  6
Continuous
370
    15
100
AcDbLine
 10
2.000000000000014
 20
3.001074928723893
 30
0.0
 11
2.000000000000014
 21
-2.998925071276105
 31
0.0
  0
LINE
  5
CA
330
1F
100
AcDbEntity
  8
외형선
  6
Continuous
370
    15
100
AcDbLine
 10
6.555908252884949
 20
1.342859934626072
 30
0.0
 11
6.555908252884949
 21
-1.340710077178283
 31
0.0
  0
LINE
  5
CB
330
1F
100
AcDbEntity
  8
외형선
  6
Continuous
370
    15
100
AcDbLine
 10
11.32990825288494
 20
0.501074928723895
 30
0.0
 11
11.32990825288494
 21
-0.4989250712761052
 31
0.0
  0
LINE
  5
CC
330
1F
100
AcDbEntity
  8
외형선
  6
Continuous
370
    15
100
AcDbLine
 10
12.07420974850923
 20
-0.4086174444838687
 30
0.0
 11
11.83002004697328
 21
-0.4725585180007605
 31
0.0
  0
SPLINE
  5
CD
330
1F
100
AcDbEntity
  8
외형선
  6
Continuous
370
    15
100
AcDbSpline
210
0.0
220
0.0
230
1.0
 70
     8
 71
     3
 72
     9
 73
     5
 74
     0
 42
0.000000001
 43
0.00000001
 40
0.0
 40
0.0
 40
0.0
 40
0.0
 40
0.0180238936430448
 40
1.0
 40
1.0
 40
1.0
 40
1.0
 10
12.07420974850924
 20
0.4107673019316588
 30
0.0
 10
12.07574363398585
 20
0.4113721594992355
 30
0.0
 10
12.16084652612347
 20
0.4449308111177837
 30
0.0
 10
12.24614610477086
 20
0.4608622825230679
 30
0.0
 10
12.32990825288494
 20
0.4765066067821661
 30
0.0
  0
LINE
  5
CE
330
1F
100
AcDbEntity
  8
외형선
  6
Continuous
370
    15
100
AcDbLine
 10
11.83002004697328
 20
0.5010749287238949
 30
0.0
 11
11.83002004697328
 21
0.4747109577258485
 31
0.0
  0
SPLINE
  5
CF
330
1F
100
AcDbEntity
  8
외형선
  6
Continuous
370
    15
100
AcDbSpline
210
0.0
220
0.0
230
1.0
 70
     8
 71
     3
 72
    10
 73
     6
 74
     0
 42
0.000000001
 43
0.00000001
 40
0.0
 40
0.0
 40
0.0
 40
0.0
 40
0.5
 40
0.5
 40
1.0
 40
1.0
 40
1.0
 40
1.0
 10
12.32990825288494
 20
0.3103159350661936
 30
0.0
 10
12.24843692813014
 20
0.3478720973595884
 30
0.0
 10
12.16300168446938
 20
0.3816991628940617
 30
0.0
 10
11.99462125320017
 20
0.4374255200283828
 30
0.0
 10
11.91399473506976
 20
0.4592385811865191
 30
0.0
 10
11.83002004697328
 20
0.4747083754485514
 30
0.0
  0
SPLINE
  5
D0
330
1F
100
AcDbEntity
  8
외형선
  6
Continuous
370
    15
100
AcDbSpline
210
0.0
220
0.0
230
1.0
 70
     8
 71
     3
 72
    10
 73
     6
 74
     0
 42
0.000000001
 43
0.00000001
 40
0.0
 40
0.0
 40
0.0
 40
0.0
 40
0.5
 40
0.5
 40
1.0
 40
1.0
 40
1.0
 40
1.0
 10
12.32990825288494
 20
0.1558803533662483
 30
0.0
 10
12.24843692813016
 20
0.2013255378211692
 30
0.0
 10
12.16300168446941
 20
0.2453287630883008
 30
0.0
 10
11.99462125320017
 20
0.3248589322680882
 30
0.0
 10
11.91399473506977
 20
0.3601296479067272
 30
0.0
 10
11.83002004697329
 20
0.3904185255716487
 30
0.0
  0
SPLINE
  5
D1
330
1F
100
AcDbEntity
  8
외형선
  6
Continuous
370
    15
100
AcDbSpline
210
0.0
220
0.0
230
1.0
 70
     8
 71
     3
 72
    10
 73
     6
 74
     0
 42
0.000000001
 43
0.00000001
 40
0.0
 40
0.0
 40
0.0
 40
0.0
 40
0.5
 40
0.5
 40
1.0
 40
1.0
 40
1.0
 40
1.0
 10
12.32990825288494
 20
-0.3918245495099164
 30
0.0
 10
12.24843692813014
 20
-0.3622650665750657
 30
0.0
 10
12.16300168446938
 20
-0.3267355862763067
 30
0.0
 10
11.99462125320017
 20
-0.2477878906174998
 30
0.0
 10
11.91399473506976
 20
-0.2048780447843986
 30
0.0
 10
11.83002004697328
 20
-0.1591479102963957
 30
0.0
  0
SPLINE
  5
D2
330
1F
100
AcDbEntity
  8
외형선
  6
Continuous
370
    15
100
AcDbSpline
210
0.0
220
0.0
230
1.0
 70
     8
 71
     3
 72
    10
 73
     6
 74
     0
 42
0.000000001
 43
0.00000001
 40
0.0
 40
0.0
 40
0.0
 40
0.0
 40
0.5
 40
0.5
 40
1.0
 40
1.0
 40
1.0
 40
1.0
 10
12.32990825288494
 20
-0.4743567493343773
 30
0.0
 10
12.24843692813016
 20
-0.4595593317406941
 30
0.0
 10
12.16300168446941
 20
-0.4378722272990312
 30
0.0
 10
11.99462125320017
 20
-0.3829803543164822
 30
0.0
 10
11.91399473506977
 20
-0.3502230478819255
 30
0.0
 10
11.83002004697329
 20
-0.3126312452568856
 30
0.0
  0
LINE
  5
D3
330
1F
100
AcDbEntity
  8
외형선
  6
Continuous
370
    15
100
AcDbLine
 10
11.83002004697328
 20
-0.3125854225910425
 30
0.0
 11
11.83002004697328
 21
-0.4989250712761051
 31
0.0
  0
LINE
  5
D4
330
1F
100
AcDbEntity
  8
외형선
  6
Continuous
370
    15
100
AcDbLine
 10
11.83002004697328
 20
0.3904554418636674
 30
0.0
 11
11.83002004697328
 21
-0.159140276644572
 31
0.0
  0
SPLINE
  5
D5
330
1F
100
AcDbEntity
  8
외형선
  6
Continuous
370
    15
100
AcDbSpline
210
0.0
220
0.0
230
1.0
 70
    24
 71
     3
 72
    14
 73
    10
 74
     0
 42
0.000000001
 43
0.00000001
 40
0.0
 40
0.0
 40
0.0
 40
0.0
 40
0.25
 40
0.25
 40
0.5
 40
0.5
 40
0.75
 40
0.75
 40
1.0
 40
1.0
 40
1.0
 40
1.0
 10
12.32990825288494
 20
0.1558803533662515
 30
0.0
 10
12.32990825288494
 20
0.1553929530527868
 30
0.0
 10
12.32990825288496
 20
0.1471540631965352
 30
0.0
 10
12.32990825288494
 20
0.1052026898871825
 30
0.0
 10
12.32990825288496
 20
0.0685367548011345
 30
0.0
 10
12.32990825288495
 20
-0.048510850510816
 30
0.0
 10
12.32990825288494
 20
-0.1302461911103403
 30
0.0
 10
12.32990825288494
 20
-0.2853513119022908
 30
0.0
 10
12.32990825288494
 20
-0.3529490512287249
 30
0.0
 10
12.32990825288494
 20
-0.3918245495099181
 30
0.0
  0
SPLINE
  5
D6
330
1F
100
AcDbEntity
  8
외형선
  6
Continuous
370
    15
100
AcDbSpline
210
0.0
220
0.0
230
1.0
 70
    24
 71
     3
 72
    11
 73
     7
 74
     0
 42
0.000000001
 43
0.00000001
 40
0.0
 40
0.0
 40
0.0
 40
0.0
 40
0.2772272492605123
 40
0.5593831366805238
 40
0.9100586395455951
 40
1.0
 40
1.0
 40
1.0
 40
1.0
 10
12.32990825288492
 20
0.4765066067821627
 30
0.0
 10
12.32990825288491
 20
0.4633614226522623
 30
0.0
 10
12.32990825288491
 20
0.4368373549408778
 30
0.0
 10
12.32990825288489
 20
0.3947518698444843
 30
0.0
 10
12.329908252885
 20
0.3618475512133563
 30
0.0
 10
12.32990825288498
 20
0.3439596061964198
 30
0.0
 10
12.32990825288498
 20
0.3403082114258336
 30
0.0
  0
LINE
  5
D7
330
1F
100
AcDbEntity
  8
중심선
 62
     1
100
AcDbLine
 10
-43.67009174711507
 20
0.0010749287238931
 30
0.0
 11
22.32990825288493
 21
0.0010749287238892
 31
0.0
  0
LINE
  5
D8
330
1F
100
AcDbEntity
  8
참조1
100
AcDbLine
 10
-9.4290421365245
 20
-2.498925071276081
 30
0.0
 11
-9.429042136524494
 21
-39.9989250712761
 31
0.0
  0
LINE
  5
D9
330
1F
100
AcDbEntity
  8
참조1
100
AcDbLine
 10
-9.429042136524494
 20
-39.9989250712761
 30
0.0
 11
-24.58738558327694
 21
-39.9989250712761
 31
0.0
  0
CIRCLE
  5
DA
330
1F
100
AcDbEntity
  8
해칭선
100
AcDbCircle
 10
0.0
 20
0.0
 30
0.0
 40
3.000000000000001
  0
INSERT
  5
DB
330
1F
100
AcDbEntity
  8
0
  6
Continuous
 62
     7
100
AcDbBlockReference
 66
     1
  2
블럭10
 10
-23.3693150686497
 20
-52.04609937292004
 30
0.0
  0
ATTRIB
  5
DC
330
DB
100
AcDbEntity
  8
FORMAT
 62
     2
100
AcDbText
 10
-39.48857610808526
 20
-49.97073246008785
 30
0.0
 40
4.233333333333333
  1
SEME7201007E [ 4 FLUTE ]
 41
0.75
  7
SLDTEXTSTYLE0
 11
-39.48857610808526
 21
-52.08739912675452
 31
0.0
100
AcDbAttribute
  2
AUTOATTR0
 70
     0
 74
     1
  0
SEQEND
  5
DD
330
DB
100
AcDbEntity
  8
0
  6
Continuous
 62
     7
  0
HATCH
  5
DE
330
1F
100
AcDbEntity
  8
중심선
100
AcDbHatch
 10
0.0
 20
0.0
 30
0.0
210
0.0
220
0.0
230
1.0
  2
SOLID
 70
     1
 71
     0
 91
        1
 92
        0
 93
        4
 72
     1
 10
-17.65440576426885
 20
-35.7989250712761
 11
-21.10068100810614
 21
-35.7989250712761
 72
     1
 10
-21.10068100810614
 20
-35.7989250712761
 11
-23.22891086731016
 21
-38.3352506518487
 72
     1
 10
-23.22891086731016
 20
-38.3352506518487
 11
-19.78260253835973
 21
-38.33521122254621
 72
     1
 10
-19.78260253835973
 20
-38.33521122254621
 11
-17.65440576426885
 21
-35.7989250712761
 97
        0
 75
     0
 76
     1
 98
        1
 10
0.0
 20
0.0
  0
HATCH
  5
DF
330
1F
100
AcDbEntity
  8
중심선
100
AcDbHatch
 10
0.0
 20
0.0
 30
0.0
210
0.0
220
0.0
230
1.0
  2
SOLID
 70
     1
 71
     0
 91
        1
 92
        0
 93
        4
 72
     1
 10
-12.6416417732329
 20
-35.7989250712761
 11
-16.08791701707019
 21
-35.7989250712761
 72
     1
 10
-16.08791701707019
 20
-35.7989250712761
 11
-20.61905502542757
 21
-41.19892507127612
 72
     1
 10
-20.61905502542757
 20
-41.19892507127612
 11
-17.17277978159029
 21
-41.19892507127612
 72
     1
 10
-17.17277978159029
 20
-41.19892507127612
 11
-12.6416417732329
 21
-35.7989250712761
 97
        0
 75
     0
 76
     1
 98
        1
 10
0.0
 20
0.0
  0
HATCH
  5
E0
330
1F
100
AcDbEntity
  8
중심선
100
AcDbHatch
 10
0.0
 20
0.0
 30
0.0
210
0.0
220
0.0
230
1.0
  2
SOLID
 70
     1
 71
     0
 91
        1
 92
        0
 93
        4
 72
     1
 10
-7.628877782197008
 20
-35.79892507127613
 11
-11.07515302603412
 21
-35.7989250712761
 72
     1
 10
-11.07515302603412
 20
-35.7989250712761
 11
-18.12358992792337
 21
-44.19892507127612
 72
     1
 10
-18.12358992792337
 20
-44.19892507127612
 11
-14.67731468408609
 21
-44.19892507127612
 72
     1
 10
-14.67731468408609
 20
-44.19892507127612
 11
-7.628877782197008
 21
-35.79892507127613
 97
        0
 75
     0
 76
     1
 98
        1
 10
0.0
 20
0.0
  0
HATCH
  5
E1
330
1F
100
AcDbEntity
  8
중심선
100
AcDbHatch
 10
0.0
 20
0.0
 30
0.0
210
0.0
220
0.0
230
1.0
  2
SOLID
 70
     1
 71
     0
 91
        1
 92
        0
 93
        6
 72
     3
 10
-2.828987351184808
 20
-39.99892507132738
 11
3.960054785062284
 21
1.540850780301639E-10
 40
0.3939339440162633
 50
17.09539180608433
 51
320.0019657685079
 73
     0
 72
     1
 10
-1.145987695484213
 20
-38.58681907591441
 11
1.159314178216825
 21
-36.65249236586649
 72
     3
 10
-2.828987351237655
 20
-39.99892507127625
 11
6.600054785286829
 21
-1.249000902703301E-13
 40
0.6363583540795982
 50
39.99873849337408
 51
368.4976242363725
 73
     1
 72
     1
 10
3.596345140662955
 20
-39.03892507120613
 11
-4.148920044401732
 21
-39.0389250712061
 72
     1
 10
-4.148920044401732
 20
-39.0389250712061
 11
-4.148945088847666
 21
-40.95892507120602
 72
     1
 10
-4.148945088847666
 20
-40.95892507120602
 11
0.2924346806243703
 21
-40.95892507120599
 97
        0
 75
     0
 76
     1
 98
        1
 10
0.0
 20
0.0
  0
POINT
  5
E2
330
1F
100
AcDbEntity
  8
치수문자_일반주서
100
AcDbPoint
 10
-55.79272174986306
 20
-7.164101193405076
 30
0.0
  0
POINT
  5
E3
330
1F
100
AcDbEntity
  8
치수문자_일반주서
100
AcDbPoint
 10
-55.79272174986306
 20
-7.164101193405076
 30
0.0
  0
DIMENSION
  5
E4
330
1F
100
AcDbEntity
  8
치수문자_일반주서
100
AcDbDimension
  2
_D
 10
-40.67009174711506
 20
20.09356086770649
 30
0.0
 11
-10.67009174711506
 21
20.09356086770649
 31
0.0
 70
   160
  1
<>
 71
     2
 42
60.0
  3
SLDDIMSTYLE0
100
AcDbAlignedDimension
 13
19.32990825288494
 23
0.4992362244880567
 33
0.0
 14
-40.67009174711506
 24
2.401074928723899
 34
0.0
 50
0.0000000000000068
100
AcDbRotatedDimension
  0
DIMENSION
  5
EF
330
1F
100
AcDbEntity
  8
치수문자_일반주서
100
AcDbDimension
  2
_D_1
 10
12.32990825288492
 20
13.09963225915285
 30
0.0
 11
41.38459212528828
 21
13.09963225915285
 31
0.0
 70
   160
  1
<>
 71
     2
 42
7.00000000000002
  3
SLDDIMSTYLE1
100
AcDbAlignedDimension
 13
19.32990825288494
 23
0.4992362244880567
 33
0.0
 14
12.32990825288492
 24
0.4765066067821627
 34
0.0
100
AcDbRotatedDimension
  0
DIMENSION
  5
FC
330
1F
100
AcDbEntity
  8
치수문자_일반주서
100
AcDbDimension
  2
_D_2
 10
-48.89542752975576
 20
-2.998925071276142
 30
0.0
 11
-48.89542752975577
 21
0.0010749287238949
 31
0.0
 70
   160
  1
%%c<>
 71
     2
 42
6.000000000000005
 52
-270.0
  3
SLDDIMSTYLE1
100
AcDbAlignedDimension
 13
-40.07009174711506
 23
3.001074928723896
 33
0.0
 14
-40.07009174711506
 24
-2.998925071276109
 34
0.0
 50
90.0000000000002
100
AcDbRotatedDimension
  0
LINE
  5
113
330
1F
100
AcDbEntity
  8
참조1
100
AcDbLine
 10
73.38495504637731
 20
7.441074928723896
 30
0.0
 11
73.38495504637731
 21
-7.438925071276109
 31
0.0
  0
LINE
  5
114
330
1F
100
AcDbEntity
  8
참조1
100
AcDbLine
 10
86.08495504637732
 20
5.441074928723896
 30
0.0
 11
73.38495504637731
 21
5.441074928723896
 31
0.0
  0
SOLID
  5
115
330
1F
100
AcDbEntity
  8
참조1
100
AcDbTrace
 10
73.38495504637731
 20
5.441074928723896
 30
0.0
 11
79.73495504637731
 21
4.425074928723896
 31
0.0
 12
79.73495504637731
 22
6.457074928723896
 32
0.0
 13
79.73495504637731
 23
6.457074928723896
 33
0.0
  0
LINE
  5
116
330
1F
100
AcDbEntity
  8
참조1
100
AcDbLine
 10
86.08495504637732
 20
-5.438925071276109
 30
0.0
 11
73.38495504637731
 21
-5.438925071276109
 31
0.0
  0
SOLID
  5
117
330
1F
100
AcDbEntity
  8
참조1
100
AcDbTrace
 10
73.38495504637731
 20
-5.438925071276109
 30
0.0
 11
79.73495504637731
 21
-6.454925071276109
 31
0.0
 12
79.73495504637731
 22
-4.422925071276109
 32
0.0
 13
79.73495504637731
 23
-4.422925071276109
 33
0.0
  0
MTEXT
  5
118
330
1F
100
AcDbEntity
  8
참조1
100
AcDbMText
 10
82.78244513884759
 20
10.98929157337383
 30
0.0
 40
3.5
 41
0.0
 71
     1
 72
     1
  1
A
  7
SLDTEXTSTYLE0
 73
     1
 44
1.0
  0
MTEXT
  5
119
330
1F
100
AcDbEntity
  8
참조1
100
AcDbMText
 10
82.78244513884759
 20
0.1092915733738259
 30
0.0
 40
3.5
 41
0.0
 71
     1
 72
     1
  1
A
  7
SLDTEXTSTYLE0
 73
     1
 44
1.0
  0
INSERT
  5
120
330
1F
100
AcDbEntity
  8
해칭선
100
AcDbBlockReference
  2
SW_DOWELSYMBOL_0
 10
0.0
 20
0.0
 30
0.0
  0
DIMENSION
  5
146
102
{ACAD_REACTORS
102
}
102
{ACAD_XDICTIONARY
360
147
102
}
330
1F
100
AcDbEntity
  8
치수문자_일반주서
100
AcDbDimension
  2
*D8
 10
39.53445985930978
 20
-0.4970863670402679
 30
0.0
 11
39.53445985930978
 21
9.728236224488054
 31
0.0
 70
   160
  1
{%%C<>}
 71
     5
 42
0.9963225915283231
  3
SLDDIMSTYLE1
100
AcDbAlignedDimension
 13
19.32990825288493
 23
0.4992362244880567
 33
0.0
 14
19.32990825288494
 24
-0.4970863670402664
 34
0.0
 50
90.0
100
AcDbRotatedDimension
1001
ACAD
1000
DSTYLE
1002
{
1070
   170
1070
     0
1070
   283
1070
     1
1002
}
  0
ENDSEC
  0
SECTION
  2
OBJECTS
  0
DICTIONARY
  5
C
330
0
100
AcDbDictionary
281
     1
  3
ACAD_GROUP
350
D
  3
ACAD_IMAGE_VARS
350
144
  3
ACAD_LAYOUT
350
1A
  3
ACAD_MLINESTYLE
350
17
  3
ACAD_PLOTSETTINGS
350
19
  3
ACAD_PLOTSTYLENAME
350
E
  3
ACAD_SCALELIST
350
47
  3
APPDATA
350
142
  3
DWGPROPS
350
162
  0
DICTIONARY
  5
147
330
146
100
AcDbDictionary
280
     1
281
     1
  0
DICTIONARY
  5
D
102
{ACAD_REACTORS
330
C
102
}
330
C
100
AcDbDictionary
281
     1
  0
RASTERVARIABLES
  5
144
102
{ACAD_REACTORS
330
C
102
}
330
C
100
AcDbRasterVariables
 90
        0
 70
     1
 71
     1
 72
     1
  0
DICTIONARY
  5
1A
102
{ACAD_REACTORS
330
C
102
}
330
C
100
AcDbDictionary
281
     1
  3
Layout1
350
1E
  3
Layout2
350
26
  3
Model
350
22
  0
DICTIONARY
  5
17
102
{ACAD_REACTORS
330
C
102
}
330
C
100
AcDbDictionary
281
     1
  3
Standard
350
18
  0
DICTIONARY
  5
19
102
{ACAD_REACTORS
330
C
102
}
330
C
100
AcDbDictionary
281
     1
  0
ACDBDICTIONARYWDFLT
  5
E
102
{ACAD_REACTORS
330
C
102
}
330
C
100
AcDbDictionary
281
     1
  3
Normal
350
F
100
AcDbDictionaryWithDefault
340
F
  0
DICTIONARY
  5
47
102
{ACAD_REACTORS
330
C
102
}
330
C
100
AcDbDictionary
281
     1
  3
A0
350
48
  3
A1
350
49
  3
A2
350
4A
  3
A3
350
4B
  3
A4
350
4C
  3
A5
350
4D
  3
A6
350
4E
  3
A7
350
4F
  3
A8
350
50
  3
A9
350
51
  3
B0
350
52
  3
B1
350
53
  3
B2
350
54
  3
B3
350
55
  3
B4
350
56
  3
B5
350
57
  3
B6
350
58
  3
B7
350
59
  3
B8
350
5A
  3
B9
350
5B
  3
C0
350
5C
  3
C1
350
5D
  3
C2
350
5E
  3
C3
350
5F
  3
C4
350
60
  3
C5
350
61
  3
C6
350
62
  3
C7
350
63
  3
C8
350
64
  3
C9
350
65
  3
D0
350
66
  3
D1
350
67
  3
D2
350
68
  0
DICTIONARY
  5
142
102
{ACAD_REACTORS
330
C
102
}
330
C
100
AcDbDictionary
281
     1
  0
XRECORD
  5
162
102
{ACAD_REACTORS
330
C
102
}
330
C
100
AcDbXrecord
280
     1
  1
DWGPROPS COOKIE
  2

  3

  4

  6

  7

  8
12016016
  9

300
=
301
=
302
=
303
=
304
=
305
=
306
=
307
=
308
=
309
=
 40
0.0
 41
2458270.47785647
 42
2458271.077138287
  1

 90
        0
  0
LAYOUT
  5
1E
102
{ACAD_REACTORS
330
1A
102
}
330
1A
100
AcDbPlotSettings
  1

  2
none_device
  4

  6

 40
0.0
 41
0.0
 42
0.0
 43
0.0
 44
0.0
 45
0.0
 46
0.0
 47
0.0
 48
0.0
 49
0.0
140
0.0
141
0.0
142
1.0
143
1.0
 70
   688
 72
     1
 73
     0
 74
     5
  7

 75
    16
147
1.0
148
0.0
149
0.0
100
AcDbLayout
  1
Layout1
 70
     1
 71
     1
 10
0.0
 20
0.0
 11
420.0
 21
297.0
 12
0.0
 22
0.0
 32
0.0
 14
1.000000000000000E+20
 24
1.000000000000000E+20
 34
1.000000000000000E+20
 15
-1.000000000000000E+20
 25
-1.000000000000000E+20
 35
-1.000000000000000E+20
146
0.0
 13
0.0
 23
0.0
 33
0.0
 16
1.0
 26
0.0
 36
0.0
 17
0.0
 27
1.0
 37
0.0
 76
     0
330
1B
  0
LAYOUT
  5
26
102
{ACAD_REACTORS
330
1A
102
}
330
1A
100
AcDbPlotSettings
  1

  2
none_device
  4

  6

 40
0.0
 41
0.0
 42
0.0
 43
0.0
 44
0.0
 45
0.0
 46
0.0
 47
0.0
 48
0.0
 49
0.0
140
0.0
141
0.0
142
1.0
143
1.0
 70
   688
 72
     1
 73
     0
 74
     5
  7

 75
    16
147
1.0
148
0.0
149
0.0
100
AcDbLayout
  1
Layout2
 70
     1
 71
     2
 10
0.0
 20
0.0
 11
0.0
 21
0.0
 12
0.0
 22
0.0
 32
0.0
 14
0.0
 24
0.0
 34
0.0
 15
0.0
 25
0.0
 35
0.0
146
0.0
 13
0.0
 23
0.0
 33
0.0
 16
1.0
 26
0.0
 36
0.0
 17
0.0
 27
1.0
 37
0.0
 76
     0
330
23
  0
LAYOUT
  5
22
102
{ACAD_REACTORS
330
1A
102
}
330
1A
100
AcDbPlotSettings
  1

  2
none_device
  4
ANSI_A_(11.00_x_8.50_Inches)
  6

 40
6.35
 41
19.05
 42
6.35000508
 43
19.05000254
 44
279.4
 45
215.9
 46
89.37862952591462
 47
116.541730408558
 48
0.0
 49
0.0
140
0.0
141
0.0
142
0.0833613285156657
143
1.0
 70
  1696
 72
     0
 73
     0
 74
     0
  7

 75
     0
147
0.0235690232323232
148
0.0
149
0.0
100
AcDbLayout
  1
Model
 70
     1
 71
     0
 10
0.0
 20
0.0
 11
420.0
 21
297.0
 12
0.0
 22
0.0
 32
0.0
 14
-55.79272174986306
 24
-49.97073246008785
 34
0.0
 15
86.08495504637732
 25
24.46856086770649
 35
0.0
146
0.0
 13
0.0
 23
0.0
 33
0.0
 16
1.0
 26
0.0
 36
0.0
 17
0.0
 27
1.0
 37
0.0
 76
     0
330
1F
331
29
  0
MLINESTYLE
  5
18
102
{ACAD_REACTORS
330
17
102
}
330
17
100
AcDbMlineStyle
  2
Standard
 70
     0
  3

 62
   256
 51
90.0
 52
90.0
 71
     2
 49
0.5
 62
   256
  6
BYLAYER
 49
-0.5
 62
   256
  6
BYLAYER
  0
ACDBPLACEHOLDER
  5
F
102
{ACAD_REACTORS
330
E
102
}
330
E
  0
SCALE
  5
48
102
{ACAD_REACTORS
330
47
102
}
330
47
100
AcDbScale
 70
     0
300
1:1
140
1.0
141
1.0
290
     1
  0
SCALE
  5
49
102
{ACAD_REACTORS
330
47
102
}
330
47
100
AcDbScale
 70
     0
300
1:2
140
1.0
141
2.0
290
     0
  0
SCALE
  5
4A
102
{ACAD_REACTORS
330
47
102
}
330
47
100
AcDbScale
 70
     0
300
1:4
140
1.0
141
4.0
290
     0
  0
SCALE
  5
4B
102
{ACAD_REACTORS
330
47
102
}
330
47
100
AcDbScale
 70
     0
300
1:5
140
1.0
141
5.0
290
     0
  0
SCALE
  5
4C
102
{ACAD_REACTORS
330
47
102
}
330
47
100
AcDbScale
 70
     0
300
1:8
140
1.0
141
8.0
290
     0
  0
SCALE
  5
4D
102
{ACAD_REACTORS
330
47
102
}
330
47
100
AcDbScale
 70
     0
300
1:10
140
1.0
141
10.0
290
     0
  0
SCALE
  5
4E
102
{ACAD_REACTORS
330
47
102
}
330
47
100
AcDbScale
 70
     0
300
1:16
140
1.0
141
16.0
290
     0
  0
SCALE
  5
4F
102
{ACAD_REACTORS
330
47
102
}
330
47
100
AcDbScale
 70
     0
300
1:20
140
1.0
141
20.0
290
     0
  0
SCALE
  5
50
102
{ACAD_REACTORS
330
47
102
}
330
47
100
AcDbScale
 70
     0
300
1:30
140
1.0
141
30.0
290
     0
  0
SCALE
  5
51
102
{ACAD_REACTORS
330
47
102
}
330
47
100
AcDbScale
 70
     0
300
1:40
140
1.0
141
40.0
290
     0
  0
SCALE
  5
52
102
{ACAD_REACTORS
330
47
102
}
330
47
100
AcDbScale
 70
     0
300
1:50
140
1.0
141
50.0
290
     0
  0
SCALE
  5
53
102
{ACAD_REACTORS
330
47
102
}
330
47
100
AcDbScale
 70
     0
300
1:100
140
1.0
141
100.0
290
     0
  0
SCALE
  5
54
102
{ACAD_REACTORS
330
47
102
}
330
47
100
AcDbScale
 70
     0
300
2:1
140
2.0
141
1.0
290
     0
  0
SCALE
  5
55
102
{ACAD_REACTORS
330
47
102
}
330
47
100
AcDbScale
 70
     0
300
4:1
140
4.0
141
1.0
290
     0
  0
SCALE
  5
56
102
{ACAD_REACTORS
330
47
102
}
330
47
100
AcDbScale
 70
     0
300
8:1
140
8.0
141
1.0
290
     0
  0
SCALE
  5
57
102
{ACAD_REACTORS
330
47
102
}
330
47
100
AcDbScale
 70
     0
300
10:1
140
10.0
141
1.0
290
     0
  0
SCALE
  5
58
102
{ACAD_REACTORS
330
47
102
}
330
47
100
AcDbScale
 70
     0
300
100:1
140
100.0
141
1.0
290
     0
  0
SCALE
  5
59
102
{ACAD_REACTORS
330
47
102
}
330
47
100
AcDbScale
 70
     0
300
1/128" = 1'-0"
140
0.0078125
141
12.0
290
     0
  0
SCALE
  5
5A
102
{ACAD_REACTORS
330
47
102
}
330
47
100
AcDbScale
 70
     0
300
1/64" = 1'-0"
140
0.015625
141
12.0
290
     0
  0
SCALE
  5
5B
102
{ACAD_REACTORS
330
47
102
}
330
47
100
AcDbScale
 70
     0
300
1/32" = 1'-0"
140
0.03125
141
12.0
290
     0
  0
SCALE
  5
5C
102
{ACAD_REACTORS
330
47
102
}
330
47
100
AcDbScale
 70
     0
300
1/16" = 1'-0"
140
0.0625
141
12.0
290
     0
  0
SCALE
  5
5D
102
{ACAD_REACTORS
330
47
102
}
330
47
100
AcDbScale
 70
     0
300
3/32" = 1'-0"
140
0.09375
141
12.0
290
     0
  0
SCALE
  5
5E
102
{ACAD_REACTORS
330
47
102
}
330
47
100
AcDbScale
 70
     0
300
1/8" = 1'-0"
140
0.125
141
12.0
290
     0
  0
SCALE
  5
5F
102
{ACAD_REACTORS
330
47
102
}
330
47
100
AcDbScale
 70
     0
300
3/16" = 1'-0"
140
0.1875
141
12.0
290
     0
  0
SCALE
  5
60
102
{ACAD_REACTORS
330
47
102
}
330
47
100
AcDbScale
 70
     0
300
1/4" = 1'-0"
140
0.25
141
12.0
290
     0
  0
SCALE
  5
61
102
{ACAD_REACTORS
330
47
102
}
330
47
100
AcDbScale
 70
     0
300
3/8" = 1'-0"
140
0.375
141
12.0
290
     0
  0
SCALE
  5
62
102
{ACAD_REACTORS
330
47
102
}
330
47
100
AcDbScale
 70
     0
300
1/2" = 1'-0"
140
0.5
141
12.0
290
     0
  0
SCALE
  5
63
102
{ACAD_REACTORS
330
47
102
}
330
47
100
AcDbScale
 70
     0
300
3/4" = 1'-0"
140
0.75
141
12.0
290
     0
  0
SCALE
  5
64
102
{ACAD_REACTORS
330
47
102
}
330
47
100
AcDbScale
 70
     0
300
1" = 1'-0"
140
1.0
141
12.0
290
     0
  0
SCALE
  5
65
102
{ACAD_REACTORS
330
47
102
}
330
47
100
AcDbScale
 70
     0
300
1-1/2" = 1'-0"
140
1.5
141
12.0
290
     0
  0
SCALE
  5
66
102
{ACAD_REACTORS
330
47
102
}
330
47
100
AcDbScale
 70
     0
300
3" = 1'-0"
140
3.0
141
12.0
290
     0
  0
SCALE
  5
67
102
{ACAD_REACTORS
330
47
102
}
330
47
100
AcDbScale
 70
     0
300
6" = 1'-0"
140
6.0
141
12.0
290
     0
  0
SCALE
  5
68
102
{ACAD_REACTORS
330
47
102
}
330
47
100
AcDbScale
 70
     0
300
1'-0" = 1'-0"
140
12.0
141
12.0
290
     0
  0
ENDSEC
  0
EOF
