  0
SECTION
  2
HEADER
  9
$ACADVER
  1
AC1015
  9
$ACADMAINTVER
 70
     6
  9
$DWGCODEPAGE
  3
ANSI_949
  9
$INSBASE
 10
0.0
 20
0.0
 30
0.0
  9
$EXTMIN
 10
-60.67244888062564
 20
-49.97180738881174
 30
0.0
  9
$EXTMAX
 10
71.27040366963124
 20
31.76413260158166
 30
0.0
  9
$LIMMIN
 10
0.0
 20
0.0
  9
$LIMMAX
 10
420.0
 20
297.0
  9
$ORTHOMODE
 70
     0
  9
$REGENMODE
 70
     1
  9
$FILLMODE
 70
     1
  9
$QTEXTMODE
 70
     0
  9
$MIRRTEXT
 70
     1
  9
$LTSCALE
 40
1.0
  9
$ATTMODE
 70
     1
  9
$TEXTSIZE
 40
3.5
  9
$TRACEWID
 40
1.0
  9
$TEXTSTYLE
  7
Standard
  9
$CLAYER
  8
0
  9
$CELTYPE
  6
ByLayer
  9
$CECOLOR
 62
   256
  9
$CELTSCALE
 40
1.0
  9
$DISPSILH
 70
     0
  9
$DIMSCALE
 40
1.0
  9
$DIMASZ
 40
3.302
  9
$DIMEXO
 40
1.0
  9
$DIMDLI
 40
3.75
  9
$DIMRND
 40
0.0
  9
$DIMDLE
 40
0.0
  9
$DIMEXE
 40
1.0
  9
$DIMTP
 40
0.0
  9
$DIMTM
 40
0.0
  9
$DIMTXT
 40
3.5
  9
$DIMCEN
 40
2.5
  9
$DIMTSZ
 40
0.0
  9
$DIMTOL
 70
     0
  9
$DIMLIM
 70
     0
  9
$DIMTIH
 70
     1
  9
$DIMTOH
 70
     1
  9
$DIMSE1
 70
     0
  9
$DIMSE2
 70
     0
  9
$DIMTAD
 70
     1
  9
$DIMZIN
 70
     0
  9
$DIMBLK
  1

  9
$DIMASO
 70
     1
  9
$DIMSHO
 70
     1
  9
$DIMPOST
  1

  9
$DIMAPOST
  1

  9
$DIMALT
 70
     0
  9
$DIMALTD
 70
     3
  9
$DIMALTF
 40
0.0393700787401575
  9
$DIMLFAC
 40
1.0
  9
$DIMTOFL
 70
     1
  9
$DIMTVP
 40
0.0
  9
$DIMTIX
 70
     0
  9
$DIMSOXD
 70
     0
  9
$DIMSAH
 70
     0
  9
$DIMBLK1
  1

  9
$DIMBLK2
  1

  9
$DIMSTYLE
  2
ISO-25
  9
$DIMCLRD
 70
     0
  9
$DIMCLRE
 70
     0
  9
$DIMCLRT
 70
     0
  9
$DIMTFAC
 40
1.0
  9
$DIMGAP
 40
1.524
  9
$DIMJUST
 70
     0
  9
$DIMSD1
 70
     0
  9
$DIMSD2
 70
     0
  9
$DIMTOLJ
 70
     0
  9
$DIMTZIN
 70
     0
  9
$DIMALTZ
 70
     0
  9
$DIMALTTZ
 70
     0
  9
$DIMUPT
 70
     0
  9
$DIMDEC
 70
     2
  9
$DIMTDEC
 70
     2
  9
$DIMALTU
 70
     2
  9
$DIMALTTD
 70
     3
  9
$DIMTXSTY
  7
Standard
  9
$DIMAUNIT
 70
     0
  9
$DIMADEC
 70
     2
  9
$DIMALTRND
 40
0.0
  9
$DIMAZIN
 70
     0
  9
$DIMDSEP
 70
    44
  9
$DIMATFIT
 70
     3
  9
$DIMFRAC
 70
     0
  9
$DIMLDRBLK
  1

  9
$DIMLUNIT
 70
     2
  9
$DIMLWD
 70
    -2
  9
$DIMLWE
 70
    -2
  9
$DIMTMOVE
 70
     0
  9
$LUNITS
 70
     2
  9
$LUPREC
 70
     2
  9
$SKETCHINC
 40
1.0
  9
$FILLETRAD
 40
10.0
  9
$AUNITS
 70
     0
  9
$AUPREC
 70
     2
  9
$MENU
  1
.
  9
$ELEVATION
 40
0.0
  9
$PELEVATION
 40
0.0
  9
$THICKNESS
 40
0.0
  9
$LIMCHECK
 70
     0
  9
$CHAMFERA
 40
0.0
  9
$CHAMFERB
 40
0.0
  9
$CHAMFERC
 40
0.0
  9
$CHAMFERD
 40
0.0
  9
$SKPOLY
 70
     0
  9
$TDCREATE
 40
2458260.496381018
  9
$TDUCREATE
 40
2458260.121381018
  9
$TDUPDATE
 40
2458266.779893565
  9
$TDUUPDATE
 40
2458266.404893565
  9
$TDINDWG
 40
0.001269375
  9
$TDUSRTIMER
 40
2458266.403624224
  9
$USRTIMER
 70
     1
  9
$ANGBASE
 50
0.0
  9
$ANGDIR
 70
     0
  9
$PDMODE
 70
     0
  9
$PDSIZE
 40
-1.0
  9
$PLINEWID
 40
0.0
  9
$SPLFRAME
 70
     0
  9
$SPLINETYPE
 70
     6
  9
$SPLINESEGS
 70
     8
  9
$HANDSEED
  5
13B
  9
$SURFTAB1
 70
     6
  9
$SURFTAB2
 70
     6
  9
$SURFTYPE
 70
     6
  9
$SURFU
 70
     6
  9
$SURFV
 70
     6
  9
$UCSBASE
  2

  9
$UCSNAME
  2

  9
$UCSORG
 10
0.0
 20
0.0
 30
0.0
  9
$UCSXDIR
 10
1.0
 20
0.0
 30
0.0
  9
$UCSYDIR
 10
0.0
 20
1.0
 30
0.0
  9
$UCSORTHOREF
  2

  9
$UCSORTHOVIEW
 70
     0
  9
$UCSORGTOP
 10
0.0
 20
0.0
 30
0.0
  9
$UCSORGBOTTOM
 10
0.0
 20
0.0
 30
0.0
  9
$UCSORGLEFT
 10
0.0
 20
0.0
 30
0.0
  9
$UCSORGRIGHT
 10
0.0
 20
0.0
 30
0.0
  9
$UCSORGFRONT
 10
0.0
 20
0.0
 30
0.0
  9
$UCSORGBACK
 10
0.0
 20
0.0
 30
0.0
  9
$PUCSBASE
  2

  9
$PUCSNAME
  2

  9
$PUCSORG
 10
0.0
 20
0.0
 30
0.0
  9
$PUCSXDIR
 10
1.0
 20
0.0
 30
0.0
  9
$PUCSYDIR
 10
0.0
 20
1.0
 30
0.0
  9
$PUCSORTHOREF
  2

  9
$PUCSORTHOVIEW
 70
     0
  9
$PUCSORGTOP
 10
0.0
 20
0.0
 30
0.0
  9
$PUCSORGBOTTOM
 10
0.0
 20
0.0
 30
0.0
  9
$PUCSORGLEFT
 10
0.0
 20
0.0
 30
0.0
  9
$PUCSORGRIGHT
 10
0.0
 20
0.0
 30
0.0
  9
$PUCSORGFRONT
 10
0.0
 20
0.0
 30
0.0
  9
$PUCSORGBACK
 10
0.0
 20
0.0
 30
0.0
  9
$USERI1
 70
     0
  9
$USERI2
 70
     0
  9
$USERI3
 70
     0
  9
$USERI4
 70
     0
  9
$USERI5
 70
     0
  9
$USERR1
 40
0.0
  9
$USERR2
 40
0.0
  9
$USERR3
 40
0.0
  9
$USERR4
 40
0.0
  9
$USERR5
 40
0.0
  9
$WORLDVIEW
 70
     1
  9
$SHADEDGE
 70
     3
  9
$SHADEDIF
 70
    70
  9
$TILEMODE
 70
     1
  9
$MAXACTVP
 70
    64
  9
$PINSBASE
 10
0.0
 20
0.0
 30
0.0
  9
$PLIMCHECK
 70
     0
  9
$PEXTMIN
 10
1.000000000000000E+20
 20
1.000000000000000E+20
 30
1.000000000000000E+20
  9
$PEXTMAX
 10
-1.000000000000000E+20
 20
-1.000000000000000E+20
 30
-1.000000000000000E+20
  9
$PLIMMIN
 10
0.0
 20
0.0
  9
$PLIMMAX
 10
0.0
 20
0.0
  9
$UNITMODE
 70
     0
  9
$VISRETAIN
 70
     1
  9
$PLINEGEN
 70
     0
  9
$PSLTSCALE
 70
     1
  9
$TREEDEPTH
 70
  3020
  9
$CMLSTYLE
  2
Standard
  9
$CMLJUST
 70
     0
  9
$CMLSCALE
 40
20.0
  9
$PROXYGRAPHICS
 70
     1
  9
$MEASUREMENT
 70
     1
  9
$CELWEIGHT
370
    -1
  9
$ENDCAPS
280
     0
  9
$JOINSTYLE
280
     0
  9
$LWDISPLAY
290
     1
  9
$INSUNITS
 70
     4
  9
$HYPERLINKBASE
  1

  9
$STYLESHEET
  1

  9
$XEDIT
290
     1
  9
$CEPSNTYPE
380
     0
  9
$PSTYLEMODE
290
     1
  9
$FINGERPRINTGUID
  2
{0693D468-66F0-4820-81C4-9ECF972D1A01}
  9
$VERSIONGUID
  2
{FAEB1C32-E019-11D5-929B-00C0DF256EC4}
  9
$EXTNAMES
290
     1
  9
$PSVPSCALE
 40
0.0
  9
$OLESTARTUP
290
     0
  0
ENDSEC
  0
SECTION
  2
CLASSES
  0
CLASS
  1
ACDBDICTIONARYWDFLT
  2
AcDbDictionaryWithDefault
  3
ObjectDBX Classes
 90
        0
280
     0
281
     0
  0
CLASS
  1
VISUALSTYLE
  2
AcDbVisualStyle
  3
ObjectDBX Classes
 90
     4095
280
     0
281
     0
  0
CLASS
  1
MATERIAL
  2
AcDbMaterial
  3
ObjectDBX Classes
 90
     1153
280
     0
281
     0
  0
CLASS
  1
SCALE
  2
AcDbScale
  3
ObjectDBX Classes
 90
     1153
280
     0
281
     0
  0
CLASS
  1
TABLESTYLE
  2
AcDbTableStyle
  3
ObjectDBX Classes
 90
     4095
280
     0
281
     0
  0
CLASS
  1
MLEADERSTYLE
  2
AcDbMLeaderStyle
  3
ACDB_MLEADERSTYLE_CLASS
 90
     4095
280
     0
281
     0
  0
CLASS
  1
SUN
  2
AcDbSun
  3
SCENEOE
 90
     1153
280
     0
281
     0
  0
CLASS
  1
ACDBPLACEHOLDER
  2
AcDbPlaceHolder
  3
ObjectDBX Classes
 90
        0
280
     0
281
     0
  0
CLASS
  1
LAYOUT
  2
AcDbLayout
  3
ObjectDBX Classes
 90
        0
280
     0
281
     0
  0
CLASS
  1
RASTERVARIABLES
  2
AcDbRasterVariables
  3
ISM
 90
        0
280
     0
281
     0
  0
ENDSEC
  0
SECTION
  2
TABLES
  0
TABLE
  2
VPORT
  5
8
330
0
100
AcDbSymbolTable
 70
     1
  0
VPORT
  5
29
330
8
100
AcDbSymbolTableRecord
100
AcDbViewportTableRecord
  2
*Active
 70
     0
 10
0.0
 20
0.0
 11
1.0
 21
1.0
 12
5.298977394502799
 22
-9.103837393615038
 13
0.0
 23
0.0
 14
10.0
 24
10.0
 15
10.0
 25
10.0
 16
0.0
 26
0.0
 36
1.0
 17
0.0
 27
0.0
 37
0.0
 40
83.37065879020128
 41
1.728553137003841
 42
50.0
 43
0.0
 44
0.0
 50
0.0
 51
0.0
 71
    16
 72
  2000
 73
     1
 74
     3
 75
     0
 76
     0
 77
     0
 78
     0
281
     0
 65
     1
110
0.0
120
0.0
130
0.0
111
1.0
121
0.0
131
0.0
112
0.0
122
1.0
132
0.0
 79
     0
146
0.0
  0
ENDTAB
  0
TABLE
  2
LTYPE
  5
5
330
0
100
AcDbSymbolTable
 70
     6
  0
LTYPE
  5
14
330
5
100
AcDbSymbolTableRecord
100
AcDbLinetypeTableRecord
  2
ByBlock
 70
     0
  3

 72
    65
 73
     0
 40
0.0
  0
LTYPE
  5
15
330
5
100
AcDbSymbolTableRecord
100
AcDbLinetypeTableRecord
  2
ByLayer
 70
     0
  3

 72
    65
 73
     0
 40
0.0
  0
LTYPE
  5
16
330
5
100
AcDbSymbolTableRecord
100
AcDbLinetypeTableRecord
  2
Continuous
 70
     0
  3
Solid line
 72
    65
 73
     0
 40
0.0
  0
LTYPE
  5
6E
330
5
100
AcDbSymbolTableRecord
100
AcDbLinetypeTableRecord
  2
HIDDEN
 70
     0
  3
Hidden __ __ __ __ __ __ __ __ __ __ __ __ __ __
 72
    65
 73
     2
 40
1.905
 49
1.27
 74
     0
 49
-0.635
 74
     0
  0
LTYPE
  5
6F
330
5
100
AcDbSymbolTableRecord
100
AcDbLinetypeTableRecord
  2
PHANTOM
 70
     0
  3
Phantom ______  __  __  ______  __  __  ______
 72
    65
 73
     6
 40
12.7
 49
6.35
 74
     0
 49
-1.27
 74
     0
 49
1.27
 74
     0
 49
-1.27
 74
     0
 49
1.27
 74
     0
 49
-1.27
 74
     0
  0
LTYPE
  5
70
330
5
100
AcDbSymbolTableRecord
100
AcDbLinetypeTableRecord
  2
CENTER
 70
     0
  3
Center ____ _ ____ _ ____ _ ____ _ ____ _ ____
 72
    65
 73
     4
 40
10.16
 49
6.35
 74
     0
 49
-1.27
 74
     0
 49
1.27
 74
     0
 49
-1.27
 74
     0
  0
LTYPE
  5
71
330
5
100
AcDbSymbolTableRecord
100
AcDbLinetypeTableRecord
  2
CENTERX2
 70
     0
  3
Center (2x) ________  __  ________  __  _____
 72
    65
 73
     4
 40
20.32
 49
12.7
 74
     0
 49
-2.54
 74
     0
 49
2.54
 74
     0
 49
-2.54
 74
     0
  0
LTYPE
  5
72
330
5
100
AcDbSymbolTableRecord
100
AcDbLinetypeTableRecord
  2
DOT2
 70
     0
  3
Dot (.5x) ........................................
 72
    65
 73
     2
 40
0.635
 49
0.0
 74
     0
 49
-0.635
 74
     0
  0
ENDTAB
  0
TABLE
  2
LAYER
  5
2
330
0
100
AcDbSymbolTable
 70
    17
  0
LAYER
  5
10
330
2
100
AcDbSymbolTableRecord
100
AcDbLayerTableRecord
  2
0
 70
     0
 62
     7
  6
Continuous
370
    -3
390
F
  0
LAYER
  5
73
330
2
100
AcDbSymbolTableRecord
100
AcDbLayerTableRecord
  2
FORMAT
 70
     0
 62
     2
  6
Continuous
370
    -3
390
F
  0
LAYER
  5
74
330
2
100
AcDbSymbolTableRecord
100
AcDbLayerTableRecord
  2
외형선
 70
     0
 62
   100
  6
Continuous
370
    35
390
F
  0
LAYER
  5
75
330
2
100
AcDbSymbolTableRecord
100
AcDbLayerTableRecord
  2
숨은선
 70
     0
 62
     2
  6
HIDDEN
370
    25
390
F
  0
LAYER
  5
76
330
2
100
AcDbSymbolTableRecord
100
AcDbLayerTableRecord
  2
중심선
 70
     0
 62
     1
  6
CENTERX2
370
    -3
390
F
  0
LAYER
  5
77
330
2
100
AcDbSymbolTableRecord
100
AcDbLayerTableRecord
  2
파단선
 70
     0
 62
     4
  6
Continuous
370
    -3
390
F
  0
LAYER
  5
78
330
2
100
AcDbSymbolTableRecord
100
AcDbLayerTableRecord
  2
해칭선
 70
     0
 62
   100
  6
Continuous
370
    -3
390
F
  0
LAYER
  5
79
330
2
100
AcDbSymbolTableRecord
100
AcDbLayerTableRecord
  2
가는실선
 70
     0
 62
     4
  6
Continuous
370
    -3
390
F
  0
LAYER
  5
7A
330
2
100
AcDbSymbolTableRecord
100
AcDbLayerTableRecord
  2
치수_보조선
 70
     0
 62
     4
  6
Continuous
370
    -3
390
F
  0
LAYER
  5
7B
330
2
100
AcDbSymbolTableRecord
100
AcDbLayerTableRecord
  2
치수문자_일반주서
 70
     0
 62
     7
  6
Continuous
370
    25
390
F
  0
LAYER
  5
7C
330
2
100
AcDbSymbolTableRecord
100
AcDbLayerTableRecord
  2
개별주서
 70
     0
 62
   100
  6
Continuous
370
    35
390
F
  0
LAYER
  5
7D
330
2
100
AcDbSymbolTableRecord
100
AcDbLayerTableRecord
  2
중간선
 70
     0
 62
     2
  6
Continuous
370
    25
390
F
  0
LAYER
  5
7E
330
2
100
AcDbSymbolTableRecord
100
AcDbLayerTableRecord
  2
윤곽선
 70
     0
 62
     3
  6
Continuous
370
    50
390
F
  0
LAYER
  5
7F
330
2
100
AcDbSymbolTableRecord
100
AcDbLayerTableRecord
  2
중심마크
 70
     0
 62
   100
  6
Continuous
370
    35
390
F
  0
LAYER
  5
80
330
2
100
AcDbSymbolTableRecord
100
AcDbLayerTableRecord
  2
가상선
 70
     0
 62
     4
  6
PHANTOM
370
    -3
390
F
  0
LAYER
  5
81
330
2
100
AcDbSymbolTableRecord
100
AcDbLayerTableRecord
  2
특수지정선
 70
     0
 62
     5
  6
CENTERX2
370
    70
390
F
  0
LAYER
  5
12B
330
2
100
AcDbSymbolTableRecord
100
AcDbLayerTableRecord
  2
Defpoints
 70
     0
 62
     7
  6
Continuous
290
     0
370
    -3
390
F
  0
ENDTAB
  0
TABLE
  2
STYLE
  5
3
330
0
100
AcDbSymbolTable
 70
     2
  0
STYLE
  5
11
330
3
100
AcDbSymbolTableRecord
100
AcDbTextStyleTableRecord
  2
Standard
 70
     0
 40
0.0
 41
1.0
 50
0.0
 71
     0
 42
3.5
  3
txt
  4

  0
STYLE
  5
97
330
3
100
AcDbSymbolTableRecord
100
AcDbTextStyleTableRecord
  2
SLDTEXTSTYLE0
 70
     0
 40
0.0
 41
0.75
 50
0.0
 71
     0
 42
3.5
  3
TXT
  4

  0
ENDTAB
  0
TABLE
  2
VIEW
  5
6
330
0
100
AcDbSymbolTable
 70
     0
  0
ENDTAB
  0
TABLE
  2
UCS
  5
7
330
0
100
AcDbSymbolTable
 70
     0
  0
ENDTAB
  0
TABLE
  2
APPID
  5
9
330
0
100
AcDbSymbolTable
 70
     1
  0
APPID
  5
12
330
9
100
AcDbSymbolTableRecord
100
AcDbRegAppTableRecord
  2
ACAD
 70
     0
  0
ENDTAB
  0
TABLE
  2
DIMSTYLE
  5
A
330
0
100
AcDbSymbolTable
 70
     4
100
AcDbDimStyleTable
  0
DIMSTYLE
105
27
330
A
100
AcDbSymbolTableRecord
100
AcDbDimStyleTableRecord
  2
ISO-25
 70
     0
 41
2.5
 42
0.625
 43
3.75
 44
1.25
 73
     0
 74
     0
 77
     1
 78
     8
140
2.5
141
2.5
143
0.03937007874016
147
0.625
171
     3
172
     1
178
     0
271
     2
272
     2
274
     3
278
    44
283
     0
284
     8
340
11
  0
DIMSTYLE
105
D0
102
{ACAD_REACTORS
330
CF
102
}
330
A
100
AcDbSymbolTableRecord
100
AcDbDimStyleTableRecord
  2
SLDDIMSTYLE0
 70
     0
 41
3.302
 44
0.0
 45
0.000000001
 73
     0
 74
     0
 77
     1
 78
    12
 79
     3
140
3.5
147
0.875
172
     1
173
     1
178
     0
271
     1
272
     1
276
     2
284
    12
289
     0
340
97
  0
DIMSTYLE
105
DE
102
{ACAD_REACTORS
330
DD
330
F6
102
}
330
A
100
AcDbSymbolTableRecord
100
AcDbDimStyleTableRecord
  2
SLDDIMSTYLE1
 70
     0
 41
3.302
 44
0.0
 45
0.000000001
 73
     0
 74
     0
 77
     1
 78
    12
 79
     3
140
3.5
147
0.875
173
     1
178
     0
271
     2
272
     2
276
     2
284
    12
340
97
  0
DIMSTYLE
105
E9
102
{ACAD_REACTORS
330
E8
102
}
330
A
100
AcDbSymbolTableRecord
100
AcDbDimStyleTableRecord
  2
SLDDIMSTYLE2
 70
     0
 41
3.302
 44
0.0
 45
0.000000001
 73
     0
 74
     0
 77
     1
 78
    12
 79
     3
140
3.5
147
0.875
172
     1
173
     1
178
     0
271
     2
272
     2
276
     2
284
    12
289
     0
340
97
  0
ENDTAB
  0
TABLE
  2
BLOCK_RECORD
  5
1
330
0
100
AcDbSymbolTable
 70
     7
  0
BLOCK_RECORD
  5
1F
330
1
100
AcDbSymbolTableRecord
100
AcDbBlockTableRecord
  2
*Model_Space
340
22
  0
BLOCK_RECORD
  5
1B
330
1
100
AcDbSymbolTableRecord
100
AcDbBlockTableRecord
  2
*Paper_Space
340
1E
  0
BLOCK_RECORD
  5
23
330
1
100
AcDbSymbolTableRecord
100
AcDbBlockTableRecord
  2
*Paper_Space0
340
26
  0
BLOCK_RECORD
  5
82
330
1
100
AcDbSymbolTableRecord
100
AcDbBlockTableRecord
  2
블럭10
340
0
102
{BLKREFS
331
C8
102
}
  0
BLOCK_RECORD
  5
D1
330
1
100
AcDbSymbolTableRecord
100
AcDbBlockTableRecord
  2
_D
340
0
  0
BLOCK_RECORD
  5
DF
330
1
100
AcDbSymbolTableRecord
100
AcDbBlockTableRecord
  2
_D_1
340
0
  0
BLOCK_RECORD
  5
EA
330
1
100
AcDbSymbolTableRecord
100
AcDbBlockTableRecord
  2
_D_2
340
0
  0
BLOCK_RECORD
  5
F7
330
1
100
AcDbSymbolTableRecord
100
AcDbBlockTableRecord
  2
_D_3
340
0
  0
BLOCK_RECORD
  5
100
330
1
100
AcDbSymbolTableRecord
100
AcDbBlockTableRecord
  2
SW_DOWELSYMBOL_0
340
0
102
{BLKREFS
331
106
102
}
  0
ENDTAB
  0
ENDSEC
  0
SECTION
  2
BLOCKS
  0
BLOCK
  5
20
330
1F
100
AcDbEntity
  8
0
100
AcDbBlockBegin
  2
*Model_Space
 70
     0
 10
0.0
 20
0.0
 30
0.0
  3
*Model_Space
  1

  0
ENDBLK
  5
21
330
1F
100
AcDbEntity
  8
0
100
AcDbBlockEnd
  0
BLOCK
  5
1C
330
1B
100
AcDbEntity
 67
     1
  8
0
100
AcDbBlockBegin
  2
*Paper_Space
 70
     0
 10
0.0
 20
0.0
 30
0.0
  3
*Paper_Space
  1

  0
ENDBLK
  5
1D
330
1B
100
AcDbEntity
 67
     1
  8
0
100
AcDbBlockEnd
  0
BLOCK
  5
24
330
23
100
AcDbEntity
  8
0
100
AcDbBlockBegin
  2
*Paper_Space0
 70
     0
 10
0.0
 20
0.0
 30
0.0
  3
*Paper_Space0
  1

  0
ENDBLK
  5
25
330
23
100
AcDbEntity
  8
0
100
AcDbBlockEnd
  0
BLOCK
  5
83
330
82
100
AcDbEntity
  8
0
100
AcDbBlockBegin
  2
블럭10
 70
     2
 10
0.0
 20
0.0
 30
0.0
  3
블럭10
  1

  0
ELLIPSE
  5
85
330
82
100
AcDbEntity
  8
중심선
100
AcDbEllipse
 10
20.54032771741204
 20
12.0471743016438
 30
0.0
 11
6.600054785286829
 21
-1.261213355974178E-13
 31
0.0
210
0.0
220
0.0
230
1.0
 40
0.636358354079598
 41
0.9219305317359503
 42
6.513795318482858
  0
ELLIPSE
  5
86
330
82
100
AcDbEntity
  8
중심선
100
AcDbEllipse
 10
20.54032771746488
 20
12.04717430159265
 30
0.0
 11
3.960054785062283
 21
1.540847449632565E-10
 31
0.0
210
0.0
220
0.0
230
1.0
 40
0.3939339440162632
 41
1.131841032648279
 42
5.62031148352944
  0
LINE
  5
87
330
82
100
AcDbEntity
  8
중심선
100
AcDbLine
 10
2.268634060543552
 20
16.24717430164393
 30
0.0
 11
5.714909304380834
 21
16.24717430164393
 31
0.0
  0
LINE
  5
88
330
82
100
AcDbEntity
  8
중심선
100
AcDbLine
 10
5.245725140726316
 20
7.84717430164391
 30
0.0
 11
8.692000384563599
 21
7.84717430164391
 31
0.0
  0
LINE
  5
89
330
82
100
AcDbEntity
  8
중심선
100
AcDbLine
 10
15.74043728645272
 20
16.24717430164393
 30
0.0
 11
8.692000384563599
 21
7.84717430164391
 31
0.0
  0
LINE
  5
8A
330
82
100
AcDbEntity
  8
중심선
100
AcDbLine
 10
0.1404042013395286
 20
13.71084872107135
 30
0.0
 11
3.58671253028996
 21
13.71088815037384
 31
0.0
  0
LINE
  5
8B
330
82
100
AcDbEntity
  8
중심선
100
AcDbLine
 10
2.750260043222114
 20
10.84717430164391
 30
0.0
 11
6.196535287059397
 21
10.84717430164391
 31
0.0
  0
LINE
  5
8C
330
82
100
AcDbEntity
  8
중심선
100
AcDbLine
 10
12.29416204261559
 20
16.24717430164393
 30
0.0
 11
5.245725140726316
 21
7.84717430164391
 31
0.0
  0
LINE
  5
8D
330
82
100
AcDbEntity
  8
중심선
100
AcDbLine
 10
10.72767329541681
 20
16.24717430164393
 30
0.0
 11
6.196535287059397
 21
10.84717430164391
 31
0.0
  0
LINE
  5
8E
330
82
100
AcDbEntity
  8
중심선
100
AcDbLine
 10
7.28139805157953
 20
16.24717430164393
 30
0.0
 11
2.750260043222114
 21
10.84717430164391
 31
0.0
  0
LINE
  5
8F
330
82
100
AcDbEntity
  8
중심선
100
AcDbLine
 10
5.714909304380834
 20
16.24717430164393
 30
0.0
 11
3.58671253028996
 21
13.71088815037384
 31
0.0
  0
LINE
  5
90
330
82
100
AcDbEntity
  8
중심선
100
AcDbLine
 10
2.268634060543552
 20
16.24717430164393
 30
0.0
 11
0.1404042013395286
 21
13.71084872107135
 31
0.0
  0
LINE
  5
91
330
82
100
AcDbEntity
  8
중심선
100
AcDbLine
 10
7.28139805157953
 20
16.24717430164393
 30
0.0
 11
10.72767329541681
 21
16.24717430164393
 31
0.0
  0
LINE
  5
92
330
82
100
AcDbEntity
  8
중심선
100
AcDbLine
 10
12.29416204261559
 20
16.24717430164393
 30
0.0
 11
15.74043728645272
 21
16.24717430164393
 31
0.0
  0
LINE
  5
93
330
82
100
AcDbEntity
  8
중심선
100
AcDbLine
 10
19.22036997980202
 20
11.08717430171403
 30
0.0
 11
23.66174974927406
 21
11.08717430171406
 31
0.0
  0
LINE
  5
94
330
82
100
AcDbEntity
  8
중심선
100
AcDbLine
 10
19.22039502424796
 20
13.00717430171391
 30
0.0
 11
19.22036997980202
 21
11.08717430171403
 31
0.0
  0
LINE
  5
95
330
82
100
AcDbEntity
  8
중심선
100
AcDbLine
 10
19.22039502424796
 20
13.00717430171391
 30
0.0
 11
26.96566020931264
 21
13.00717430171391
 31
0.0
  0
LINE
  5
96
330
82
100
AcDbEntity
  8
중심선
100
AcDbLine
 10
22.22332737316547
 20
13.45928029700563
 30
0.0
 11
24.52862924686651
 21
15.39360700705356
 31
0.0
  0
ATTDEF
  5
98
330
82
100
AcDbEntity
  8
FORMAT
 62
     2
100
AcDbText
 10
-12.95993919485777
 20
2.075366912832191
 30
0.0
 40
4.233333333333333
  1
SEME71200E [ 4 FLUTE ]
 41
0.75
  7
SLDTEXTSTYLE0
 11
-12.95993919485777
 21
-0.0412997538344756
 31
0.0
100
AcDbAttributeDefinition
  3

  2
AUTOATTR0
 70
     0
 74
     1
  0
ENDBLK
  5
84
330
82
100
AcDbEntity
  8
0
100
AcDbBlockEnd
  0
BLOCK
  5
D2
330
D1
100
AcDbEntity
  8
0
100
AcDbBlockBegin
  2
_D
 70
     0
 10
0.0
 20
0.0
 30
0.0
  3
_D
  1

  0
LINE
  5
D4
330
D1
100
AcDbEntity
  8
치수문자_일반주서
 62
     0
370
    -2
100
AcDbLine
 10
57.06249999999999
 20
-9.99999999999999
 30
0.0
 11
70.72007033629791
 21
-9.999999999999943
 31
0.0
  0
LINE
  5
D5
330
D1
100
AcDbEntity
  8
치수문자_일반주서
 62
     0
370
    -2
100
AcDbLine
 10
57.06249999999999
 20
10.00000000000003
 30
0.0
 11
70.72007033629784
 21
10.00000000000008
 31
0.0
  0
LINE
  5
D6
330
D1
100
AcDbEntity
  8
치수문자_일반주서
 62
     0
370
    -2
100
AcDbLine
 10
70.72007033629791
 20
-9.999999999999943
 30
0.0
 11
70.72007033629778
 21
25.66496836655423
 31
0.0
  0
LINE
  5
D7
330
D1
100
AcDbEntity
  8
치수문자_일반주서
 62
     0
370
    -2
100
AcDbLine
 10
70.72007033629791
 20
-9.999999999999943
 30
0.0
 11
70.72007033629784
 21
10.00000000000008
 31
0.0
  0
LINE
  5
D8
330
D1
100
AcDbEntity
  8
치수문자_일반주서
 62
     0
370
    -2
100
AcDbLine
 10
70.72007033629792
 20
-13.30199999999994
 30
0.0
 11
70.72007033629794
 21
-16.60399999999994
 31
0.0
  0
LINE
  5
D9
330
D1
100
AcDbEntity
  8
치수문자_일반주서
 62
     0
370
    -2
100
AcDbLine
 10
70.72007033629782
 20
13.30200000000008
 30
0.0
 11
70.72007033629781
 21
16.60400000000008
 31
0.0
  0
SOLID
  5
DA
330
D1
100
AcDbEntity
  8
치수문자_일반주서
 62
     0
100
AcDbTrace
 10
71.27040366963125
 20
-13.30199999999994
 30
0.0
 11
70.1697370029646
 21
-13.30199999999994
 31
0.0
 12
70.72007033629791
 22
-9.999999999999943
 32
0.0
 13
70.72007033629791
 23
-9.999999999999943
 33
0.0
  0
SOLID
  5
DB
330
D1
100
AcDbEntity
  8
치수문자_일반주서
 62
     0
100
AcDbTrace
 10
70.1697370029645
 20
13.30200000000007
 30
0.0
 11
71.27040366963115
 21
13.30200000000008
 31
0.0
 12
70.72007033629784
 22
10.00000000000008
 32
0.0
 13
70.72007033629784
 23
10.00000000000008
 33
0.0
  0
MTEXT
  5
DC
330
D1
100
AcDbEntity
  8
치수문자_일반주서
 62
     0
100
AcDbMText
 10
66.3450703362978
 20
21.50871836655421
 30
0.0
 40
3.5
 41
0.0
 71
     2
 72
     1
  1
\A1;%%c20
  7
SLDTEXTSTYLE0
 11
-3.552713678800497E-15
 21
1.0
 31
0.0
 73
     1
 44
1.0
  0
POINT
  5
136
330
D1
100
AcDbEntity
  8
Defpoints
 62
     0
100
AcDbPoint
 10
56.99999999999999
 20
-9.99999999999999
 30
0.0
  0
POINT
  5
137
330
D1
100
AcDbEntity
  8
Defpoints
 62
     0
100
AcDbPoint
 10
56.99999999999999
 20
10.00000000000003
 30
0.0
  0
POINT
  5
138
330
D1
100
AcDbEntity
  8
Defpoints
 62
     0
100
AcDbPoint
 10
70.72007033629784
 20
10.00000000000008
 30
0.0
  0
ENDBLK
  5
D3
330
D1
100
AcDbEntity
  8
0
100
AcDbBlockEnd
  0
BLOCK
  5
E0
330
DF
100
AcDbEntity
  8
0
100
AcDbBlockBegin
  2
_D_1
 70
     0
 10
0.0
 20
0.0
 30
0.0
  3
_D_1
  1

  0
LINE
  5
E2
330
DF
100
AcDbEntity
  8
치수문자_일반주서
 62
     0
370
    -2
100
AcDbLine
 10
-43.0
 20
9.56250000000001
 30
0.0
 11
-42.99999999999999
 21
27.38913260158166
 31
0.0
  0
LINE
  5
E3
330
DF
100
AcDbEntity
  8
치수문자_일반주서
 62
     0
370
    -2
100
AcDbLine
 10
57.00000000000001
 20
10.06250000000003
 30
0.0
 11
57.00000000000001
 21
27.38913260158166
 31
0.0
  0
LINE
  5
E4
330
DF
100
AcDbEntity
  8
치수문자_일반주서
 62
     0
370
    -2
100
AcDbLine
 10
-39.69799999999999
 20
27.38913260158166
 30
0.0
 11
53.69800000000001
 21
27.38913260158166
 31
0.0
  0
SOLID
  5
E5
330
DF
100
AcDbEntity
  8
치수문자_일반주서
 62
     0
100
AcDbTrace
 10
-39.69799999999999
 20
27.939465934915
 30
0.0
 11
-39.69799999999999
 21
26.83879926824833
 31
0.0
 12
-42.99999999999999
 22
27.38913260158166
 32
0.0
 13
-42.99999999999999
 23
27.38913260158166
 33
0.0
  0
SOLID
  5
E6
330
DF
100
AcDbEntity
  8
치수문자_일반주서
 62
     0
100
AcDbTrace
 10
53.69800000000001
 20
26.83879926824833
 30
0.0
 11
53.69800000000001
 21
27.939465934915
 31
0.0
 12
57.00000000000001
 22
27.38913260158166
 32
0.0
 13
57.00000000000001
 23
27.38913260158166
 33
0.0
  0
MTEXT
  5
E7
330
DF
100
AcDbEntity
  8
치수문자_일반주서
 62
     0
100
AcDbMText
 10
6.999999999999999
 20
31.76413260158166
 30
0.0
 40
3.5
 41
0.0
 71
     2
 72
     1
  1
\A1;100
  7
SLDTEXTSTYLE0
 73
     1
 44
1.0
  0
POINT
  5
12D
330
DF
100
AcDbEntity
  8
Defpoints
 62
     0
100
AcDbPoint
 10
-43.0
 20
9.50000000000001
 30
0.0
  0
POINT
  5
12E
330
DF
100
AcDbEntity
  8
Defpoints
 62
     0
100
AcDbPoint
 10
57.00000000000001
 20
10.00000000000003
 30
0.0
  0
POINT
  5
12F
330
DF
100
AcDbEntity
  8
Defpoints
 62
     0
100
AcDbPoint
 10
57.00000000000001
 20
27.38913260158166
 30
0.0
  0
ENDBLK
  5
E1
330
DF
100
AcDbEntity
  8
0
100
AcDbBlockEnd
  0
BLOCK
  5
EB
330
EA
100
AcDbEntity
  8
0
100
AcDbBlockBegin
  2
_D_2
 70
     0
 10
0.0
 20
0.0
 30
0.0
  3
_D_2
  1

  0
LINE
  5
ED
330
EA
100
AcDbEntity
  8
치수문자_일반주서
 62
     0
370
    -2
100
AcDbLine
 10
-42.56249999999999
 20
10.00000000000003
 30
0.0
 11
-56.29744888062559
 21
9.999999999999977
 31
0.0
  0
LINE
  5
EE
330
EA
100
AcDbEntity
  8
치수문자_일반주서
 62
     0
370
    -2
100
AcDbLine
 10
-42.56249999999999
 20
-9.99999999999999
 30
0.0
 11
-56.29744888062552
 21
-10.00000000000004
 31
0.0
  0
LINE
  5
EF
330
EA
100
AcDbEntity
  8
치수문자_일반주서
 62
     0
370
    -2
100
AcDbLine
 10
-56.29744888062559
 20
9.999999999999977
 30
0.0
 11
-56.29744888062564
 21
24.91649999999998
 31
0.0
  0
LINE
  5
F0
330
EA
100
AcDbEntity
  8
치수문자_일반주서
 62
     0
370
    -2
100
AcDbLine
 10
-56.29744888062559
 20
9.999999999999977
 30
0.0
 11
-56.29744888062552
 21
-10.00000000000004
 31
0.0
  0
LINE
  5
F1
330
EA
100
AcDbEntity
  8
치수문자_일반주서
 62
     0
370
    -2
100
AcDbLine
 10
-56.2974488806256
 20
13.30199999999998
 30
0.0
 11
-56.29744888062562
 21
16.60399999999998
 31
0.0
  0
LINE
  5
F2
330
EA
100
AcDbEntity
  8
치수문자_일반주서
 62
     0
370
    -2
100
AcDbLine
 10
-56.2974488806255
 20
-13.30200000000004
 30
0.0
 11
-56.29744888062549
 21
-16.60400000000004
 31
0.0
  0
SOLID
  5
F3
330
EA
100
AcDbEntity
  8
치수문자_일반주서
 62
     0
100
AcDbTrace
 10
-56.84778221395894
 20
13.30199999999997
 30
0.0
 11
-55.74711554729227
 21
13.30199999999998
 31
0.0
 12
-56.29744888062559
 22
9.999999999999977
 32
0.0
 13
-56.29744888062559
 23
9.999999999999977
 33
0.0
  0
SOLID
  5
F4
330
EA
100
AcDbEntity
  8
치수문자_일반주서
 62
     0
100
AcDbTrace
 10
-55.74711554729217
 20
-13.30200000000004
 30
0.0
 11
-56.84778221395884
 21
-13.30200000000004
 31
0.0
 12
-56.29744888062552
 22
-10.00000000000004
 32
0.0
 13
-56.29744888062552
 23
-10.00000000000004
 33
0.0
  0
MTEXT
  5
F5
330
EA
100
AcDbEntity
  8
치수문자_일반주서
 62
     0
100
AcDbMText
 10
-60.67244888062562
 20
20.76024999999996
 30
0.0
 40
3.5
 41
0.0
 71
     2
 72
     1
  1
\A1;%%c20
  7
SLDTEXTSTYLE0
 11
-3.552713678800498E-15
 21
1.0
 31
0.0
 73
     1
 44
1.0
  0
POINT
  5
133
330
EA
100
AcDbEntity
  8
Defpoints
 62
     0
100
AcDbPoint
 10
-42.49999999999999
 20
10.00000000000003
 30
0.0
  0
POINT
  5
134
330
EA
100
AcDbEntity
  8
Defpoints
 62
     0
100
AcDbPoint
 10
-42.49999999999999
 20
-9.99999999999999
 30
0.0
  0
POINT
  5
135
330
EA
100
AcDbEntity
  8
Defpoints
 62
     0
100
AcDbPoint
 10
-56.29744888062552
 20
-10.00000000000004
 30
0.0
  0
ENDBLK
  5
EC
330
EA
100
AcDbEntity
  8
0
100
AcDbBlockEnd
  0
BLOCK
  5
F8
330
F7
100
AcDbEntity
  8
0
100
AcDbBlockBegin
  2
_D_3
 70
     0
 10
0.0
 20
0.0
 30
0.0
  3
_D_3
  1

  0
LINE
  5
FA
330
F7
100
AcDbEntity
  8
치수문자_일반주서
 62
     0
370
    -2
100
AcDbLine
 10
12.0
 20
10.04899443138871
 30
0.0
 11
12.0
 21
20.83241273397636
 31
0.0
  0
LINE
  5
FB
330
F7
100
AcDbEntity
  8
치수문자_일반주서
 62
     0
370
    -2
100
AcDbLine
 10
57.00000000000001
 20
10.06250000000003
 30
0.0
 11
57.00000000000001
 21
20.83241273397636
 31
0.0
  0
LINE
  5
FC
330
F7
100
AcDbEntity
  8
치수문자_일반주서
 62
     0
370
    -2
100
AcDbLine
 10
15.302
 20
20.83241273397636
 30
0.0
 11
53.69800000000001
 21
20.83241273397636
 31
0.0
  0
SOLID
  5
FD
330
F7
100
AcDbEntity
  8
치수문자_일반주서
 62
     0
100
AcDbTrace
 10
15.302
 20
21.3827460673097
 30
0.0
 11
15.302
 21
20.28207940064303
 31
0.0
 12
12.0
 22
20.83241273397636
 32
0.0
 13
12.0
 23
20.83241273397636
 33
0.0
  0
SOLID
  5
FE
330
F7
100
AcDbEntity
  8
치수문자_일반주서
 62
     0
100
AcDbTrace
 10
53.69800000000001
 20
20.28207940064303
 30
0.0
 11
53.69800000000001
 21
21.3827460673097
 31
0.0
 12
57.00000000000001
 22
20.83241273397636
 32
0.0
 13
57.00000000000001
 23
20.83241273397636
 33
0.0
  0
MTEXT
  5
FF
330
F7
100
AcDbEntity
  8
치수문자_일반주서
 62
     0
100
AcDbMText
 10
34.5
 20
25.20741273397636
 30
0.0
 40
3.5
 41
0.0
 71
     2
 72
     1
  1
\A1;45
  7
SLDTEXTSTYLE0
 73
     1
 44
1.0
  0
POINT
  5
130
330
F7
100
AcDbEntity
  8
Defpoints
 62
     0
100
AcDbPoint
 10
12.0
 20
9.986494431388707
 30
0.0
  0
POINT
  5
131
330
F7
100
AcDbEntity
  8
Defpoints
 62
     0
100
AcDbPoint
 10
57.00000000000001
 20
10.00000000000003
 30
0.0
  0
POINT
  5
132
330
F7
100
AcDbEntity
  8
Defpoints
 62
     0
100
AcDbPoint
 10
57.00000000000001
 20
20.83241273397636
 30
0.0
  0
ENDBLK
  5
F9
330
F7
100
AcDbEntity
  8
0
100
AcDbBlockEnd
  0
BLOCK
  5
101
330
100
100
AcDbEntity
  8
0
100
AcDbBlockBegin
  2
SW_DOWELSYMBOL_0
 70
     0
 10
0.0
 20
0.0
 30
0.0
  3
SW_DOWELSYMBOL_0
  1

  0
CIRCLE
  5
103
330
100
100
AcDbEntity
  8
해칭선
 62
     0
100
AcDbCircle
 10
0.0
 20
0.0
 30
0.0
 40
3.000000000000001
  0
HATCH
  5
104
330
100
100
AcDbEntity
  8
0
  6
Continuous
 62
     0
370
    18
100
AcDbHatch
 10
0.0
 20
0.0
 30
0.0
210
0.0
220
0.0
230
1.0
  2
SOLID
 70
     1
 71
     0
 91
        1
 92
        0
 93
        3
 72
     2
 10
0.0
 20
0.0
 40
3.000000000000001
 50
0.0
 51
90.0
 73
     1
 72
     1
 10
0.0
 20
3.000000000000001
 11
0.0
 21
0.0
 72
     1
 10
0.0
 20
0.0
 11
3.000000000000001
 21
0.0
 97
        0
 75
     0
 76
     1
 98
        1
 10
0.0
 20
0.0
  0
HATCH
  5
105
330
100
100
AcDbEntity
  8
0
  6
Continuous
 62
     0
370
    18
100
AcDbHatch
 10
0.0
 20
0.0
 30
0.0
210
0.0
220
0.0
230
1.0
  2
SOLID
 70
     1
 71
     0
 91
        1
 92
        0
 93
        3
 72
     2
 10
0.0
 20
0.0
 40
3.000000000000001
 50
180.0
 51
270.0000000000008
 73
     1
 72
     1
 10
0.0
 20
-3.000000000000001
 11
0.0
 21
0.0
 72
     1
 10
0.0
 20
0.0
 11
-3.000000000000001
 21
0.0
 97
        0
 75
     0
 76
     1
 98
        1
 10
0.0
 20
0.0
  0
ENDBLK
  5
102
330
100
100
AcDbEntity
  8
0
100
AcDbBlockEnd
  0
ENDSEC
  0
SECTION
  2
ENTITIES
  0
LINE
  5
99
330
1F
100
AcDbEntity
  8
0
  6
Continuous
 62
     4
370
    25
100
AcDbLine
 10
11.13053805790282
 20
10.00000000000002
 30
0.0
 11
-42.5
 21
10.00000000000002
 31
0.0
  0
LINE
  5
9A
330
1F
100
AcDbEntity
  8
0
  6
Continuous
 62
     4
370
    25
100
AcDbLine
 10
-42.5
 20
-9.999999999999984
 30
0.0
 11
11.13053805790284
 21
-9.99999999999998
 31
0.0
  0
LINE
  5
9B
330
1F
100
AcDbEntity
  8
0
  6
Continuous
 62
     4
370
    25
100
AcDbLine
 10
-42.5
 20
10.00000000000001
 30
0.0
 11
-43.0
 21
9.50000000000001
 31
0.0
  0
LINE
  5
9C
330
1F
100
AcDbEntity
  8
0
  6
Continuous
 62
     4
370
    25
100
AcDbLine
 10
-43.0
 20
-9.499999999999979
 30
0.0
 11
-42.5
 21
-9.999999999999975
 31
0.0
  0
LINE
  5
9D
330
1F
100
AcDbEntity
  8
0
  6
Continuous
 62
     1
370
    25
100
AcDbLine
 10
54.14166474289817
 20
-9.999999999999986
 30
0.0
 11
57.00000000000001
 21
-9.999999999999986
 31
0.0
  0
LINE
  5
9E
330
1F
100
AcDbEntity
  8
0
  6
Continuous
 62
     1
370
    25
100
AcDbLine
 10
19.64783904699011
 20
10.00000000000002
 30
0.0
 11
13.93167326004244
 21
10.00000000000002
 31
0.0
  0
LINE
  5
9F
330
1F
100
AcDbEntity
  8
0
  6
Continuous
 62
     1
370
    25
100
AcDbLine
 10
39.752637540797
 20
10.00000000000002
 30
0.0
 11
34.03657987369809
 21
10.00000000000002
 31
0.0
  0
LINE
  5
A0
330
1F
100
AcDbEntity
  8
0
  6
Continuous
 62
     1
370
    25
100
AcDbLine
 10
34.03657987369801
 20
-9.999999999999986
 30
0.0
 11
39.75263754079699
 21
-9.999999999999986
 31
0.0
  0
LINE
  5
A1
330
1F
100
AcDbEntity
  8
0
  6
Continuous
 62
     1
370
    25
100
AcDbLine
 10
13.93167326004246
 20
-9.999999999999986
 30
0.0
 11
19.64783904699004
 21
-9.999999999999986
 31
0.0
  0
LINE
  5
A2
330
1F
100
AcDbEntity
  8
0
  6
Continuous
 62
     1
370
    25
100
AcDbLine
 10
57.00000000000001
 20
10.00000000000002
 30
0.0
 11
54.14166474289817
 21
10.00000000000002
 31
0.0
  0
SPLINE
  5
A3
330
1F
100
AcDbEntity
  8
0
  6
Continuous
 62
     4
370
    25
100
AcDbSpline
210
0.0
220
0.0
230
1.0
 70
     8
 71
     3
 72
    14
 73
    10
 74
     0
 42
0.000000001
 43
0.00000001
 40
0.0
 40
0.0
 40
0.0
 40
0.0
 40
0.25
 40
0.25
 40
0.5
 40
0.5
 40
0.75
 40
0.75
 40
1.0
 40
1.0
 40
1.0
 40
1.0
 10
11.27640880424429
 20
-7.935869735614784
 30
0.0
 10
11.15204354436367
 20
-7.876737362549334
 30
0.0
 10
11.04165051433952
 20
-7.808770357285577
 30
0.0
 10
10.84763494240571
 20
-7.653918544701138
 30
0.0
 10
10.76396036511549
 20
-7.566169219081415
 30
0.0
 10
10.63198736188593
 20
-7.378708624055223
 30
0.0
 10
10.58204326156535
 20
-7.27730837023904
 30
0.0
 10
10.51591522937436
 20
-7.063063789542009
 30
0.0
 10
10.49999629209871
 20
-6.952008877982965
 30
0.0
 10
10.4999962920987
 20
-6.836929247573671
 30
0.0
  0
SPLINE
  5
A4
330
1F
100
AcDbEntity
  8
0
  6
Continuous
 62
     4
370
    25
100
AcDbSpline
210
0.0
220
0.0
230
1.0
 70
     8
 71
     3
 72
    14
 73
    10
 74
     0
 42
0.000000001
 43
0.00000001
 40
0.0
 40
0.0
 40
0.0
 40
0.0
 40
0.25
 40
0.25
 40
0.5
 40
0.5
 40
0.75
 40
0.75
 40
1.0
 40
1.0
 40
1.0
 40
1.0
 10
10.49999629209873
 20
-1.470733299326851
 30
0.0
 10
10.49999629209873
 20
-1.247096890578327
 30
0.0
 10
10.53238105901407
 20
-1.027739230005911
 30
0.0
 10
10.6690077539186
 20
-0.5989569547677852
 30
0.0
 10
10.77044064048949
 20
-0.3993420630298507
 30
0.0
 10
11.03869348258791
 20
-0.0379716557482127
 30
0.0
 10
11.20167919163912
 20
0.1180497144266232
 30
0.0
 10
11.57484712252523
 20
0.3697520250039992
 30
0.0
 10
11.78088756002181
 20
0.4627584776743069
 30
0.0
 10
11.99999999999956
 20
0.519546890899558
 30
0.0
  0
SPLINE
  5
A5
330
1F
100
AcDbEntity
  8
0
  6
Continuous
 62
     4
370
    25
100
AcDbSpline
210
0.0
220
0.0
230
1.0
 70
    24
 71
     3
 72
    20
 73
    16
 74
     0
 42
0.000000001
 43
0.00000001
 40
0.0
 40
0.0
 40
0.0
 40
0.0
 40
0.2500000000000005
 40
0.2500000000000005
 40
0.3750000000000004
 40
0.3750000000000004
 40
0.5000000000000003
 40
0.5000000000000003
 40
0.6250000000000002
 40
0.6250000000000002
 40
0.7500000000000001
 40
0.7500000000000001
 40
0.8750000000000001
 40
0.8750000000000001
 40
1.0
 40
1.0
 40
1.0
 40
1.0
 10
12.0
 20
0.5195468908988476
 30
0.0
 10
12.0
 20
0.4260281975368878
 30
0.0
 10
12.0
 20
0.2560482421404405
 30
0.0
 10
12.0
 20
-0.1221918141263633
 30
0.0
 10
12.0
 20
-0.2687348057520115
 30
0.0
 10
12.0
 20
-0.5960967544375609
 30
0.0
 10
12.0
 20
-0.7778034831575622
 30
0.0
 10
12.0
 20
-1.179692289275
 30
0.0
 10
12.0
 20
-1.402581972539516
 30
0.0
 10
12.0
 20
-1.877528073691813
 30
0.0
 10
12.0
 20
-2.128430931060236
 30
0.0
 10
12.0
 20
-2.657271595170439
 30
0.0
 10
12.0
 20
-2.93660610327446
 30
0.0
 10
12.0
 20
-3.517760799330444
 30
0.0
 10
12.0
 20
-3.815033857410431
 30
0.0
 10
12.0
 20
-4.118732380481981
 30
0.0
  0
SPLINE
  5
A6
330
1F
100
AcDbEntity
  8
0
  6
Continuous
 62
     4
370
    25
100
AcDbSpline
210
0.0
220
0.0
230
1.0
 70
     8
 71
     3
 72
     8
 73
     4
 74
     0
 42
0.000000001
 43
0.00000001
 40
0.0
 40
0.0
 40
0.0
 40
0.0
 40
1.0
 40
1.0
 40
1.0
 40
1.0
 10
12.0
 20
-8.267574552585584
 30
0.0
 10
11.75870326186701
 20
-8.161353811732432
 30
0.0
 10
11.51820063813963
 20
-8.050835321179468
 30
0.0
 10
11.27640880424429
 20
-7.935869735614789
 30
0.0
  0
SPLINE
  5
A7
330
1F
100
AcDbEntity
  8
0
  6
Continuous
 62
     4
370
    25
100
AcDbSpline
210
0.0
220
0.0
230
1.0
 70
     8
 71
     3
 72
     9
 73
     5
 74
     0
 42
0.000000001
 43
0.00000001
 40
0.0
 40
0.0
 40
0.0
 40
0.0
 40
0.4173752954207727
 40
1.0
 40
1.0
 40
1.0
 40
1.0
 10
11.13053805790283
 20
-9.997699768789882
 30
0.0
 10
11.23213721718031
 20
-9.99746951937885
 30
0.0
 10
11.47556120607511
 20
-9.996917859006134
 30
0.0
 10
11.80693401505974
 20
-9.990331693892378
 30
0.0
 10
12.0
 20
-9.986494431388667
 30
0.0
  0
SPLINE
  5
A8
330
1F
100
AcDbEntity
  8
0
  6
Continuous
 62
     4
370
    25
100
AcDbSpline
210
0.0
220
0.0
230
1.0
 70
     8
 71
     3
 72
    14
 73
    10
 74
     0
 42
0.000000001
 43
0.00000001
 40
0.0
 40
0.0
 40
0.0
 40
0.0
 40
0.25
 40
0.25
 40
0.5
 40
0.5
 40
0.75
 40
0.75
 40
1.0
 40
1.0
 40
1.0
 40
1.0
 10
10.49999629209873
 20
9.891255914303896
 30
0.0
 10
10.49999629209873
 20
9.924508467481967
 30
0.0
 10
10.53238105901407
 20
9.949372931244488
 30
0.0
 10
10.6690077539186
 20
9.984363786251427
 30
0.0
 10
10.77044064048949
 20
9.993657422377668
 30
0.0
 10
11.03869348258791
 20
10.00156092380129
 30
0.0
 10
11.20167919163911
 20
10.00009560983181
 30
0.0
 10
11.57484712252523
 20
9.9939547417856
 30
0.0
 10
11.78088756002181
 20
9.989448845846418
 30
0.0
 10
11.99999999999956
 20
9.986494431388671
 30
0.0
  0
LINE
  5
A9
330
1F
100
AcDbEntity
  8
0
  6
Continuous
 62
     4
370
    25
100
AcDbLine
 10
10.49999629209873
 20
9.891255914303896
 30
0.0
 11
10.49999629209873
 21
7.29769816200109
 31
0.0
  0
SPLINE
  5
AA
330
1F
100
AcDbEntity
  8
0
  6
Continuous
 62
     4
370
    25
100
AcDbSpline
210
0.0
220
0.0
230
1.0
 70
     8
 71
     3
 72
    14
 73
    10
 74
     0
 42
0.000000001
 43
0.00000001
 40
0.0
 40
0.0
 40
0.0
 40
0.0
 40
0.25
 40
0.25
 40
0.5
 40
0.5
 40
0.75
 40
0.75
 40
1.0
 40
1.0
 40
1.0
 40
1.0
 10
11.2764088042443
 20
6.084568311663936
 30
0.0
 10
11.15204354436369
 20
6.161692404248385
 30
0.0
 10
11.04165051433952
 20
6.248040342238049
 30
0.0
 10
10.84763494240571
 20
6.436803051370769
 30
0.0
 10
10.76396036511549
 20
6.540105240375887
 30
0.0
 10
10.63198736188593
 20
6.750892700099763
 30
0.0
 10
10.58204326156534
 20
6.860349845165628
 30
0.0
 10
10.51591522937435
 20
7.08073068393903
 30
0.0
 10
10.49999629209871
 20
7.189884537282721
 30
0.0
 10
10.4999962920987
 20
7.297698162001002
 30
0.0
  0
SPLINE
  5
AB
330
1F
100
AcDbEntity
  8
0
  6
Continuous
 62
     4
370
    25
100
AcDbSpline
210
0.0
220
0.0
230
1.0
 70
     8
 71
     3
 72
     8
 73
     4
 74
     0
 42
0.000000001
 43
0.00000001
 40
0.0
 40
0.0
 40
0.0
 40
0.0
 40
1.0
 40
1.0
 40
1.0
 40
1.0
 10
12.0
 20
5.625585393307313
 30
0.0
 10
11.758703261867
 20
5.781691439636123
 30
0.0
 10
11.51820063813963
 20
5.934623095440444
 30
0.0
 10
11.27640880424429
 20
6.084568311664084
 30
0.0
  0
LINE
  5
AC
330
1F
100
AcDbEntity
  8
0
  6
Continuous
 62
     4
370
    25
100
AcDbLine
 10
-42.5
 20
10.00000000000001
 30
0.0
 11
-42.5
 21
-9.999999999999986
 31
0.0
  0
LINE
  5
AD
330
1F
100
AcDbEntity
  8
0
  6
Continuous
 62
     4
370
    25
100
AcDbLine
 10
10.49999629209873
 20
-1.470733299326851
 30
0.0
 11
10.49999629209873
 21
-6.836929247573575
 31
0.0
  0
LINE
  5
AE
330
1F
100
AcDbEntity
  8
0
  6
Continuous
 62
     4
370
    25
100
AcDbLine
 10
-43.0
 20
9.50000000000001
 30
0.0
 11
-43.0
 21
-9.499999999999988
 31
0.0
  0
SPLINE
  5
AF
330
1F
100
AcDbEntity
  8
0
  6
Continuous
 62
     4
370
    25
100
AcDbSpline
210
0.0
220
0.0
230
1.0
 70
    24
 71
     3
 72
    12
 73
     8
 74
     0
 42
0.000000001
 43
0.00000001
 40
0.0
 40
0.0
 40
0.0
 40
0.0
 40
0.1934897451721367
 40
0.3869079744895811
 40
0.6018904279990894
 40
0.8166703646568786
 40
1.0
 40
1.0
 40
1.0
 40
1.0
 10
12.0
 20
9.986494431388707
 30
0.0
 10
12.0
 20
9.654261662572
 30
0.0
 10
12.0
 20
8.98991892168111
 30
0.0
 10
12.0
 20
8.008430899323617
 30
0.0
 10
12.0
 20
7.077186751362892
 30
0.0
 10
12.0
 20
6.267305777106976
 30
0.0
 10
12.0
 20
5.876642334100711
 30
0.0
 10
12.0
 20
5.696741644478351
 30
0.0
  0
SPLINE
  5
B0
330
1F
100
AcDbEntity
  8
0
  6
Continuous
 62
     1
370
    25
100
AcDbSpline
210
0.0
220
0.0
230
1.0
 70
     8
 71
     3
 72
    29
 73
    25
 74
     0
 42
0.000000001
 43
0.00000001
 40
0.0
 40
0.0
 40
0.0
 40
0.0
 40
0.0480784872533604
 40
0.0961295684574465
 40
0.1441605680306433
 40
0.1921904289697643
 40
0.2402381017464989
 40
0.286248900750235
 40
0.3322259411134505
 40
0.3781806295093179
 40
0.4241440141053304
 40
0.4701464291658013
 40
0.5161393659203097
 40
0.5620986320539946
 40
0.6080552343240382
 40
0.6540402035826599
 40
0.7000482849907045
 40
0.746016278328029
 40
0.7919702509646299
 40
0.8415909792747646
 40
0.8912330137753034
 40
0.9408870529988687
 40
0.9905161254557073
 40
1.0
 40
1.0
 40
1.0
 40
1.0
 10
12.00000000000001
 20
9.886481311187607
 30
0.0
 10
12.67554332767198
 20
9.941865351956995
 30
0.0
 10
14.02624490489093
 20
10.0526018630817
 30
0.0
 10
16.05131386407505
 20
9.901470065375525
 30
0.0
 10
18.07539477005454
 20
9.520758370210103
 30
0.0
 10
20.09943851815163
 20
8.897583594907676
 30
0.0
 10
22.09527029550526
 20
8.065335155118802
 30
0.0
 10
24.06308015647446
 20
7.054449583670668
 30
0.0
 10
26.00063111765631
 20
5.896683715858089
 30
0.0
 10
27.93724180726434
 20
4.604140810774479
 30
0.0
 10
29.87424086816711
 20
3.206073782427805
 30
0.0
 10
31.81266857429221
 20
1.735358364230144
 30
0.0
 10
33.75077639350312
 20
0.2246900286727303
 30
0.0
 10
35.68758826965185
 20
-1.291447502260788
 30
0.0
 10
37.62428102871688
 20
-2.777970419319449
 30
0.0
 10
39.56211250272857
 20
-4.20089428860218
 30
0.0
 10
41.50072571829276
 20
-5.527201180480639
 30
0.0
 10
43.43793692459379
 20
-6.727773232565018
 30
0.0
 10
45.42570258023397
 20
-7.802341739092101
 30
0.0
 10
47.46559675402964
 20
-8.70829525919624
 30
0.0
 10
49.55769701833144
 20
-9.411388734162866
 30
0.0
 10
51.6502482950332
 20
-9.840045032948703
 30
0.0
 10
53.17814132539504
 20
-10.02607074255836
 30
0.0
 10
54.0084525181009
 20
-9.985842117883202
 30
0.0
 10
54.14166474289817
 20
-9.979387977988916
 30
0.0
  0
SPLINE
  5
B1
330
1F
100
AcDbEntity
  8
0
  6
Continuous
 62
     1
370
    25
100
AcDbSpline
210
0.0
220
0.0
230
1.0
 70
     8
 71
     3
 72
    27
 73
    23
 74
     0
 42
0.000000001
 43
0.00000001
 40
0.0
 40
0.0
 40
0.0
 40
0.0
 40
0.0518947281384907
 40
0.103748085521092
 40
0.1555950344235811
 40
0.2074705950850056
 40
0.2593789547103321
 40
0.3112433993826492
 40
0.3630886263768214
 40
0.4149496715118405
 40
0.4668559439690472
 40
0.5187361413218746
 40
0.5705843350659254
 40
0.6224355341783315
 40
0.6743247204522277
 40
0.7262246001416423
 40
0.7780804456992195
 40
0.8299264802122964
 40
0.8817977321930793
 40
0.9337070706390878
 40
0.98791440808411
 40
1.0
 40
1.0
 40
1.0
 40
1.0
 10
57.00000000000001
 20
-9.751656983552591
 30
0.0
 10
56.35373680176211
 20
-9.61835657685506
 30
0.0
 10
55.06172560977767
 20
-9.351862031259891
 30
0.0
 10
53.12482612809762
 20
-8.678253060667934
 30
0.0
 10
51.18817965343412
 20
-7.822204330951819
 30
0.0
 10
49.25049749015258
 20
-6.782878743247596
 30
0.0
 10
47.3118166534405
 20
-5.590232236368388
 30
0.0
 10
45.3745053005599
 20
-4.268657335698299
 30
0.0
 10
43.43792141685955
 20
-2.849759342842354
 30
0.0
 10
41.5007298782329
 20
-1.365373068704533
 30
0.0
 10
39.56211138823236
 20
0.1493220806817691
 30
0.0
 10
37.62428132720191
 20
1.66127364762973
 30
0.0
 10
35.68758818921984
 20
3.135269053002952
 30
0.0
 10
33.75077641683075
 20
4.537612582209453
 30
0.0
 10
31.81266856147101
 20
5.835897859264716
 30
0.0
 10
29.87424089610501
 20
7.000436683758726
 30
0.0
 10
27.93724170842989
 20
8.005765400595743
 30
0.0
 10
26.00063148509262
 20
8.826407066026425
 30
0.0
 10
24.06307878438662
 20
9.450475805823661
 30
0.0
 10
22.09527551610322
 20
9.844354926925767
 30
0.0
 10
20.62360296713056
 20
10.02143805497634
 30
0.0
 10
19.79829716170013
 20
9.984989674002163
 30
0.0
 10
19.64783904699012
 20
9.978344919234264
 30
0.0
  0
LINE
  5
B2
330
1F
100
AcDbEntity
  8
0
  6
Continuous
 62
     1
370
    25
100
AcDbLine
 10
57.00000000000001
 20
-9.999999999999991
 30
0.0
 11
57.00000000000001
 21
-9.751656983552595
 31
0.0
  0
SPLINE
  5
B3
330
1F
100
AcDbEntity
  8
0
  6
Continuous
 62
     1
370
    25
100
AcDbSpline
210
0.0
220
0.0
230
1.0
 70
     8
 71
     3
 72
    22
 73
    18
 74
     0
 42
0.000000001
 43
0.00000001
 40
0.0
 40
0.0
 40
0.0
 40
0.0
 40
0.0377638680700578
 40
0.1045780432264117
 40
0.1714489545938101
 40
0.2383060879246187
 40
0.3051142763229094
 40
0.3719185924247304
 40
0.4387641438916182
 40
0.5056432920836677
 40
0.5724641666868089
 40
0.6392646602505166
 40
0.7113952934020799
 40
0.783556898066078
 40
0.8557359532654112
 40
0.9278787157952678
 40
1.0
 40
1.0
 40
1.0
 40
1.0
 10
26.84254878588376
 20
8.437738329500025
 30
0.0
 10
27.20740848651795
 20
8.593055905782244
 30
0.0
 10
28.21780057542451
 20
9.023170961160844
 30
0.0
 10
29.87423702060522
 20
9.506842828356676
 30
0.0
 10
31.81266960541108
 20
9.888638384261593
 30
0.0
 10
33.75077611743012
 20
10.03534573428713
 30
0.0
 10
35.68758834372527
 20
9.95494943555748
 30
0.0
 10
37.62428100837406
 20
9.64619880212182
 30
0.0
 10
39.56211250998478
 20
9.116973797949537
 30
0.0
 10
41.50072570962787
 20
8.379553114722532
 30
0.0
 10
43.43793695197034
 20
7.450032619640083
 30
0.0
 10
45.42570247600563
 20
6.321138243489984
 30
0.0
 10
47.46559717738728
 20
5.00415610123361
 30
0.0
 10
49.55769544155908
 20
3.520430453770538
 30
0.0
 10
51.65025417876839
 20
1.943889737422779
 30
0.0
 10
53.74184735510181
 20
0.3126295730448552
 30
0.0
 10
55.13582508195756
 20
-0.7740741617772778
 30
0.0
 10
55.83271017626379
 20
-1.317345133855589
 30
0.0
  0
SPLINE
  5
B4
330
1F
100
AcDbEntity
  8
0
  6
Continuous
 62
     1
370
    25
100
AcDbSpline
210
0.0
220
0.0
230
1.0
 70
     8
 71
     3
 72
    16
 73
    12
 74
     0
 42
0.000000001
 43
0.00000001
 40
0.0
 40
0.0
 40
0.0
 40
0.0
 40
0.1123869774762022
 40
0.2246843594505665
 40
0.336967862756791
 40
0.4493133297580262
 40
0.5617298285682624
 40
0.6740512219793227
 40
0.7863309961963282
 40
0.8986450273234832
 40
1.0
 40
1.0
 40
1.0
 40
1.0
 10
57.00000000000002
 20
2.214765467296702
 30
0.0
 10
56.35373680238909
 20
2.701966459004421
 30
0.0
 10
55.06172561165809
 20
3.675980043173539
 30
0.0
 10
53.12482612058336
 20
5.040051825032626
 30
0.0
 10
51.18817968161615
 20
6.292295889393936
 30
0.0
 10
49.25049738484626
 20
7.399791846438649
 30
0.0
 10
47.31181704658773
 20
8.337422495702034
 30
0.0
 10
45.3745038349559
 20
9.086365479856752
 30
0.0
 10
43.43792688516309
 20
9.621801364981565
 30
0.0
 10
41.56426867548834
 20
9.94687147191411
 30
0.0
 10
40.33550690270448
 20
9.976020378033098
 30
0.0
 10
39.752637540797
 20
9.98984730908368
 30
0.0
  0
LINE
  5
B5
330
1F
100
AcDbEntity
  8
0
  6
Continuous
 62
     1
370
    25
100
AcDbLine
 10
57.00000000000001
 20
-0.500000000000012
 30
0.0
 11
57.00000000000001
 21
2.214765467296702
 31
0.0
  0
LINE
  5
B6
330
1F
100
AcDbEntity
  8
0
  6
Continuous
 62
     1
370
    25
100
AcDbLine
 10
57.00000000000001
 20
-0.5000000000000112
 30
0.0
 11
55.83271017626379
 21
-1.3173451338556
 31
0.0
  0
SPLINE
  5
B7
330
1F
100
AcDbEntity
  8
0
  6
Continuous
 62
     1
370
    25
100
AcDbSpline
210
0.0
220
0.0
230
1.0
 70
     8
 71
     3
 72
    12
 73
     8
 74
     0
 42
0.000000001
 43
0.00000001
 40
0.0
 40
0.0
 40
0.0
 40
0.0
 40
0.5000000000000011
 40
0.5000000000000011
 40
0.7500000000000006
 40
0.7500000000000006
 40
1.0
 40
1.0
 40
1.0
 40
1.0
 10
57.00000000000001
 20
-7.266081778456237
 30
0.0
 10
56.09342203915697
 20
-6.944173056108738
 30
0.0
 10
55.21072006872074
 20
-6.528560954107252
 30
0.0
 10
53.9300923351628
 20
-5.73471677884051
 30
0.0
 10
53.51112450834004
 20
-5.439066095921336
 30
0.0
 10
52.68917172830865
 20
-4.785038566740123
 30
0.0
 10
52.29388545853354
 20
-4.43297166581582
 30
0.0
 10
51.91366045488613
 20
-4.061493291382898
 30
0.0
  0
LINE
  5
B8
330
1F
100
AcDbEntity
  8
0
  6
Continuous
 62
     1
370
    25
100
AcDbLine
 10
57.00000000000001
 20
-9.751656983552595
 30
0.0
 11
57.00000000000001
 21
-7.266081778456237
 31
0.0
  0
SPLINE
  5
B9
330
1F
100
AcDbEntity
  8
0
  6
Continuous
 62
     1
370
    25
100
AcDbSpline
210
0.0
220
0.0
230
1.0
 70
    24
 71
     3
 72
    26
 73
    22
 74
     0
 42
0.000000001
 43
0.00000001
 40
0.0
 40
0.0
 40
0.0
 40
0.0
 40
0.1249999999999992
 40
0.1249999999999992
 40
0.2499999999999983
 40
0.2499999999999983
 40
0.3749999999999978
 40
0.3749999999999978
 40
0.4374999999999976
 40
0.4374999999999976
 40
0.4999999999999973
 40
0.4999999999999973
 40
0.6249999999999982
 40
0.6249999999999982
 40
0.6874999999999987
 40
0.6874999999999987
 40
0.749999999999999
 40
0.749999999999999
 40
0.8749999999999994
 40
0.8749999999999994
 40
1.0
 40
1.0
 40
1.0
 40
1.0
 10
55.83271017626379
 20
-1.317345133855593
 30
0.0
 10
55.83020769851935
 20
-1.319097387636446
 30
0.0
 10
55.81204654859471
 20
-1.331813961716268
 30
0.0
 10
55.73755979398528
 20
-1.383970148790568
 30
0.0
 10
55.68126099825707
 20
-1.423390989951557
 30
0.0
 10
55.52518159454611
 20
-1.532678964989247
 30
0.0
 10
55.42536619598228
 20
-1.602570459493053
 30
0.0
 10
55.23412995984449
 20
-1.736475513615585
 30
0.0
 10
55.16319990072807
 20
-1.786141275694864
 30
0.0
 10
55.00989850916904
 20
-1.893484065682534
 30
0.0
 10
54.92713427200341
 20
-1.951436208439792
 30
0.0
 10
54.65943366451603
 20
-2.138882191785763
 30
0.0
 10
54.45196269323239
 20
-2.284154929838261
 30
0.0
 10
54.11621854343883
 20
-2.519245514433509
 30
0.0
 10
53.99981603637431
 20
-2.600751427346592
 30
0.0
 10
53.75810007470058
 20
-2.770002765816149
 30
0.0
 10
53.63183651832356
 20
-2.858413459792537
 30
0.0
 10
53.24753710417322
 20
-3.127502806510179
 30
0.0
 10
52.98474701794851
 20
-3.31151040585147
 30
0.0
 10
52.44731779983979
 20
-3.687822395625346
 30
0.0
 10
52.17827675935455
 20
-3.876206960260889
 30
0.0
 10
51.91366045488611
 20
-4.061493291382884
 30
0.0
  0
SPLINE
  5
BA
330
1F
100
AcDbEntity
  8
0
  6
Continuous
 62
     1
370
    25
100
AcDbSpline
210
0.0
220
0.0
230
1.0
 70
     8
 71
     3
 72
    25
 73
    21
 74
     0
 42
0.000000001
 43
0.00000001
 40
0.0
 40
0.0
 40
0.0
 40
0.0
 40
0.0451809943967488
 40
0.1005842452170346
 40
0.1560043997423606
 40
0.2114728854414583
 40
0.2669135065591501
 40
0.3223199277308294
 40
0.3777295605226799
 40
0.4331797874513102
 40
0.4886414416610318
 40
0.5440560397733595
 40
0.5994601535307952
 40
0.6548912153752462
 40
0.7103629774752095
 40
0.7682904451879852
 40
0.8261964385069216
 40
0.8841038045913814
 40
0.9420353815888309
 40
1.0
 40
1.0
 40
1.0
 40
1.0
 10
46.95343387729027
 20
-8.443855139664441
 30
0.0
 10
46.42703573889759
 20
-8.656803064953001
 30
0.0
 10
45.25514122571064
 20
-9.130878649646744
 30
0.0
 10
43.43793525634405
 20
-9.621721522762819
 30
0.0
 10
41.50072616579873
 20
-9.945921615163986
 30
0.0
 10
39.56211238284014
 20
-10.03689260163444
 30
0.0
 10
37.62428106081187
 20
-9.899916465366603
 30
0.0
 10
35.68758826105391
 20
-9.536059703289464
 30
0.0
 10
33.75077639580885
 20
-8.954157082208262
 30
0.0
 10
31.81266857367404
 20
-8.167562374068105
 30
0.0
 10
29.8742408683326
 20
-7.194425844660887
 30
0.0
 10
27.93724180722001
 20
-6.056255641244581
 30
0.0
 10
26.00063111766819
 20
-4.779728604001837
 30
0.0
 10
24.06308015647127
 20
-3.393714861398287
 30
0.0
 10
22.09527029550616
 20
-1.908941496283802
 30
0.0
 10
20.09943851815137
 20
-0.3548364380394988
 30
0.0
 10
18.07539477005456
 20
1.231106990697313
 30
0.0
 10
16.05131386407497
 20
2.783671343310517
 30
0.0
 10
14.02624490489084
 20
4.276922765808426
 30
0.0
 10
12.67554332767188
 20
5.175945748520664
 30
0.0
 10
11.99999999999989
 20
5.625585393308437
 30
0.0
  0
SPLINE
  5
BB
330
1F
100
AcDbEntity
  8
0
  6
Continuous
 62
     1
370
    25
100
AcDbSpline
210
0.0
220
0.0
230
1.0
 70
     8
 71
     3
 72
    19
 73
    15
 74
     0
 42
0.000000001
 43
0.00000001
 40
0.0
 40
0.0
 40
0.0
 40
0.0
 40
0.0919434281723074
 40
0.1838344460824189
 40
0.2756870606630427
 40
0.3675374977641671
 40
0.4594219975304417
 40
0.5474112591529526
 40
0.6353359620649628
 40
0.7232179199443861
 40
0.8111165080985765
 40
0.8990897365942266
 40
0.9870448391463783
 40
1.0
 40
1.0
 40
1.0
 40
1.0
 10
12.00000000000001
 20
1.502493688352026
 30
0.0
 10
12.67554332773006
 20
0.9774189442546177
 30
0.0
 10
14.02624490506512
 20
-0.0724312370124747
 30
0.0
 10
16.05131386337884
 20
-1.65572772022845
 30
0.0
 10
18.07539477266414
 20
-3.194836599937508
 30
0.0
 10
20.09943850840771
 20
-4.654821850704033
 30
0.0
 10
22.09527033123418
 20
-5.979404105968102
 30
0.0
 10
24.06308002944983
 20
-7.14144181281709
 30
0.0
 10
26.00063159191797
 20
-8.124053211141627
 30
0.0
 10
27.93724003788574
 20
-8.919145472806
 30
0.0
 10
29.87424747550736
 20
-9.516164255974353
 30
0.0
 10
31.81264389431094
 20
-9.873471028623028
 30
0.0
 10
33.20033227861224
 20
-10.02610582954863
 30
0.0
 10
33.94143490604645
 20
-9.99022951586828
 30
0.0
 10
34.03657987369801
 20
-9.98562360761993
 30
0.0
  0
SPLINE
  5
BC
330
1F
100
AcDbEntity
  8
0
  6
Continuous
 62
     1
370
    25
100
AcDbSpline
210
0.0
220
0.0
230
1.0
 70
     8
 71
     3
 72
    15
 73
    11
 74
     0
 42
0.000000001
 43
0.00000001
 40
0.0
 40
0.0
 40
0.0
 40
0.0
 40
0.0567170382978197
 40
0.1872587974956789
 40
0.3178964069763502
 40
0.4543172744373247
 40
0.5906875690776423
 40
0.7270610966206037
 40
0.8634916415662328
 40
1.0
 40
1.0
 40
1.0
 40
1.0
 10
26.84254878588367
 20
-8.437738329499986
 30
0.0
 10
26.56200296889386
 20
-8.560102362574892
 30
0.0
 10
25.63574387799957
 20
-8.964103389039083
 30
0.0
 10
24.06307538522228
 20
-9.44011562179006
 30
0.0
 10
22.09527163754133
 20
-9.858892937118858
 30
0.0
 10
20.0994381521542
 20
-10.03482088376121
 30
0.0
 10
18.07539486807524
 20
-9.966899164178601
 30
0.0
 10
16.05131383792416
 20
-9.645256464724365
 30
0.0
 10
14.02624491143404
 20
-9.097700717407644
 30
0.0
 10
12.67554332985336
 20
-8.544335861359619
 30
0.0
 10
11.99999999999989
 20
-8.267574552587703
 30
0.0
  0
LINE
  5
BD
330
1F
100
AcDbEntity
  8
0
  6
Continuous
 62
     1
370
    25
100
AcDbLine
 10
12.00000000000001
 20
-9.886481311187568
 30
0.0
 11
13.93167326004246
 21
-9.99442317619178
 31
0.0
  0
SPLINE
  5
BE
330
1F
100
AcDbEntity
  8
0
  6
Continuous
 62
     1
370
    25
100
AcDbSpline
210
0.0
220
0.0
230
1.0
 70
     8
 71
     3
 72
    12
 73
     8
 74
     0
 42
0.000000001
 43
0.00000001
 40
0.0
 40
0.0
 40
0.0
 40
0.0
 40
0.0576565446969105
 40
0.2932764577637666
 40
0.5289533497966226
 40
0.7645117400906813
 40
1.0
 40
1.0
 40
1.0
 40
1.0
 10
46.95343387729025
 20
8.44385513966448
 30
0.0
 10
47.12406574036136
 20
8.521014396083183
 30
0.0
 10
47.9920037801136
 20
8.913493576462784
 30
0.0
 10
49.55771375582976
 20
9.397097908063444
 30
0.0
 10
51.65024929715815
 20
9.854602626714055
 30
0.0
 10
53.74184857482484
 20
10.05079234205576
 30
0.0
 10
55.13582548849156
 20
9.958826441144963
 30
0.0
 10
55.83271017626379
 20
9.91285033672489
 30
0.0
  0
SPLINE
  5
BF
330
1F
100
AcDbEntity
  8
0
  6
Continuous
 62
     1
370
    25
100
AcDbSpline
210
0.0
220
0.0
230
1.0
 70
     8
 71
     3
 72
    16
 73
    12
 74
     0
 42
0.000000001
 43
0.00000001
 40
0.0
 40
0.0
 40
0.0
 40
0.0
 40
0.1781000583347111
 40
0.3260112301694157
 40
0.4787027201920179
 40
0.5779036188344364
 40
0.6797812342872057
 40
0.779074562500435
 40
0.8816086268628813
 40
0.9758516300409964
 40
1.0
 40
1.0
 40
1.0
 40
1.0
 10
55.8327101762638
 20
9.91285033672489
 30
0.0
 10
55.81739715639431
 20
9.527424816115575
 30
0.0
 10
55.78936675319326
 20
8.821905405917597
 30
0.0
 10
55.58317204960898
 20
7.811993045478144
 30
0.0
 10
55.29314741316057
 20
7.016922535843022
 30
0.0
 10
54.9332130841587
 20
6.387026523419564
 30
0.0
 10
54.5591605708237
 20
5.921061301528299
 30
0.0
 10
54.11892362295507
 20
5.536598582120979
 30
0.0
 10
53.64086794926682
 20
5.269713689304975
 30
0.0
 10
53.26404720687853
 20
5.125460522419133
 30
0.0
 10
53.05537468409679
 20
5.098958931213134
 30
0.0
 10
53.01281160583452
 20
5.09355338339333
 30
0.0
  0
SPLINE
  5
C0
330
1F
100
AcDbEntity
  8
0
  6
Continuous
 62
     1
370
    25
100
AcDbSpline
210
0.0
220
0.0
230
1.0
 70
     8
 71
     3
 72
     9
 73
     5
 74
     0
 42
0.000000001
 43
0.00000001
 40
0.0
 40
0.0
 40
0.0
 40
0.0
 40
0.6352556354748379
 40
1.0
 40
1.0
 40
1.0
 40
1.0
 10
57.00000000000001
 20
2.462652369969
 30
0.0
 10
56.66480508964077
 20
2.667338514307052
 30
0.0
 10
56.13715150950575
 20
2.989549184953137
 30
0.0
 10
55.62074413915503
 20
3.278272800798011
 30
0.0
 10
55.43238746102034
 20
3.383583112582756
 30
0.0
  0
LINE
  5
C1
330
1F
100
AcDbEntity
  8
0
  6
Continuous
 62
     1
370
    25
100
AcDbLine
 10
57.00000000000001
 20
2.22225195017544
 30
0.0
 11
57.00000000000001
 21
2.462652369969
 31
0.0
  0
LINE
  5
C2
330
1F
100
AcDbEntity
  8
0
  6
Continuous
 62
     1
370
    25
100
AcDbLine
 10
57.00000000000001
 20
-0.4999999999999772
 30
0.0
 11
57.00000000000001
 21
-7.266081778456235
 31
0.0
  0
ELLIPSE
  5
C3
330
1F
100
AcDbEntity
  8
0
  6
Continuous
 62
     1
370
    25
100
AcDbEllipse
 10
57.71407400337105
 20
0.00000000000002
 30
0.0
 11
14.28148006742111
 21
-1.070193692007660E-16
 31
0.0
210
0.0
220
0.0
230
1.0
 40
0.7002075382097117
 41
1.620817183600666
 42
1.702914866507949
  0
LINE
  5
C4
330
1F
100
AcDbEntity
  8
0
  6
Continuous
 62
     1
370
    25
100
AcDbLine
 10
57.00000000000001
 20
9.987492177719119
 30
0.0
 11
57.00000000000001
 21
10.00000000000003
 31
0.0
  0
LINE
  5
C5
330
1F
100
AcDbEntity
  8
0
  6
Continuous
 62
     1
370
    25
100
AcDbLine
 10
57.00000000000001
 20
2.462652369969
 30
0.0
 11
57.00000000000001
 21
9.987492177719119
 31
0.0
  0
LINE
  5
C6
330
1F
100
AcDbEntity
  8
중심선
100
AcDbLine
 10
-46.0
 20
0.0000000000000161
 30
0.0
 11
60.00000000000001
 21
0.0000000000000291
 31
0.0
  0
CIRCLE
  5
C7
330
1F
100
AcDbEntity
  8
해칭선
100
AcDbCircle
 10
-0.0078785966185196
 20
-0.0000000000000043
 30
0.0
 40
3.000000000000001
  0
INSERT
  5
C8
330
1F
100
AcDbEntity
  8
0
  6
Continuous
 62
     7
100
AcDbBlockReference
 66
     1
  2
블럭10
 10
-7.448147820842457
 20
-52.04717430164393
 30
0.0
  0
ATTRIB
  5
C9
330
C8
100
AcDbEntity
  8
FORMAT
 62
     2
100
AcDbText
 10
-20.40808701570023
 20
-49.97180738881174
 30
0.0
 40
4.233333333333333
  1
SEME71200E [ 4 FLUTE ]
 41
0.75
  7
SLDTEXTSTYLE0
 11
-20.40808701570023
 21
-52.08847405547841
 31
0.0
100
AcDbAttribute
  2
AUTOATTR0
 70
     0
 74
     1
  0
SEQEND
  5
CA
330
C8
100
AcDbEntity
  8
0
  6
Continuous
 62
     7
  0
HATCH
  5
CB
330
1F
100
AcDbEntity
  8
중심선
100
AcDbHatch
 10
0.0
 20
0.0
 30
0.0
210
0.0
220
0.0
230
1.0
  2
SOLID
 70
     1
 71
     0
 91
        1
 92
        0
 93
        4
 72
     1
 10
-1.733238516461622
 20
-35.8
 11
-5.179513760298904
 21
-35.8
 72
     1
 10
-5.179513760298904
 20
-35.8
 11
-7.307743619502927
 21
-38.33632558057262
 72
     1
 10
-7.307743619502927
 20
-38.33632558057262
 11
-3.861435290552495
 21
-38.33628615127013
 72
     1
 10
-3.861435290552495
 20
-38.33628615127013
 11
-1.733238516461622
 21
-35.8
 97
        0
 75
     0
 76
     1
 98
        1
 10
0.0
 20
0.0
  0
HATCH
  5
CC
330
1F
100
AcDbEntity
  8
중심선
100
AcDbHatch
 10
0.0
 20
0.0
 30
0.0
210
0.0
220
0.0
230
1.0
  2
SOLID
 70
     1
 71
     0
 91
        1
 92
        0
 93
        4
 72
     1
 10
3.279525474574357
 20
-35.79999999999997
 11
-0.1667497692629247
 21
-35.8
 72
     1
 10
-0.166749769262925
 20
-35.8
 11
-4.697887777620341
 21
-41.20000000000002
 72
     1
 10
-4.697887777620341
 20
-41.20000000000002
 11
-1.251612533783058
 21
-41.20000000000002
 72
     1
 10
-1.251612533783059
 20
-41.20000000000002
 11
3.279525474574357
 21
-35.79999999999997
 97
        0
 75
     0
 76
     1
 98
        1
 10
0.0
 20
0.0
  0
HATCH
  5
CD
330
1F
100
AcDbEntity
  8
중심선
100
AcDbHatch
 10
0.0
 20
0.0
 30
0.0
210
0.0
220
0.0
230
1.0
  2
SOLID
 70
     1
 71
     0
 91
        1
 92
        0
 93
        4
 72
     1
 10
8.292289465610253
 20
-35.8
 11
4.846014221773165
 21
-35.79999999999997
 72
     1
 10
4.846014221773165
 20
-35.79999999999997
 11
-2.20242268011614
 21
-44.20000000000002
 72
     1
 10
-2.20242268011614
 20
-44.20000000000002
 11
1.243852563721143
 21
-44.20000000000002
 72
     1
 10
1.243852563721143
 20
-44.20000000000002
 11
8.292289465610253
 21
-35.8
 97
        0
 75
     0
 76
     1
 98
        1
 10
0.0
 20
0.0
  0
HATCH
  5
CE
330
1F
100
AcDbEntity
  8
중심선
100
AcDbHatch
 10
0.0
 20
0.0
 30
0.0
210
0.0
220
0.0
230
1.0
  2
SOLID
 70
     1
 71
     0
 91
        1
 92
        0
 93
        6
 72
     3
 10
13.09217989662242
 20
-40.00000000005127
 11
3.960054785062284
 21
1.540850780301639E-10
 40
0.3939339440162633
 50
17.09539180608433
 51
320.0019657685081
 73
     0
 72
     1
 10
14.77517955232302
 20
-38.5878940046383
 11
17.08048142602409
 21
-36.65356729459035
 72
     3
 10
13.09217989656958
 20
-40.00000000000015
 11
6.600054785286829
 21
-1.249000902703301E-13
 40
0.6363583540795982
 50
39.99873849337411
 51
368.4976242363725
 73
     1
 72
     1
 10
19.51751238847019
 20
-39.03999999993002
 11
11.77224720340553
 21
-39.03999999993002
 72
     1
 10
11.77224720340553
 20
-39.03999999993002
 11
11.77222215895957
 21
-40.95999999992991
 72
     1
 10
11.77222215895957
 20
-40.95999999992991
 11
16.2136019284316
 21
-40.95999999992988
 97
        0
 75
     0
 76
     1
 98
        1
 10
0.0
 20
0.0
  0
DIMENSION
  5
CF
330
1F
100
AcDbEntity
  8
치수문자_일반주서
100
AcDbDimension
  2
_D
 10
70.72007033629784
 20
10.00000000000008
 30
0.0
 11
70.7200703362978
 21
21.50871836655423
 31
0.0
 70
   160
  1
%%c<>
 71
     2
 42
20.00000000000002
 52
-270.0
  3
SLDDIMSTYLE0
100
AcDbAlignedDimension
 13
56.99999999999999
 23
-9.99999999999999
 33
0.0
 14
56.99999999999999
 24
10.00000000000003
 34
0.0
 50
90.0000000000002
100
AcDbRotatedDimension
  0
DIMENSION
  5
DD
330
1F
100
AcDbEntity
  8
치수문자_일반주서
100
AcDbDimension
  2
_D_1
 10
57.00000000000001
 20
27.38913260158166
 30
0.0
 11
6.999999999999999
 21
27.38913260158166
 31
0.0
 70
   160
  1
<>
 71
     2
 42
100.0
  3
SLDDIMSTYLE1
100
AcDbAlignedDimension
 13
-43.0
 23
9.50000000000001
 33
0.0
 14
57.00000000000001
 24
10.00000000000003
 34
0.0
 50
-0.000000000000002
100
AcDbRotatedDimension
  0
DIMENSION
  5
E8
330
1F
100
AcDbEntity
  8
치수문자_일반주서
100
AcDbDimension
  2
_D_2
 10
-56.29744888062552
 20
-10.00000000000004
 30
0.0
 11
-56.29744888062562
 21
20.76024999999998
 31
0.0
 70
   160
  1
%%c<>
 71
     2
 42
20.00000000000002
 52
-270.0
  3
SLDDIMSTYLE2
100
AcDbAlignedDimension
 13
-42.49999999999999
 23
10.00000000000003
 33
0.0
 14
-42.49999999999999
 24
-9.99999999999999
 34
0.0
 50
90.0000000000002
100
AcDbRotatedDimension
  0
DIMENSION
  5
F6
330
1F
100
AcDbEntity
  8
치수문자_일반주서
100
AcDbDimension
  2
_D_3
 10
57.00000000000001
 20
20.83241273397636
 30
0.0
 11
34.5
 21
20.83241273397636
 31
0.0
 70
   160
  1
<>
 71
     2
 42
45.00000000000001
  3
SLDDIMSTYLE1
100
AcDbAlignedDimension
 13
12.0
 23
9.986494431388707
 33
0.0
 14
57.00000000000001
 24
10.00000000000003
 34
0.0
100
AcDbRotatedDimension
  0
INSERT
  5
106
330
1F
100
AcDbEntity
  8
해칭선
100
AcDbBlockReference
  2
SW_DOWELSYMBOL_0
 10
-0.0078785966185196
 20
-0.0000000000000043
 30
0.0
  0
LINE
  5
12C
330
1F
100
AcDbEntity
  8
0
  6
Continuous
 62
     4
370
    25
100
AcDbLine
 10
12.0
 20
9.986494431388671
 30
0.0
 11
12.0
 21
-9.98649443138867
 31
0.0
  0
ENDSEC
  0
SECTION
  2
OBJECTS
  0
DICTIONARY
  5
C
330
0
100
AcDbDictionary
281
     1
  3
ACAD_GROUP
350
D
  3
ACAD_IMAGE_VARS
350
12A
  3
ACAD_LAYOUT
350
1A
  3
ACAD_MLINESTYLE
350
17
  3
ACAD_PLOTSETTINGS
350
19
  3
ACAD_PLOTSTYLENAME
350
E
  3
ACAD_SCALELIST
350
47
  3
APPDATA
350
128
  3
DWGPROPS
350
13A
  0
DICTIONARY
  5
D
102
{ACAD_REACTORS
330
C
102
}
330
C
100
AcDbDictionary
281
     1
  0
RASTERVARIABLES
  5
12A
102
{ACAD_REACTORS
330
C
102
}
330
C
100
AcDbRasterVariables
 90
        0
 70
     1
 71
     1
 72
     1
  0
DICTIONARY
  5
1A
102
{ACAD_REACTORS
330
C
102
}
330
C
100
AcDbDictionary
281
     1
  3
Layout1
350
1E
  3
Layout2
350
26
  3
Model
350
22
  0
DICTIONARY
  5
17
102
{ACAD_REACTORS
330
C
102
}
330
C
100
AcDbDictionary
281
     1
  3
Standard
350
18
  0
DICTIONARY
  5
19
102
{ACAD_REACTORS
330
C
102
}
330
C
100
AcDbDictionary
281
     1
  0
ACDBDICTIONARYWDFLT
  5
E
102
{ACAD_REACTORS
330
C
102
}
330
C
100
AcDbDictionary
281
     1
  3
Normal
350
F
100
AcDbDictionaryWithDefault
340
F
  0
DICTIONARY
  5
47
102
{ACAD_REACTORS
330
C
102
}
330
C
100
AcDbDictionary
281
     1
  3
A0
350
48
  3
A1
350
49
  3
A2
350
4A
  3
A3
350
4B
  3
A4
350
4C
  3
A5
350
4D
  3
A6
350
4E
  3
A7
350
4F
  3
A8
350
50
  3
A9
350
51
  3
B0
350
52
  3
B1
350
53
  3
B2
350
54
  3
B3
350
55
  3
B4
350
56
  3
B5
350
57
  3
B6
350
58
  3
B7
350
59
  3
B8
350
5A
  3
B9
350
5B
  3
C0
350
5C
  3
C1
350
5D
  3
C2
350
5E
  3
C3
350
5F
  3
C4
350
60
  3
C5
350
61
  3
C6
350
62
  3
C7
350
63
  3
C8
350
64
  3
C9
350
65
  3
D0
350
66
  3
D1
350
67
  3
D2
350
68
  0
DICTIONARY
  5
128
102
{ACAD_REACTORS
330
C
102
}
330
C
100
AcDbDictionary
281
     1
  0
XRECORD
  5
13A
102
{ACAD_REACTORS
330
C
102
}
330
C
100
AcDbXrecord
280
     1
  1
DWGPROPS COOKIE
  2

  3

  4

  6

  7

  8
12014102
  9

300
=
301
=
302
=
303
=
304
=
305
=
306
=
307
=
308
=
309
=
 40
0.0
 41
2458260.121381018
 42
2458266.404893565
  1

 90
        0
  0
LAYOUT
  5
1E
102
{ACAD_REACTORS
330
1A
102
}
330
1A
100
AcDbPlotSettings
  1

  2
none_device
  4

  6

 40
0.0
 41
0.0
 42
0.0
 43
0.0
 44
0.0
 45
0.0
 46
0.0
 47
0.0
 48
0.0
 49
0.0
140
0.0
141
0.0
142
1.0
143
1.0
 70
   688
 72
     1
 73
     0
 74
     5
  7

 75
    16
147
1.0
148
0.0
149
0.0
100
AcDbLayout
  1
Layout1
 70
     1
 71
     1
 10
0.0
 20
0.0
 11
420.0
 21
297.0
 12
0.0
 22
0.0
 32
0.0
 14
1.000000000000000E+20
 24
1.000000000000000E+20
 34
1.000000000000000E+20
 15
-1.000000000000000E+20
 25
-1.000000000000000E+20
 35
-1.000000000000000E+20
146
0.0
 13
0.0
 23
0.0
 33
0.0
 16
1.0
 26
0.0
 36
0.0
 17
0.0
 27
1.0
 37
0.0
 76
     0
330
1B
  0
LAYOUT
  5
26
102
{ACAD_REACTORS
330
1A
102
}
330
1A
100
AcDbPlotSettings
  1

  2
none_device
  4

  6

 40
0.0
 41
0.0
 42
0.0
 43
0.0
 44
0.0
 45
0.0
 46
0.0
 47
0.0
 48
0.0
 49
0.0
140
0.0
141
0.0
142
1.0
143
1.0
 70
   688
 72
     1
 73
     0
 74
     5
  7

 75
    16
147
1.0
148
0.0
149
0.0
100
AcDbLayout
  1
Layout2
 70
     1
 71
     2
 10
0.0
 20
0.0
 11
0.0
 21
0.0
 12
0.0
 22
0.0
 32
0.0
 14
0.0
 24
0.0
 34
0.0
 15
0.0
 25
0.0
 35
0.0
146
0.0
 13
0.0
 23
0.0
 33
0.0
 16
1.0
 26
0.0
 36
0.0
 17
0.0
 27
1.0
 37
0.0
 76
     0
330
23
  0
LAYOUT
  5
22
102
{ACAD_REACTORS
330
1A
102
}
330
1A
100
AcDbPlotSettings
  1

  2
none_device
  4
ANSI_A_(11.00_x_8.50_Inches)
  6

 40
6.35
 41
19.05
 42
6.35000508
 43
19.05000254
 44
279.4
 45
215.9
 46
121.3194754074848
 47
108.1948624775287
 48
0.0
 49
0.0
140
0.0
141
0.0
142
0.0807487851913164
143
1.0
 70
  1696
 72
     0
 73
     0
 74
     0
  7

 75
     0
147
0.0235690232323232
148
0.0
149
0.0
100
AcDbLayout
  1
Model
 70
     1
 71
     0
 10
0.0
 20
0.0
 11
420.0
 21
297.0
 12
0.0
 22
0.0
 32
0.0
 14
-60.67244888062564
 24
-49.97180738881174
 34
0.0
 15
71.27040366963124
 25
31.76413260158166
 35
0.0
146
0.0
 13
0.0
 23
0.0
 33
0.0
 16
1.0
 26
0.0
 36
0.0
 17
0.0
 27
1.0
 37
0.0
 76
     0
330
1F
331
29
  0
MLINESTYLE
  5
18
102
{ACAD_REACTORS
330
17
102
}
330
17
100
AcDbMlineStyle
  2
Standard
 70
     0
  3

 62
   256
 51
90.0
 52
90.0
 71
     2
 49
0.5
 62
   256
  6
BYLAYER
 49
-0.5
 62
   256
  6
BYLAYER
  0
ACDBPLACEHOLDER
  5
F
102
{ACAD_REACTORS
330
E
102
}
330
E
  0
SCALE
  5
48
102
{ACAD_REACTORS
330
47
102
}
330
47
100
AcDbScale
 70
     0
300
1:1
140
1.0
141
1.0
290
     1
  0
SCALE
  5
49
102
{ACAD_REACTORS
330
47
102
}
330
47
100
AcDbScale
 70
     0
300
1:2
140
1.0
141
2.0
290
     0
  0
SCALE
  5
4A
102
{ACAD_REACTORS
330
47
102
}
330
47
100
AcDbScale
 70
     0
300
1:4
140
1.0
141
4.0
290
     0
  0
SCALE
  5
4B
102
{ACAD_REACTORS
330
47
102
}
330
47
100
AcDbScale
 70
     0
300
1:5
140
1.0
141
5.0
290
     0
  0
SCALE
  5
4C
102
{ACAD_REACTORS
330
47
102
}
330
47
100
AcDbScale
 70
     0
300
1:8
140
1.0
141
8.0
290
     0
  0
SCALE
  5
4D
102
{ACAD_REACTORS
330
47
102
}
330
47
100
AcDbScale
 70
     0
300
1:10
140
1.0
141
10.0
290
     0
  0
SCALE
  5
4E
102
{ACAD_REACTORS
330
47
102
}
330
47
100
AcDbScale
 70
     0
300
1:16
140
1.0
141
16.0
290
     0
  0
SCALE
  5
4F
102
{ACAD_REACTORS
330
47
102
}
330
47
100
AcDbScale
 70
     0
300
1:20
140
1.0
141
20.0
290
     0
  0
SCALE
  5
50
102
{ACAD_REACTORS
330
47
102
}
330
47
100
AcDbScale
 70
     0
300
1:30
140
1.0
141
30.0
290
     0
  0
SCALE
  5
51
102
{ACAD_REACTORS
330
47
102
}
330
47
100
AcDbScale
 70
     0
300
1:40
140
1.0
141
40.0
290
     0
  0
SCALE
  5
52
102
{ACAD_REACTORS
330
47
102
}
330
47
100
AcDbScale
 70
     0
300
1:50
140
1.0
141
50.0
290
     0
  0
SCALE
  5
53
102
{ACAD_REACTORS
330
47
102
}
330
47
100
AcDbScale
 70
     0
300
1:100
140
1.0
141
100.0
290
     0
  0
SCALE
  5
54
102
{ACAD_REACTORS
330
47
102
}
330
47
100
AcDbScale
 70
     0
300
2:1
140
2.0
141
1.0
290
     0
  0
SCALE
  5
55
102
{ACAD_REACTORS
330
47
102
}
330
47
100
AcDbScale
 70
     0
300
4:1
140
4.0
141
1.0
290
     0
  0
SCALE
  5
56
102
{ACAD_REACTORS
330
47
102
}
330
47
100
AcDbScale
 70
     0
300
8:1
140
8.0
141
1.0
290
     0
  0
SCALE
  5
57
102
{ACAD_REACTORS
330
47
102
}
330
47
100
AcDbScale
 70
     0
300
10:1
140
10.0
141
1.0
290
     0
  0
SCALE
  5
58
102
{ACAD_REACTORS
330
47
102
}
330
47
100
AcDbScale
 70
     0
300
100:1
140
100.0
141
1.0
290
     0
  0
SCALE
  5
59
102
{ACAD_REACTORS
330
47
102
}
330
47
100
AcDbScale
 70
     0
300
1/128" = 1'-0"
140
0.0078125
141
12.0
290
     0
  0
SCALE
  5
5A
102
{ACAD_REACTORS
330
47
102
}
330
47
100
AcDbScale
 70
     0
300
1/64" = 1'-0"
140
0.015625
141
12.0
290
     0
  0
SCALE
  5
5B
102
{ACAD_REACTORS
330
47
102
}
330
47
100
AcDbScale
 70
     0
300
1/32" = 1'-0"
140
0.03125
141
12.0
290
     0
  0
SCALE
  5
5C
102
{ACAD_REACTORS
330
47
102
}
330
47
100
AcDbScale
 70
     0
300
1/16" = 1'-0"
140
0.0625
141
12.0
290
     0
  0
SCALE
  5
5D
102
{ACAD_REACTORS
330
47
102
}
330
47
100
AcDbScale
 70
     0
300
3/32" = 1'-0"
140
0.09375
141
12.0
290
     0
  0
SCALE
  5
5E
102
{ACAD_REACTORS
330
47
102
}
330
47
100
AcDbScale
 70
     0
300
1/8" = 1'-0"
140
0.125
141
12.0
290
     0
  0
SCALE
  5
5F
102
{ACAD_REACTORS
330
47
102
}
330
47
100
AcDbScale
 70
     0
300
3/16" = 1'-0"
140
0.1875
141
12.0
290
     0
  0
SCALE
  5
60
102
{ACAD_REACTORS
330
47
102
}
330
47
100
AcDbScale
 70
     0
300
1/4" = 1'-0"
140
0.25
141
12.0
290
     0
  0
SCALE
  5
61
102
{ACAD_REACTORS
330
47
102
}
330
47
100
AcDbScale
 70
     0
300
3/8" = 1'-0"
140
0.375
141
12.0
290
     0
  0
SCALE
  5
62
102
{ACAD_REACTORS
330
47
102
}
330
47
100
AcDbScale
 70
     0
300
1/2" = 1'-0"
140
0.5
141
12.0
290
     0
  0
SCALE
  5
63
102
{ACAD_REACTORS
330
47
102
}
330
47
100
AcDbScale
 70
     0
300
3/4" = 1'-0"
140
0.75
141
12.0
290
     0
  0
SCALE
  5
64
102
{ACAD_REACTORS
330
47
102
}
330
47
100
AcDbScale
 70
     0
300
1" = 1'-0"
140
1.0
141
12.0
290
     0
  0
SCALE
  5
65
102
{ACAD_REACTORS
330
47
102
}
330
47
100
AcDbScale
 70
     0
300
1-1/2" = 1'-0"
140
1.5
141
12.0
290
     0
  0
SCALE
  5
66
102
{ACAD_REACTORS
330
47
102
}
330
47
100
AcDbScale
 70
     0
300
3" = 1'-0"
140
3.0
141
12.0
290
     0
  0
SCALE
  5
67
102
{ACAD_REACTORS
330
47
102
}
330
47
100
AcDbScale
 70
     0
300
6" = 1'-0"
140
6.0
141
12.0
290
     0
  0
SCALE
  5
68
102
{ACAD_REACTORS
330
47
102
}
330
47
100
AcDbScale
 70
     0
300
1'-0" = 1'-0"
140
12.0
141
12.0
290
     0
  0
ENDSEC
  0
EOF
