  0
SECTION
  2
HEADER
  9
$ACADVER
  1
AC1015
  9
$ACADMAINTVER
 70
     6
  9
$DWGCODEPAGE
  3
ANSI_949
  9
$INSBASE
 10
0.0
 20
0.0
 30
0.0
  9
$EXTMIN
 10
-74.70438328342046
 20
-49.97180738881174
 30
0.0
  9
$EXTMAX
 10
57.71614176306876
 20
29.76413260158164
 30
0.0
  9
$LIMMIN
 10
0.0
 20
0.0
  9
$LIMMAX
 10
420.0
 20
297.0
  9
$ORTHOMODE
 70
     0
  9
$REGENMODE
 70
     1
  9
$FILLMODE
 70
     1
  9
$QTEXTMODE
 70
     0
  9
$MIRRTEXT
 70
     1
  9
$LTSCALE
 40
1.0
  9
$ATTMODE
 70
     1
  9
$TEXTSIZE
 40
3.5
  9
$TRACEWID
 40
1.0
  9
$TEXTSTYLE
  7
Standard
  9
$CLAYER
  8
0
  9
$CELTYPE
  6
ByLayer
  9
$CECOLOR
 62
   256
  9
$CELTSCALE
 40
1.0
  9
$DISPSILH
 70
     0
  9
$DIMSCALE
 40
1.0
  9
$DIMASZ
 40
3.302
  9
$DIMEXO
 40
1.0
  9
$DIMDLI
 40
3.75
  9
$DIMRND
 40
0.0
  9
$DIMDLE
 40
0.0
  9
$DIMEXE
 40
1.0
  9
$DIMTP
 40
0.0
  9
$DIMTM
 40
0.0
  9
$DIMTXT
 40
3.5
  9
$DIMCEN
 40
2.5
  9
$DIMTSZ
 40
0.0
  9
$DIMTOL
 70
     0
  9
$DIMLIM
 70
     0
  9
$DIMTIH
 70
     1
  9
$DIMTOH
 70
     1
  9
$DIMSE1
 70
     0
  9
$DIMSE2
 70
     0
  9
$DIMTAD
 70
     1
  9
$DIMZIN
 70
     0
  9
$DIMBLK
  1

  9
$DIMASO
 70
     1
  9
$DIMSHO
 70
     1
  9
$DIMPOST
  1

  9
$DIMAPOST
  1

  9
$DIMALT
 70
     0
  9
$DIMALTD
 70
     3
  9
$DIMALTF
 40
0.0393700787401575
  9
$DIMLFAC
 40
1.0
  9
$DIMTOFL
 70
     1
  9
$DIMTVP
 40
0.0
  9
$DIMTIX
 70
     0
  9
$DIMSOXD
 70
     0
  9
$DIMSAH
 70
     0
  9
$DIMBLK1
  1

  9
$DIMBLK2
  1

  9
$DIMSTYLE
  2
ISO-25
  9
$DIMCLRD
 70
     0
  9
$DIMCLRE
 70
     0
  9
$DIMCLRT
 70
     0
  9
$DIMTFAC
 40
1.0
  9
$DIMGAP
 40
1.524
  9
$DIMJUST
 70
     0
  9
$DIMSD1
 70
     0
  9
$DIMSD2
 70
     0
  9
$DIMTOLJ
 70
     0
  9
$DIMTZIN
 70
     0
  9
$DIMALTZ
 70
     0
  9
$DIMALTTZ
 70
     0
  9
$DIMUPT
 70
     0
  9
$DIMDEC
 70
     2
  9
$DIMTDEC
 70
     2
  9
$DIMALTU
 70
     2
  9
$DIMALTTD
 70
     3
  9
$DIMTXSTY
  7
Standard
  9
$DIMAUNIT
 70
     0
  9
$DIMADEC
 70
     2
  9
$DIMALTRND
 40
0.0
  9
$DIMAZIN
 70
     0
  9
$DIMDSEP
 70
    44
  9
$DIMATFIT
 70
     3
  9
$DIMFRAC
 70
     0
  9
$DIMLDRBLK
  1

  9
$DIMLUNIT
 70
     2
  9
$DIMLWD
 70
    -2
  9
$DIMLWE
 70
    -2
  9
$DIMTMOVE
 70
     0
  9
$LUNITS
 70
     2
  9
$LUPREC
 70
     2
  9
$SKETCHINC
 40
1.0
  9
$FILLETRAD
 40
10.0
  9
$AUNITS
 70
     0
  9
$AUPREC
 70
     2
  9
$MENU
  1
.
  9
$ELEVATION
 40
0.0
  9
$PELEVATION
 40
0.0
  9
$THICKNESS
 40
0.0
  9
$LIMCHECK
 70
     0
  9
$CHAMFERA
 40
0.0
  9
$CHAMFERB
 40
0.0
  9
$CHAMFERC
 40
0.0
  9
$CHAMFERD
 40
0.0
  9
$SKPOLY
 70
     0
  9
$TDCREATE
 40
2458260.495814063
  9
$TDUCREATE
 40
2458260.120814063
  9
$TDUPDATE
 40
2459699.743737997
  9
$TDUUPDATE
 40
2459699.368737997
  9
$TDINDWG
 40
0.0015505093
  9
$TDUSRTIMER
 40
0.0003835301
  9
$USRTIMER
 70
     1
  9
$ANGBASE
 50
0.0
  9
$ANGDIR
 70
     0
  9
$PDMODE
 70
     0
  9
$PDSIZE
 40
-1.0
  9
$PLINEWID
 40
0.0
  9
$SPLFRAME
 70
     0
  9
$SPLINETYPE
 70
     6
  9
$SPLINESEGS
 70
     8
  9
$HANDSEED
  5
15C
  9
$SURFTAB1
 70
     6
  9
$SURFTAB2
 70
     6
  9
$SURFTYPE
 70
     6
  9
$SURFU
 70
     6
  9
$SURFV
 70
     6
  9
$UCSBASE
  2

  9
$UCSNAME
  2

  9
$UCSORG
 10
0.0
 20
0.0
 30
0.0
  9
$UCSXDIR
 10
1.0
 20
0.0
 30
0.0
  9
$UCSYDIR
 10
0.0
 20
1.0
 30
0.0
  9
$UCSORTHOREF
  2

  9
$UCSORTHOVIEW
 70
     0
  9
$UCSORGTOP
 10
0.0
 20
0.0
 30
0.0
  9
$UCSORGBOTTOM
 10
0.0
 20
0.0
 30
0.0
  9
$UCSORGLEFT
 10
0.0
 20
0.0
 30
0.0
  9
$UCSORGRIGHT
 10
0.0
 20
0.0
 30
0.0
  9
$UCSORGFRONT
 10
0.0
 20
0.0
 30
0.0
  9
$UCSORGBACK
 10
0.0
 20
0.0
 30
0.0
  9
$PUCSBASE
  2

  9
$PUCSNAME
  2

  9
$PUCSORG
 10
0.0
 20
0.0
 30
0.0
  9
$PUCSXDIR
 10
1.0
 20
0.0
 30
0.0
  9
$PUCSYDIR
 10
0.0
 20
1.0
 30
0.0
  9
$PUCSORTHOREF
  2

  9
$PUCSORTHOVIEW
 70
     0
  9
$PUCSORGTOP
 10
0.0
 20
0.0
 30
0.0
  9
$PUCSORGBOTTOM
 10
0.0
 20
0.0
 30
0.0
  9
$PUCSORGLEFT
 10
0.0
 20
0.0
 30
0.0
  9
$PUCSORGRIGHT
 10
0.0
 20
0.0
 30
0.0
  9
$PUCSORGFRONT
 10
0.0
 20
0.0
 30
0.0
  9
$PUCSORGBACK
 10
0.0
 20
0.0
 30
0.0
  9
$USERI1
 70
     0
  9
$USERI2
 70
     0
  9
$USERI3
 70
     0
  9
$USERI4
 70
     0
  9
$USERI5
 70
     0
  9
$USERR1
 40
0.0
  9
$USERR2
 40
0.0
  9
$USERR3
 40
0.0
  9
$USERR4
 40
0.0
  9
$USERR5
 40
0.0
  9
$WORLDVIEW
 70
     1
  9
$SHADEDGE
 70
     3
  9
$SHADEDIF
 70
    70
  9
$TILEMODE
 70
     1
  9
$MAXACTVP
 70
    64
  9
$PINSBASE
 10
0.0
 20
0.0
 30
0.0
  9
$PLIMCHECK
 70
     0
  9
$PEXTMIN
 10
1.000000000000000E+20
 20
1.000000000000000E+20
 30
1.000000000000000E+20
  9
$PEXTMAX
 10
-1.000000000000000E+20
 20
-1.000000000000000E+20
 30
-1.000000000000000E+20
  9
$PLIMMIN
 10
0.0
 20
0.0
  9
$PLIMMAX
 10
0.0
 20
0.0
  9
$UNITMODE
 70
     0
  9
$VISRETAIN
 70
     1
  9
$PLINEGEN
 70
     0
  9
$PSLTSCALE
 70
     1
  9
$TREEDEPTH
 70
  3020
  9
$CMLSTYLE
  2
Standard
  9
$CMLJUST
 70
     0
  9
$CMLSCALE
 40
20.0
  9
$PROXYGRAPHICS
 70
     1
  9
$MEASUREMENT
 70
     1
  9
$CELWEIGHT
370
    -1
  9
$ENDCAPS
280
     0
  9
$JOINSTYLE
280
     0
  9
$LWDISPLAY
290
     1
  9
$INSUNITS
 70
     4
  9
$HYPERLINKBASE
  1

  9
$STYLESHEET
  1

  9
$XEDIT
290
     1
  9
$CEPSNTYPE
380
     0
  9
$PSTYLEMODE
290
     1
  9
$FINGERPRINTGUID
  2
{559E6201-CF98-4D85-8C78-4BB9FBA8BAAC}
  9
$VERSIONGUID
  2
{FAEB1C32-E019-11D5-929B-00C0DF256EC4}
  9
$EXTNAMES
290
     1
  9
$PSVPSCALE
 40
0.0
  9
$OLESTARTUP
290
     0
  0
ENDSEC
  0
SECTION
  2
CLASSES
  0
CLASS
  1
ACDBDICTIONARYWDFLT
  2
AcDbDictionaryWithDefault
  3
ObjectDBX Classes
 90
        0
280
     0
281
     0
  0
CLASS
  1
VISUALSTYLE
  2
AcDbVisualStyle
  3
ObjectDBX Classes
 90
     4095
280
     0
281
     0
  0
CLASS
  1
MATERIAL
  2
AcDbMaterial
  3
ObjectDBX Classes
 90
     1153
280
     0
281
     0
  0
CLASS
  1
SCALE
  2
AcDbScale
  3
ObjectDBX Classes
 90
     1153
280
     0
281
     0
  0
CLASS
  1
TABLESTYLE
  2
AcDbTableStyle
  3
ObjectDBX Classes
 90
     4095
280
     0
281
     0
  0
CLASS
  1
MLEADERSTYLE
  2
AcDbMLeaderStyle
  3
ACDB_MLEADERSTYLE_CLASS
 90
     4095
280
     0
281
     0
  0
CLASS
  1
SUN
  2
AcDbSun
  3
SCENEOE
 90
     1153
280
     0
281
     0
  0
CLASS
  1
ACDBPLACEHOLDER
  2
AcDbPlaceHolder
  3
ObjectDBX Classes
 90
        0
280
     0
281
     0
  0
CLASS
  1
LAYOUT
  2
AcDbLayout
  3
ObjectDBX Classes
 90
        0
280
     0
281
     0
  0
CLASS
  1
RASTERVARIABLES
  2
AcDbRasterVariables
  3
ISM
 90
        0
280
     0
281
     0
  0
ENDSEC
  0
SECTION
  2
TABLES
  0
TABLE
  2
VPORT
  5
8
330
0
100
AcDbSymbolTable
 70
     1
  0
VPORT
  5
29
330
8
100
AcDbSymbolTableRecord
100
AcDbViewportTableRecord
  2
*Active
 70
     0
 10
0.0
 20
0.0
 11
1.0
 21
1.0
 12
-18.97996641134107
 22
-4.439737942154608
 13
0.0
 23
0.0
 14
10.0
 24
10.0
 15
10.0
 25
10.0
 16
0.0
 26
0.0
 36
1.0
 17
0.0
 27
0.0
 37
0.0
 40
101.6633234877515
 41
2.085714285714286
 42
50.0
 43
0.0
 44
0.0
 50
0.0
 51
0.0
 71
    16
 72
  2000
 73
     1
 74
     3
 75
     0
 76
     0
 77
     0
 78
     0
281
     0
 65
     1
110
0.0
120
0.0
130
0.0
111
1.0
121
0.0
131
0.0
112
0.0
122
1.0
132
0.0
 79
     0
146
0.0
  0
ENDTAB
  0
TABLE
  2
LTYPE
  5
5
330
0
100
AcDbSymbolTable
 70
     6
  0
LTYPE
  5
14
330
5
100
AcDbSymbolTableRecord
100
AcDbLinetypeTableRecord
  2
ByBlock
 70
     0
  3

 72
    65
 73
     0
 40
0.0
  0
LTYPE
  5
15
330
5
100
AcDbSymbolTableRecord
100
AcDbLinetypeTableRecord
  2
ByLayer
 70
     0
  3

 72
    65
 73
     0
 40
0.0
  0
LTYPE
  5
16
330
5
100
AcDbSymbolTableRecord
100
AcDbLinetypeTableRecord
  2
Continuous
 70
     0
  3
Solid line
 72
    65
 73
     0
 40
0.0
  0
LTYPE
  5
6E
330
5
100
AcDbSymbolTableRecord
100
AcDbLinetypeTableRecord
  2
HIDDEN
 70
     0
  3
Hidden __ __ __ __ __ __ __ __ __ __ __ __ __ __
 72
    65
 73
     2
 40
1.905
 49
1.27
 74
     0
 49
-0.635
 74
     0
  0
LTYPE
  5
6F
330
5
100
AcDbSymbolTableRecord
100
AcDbLinetypeTableRecord
  2
PHANTOM
 70
     0
  3
Phantom ______  __  __  ______  __  __  ______
 72
    65
 73
     6
 40
12.7
 49
6.35
 74
     0
 49
-1.27
 74
     0
 49
1.27
 74
     0
 49
-1.27
 74
     0
 49
1.27
 74
     0
 49
-1.27
 74
     0
  0
LTYPE
  5
70
330
5
100
AcDbSymbolTableRecord
100
AcDbLinetypeTableRecord
  2
CENTER
 70
     0
  3
Center ____ _ ____ _ ____ _ ____ _ ____ _ ____
 72
    65
 73
     4
 40
10.16
 49
6.35
 74
     0
 49
-1.27
 74
     0
 49
1.27
 74
     0
 49
-1.27
 74
     0
  0
LTYPE
  5
71
330
5
100
AcDbSymbolTableRecord
100
AcDbLinetypeTableRecord
  2
CENTERX2
 70
     0
  3
Center (2x) ________  __  ________  __  _____
 72
    65
 73
     4
 40
20.32
 49
12.7
 74
     0
 49
-2.54
 74
     0
 49
2.54
 74
     0
 49
-2.54
 74
     0
  0
LTYPE
  5
72
330
5
100
AcDbSymbolTableRecord
100
AcDbLinetypeTableRecord
  2
DOT2
 70
     0
  3
Dot (.5x) ........................................
 72
    65
 73
     2
 40
0.635
 49
0.0
 74
     0
 49
-0.635
 74
     0
  0
ENDTAB
  0
TABLE
  2
LAYER
  5
2
330
0
100
AcDbSymbolTable
 70
    17
  0
LAYER
  5
10
330
2
100
AcDbSymbolTableRecord
100
AcDbLayerTableRecord
  2
0
 70
     0
 62
     7
  6
Continuous
370
    -3
390
F
  0
LAYER
  5
73
330
2
100
AcDbSymbolTableRecord
100
AcDbLayerTableRecord
  2
FORMAT
 70
     0
 62
     2
  6
Continuous
370
    -3
390
F
  0
LAYER
  5
74
330
2
100
AcDbSymbolTableRecord
100
AcDbLayerTableRecord
  2
외형선
 70
     0
 62
   100
  6
Continuous
370
    35
390
F
  0
LAYER
  5
75
330
2
100
AcDbSymbolTableRecord
100
AcDbLayerTableRecord
  2
숨은선
 70
     0
 62
     2
  6
HIDDEN
370
    25
390
F
  0
LAYER
  5
76
330
2
100
AcDbSymbolTableRecord
100
AcDbLayerTableRecord
  2
중심선
 70
     0
 62
     1
  6
CENTERX2
370
    -3
390
F
  0
LAYER
  5
77
330
2
100
AcDbSymbolTableRecord
100
AcDbLayerTableRecord
  2
파단선
 70
     0
 62
     4
  6
Continuous
370
    -3
390
F
  0
LAYER
  5
78
330
2
100
AcDbSymbolTableRecord
100
AcDbLayerTableRecord
  2
해칭선
 70
     0
 62
   100
  6
Continuous
370
    -3
390
F
  0
LAYER
  5
79
330
2
100
AcDbSymbolTableRecord
100
AcDbLayerTableRecord
  2
가는실선
 70
     0
 62
     4
  6
Continuous
370
    -3
390
F
  0
LAYER
  5
7A
330
2
100
AcDbSymbolTableRecord
100
AcDbLayerTableRecord
  2
치수_보조선
 70
     0
 62
     4
  6
Continuous
370
    -3
390
F
  0
LAYER
  5
7B
330
2
100
AcDbSymbolTableRecord
100
AcDbLayerTableRecord
  2
치수문자_일반주서
 70
     0
 62
     7
  6
Continuous
370
    25
390
F
  0
LAYER
  5
7C
330
2
100
AcDbSymbolTableRecord
100
AcDbLayerTableRecord
  2
개별주서
 70
     0
 62
   100
  6
Continuous
370
    35
390
F
  0
LAYER
  5
7D
330
2
100
AcDbSymbolTableRecord
100
AcDbLayerTableRecord
  2
중간선
 70
     0
 62
     2
  6
Continuous
370
    25
390
F
  0
LAYER
  5
7E
330
2
100
AcDbSymbolTableRecord
100
AcDbLayerTableRecord
  2
윤곽선
 70
     0
 62
     3
  6
Continuous
370
    50
390
F
  0
LAYER
  5
7F
330
2
100
AcDbSymbolTableRecord
100
AcDbLayerTableRecord
  2
중심마크
 70
     0
 62
   100
  6
Continuous
370
    35
390
F
  0
LAYER
  5
80
330
2
100
AcDbSymbolTableRecord
100
AcDbLayerTableRecord
  2
가상선
 70
     0
 62
     4
  6
PHANTOM
370
    -3
390
F
  0
LAYER
  5
81
330
2
100
AcDbSymbolTableRecord
100
AcDbLayerTableRecord
  2
특수지정선
 70
     0
 62
     5
  6
CENTERX2
370
    70
390
F
  0
LAYER
  5
129
330
2
100
AcDbSymbolTableRecord
100
AcDbLayerTableRecord
  2
Defpoints
 70
     0
 62
     7
  6
Continuous
290
     0
370
    -3
390
F
  0
ENDTAB
  0
TABLE
  2
STYLE
  5
3
330
0
100
AcDbSymbolTable
 70
     2
  0
STYLE
  5
11
330
3
100
AcDbSymbolTableRecord
100
AcDbTextStyleTableRecord
  2
Standard
 70
     0
 40
0.0
 41
1.0
 50
0.0
 71
     0
 42
3.5
  3
txt
  4

  0
STYLE
  5
97
330
3
100
AcDbSymbolTableRecord
100
AcDbTextStyleTableRecord
  2
SLDTEXTSTYLE0
 70
     0
 40
0.0
 41
0.75
 50
0.0
 71
     0
 42
3.5
  3
TXT
  4

  0
ENDTAB
  0
TABLE
  2
VIEW
  5
6
330
0
100
AcDbSymbolTable
 70
     0
  0
ENDTAB
  0
TABLE
  2
UCS
  5
7
330
0
100
AcDbSymbolTable
 70
     0
  0
ENDTAB
  0
TABLE
  2
APPID
  5
9
330
0
100
AcDbSymbolTable
 70
     1
  0
APPID
  5
12
330
9
100
AcDbSymbolTableRecord
100
AcDbRegAppTableRecord
  2
ACAD
 70
     0
  0
ENDTAB
  0
TABLE
  2
DIMSTYLE
  5
A
330
0
100
AcDbSymbolTable
 70
     4
100
AcDbDimStyleTable
  0
DIMSTYLE
105
27
330
A
100
AcDbSymbolTableRecord
100
AcDbDimStyleTableRecord
  2
ISO-25
 70
     0
 41
2.5
 42
0.625
 43
3.75
 44
1.25
 73
     0
 74
     0
 77
     1
 78
     8
140
2.5
141
2.5
143
0.03937007874016
147
0.625
171
     3
172
     1
178
     0
271
     2
272
     2
274
     3
278
    44
283
     0
284
     8
340
11
  0
DIMSTYLE
105
CE
102
{ACAD_REACTORS
330
CD
102
}
330
A
100
AcDbSymbolTableRecord
100
AcDbDimStyleTableRecord
  2
SLDDIMSTYLE0
 70
     0
 41
3.302
 44
0.0
 45
0.000000001
 73
     0
 74
     0
 77
     1
 78
    12
 79
     3
140
3.5
147
0.875
172
     1
173
     1
178
     0
271
     1
272
     1
276
     2
284
    12
289
     0
340
97
  0
DIMSTYLE
105
DC
102
{ACAD_REACTORS
330
DB
330
F4
102
}
330
A
100
AcDbSymbolTableRecord
100
AcDbDimStyleTableRecord
  2
SLDDIMSTYLE1
 70
     0
 41
3.302
 44
0.0
 45
0.000000001
 73
     0
 74
     0
 77
     1
 78
    12
 79
     3
140
3.5
147
0.875
173
     1
178
     0
271
     2
272
     2
276
     2
284
    12
340
97
  0
DIMSTYLE
105
E7
102
{ACAD_REACTORS
330
E6
102
}
330
A
100
AcDbSymbolTableRecord
100
AcDbDimStyleTableRecord
  2
SLDDIMSTYLE2
 70
     0
 41
3.302
 44
0.0
 45
0.000000001
 73
     0
 74
     0
 77
     1
 78
    12
 79
     3
140
3.5
147
0.875
172
     1
173
     1
178
     0
271
     2
272
     2
276
     2
284
    12
289
     0
340
97
  0
ENDTAB
  0
TABLE
  2
BLOCK_RECORD
  5
1
330
0
100
AcDbSymbolTable
 70
     7
  0
BLOCK_RECORD
  5
1F
102
{ACAD_XDICTIONARY
360
159
102
}
330
1
100
AcDbSymbolTableRecord
100
AcDbBlockTableRecord
  2
*Model_Space
340
22
  0
BLOCK_RECORD
  5
1B
330
1
100
AcDbSymbolTableRecord
100
AcDbBlockTableRecord
  2
*Paper_Space
340
1E
  0
BLOCK_RECORD
  5
23
330
1
100
AcDbSymbolTableRecord
100
AcDbBlockTableRecord
  2
*Paper_Space0
340
26
  0
BLOCK_RECORD
  5
82
330
1
100
AcDbSymbolTableRecord
100
AcDbBlockTableRecord
  2
블럭10
340
0
102
{BLKREFS
331
C6
102
}
  0
BLOCK_RECORD
  5
CF
330
1
100
AcDbSymbolTableRecord
100
AcDbBlockTableRecord
  2
_D
340
0
  0
BLOCK_RECORD
  5
DD
330
1
100
AcDbSymbolTableRecord
100
AcDbBlockTableRecord
  2
_D_1
340
0
  0
BLOCK_RECORD
  5
E8
330
1
100
AcDbSymbolTableRecord
100
AcDbBlockTableRecord
  2
_D_2
340
0
  0
BLOCK_RECORD
  5
F5
330
1
100
AcDbSymbolTableRecord
100
AcDbBlockTableRecord
  2
_D_3
340
0
  0
BLOCK_RECORD
  5
FE
330
1
100
AcDbSymbolTableRecord
100
AcDbBlockTableRecord
  2
SW_DOWELSYMBOL_0
340
0
102
{BLKREFS
331
104
102
}
  0
ENDTAB
  0
ENDSEC
  0
SECTION
  2
BLOCKS
  0
BLOCK
  5
20
330
1F
100
AcDbEntity
  8
0
100
AcDbBlockBegin
  2
*Model_Space
 70
     0
 10
0.0
 20
0.0
 30
0.0
  3
*Model_Space
  1

  0
ENDBLK
  5
21
330
1F
100
AcDbEntity
  8
0
100
AcDbBlockEnd
  0
BLOCK
  5
1C
330
1B
100
AcDbEntity
 67
     1
  8
0
100
AcDbBlockBegin
  2
*Paper_Space
 70
     0
 10
0.0
 20
0.0
 30
0.0
  3
*Paper_Space
  1

  0
ENDBLK
  5
1D
330
1B
100
AcDbEntity
 67
     1
  8
0
100
AcDbBlockEnd
  0
BLOCK
  5
24
330
23
100
AcDbEntity
  8
0
100
AcDbBlockBegin
  2
*Paper_Space0
 70
     0
 10
0.0
 20
0.0
 30
0.0
  3
*Paper_Space0
  1

  0
ENDBLK
  5
25
330
23
100
AcDbEntity
  8
0
100
AcDbBlockEnd
  0
BLOCK
  5
83
330
82
100
AcDbEntity
  8
0
100
AcDbBlockBegin
  2
블럭10
 70
     2
 10
0.0
 20
0.0
 30
0.0
  3
블럭10
  1

  0
ELLIPSE
  5
85
330
82
100
AcDbEntity
  8
중심선
100
AcDbEllipse
 10
20.54032771741204
 20
12.0471743016438
 30
0.0
 11
6.600054785286829
 21
-1.261213355974178E-13
 31
0.0
210
0.0
220
0.0
230
1.0
 40
0.636358354079598
 41
0.9219305317359503
 42
6.513795318482858
  0
ELLIPSE
  5
86
330
82
100
AcDbEntity
  8
중심선
100
AcDbEllipse
 10
20.54032771746488
 20
12.04717430159265
 30
0.0
 11
3.960054785062283
 21
1.540847449632565E-10
 31
0.0
210
0.0
220
0.0
230
1.0
 40
0.3939339440162632
 41
1.131841032648279
 42
5.62031148352944
  0
LINE
  5
87
330
82
100
AcDbEntity
  8
중심선
100
AcDbLine
 10
2.268634060543552
 20
16.24717430164393
 30
0.0
 11
5.714909304380834
 21
16.24717430164393
 31
0.0
  0
LINE
  5
88
330
82
100
AcDbEntity
  8
중심선
100
AcDbLine
 10
5.245725140726316
 20
7.84717430164391
 30
0.0
 11
8.692000384563599
 21
7.84717430164391
 31
0.0
  0
LINE
  5
89
330
82
100
AcDbEntity
  8
중심선
100
AcDbLine
 10
15.74043728645272
 20
16.24717430164393
 30
0.0
 11
8.692000384563599
 21
7.84717430164391
 31
0.0
  0
LINE
  5
8A
330
82
100
AcDbEntity
  8
중심선
100
AcDbLine
 10
0.1404042013395286
 20
13.71084872107135
 30
0.0
 11
3.58671253028996
 21
13.71088815037384
 31
0.0
  0
LINE
  5
8B
330
82
100
AcDbEntity
  8
중심선
100
AcDbLine
 10
2.750260043222114
 20
10.84717430164391
 30
0.0
 11
6.196535287059397
 21
10.84717430164391
 31
0.0
  0
LINE
  5
8C
330
82
100
AcDbEntity
  8
중심선
100
AcDbLine
 10
12.29416204261559
 20
16.24717430164393
 30
0.0
 11
5.245725140726316
 21
7.84717430164391
 31
0.0
  0
LINE
  5
8D
330
82
100
AcDbEntity
  8
중심선
100
AcDbLine
 10
10.72767329541681
 20
16.24717430164393
 30
0.0
 11
6.196535287059397
 21
10.84717430164391
 31
0.0
  0
LINE
  5
8E
330
82
100
AcDbEntity
  8
중심선
100
AcDbLine
 10
7.28139805157953
 20
16.24717430164393
 30
0.0
 11
2.750260043222114
 21
10.84717430164391
 31
0.0
  0
LINE
  5
8F
330
82
100
AcDbEntity
  8
중심선
100
AcDbLine
 10
5.714909304380834
 20
16.24717430164393
 30
0.0
 11
3.58671253028996
 21
13.71088815037384
 31
0.0
  0
LINE
  5
90
330
82
100
AcDbEntity
  8
중심선
100
AcDbLine
 10
2.268634060543552
 20
16.24717430164393
 30
0.0
 11
0.1404042013395286
 21
13.71084872107135
 31
0.0
  0
LINE
  5
91
330
82
100
AcDbEntity
  8
중심선
100
AcDbLine
 10
7.28139805157953
 20
16.24717430164393
 30
0.0
 11
10.72767329541681
 21
16.24717430164393
 31
0.0
  0
LINE
  5
92
330
82
100
AcDbEntity
  8
중심선
100
AcDbLine
 10
12.29416204261559
 20
16.24717430164393
 30
0.0
 11
15.74043728645272
 21
16.24717430164393
 31
0.0
  0
LINE
  5
93
330
82
100
AcDbEntity
  8
중심선
100
AcDbLine
 10
19.22036997980202
 20
11.08717430171403
 30
0.0
 11
23.66174974927406
 21
11.08717430171406
 31
0.0
  0
LINE
  5
94
330
82
100
AcDbEntity
  8
중심선
100
AcDbLine
 10
19.22039502424796
 20
13.00717430171391
 30
0.0
 11
19.22036997980202
 21
11.08717430171403
 31
0.0
  0
LINE
  5
95
330
82
100
AcDbEntity
  8
중심선
100
AcDbLine
 10
19.22039502424796
 20
13.00717430171391
 30
0.0
 11
26.96566020931264
 21
13.00717430171391
 31
0.0
  0
LINE
  5
96
330
82
100
AcDbEntity
  8
중심선
100
AcDbLine
 10
22.22332737316547
 20
13.45928029700563
 30
0.0
 11
24.52862924686651
 21
15.39360700705356
 31
0.0
  0
ATTDEF
  5
98
330
82
100
AcDbEntity
  8
FORMAT
 62
     2
100
AcDbText
 10
-16.11926103943555
 20
2.075366912832191
 30
0.0
 40
4.233333333333333
  1
SEME7116032E [ 4 FLUTE ]
 41
0.75
  7
SLDTEXTSTYLE0
 11
-16.11926103943555
 21
-0.0412997538344756
 31
0.0
100
AcDbAttributeDefinition
  3

  2
AUTOATTR0
 70
     0
 74
     1
  0
ENDBLK
  5
84
330
82
100
AcDbEntity
  8
0
100
AcDbBlockEnd
  0
BLOCK
  5
D0
330
CF
100
AcDbEntity
  8
0
100
AcDbBlockBegin
  2
_D
 70
     0
 10
0.0
 20
0.0
 30
0.0
  3
_D
  1

  0
LINE
  5
D2
330
CF
100
AcDbEntity
  8
치수문자_일반주서
 62
     0
370
    -2
100
AcDbLine
 10
42.07053219129822
 20
-8.000000000000002
 30
0.0
 11
57.16580842973541
 21
-7.999999999999943
 31
0.0
  0
LINE
  5
D3
330
CF
100
AcDbEntity
  8
치수문자_일반주서
 62
     0
370
    -2
100
AcDbLine
 10
42.07053219129822
 20
8.000000000000009
 30
0.0
 11
57.16580842973535
 21
8.000000000000066
 31
0.0
  0
LINE
  5
D4
330
CF
100
AcDbEntity
  8
치수문자_일반주서
 62
     0
370
    -2
100
AcDbLine
 10
57.16580842973535
 20
8.000000000000066
 30
0.0
 11
57.1658084297353
 21
22.47900000000006
 31
0.0
  0
LINE
  5
D5
330
CF
100
AcDbEntity
  8
치수문자_일반주서
 62
     0
370
    -2
100
AcDbLine
 10
57.16580842973541
 20
-7.999999999999943
 30
0.0
 11
57.16580842973535
 21
8.000000000000066
 31
0.0
  0
LINE
  5
D6
330
CF
100
AcDbEntity
  8
치수문자_일반주서
 62
     0
370
    -2
100
AcDbLine
 10
57.16580842973542
 20
-11.30199999999994
 30
0.0
 11
57.16580842973543
 21
-14.60399999999994
 31
0.0
  0
LINE
  5
D7
330
CF
100
AcDbEntity
  8
치수문자_일반주서
 62
     0
370
    -2
100
AcDbLine
 10
57.16580842973534
 20
11.30200000000007
 30
0.0
 11
57.16580842973532
 21
14.60400000000006
 31
0.0
  0
SOLID
  5
D8
330
CF
100
AcDbEntity
  8
치수문자_일반주서
 62
     0
100
AcDbTrace
 10
57.71614176306876
 20
-11.30199999999994
 30
0.0
 11
56.61547509640209
 21
-11.30199999999994
 31
0.0
 12
57.16580842973541
 22
-7.999999999999943
 32
0.0
 13
57.16580842973541
 23
-7.999999999999943
 33
0.0
  0
SOLID
  5
D9
330
CF
100
AcDbEntity
  8
치수문자_일반주서
 62
     0
100
AcDbTrace
 10
56.615475096402
 20
11.30200000000006
 30
0.0
 11
57.71614176306867
 21
11.30200000000007
 31
0.0
 12
57.16580842973535
 22
8.000000000000066
 32
0.0
 13
57.16580842973535
 23
8.000000000000066
 33
0.0
  0
MTEXT
  5
DA
330
CF
100
AcDbEntity
  8
치수문자_일반주서
 62
     0
100
AcDbMText
 10
52.79080842973531
 20
18.54150000000005
 30
0.0
 40
3.5
 41
0.0
 71
     2
 72
     1
  1
\A1;%%c16
  7
SLDTEXTSTYLE0
 11
-3.552713678800499E-15
 21
1.0
 31
0.0
 73
     1
 44
1.0
  0
POINT
  5
134
330
CF
100
AcDbEntity
  8
Defpoints
 62
     0
100
AcDbPoint
 10
42.00803219129822
 20
-8.000000000000002
 30
0.0
  0
POINT
  5
135
330
CF
100
AcDbEntity
  8
Defpoints
 62
     0
100
AcDbPoint
 10
42.00803219129822
 20
8.000000000000009
 30
0.0
  0
POINT
  5
136
330
CF
100
AcDbEntity
  8
Defpoints
 62
     0
100
AcDbPoint
 10
57.16580842973535
 20
8.000000000000066
 30
0.0
  0
ENDBLK
  5
D1
330
CF
100
AcDbEntity
  8
0
100
AcDbBlockEnd
  0
BLOCK
  5
DE
330
DD
100
AcDbEntity
  8
0
100
AcDbBlockBegin
  2
_D_1
 70
     0
 10
0.0
 20
0.0
 30
0.0
  3
_D_1
  1

  0
LINE
  5
E0
330
DD
100
AcDbEntity
  8
치수문자_일반주서
 62
     0
370
    -2
100
AcDbLine
 10
-57.99196780870182
 20
7.562499999999999
 30
0.0
 11
-57.99196780870182
 21
25.38913260158164
 31
0.0
  0
LINE
  5
E1
330
DD
100
AcDbEntity
  8
치수문자_일반주서
 62
     0
370
    -2
100
AcDbLine
 10
42.00803219129818
 20
8.062500000000009
 30
0.0
 11
42.00803219129819
 21
25.38913260158164
 31
0.0
  0
LINE
  5
E2
330
DD
100
AcDbEntity
  8
치수문자_일반주서
 62
     0
370
    -2
100
AcDbLine
 10
-54.68996780870182
 20
25.38913260158164
 30
0.0
 11
38.70603219129819
 21
25.38913260158164
 31
0.0
  0
SOLID
  5
E3
330
DD
100
AcDbEntity
  8
치수문자_일반주서
 62
     0
100
AcDbTrace
 10
-54.68996780870182
 20
25.93946593491498
 30
0.0
 11
-54.68996780870182
 21
24.83879926824831
 31
0.0
 12
-57.99196780870182
 22
25.38913260158164
 32
0.0
 13
-57.99196780870182
 23
25.38913260158164
 33
0.0
  0
SOLID
  5
E4
330
DD
100
AcDbEntity
  8
치수문자_일반주서
 62
     0
100
AcDbTrace
 10
38.70603219129819
 20
24.83879926824831
 30
0.0
 11
38.70603219129819
 21
25.93946593491498
 31
0.0
 12
42.00803219129819
 22
25.38913260158164
 32
0.0
 13
42.00803219129819
 23
25.38913260158164
 33
0.0
  0
MTEXT
  5
E5
330
DD
100
AcDbEntity
  8
치수문자_일반주서
 62
     0
100
AcDbMText
 10
-7.991967808701821
 20
29.76413260158164
 30
0.0
 40
3.5
 41
0.0
 71
     2
 72
     1
  1
\A1;100
  7
SLDTEXTSTYLE0
 73
     1
 44
1.0
  0
POINT
  5
12B
330
DD
100
AcDbEntity
  8
Defpoints
 62
     0
100
AcDbPoint
 10
-57.99196780870182
 20
7.499999999999999
 30
0.0
  0
POINT
  5
12C
330
DD
100
AcDbEntity
  8
Defpoints
 62
     0
100
AcDbPoint
 10
42.00803219129818
 20
8.000000000000009
 30
0.0
  0
POINT
  5
12D
330
DD
100
AcDbEntity
  8
Defpoints
 62
     0
100
AcDbPoint
 10
42.00803219129818
 20
25.38913260158164
 30
0.0
  0
ENDBLK
  5
DF
330
DD
100
AcDbEntity
  8
0
100
AcDbBlockEnd
  0
BLOCK
  5
E9
330
E8
100
AcDbEntity
  8
0
100
AcDbBlockBegin
  2
_D_2
 70
     0
 10
0.0
 20
0.0
 30
0.0
  3
_D_2
  1

  0
LINE
  5
EB
330
E8
100
AcDbEntity
  8
치수문자_일반주서
 62
     0
370
    -2
100
AcDbLine
 10
-57.55446780870182
 20
8.00000000000001
 30
0.0
 11
-70.3293832834204
 21
7.999999999999963
 31
0.0
  0
LINE
  5
EC
330
E8
100
AcDbEntity
  8
치수문자_일반주서
 62
     0
370
    -2
100
AcDbLine
 10
-57.55446780870182
 20
-8.000000000000004
 30
0.0
 11
-70.32938328342034
 21
-8.000000000000053
 31
0.0
  0
LINE
  5
ED
330
E8
100
AcDbEntity
  8
치수문자_일반주서
 62
     0
370
    -2
100
AcDbLine
 10
-70.3293832834204
 20
7.999999999999963
 30
0.0
 11
-70.32938328342046
 21
22.47899999999996
 31
0.0
  0
LINE
  5
EE
330
E8
100
AcDbEntity
  8
치수문자_일반주서
 62
     0
370
    -2
100
AcDbLine
 10
-70.3293832834204
 20
7.999999999999963
 30
0.0
 11
-70.32938328342034
 21
-8.000000000000053
 31
0.0
  0
LINE
  5
EF
330
E8
100
AcDbEntity
  8
치수문자_일반주서
 62
     0
370
    -2
100
AcDbLine
 10
-70.32938328342041
 20
11.30199999999996
 30
0.0
 11
-70.32938328342043
 21
14.60399999999996
 31
0.0
  0
LINE
  5
F0
330
E8
100
AcDbEntity
  8
치수문자_일반주서
 62
     0
370
    -2
100
AcDbLine
 10
-70.32938328342033
 20
-11.30200000000005
 30
0.0
 11
-70.32938328342031
 21
-14.60400000000005
 31
0.0
  0
SOLID
  5
F1
330
E8
100
AcDbEntity
  8
치수문자_일반주서
 62
     0
100
AcDbTrace
 10
-70.87971661675374
 20
11.30199999999996
 30
0.0
 11
-69.77904995008709
 21
11.30199999999996
 31
0.0
 12
-70.3293832834204
 22
7.999999999999963
 32
0.0
 13
-70.3293832834204
 23
7.999999999999963
 33
0.0
  0
SOLID
  5
F2
330
E8
100
AcDbEntity
  8
치수문자_일반주서
 62
     0
100
AcDbTrace
 10
-69.779049950087
 20
-11.30200000000005
 30
0.0
 11
-70.87971661675365
 21
-11.30200000000005
 31
0.0
 12
-70.32938328342034
 22
-8.000000000000053
 32
0.0
 13
-70.32938328342034
 23
-8.000000000000053
 33
0.0
  0
MTEXT
  5
F3
330
E8
100
AcDbEntity
  8
치수문자_일반주서
 62
     0
100
AcDbMText
 10
-74.70438328342044
 20
18.54149999999995
 30
0.0
 40
3.5
 41
0.0
 71
     2
 72
     1
  1
\A1;%%c16
  7
SLDTEXTSTYLE0
 11
-3.552713678800498E-15
 21
1.0
 31
0.0
 73
     1
 44
1.0
  0
POINT
  5
131
330
E8
100
AcDbEntity
  8
Defpoints
 62
     0
100
AcDbPoint
 10
-57.49196780870182
 20
8.00000000000001
 30
0.0
  0
POINT
  5
132
330
E8
100
AcDbEntity
  8
Defpoints
 62
     0
100
AcDbPoint
 10
-57.49196780870182
 20
-8.000000000000004
 30
0.0
  0
POINT
  5
133
330
E8
100
AcDbEntity
  8
Defpoints
 62
     0
100
AcDbPoint
 10
-70.32938328342034
 20
-8.000000000000052
 30
0.0
  0
ENDBLK
  5
EA
330
E8
100
AcDbEntity
  8
0
100
AcDbBlockEnd
  0
BLOCK
  5
F6
330
F5
100
AcDbEntity
  8
0
100
AcDbBlockBegin
  2
_D_3
 70
     0
 10
0.0
 20
0.0
 30
0.0
  3
_D_3
  1

  0
LINE
  5
F8
330
F5
100
AcDbEntity
  8
치수문자_일반주서
 62
     0
370
    -2
100
AcDbLine
 10
10.00803219129818
 20
8.062500000000004
 30
0.0
 11
10.00803219129818
 21
18.84591830258765
 31
0.0
  0
LINE
  5
F9
330
F5
100
AcDbEntity
  8
치수문자_일반주서
 62
     0
370
    -2
100
AcDbLine
 10
42.00803219129818
 20
8.062500000000009
 30
0.0
 11
42.00803219129818
 21
18.84591830258765
 31
0.0
  0
LINE
  5
FA
330
F5
100
AcDbEntity
  8
치수문자_일반주서
 62
     0
370
    -2
100
AcDbLine
 10
13.31003219129818
 20
18.84591830258765
 30
0.0
 11
38.70603219129818
 21
18.84591830258765
 31
0.0
  0
SOLID
  5
FB
330
F5
100
AcDbEntity
  8
치수문자_일반주서
 62
     0
100
AcDbTrace
 10
13.31003219129818
 20
19.39625163592099
 30
0.0
 11
13.31003219129818
 21
18.29558496925432
 31
0.0
 12
10.00803219129818
 22
18.84591830258765
 32
0.0
 13
10.00803219129818
 23
18.84591830258765
 33
0.0
  0
SOLID
  5
FC
330
F5
100
AcDbEntity
  8
치수문자_일반주서
 62
     0
100
AcDbTrace
 10
38.70603219129818
 20
18.29558496925432
 30
0.0
 11
38.70603219129818
 21
19.39625163592099
 31
0.0
 12
42.00803219129818
 22
18.84591830258765
 32
0.0
 13
42.00803219129818
 23
18.84591830258765
 33
0.0
  0
MTEXT
  5
FD
330
F5
100
AcDbEntity
  8
치수문자_일반주서
 62
     0
100
AcDbMText
 10
26.00803219129817
 20
23.22091830258765
 30
0.0
 40
3.5
 41
0.0
 71
     2
 72
     1
  1
\A1;32
  7
SLDTEXTSTYLE0
 73
     1
 44
1.0
  0
POINT
  5
12E
330
F5
100
AcDbEntity
  8
Defpoints
 62
     0
100
AcDbPoint
 10
10.00803219129818
 20
8.000000000000004
 30
0.0
  0
POINT
  5
12F
330
F5
100
AcDbEntity
  8
Defpoints
 62
     0
100
AcDbPoint
 10
42.00803219129818
 20
8.000000000000009
 30
0.0
  0
POINT
  5
130
330
F5
100
AcDbEntity
  8
Defpoints
 62
     0
100
AcDbPoint
 10
42.00803219129818
 20
18.84591830258765
 30
0.0
  0
ENDBLK
  5
F7
330
F5
100
AcDbEntity
  8
0
100
AcDbBlockEnd
  0
BLOCK
  5
FF
330
FE
100
AcDbEntity
  8
0
100
AcDbBlockBegin
  2
SW_DOWELSYMBOL_0
 70
     0
 10
0.0
 20
0.0
 30
0.0
  3
SW_DOWELSYMBOL_0
  1

  0
CIRCLE
  5
101
330
FE
100
AcDbEntity
  8
해칭선
 62
     0
100
AcDbCircle
 10
0.0
 20
0.0
 30
0.0
 40
3.000000000000001
  0
HATCH
  5
102
330
FE
100
AcDbEntity
  8
0
  6
Continuous
 62
     0
370
    18
100
AcDbHatch
 10
0.0
 20
0.0
 30
0.0
210
0.0
220
0.0
230
1.0
  2
SOLID
 70
     1
 71
     0
 91
        1
 92
        0
 93
        3
 72
     2
 10
0.0
 20
0.0
 40
3.000000000000001
 50
0.0
 51
90.0
 73
     1
 72
     1
 10
0.0
 20
3.000000000000001
 11
0.0
 21
0.0
 72
     1
 10
0.0
 20
0.0
 11
3.000000000000001
 21
0.0
 97
        0
 75
     0
 76
     1
 98
        1
 10
0.0
 20
0.0
  0
HATCH
  5
103
330
FE
100
AcDbEntity
  8
0
  6
Continuous
 62
     0
370
    18
100
AcDbHatch
 10
0.0
 20
0.0
 30
0.0
210
0.0
220
0.0
230
1.0
  2
SOLID
 70
     1
 71
     0
 91
        1
 92
        0
 93
        3
 72
     2
 10
0.0
 20
0.0
 40
3.000000000000001
 50
180.0
 51
270.0000000000007
 73
     1
 72
     1
 10
0.0
 20
-3.000000000000001
 11
0.0
 21
0.0
 72
     1
 10
0.0
 20
0.0
 11
-3.000000000000001
 21
0.0
 97
        0
 75
     0
 76
     1
 98
        1
 10
0.0
 20
0.0
  0
ENDBLK
  5
100
330
FE
100
AcDbEntity
  8
0
100
AcDbBlockEnd
  0
ENDSEC
  0
SECTION
  2
ENTITIES
  0
LINE
  5
99
330
1F
100
AcDbEntity
  8
0
  6
Continuous
 62
     4
370
    25
100
AcDbLine
 10
10.00803219129818
 20
8.000000000000004
 30
0.0
 11
-57.49196780870182
 21
8.0
 31
0.0
  0
LINE
  5
9A
330
1F
100
AcDbEntity
  8
0
  6
Continuous
 62
     4
370
    25
100
AcDbLine
 10
-57.49196780870182
 20
-7.999999999999999
 30
0.0
 11
10.00803219129819
 21
-7.999999999999996
 31
0.0
  0
LINE
  5
9B
330
1F
100
AcDbEntity
  8
0
  6
Continuous
 62
     4
370
    25
100
AcDbLine
 10
-57.49196780870182
 20
7.999999999999997
 30
0.0
 11
-57.99196780870182
 21
7.499999999999997
 31
0.0
  0
LINE
  5
9C
330
1F
100
AcDbEntity
  8
0
  6
Continuous
 62
     4
370
    25
100
AcDbLine
 10
-57.99196780870182
 20
-7.5
 30
0.0
 11
-57.49196780870182
 21
-7.999999999999996
 31
0.0
  0
LINE
  5
9D
330
1F
100
AcDbEntity
  8
0
  6
Continuous
 62
     1
370
    25
100
AcDbLine
 10
39.72156970529853
 20
-7.999999999999999
 30
0.0
 11
42.00803219129818
 21
-7.999999999999999
 31
0.0
  0
LINE
  5
9E
330
1F
100
AcDbEntity
  8
0
  6
Continuous
 62
     1
370
    25
100
AcDbLine
 10
12.12669624088054
 20
8.000000000000007
 30
0.0
 11
10.00803219129818
 21
8.000000000000007
 31
0.0
  0
LINE
  5
9F
330
1F
100
AcDbEntity
  8
0
  6
Continuous
 62
     1
370
    25
100
AcDbLine
 10
28.21095100599871
 20
8.000000000000007
 30
0.0
 11
23.6372592407272
 21
8.000000000000007
 31
0.0
  0
LINE
  5
A0
330
1F
100
AcDbEntity
  8
0
  6
Continuous
 62
     1
370
    25
100
AcDbLine
 10
23.63725924072713
 20
-7.999999999999999
 30
0.0
 11
28.21095100599869
 21
-7.999999999999999
 31
0.0
  0
LINE
  5
A1
330
1F
100
AcDbEntity
  8
0
  6
Continuous
 62
     1
370
    25
100
AcDbLine
 10
10.00803219129818
 20
-7.999999999999999
 30
0.0
 11
12.1266962408805
 21
-7.999999999999999
 31
0.0
  0
LINE
  5
A2
330
1F
100
AcDbEntity
  8
0
  6
Continuous
 62
     1
370
    25
100
AcDbLine
 10
42.00803219129818
 20
8.000000000000007
 30
0.0
 11
39.72156970529853
 21
8.000000000000007
 31
0.0
  0
SPLINE
  5
A3
330
1F
100
AcDbEntity
  8
0
  6
Continuous
 62
     4
370
    25
100
AcDbSpline
210
0.0
220
0.0
230
1.0
 70
     8
 71
     3
 72
    12
 73
     8
 74
     0
 42
0.000000001
 43
0.00000001
 40
0.0
 40
0.0
 40
0.0
 40
0.0
 40
0.2499999999999998
 40
0.2499999999999998
 40
0.4999999999999997
 40
0.4999999999999997
 40
1.0
 40
1.0
 40
1.0
 40
1.0
 10
9.129864218122096
 20
-7.659751044924517
 30
0.0
 10
9.030243520095995
 20
-7.637320614247202
 30
0.0
 10
8.941810463610775
 20
-7.610882007724745
 30
0.0
 10
8.786380780932095
 20
-7.548376336510998
 30
0.0
 10
8.719346984379925
 20
-7.511914730895905
 30
0.0
 10
8.560754026979426
 20
-7.390855453569593
 30
0.0
 10
8.507874888717245
 20
-7.291588989643951
 30
0.0
 10
8.507874888717236
 20
-7.180248892114061
 30
0.0
  0
SPLINE
  5
A4
330
1F
100
AcDbEntity
  8
0
  6
Continuous
 62
     4
370
    25
100
AcDbSpline
210
0.0
220
0.0
230
1.0
 70
     8
 71
     3
 72
     8
 73
     4
 74
     0
 42
0.000000001
 43
0.00000001
 40
0.0
 40
0.0
 40
0.0
 40
0.0
 40
1.0
 40
1.0
 40
1.0
 40
1.0
 10
10.00803219129819
 20
-7.829492289788762
 30
0.0
 10
9.715684120041555
 20
-7.782489477703129
 30
0.0
 10
9.423650003808266
 20
-7.725899363801864
 30
0.0
 10
9.129864218122096
 20
-7.659751044924516
 30
0.0
  0
SPLINE
  5
A5
330
1F
100
AcDbEntity
  8
0
  6
Continuous
 62
     4
370
    25
100
AcDbSpline
210
0.0
220
0.0
230
1.0
 70
     8
 71
     3
 72
    18
 73
    14
 74
     0
 42
0.000000001
 43
0.00000001
 40
0.0
 40
0.0
 40
0.0
 40
0.0
 40
0.2499999999999999
 40
0.2499999999999999
 40
0.3749999999999999
 40
0.3749999999999999
 40
0.4999999999999999
 40
0.4999999999999999
 40
0.6249999999999999
 40
0.6249999999999999
 40
0.7499999999999998
 40
0.7499999999999998
 40
1.0
 40
1.0
 40
1.0
 40
1.0
 10
8.507874888717256
 20
6.985957258308187
 30
0.0
 10
8.507874888717256
 20
7.086520454126267
 30
0.0
 10
8.542045651513225
 20
7.178093012756368
 30
0.0
 10
8.648804301757185
 20
7.299673184322293
 30
0.0
 10
8.692833466337385
 20
7.33667285703746
 30
0.0
 10
8.797774829943586
 20
7.404491838782406
 30
0.0
 10
8.859520110741226
 20
7.435606607681723
 30
0.0
 10
8.996799997645965
 20
7.490390723450264
 30
0.0
 10
9.071993972472786
 20
7.514117713455394
 30
0.0
 10
9.235435981897385
 20
7.555329665103508
 30
0.0
 10
9.324400328684435
 20
7.572846704805045
 30
0.0
 10
9.600136498034995
 20
7.615054374370502
 30
0.0
 10
9.801813076925646
 20
7.630760132325465
 30
0.0
 10
10.00803219129818
 20
7.634629457867343
 30
0.0
  0
LINE
  5
A6
330
1F
100
AcDbEntity
  8
0
  6
Continuous
 62
     4
370
    25
100
AcDbLine
 10
8.507874888717256
 20
6.985957258308189
 30
0.0
 11
8.507874888717256
 21
3.527609083684871
 31
0.0
  0
SPLINE
  5
A7
330
1F
100
AcDbEntity
  8
0
  6
Continuous
 62
     4
370
    25
100
AcDbSpline
210
0.0
220
0.0
230
1.0
 70
     8
 71
     3
 72
    12
 73
     8
 74
     0
 42
0.000000001
 43
0.00000001
 40
0.0
 40
0.0
 40
0.0
 40
0.0
 40
0.2500000000000001
 40
0.2500000000000001
 40
0.5000000000000001
 40
0.5000000000000001
 40
1.0
 40
1.0
 40
1.0
 40
1.0
 10
9.129864218122096
 20
2.308292427260398
 30
0.0
 10
9.030243520095995
 20
2.382724727427231
 30
0.0
 10
8.941810463610775
 20
2.466580611952464
 30
0.0
 10
8.786380780932095
 20
2.651708794941262
 30
0.0
 10
8.719346984379925
 20
2.753885253947674
 30
0.0
 10
8.560754026979426
 20
3.070218775443355
 30
0.0
 10
8.507874888717245
 20
3.300982608649789
 30
0.0
 10
8.507874888717236
 20
3.527609083684772
 30
0.0
  0
SPLINE
  5
A8
330
1F
100
AcDbEntity
  8
0
  6
Continuous
 62
     4
370
    25
100
AcDbSpline
210
0.0
220
0.0
230
1.0
 70
     8
 71
     3
 72
     8
 73
     4
 74
     0
 42
0.000000001
 43
0.00000001
 40
0.0
 40
0.0
 40
0.0
 40
0.0
 40
1.0
 40
1.0
 40
1.0
 40
1.0
 10
10.00803219129819
 20
1.642878718624158
 30
0.0
 10
9.715684120041555
 20
1.866880740593889
 30
0.0
 10
9.423650003808266
 20
2.088788326022176
 30
0.0
 10
9.129864218122096
 20
2.308292427260399
 30
0.0
  0
SPLINE
  5
A9
330
1F
100
AcDbEntity
  8
0
  6
Continuous
 62
     4
370
    25
100
AcDbSpline
210
0.0
220
0.0
230
1.0
 70
     8
 71
     3
 72
    18
 73
    14
 74
     0
 42
0.000000001
 43
0.00000001
 40
0.0
 40
0.0
 40
0.0
 40
0.0
 40
0.2500000000000001
 40
0.2500000000000001
 40
0.3750000000000001
 40
0.3750000000000001
 40
0.5000000000000001
 40
0.5000000000000001
 40
0.6250000000000001
 40
0.6250000000000001
 40
0.7500000000000002
 40
0.7500000000000002
 40
1.0
 40
1.0
 40
1.0
 40
1.0
 10
8.507874888717256
 20
-3.898256172327792
 30
0.0
 10
8.507874888717256
 20
-3.718039645581561
 30
0.0
 10
8.542045651513225
 20
-3.537255097847512
 30
0.0
 10
8.648804301757185
 20
-3.274762530908768
 30
0.0
 10
8.692833466337385
 20
-3.190742552443357
 30
0.0
 10
8.797774829943586
 20
-3.030034200560732
 30
0.0
 10
8.859520110741226
 20
-2.952547623541149
 30
0.0
 10
8.996799997645965
 20
-2.810663605543857
 30
0.0
 10
9.071993972472786
 20
-2.746232815496879
 30
0.0
 10
9.235435981897385
 20
-2.63073247218013
 30
0.0
 10
9.324400328684435
 20
-2.579527149781764
 30
0.0
 10
9.600136498035006
 20
-2.453327739852686
 30
0.0
 10
9.801813076925646
 20
-2.402429507834464
 30
0.0
 10
10.00803219129818
 20
-2.390069672847351
 30
0.0
  0
LINE
  5
AA
330
1F
100
AcDbEntity
  8
0
  6
Continuous
 62
     4
370
    25
100
AcDbLine
 10
8.507874888717256
 20
-3.898256172327792
 30
0.0
 11
8.507874888717256
 21
-7.180248892114012
 31
0.0
  0
LINE
  5
AB
330
1F
100
AcDbEntity
  8
0
  6
Continuous
 62
     4
370
    25
100
AcDbLine
 10
-57.49196780870182
 20
7.999999999999997
 30
0.0
 11
-57.49196780870182
 21
-7.999999999999996
 31
0.0
  0
LINE
  5
AC
330
1F
100
AcDbEntity
  8
0
  6
Continuous
 62
     4
370
    25
100
AcDbLine
 10
-57.99196780870182
 20
7.499999999999999
 30
0.0
 11
-57.99196780870182
 21
-7.5
 31
0.0
  0
SPLINE
  5
AD
330
1F
100
AcDbEntity
  8
0
  6
Continuous
 62
     4
370
    25
100
AcDbSpline
210
0.0
220
0.0
230
1.0
 70
    24
 71
     3
 72
    18
 73
    14
 74
     0
 42
0.000000001
 43
0.00000001
 40
0.0
 40
0.0
 40
0.0
 40
0.0
 40
0.25
 40
0.25
 40
0.375
 40
0.375
 40
0.5
 40
0.5
 40
0.625
 40
0.625
 40
0.75
 40
0.75
 40
1.0
 40
1.0
 40
1.0
 40
1.0
 10
10.00803219129818
 20
7.634629457867341
 30
0.0
 10
10.00803219129818
 20
7.228338693102375
 30
0.0
 10
10.00803219129818
 20
6.819284885360579
 30
0.0
 10
10.00803219129818
 20
6.201379836093713
 30
0.0
 10
10.00803219129818
 20
5.993255354292928
 30
0.0
 10
10.00803219129818
 20
5.584765244184815
 30
0.0
 10
10.00803219129818
 20
5.384056379653268
 30
0.0
 10
10.00803219129818
 20
4.989858206354433
 30
0.0
 10
10.00803219129818
 20
4.79636648814459
 30
0.0
 10
10.00803219129818
 20
4.41714257140628
 30
0.0
 10
10.00803219129818
 20
4.229938027131349
 30
0.0
 10
10.00803219129818
 20
3.69785350231601
 30
0.0
 10
10.00803219129818
 20
3.378845789290081
 30
0.0
 10
10.00803219129818
 20
3.097778506885576
 30
0.0
  0
SPLINE
  5
AE
330
1F
100
AcDbEntity
  8
0
  6
Continuous
 62
     4
370
    25
100
AcDbSpline
210
0.0
220
0.0
230
1.0
 70
    24
 71
     3
 72
    11
 73
     7
 74
     0
 42
0.000000001
 43
0.00000001
 40
0.0
 40
0.0
 40
0.0
 40
0.0
 40
0.1289228945523408
 40
0.4626972332512515
 40
0.7271742267828244
 40
1.0
 40
1.0
 40
1.0
 40
1.0
 10
10.00803219129818
 20
-2.390069672847352
 30
0.0
 10
10.00803219129818
 20
-2.409052975349208
 30
0.0
 10
10.00803219129818
 20
-2.477183012113271
 30
0.0
 10
10.00803219129818
 20
-2.748192195899504
 30
0.0
 10
10.00803219129818
 20
-3.167732844944037
 30
0.0
 10
10.00803219129818
 20
-3.518396714908813
 30
0.0
 10
10.00803219129818
 20
-3.69645301274136
 30
0.0
  0
SPLINE
  5
AF
330
1F
100
AcDbEntity
  8
0
  6
Continuous
 62
     1
370
    25
100
AcDbSpline
210
0.0
220
0.0
230
1.0
 70
     8
 71
     3
 72
    26
 73
    22
 74
     0
 42
0.000000001
 43
0.00000001
 40
0.0
 40
0.0
 40
0.0
 40
0.0
 40
0.0548097197839653
 40
0.1095607319581638
 40
0.1642917747463189
 40
0.2190528088961415
 40
0.2738648131023406
 40
0.328622875958053
 40
0.3802215288166224
 40
0.4318642990693239
 40
0.4835451708779573
 40
0.5351530469149617
 40
0.5867629237820335
 40
0.6444153390265627
 40
0.7020716078562588
 40
0.7596839155788517
 40
0.817281211596726
 40
0.8748926499459379
 40
0.9325472698346051
 40
0.990201383724657
 40
1.0
 40
1.0
 40
1.0
 40
1.0
 10
10.00803219129819
 20
7.771035795725184
 30
0.0
 10
10.55108284508116
 20
7.651430416624748
 30
0.0
 10
11.63660248198735
 20
7.412347769750666
 30
0.0
 10
13.26354831027489
 20
6.81419663484594
 30
0.0
 10
14.88985677616421
 20
6.058407841249349
 30
0.0
 10
16.51702908398066
 20
5.146031777050058
 30
0.0
 10
18.14539563594549
 20
4.105785316645405
 30
0.0
 10
19.74154566108887
 20
2.982833745111901
 30
0.0
 10
21.30576300493664
 20
1.811855520682862
 30
0.0
 10
22.84012332269212
 20
0.623742000865552
 30
0.0
 10
24.37532691750701
 20
-0.5774311559923939
 30
0.0
 10
25.90888332487285
 20
-1.767124190552054
 30
0.0
 10
27.50170083068041
 20
-2.961229683499905
 30
0.0
 10
29.15543167007349
 20
-4.124982679511518
 30
0.0
 10
30.86856405591128
 20
-5.215374055019344
 30
0.0
 10
32.5805283492574
 20
-6.16095477544143
 30
0.0
 10
34.29195553508698
 20
-6.933010448811867
 30
0.0
 10
36.00388984394824
 20
-7.51722782803471
 30
0.0
 10
37.71698180234668
 20
-7.871081781104998
 30
0.0
 10
38.95649713660655
 20
-8.023608011157359
 30
0.0
 10
39.62452735110275
 20
-7.989229716272058
 30
0.0
 10
39.72156970529853
 20
-7.984235704629302
 30
0.0
  0
SPLINE
  5
B0
330
1F
100
AcDbEntity
  8
0
  6
Continuous
 62
     1
370
    25
100
AcDbSpline
210
0.0
220
0.0
230
1.0
 70
     8
 71
     3
 72
    26
 73
    22
 74
     0
 42
0.000000001
 43
0.00000001
 40
0.0
 40
0.0
 40
0.0
 40
0.0
 40
0.0559973350961044
 40
0.1119467735671135
 40
0.1678859608759607
 40
0.2238526401184203
 40
0.279866505649913
 40
0.3358372979363156
 40
0.3885753637782111
 40
0.441334609094256
 40
0.4941571787872254
 40
0.5469241511274351
 40
0.5996612506894059
 40
0.652434079906966
 40
0.7052548465755801
 40
0.7580095308877095
 40
0.8107488995064469
 40
0.8635385239760607
 40
0.9154064928193535
 40
0.9672069071836928
 40
1.0
 40
1.0
 40
1.0
 40
1.0
 10
42.00803219129818
 20
-7.801325586840169
 30
0.0
 10
41.45011666632906
 20
-7.68477999806919
 30
0.0
 10
40.33476282250586
 20
-7.451788506349102
 30
0.0
 10
38.66279091719085
 20
-6.848082715513947
 30
0.0
 10
36.99115421876635
 20
-6.077049630203854
 30
0.0
 10
35.31866087756269
 20
-5.140064381556901
 30
0.0
 10
33.64501363407278
 20
-4.067998977806202
 30
0.0
 10
32.0042401672122
 20
-2.909253298552951
 30
0.0
 10
30.39643684497709
 20
-1.701254207705174
 30
0.0
 10
28.81982541090339
 20
-0.4766329450010113
 30
0.0
 10
27.24173927631518
 20
0.757968133583294
 30
0.0
 10
25.66494173516356
 20
1.975817989551016
 30
0.0
 10
24.0889209365949
 20
3.146852503384789
 30
0.0
 10
22.51198501054468
 20
4.243306322263764
 30
0.0
 10
20.93394090578578
 20
5.238456138153198
 30
0.0
 10
19.35743907949722
 20
6.110777070604062
 30
0.0
 10
17.78134737381716
 20
6.837715248290073
 30
0.0
 10
16.21341069007164
 20
7.401252414851906
 30
0.0
 10
14.65440106958235
 20
7.782083840768047
 30
0.0
 10
13.29574542961798
 20
7.983397862691814
 30
0.0
 10
12.45328154579687
 20
7.980057199754135
 30
0.0
 10
12.12669624088056
 20
7.978762175189784
 30
0.0
  0
LINE
  5
B1
330
1F
100
AcDbEntity
  8
0
  6
Continuous
 62
     1
370
    25
100
AcDbLine
 10
42.00803219129818
 20
-8.000000000000002
 30
0.0
 11
42.00803219129818
 21
-7.801325586842084
 31
0.0
  0
SPLINE
  5
B2
330
1F
100
AcDbEntity
  8
0
  6
Continuous
 62
     1
370
    25
100
AcDbSpline
210
0.0
220
0.0
230
1.0
 70
     8
 71
     3
 72
    22
 73
    18
 74
     0
 42
0.000000001
 43
0.00000001
 40
0.0
 40
0.0
 40
0.0
 40
0.0
 40
0.0110157508017561
 40
0.0809879953214707
 40
0.1469230077455093
 40
0.212914395302794
 40
0.278954470692504
 40
0.3449012688968104
 40
0.4108506238491721
 40
0.4845213982750698
 40
0.5581970969804162
 40
0.6318166202629091
 40
0.7054169609334091
 40
0.7790353732926214
 40
0.8527089649090968
 40
0.9263819099384394
 40
1.0
 40
1.0
 40
1.0
 40
1.0
 10
17.88956281284293
 20
6.761245191037371
 30
0.0
 10
17.97497029871064
 20
6.800259640358277
 30
0.0
 10
18.60288764999727
 20
7.087094563908606
 30
0.0
 10
19.74153364610811
 20
7.448247014006051
 30
0.0
 10
21.30576614608544
 20
7.825319096412123
 30
0.0
 10
22.84012247987545
 20
8.005069330415509
 30
0.0
 10
24.3753271434768
 20
8.009370488954419
 30
0.0
 10
25.90888326278289
 20
7.833100209231088
 30
0.0
 10
27.50170085649907
 20
7.467943322998302
 30
0.0
 10
29.15543163293123
 20
6.89811286900277
 30
0.0
 10
30.86856417634968
 20
6.115442638180196
 30
0.0
 10
32.58052790506117
 20
5.161870920042801
 30
0.0
 10
34.29195719128198
 20
4.064498825439534
 30
0.0
 10
36.00388365958015
 20
2.85336721914208
 30
0.0
 10
37.71700490163115
 20
1.563557542344952
 30
0.0
 10
39.43011944607801
 20
0.2279187252288946
 30
0.0
 10
40.57162027232365
 20
-0.661665225926259
 30
0.0
 10
41.14215812332074
 20
-1.106291549538155
 30
0.0
  0
SPLINE
  5
B3
330
1F
100
AcDbEntity
  8
0
  6
Continuous
 62
     1
370
    25
100
AcDbSpline
210
0.0
220
0.0
230
1.0
 70
     8
 71
     3
 72
    12
 73
     8
 74
     0
 42
0.000000001
 43
0.00000001
 40
0.0
 40
0.0
 40
0.0
 40
0.0
 40
0.5
 40
0.5
 40
0.75
 40
0.75
 40
1.0
 40
1.0
 40
1.0
 40
1.0
 10
42.00803219129818
 20
-5.869334219275747
 30
0.0
 10
41.28594756111573
 20
-5.617864192161137
 30
0.0
 10
40.58267648543622
 20
-5.290945084996197
 30
0.0
 10
39.56131659078159
 20
-4.66603208749441
 30
0.0
 10
39.22709218641898
 20
-4.4327476635888
 30
0.0
 10
38.57157181745612
 20
-3.914331149968132
 30
0.0
 10
38.25653292902572
 20
-3.634376687507587
 30
0.0
 10
37.9536645213237
 20
-3.338898805189888
 30
0.0
  0
LINE
  5
B4
330
1F
100
AcDbEntity
  8
0
  6
Continuous
 62
     1
370
    25
100
AcDbLine
 10
42.00803219129818
 20
-7.801325586842084
 30
0.0
 11
42.00803219129818
 21
-5.869334219275745
 31
0.0
  0
SPLINE
  5
B5
330
1F
100
AcDbEntity
  8
0
  6
Continuous
 62
     1
370
    25
100
AcDbSpline
210
0.0
220
0.0
230
1.0
 70
    24
 71
     3
 72
    24
 73
    20
 74
     0
 42
0.000000001
 43
0.00000001
 40
0.0
 40
0.0
 40
0.0
 40
0.0
 40
0.1249999999999991
 40
0.1249999999999991
 40
0.2499999999999982
 40
0.2499999999999982
 40
0.3749999999999973
 40
0.3749999999999973
 40
0.4999999999999964
 40
0.4999999999999964
 40
0.6249999999999964
 40
0.6249999999999964
 40
0.687499999999997
 40
0.687499999999997
 40
0.7499999999999976
 40
0.7499999999999976
 40
0.8749999999999988
 40
0.8749999999999988
 40
1.0
 40
1.0
 40
1.0
 40
1.0
 10
41.14215812332072
 20
-1.106291549538153
 30
0.0
 10
41.1413231116537
 20
-1.10687623100188
 30
0.0
 10
41.12766940605743
 20
-1.1164366585849
 30
0.0
 10
41.06898511450566
 20
-1.157527841903948
 30
0.0
 10
41.02399569546781
 20
-1.189029772253907
 30
0.0
 10
40.89804176882406
 20
-1.27722366115697
 30
0.0
 10
40.81706584238497
 20
-1.333923615263018
 30
0.0
 10
40.60895907725294
 20
-1.479641540960895
 30
0.0
 10
40.48334349375677
 20
-1.567598519441669
 30
0.0
 10
40.19098419357816
 20
-1.77231070529245
 30
0.0
 10
40.02103822332412
 20
-1.89130815475267
 30
0.0
 10
39.74646926775456
 20
-2.083563407200846
 30
0.0
 10
39.65120542829469
 20
-2.150267865709449
 30
0.0
 10
39.45322379952646
 20
-2.288896094599999
 30
0.0
 10
39.34983524534888
 20
-2.361289539599754
 30
0.0
 10
39.03694246872931
 20
-2.580379420440143
 30
0.0
 10
38.82285342647577
 20
-2.730286181674153
 30
0.0
 10
38.38471801107651
 20
-3.037071902293364
 30
0.0
 10
38.1680993311885
 20
-3.188749934868213
 30
0.0
 10
37.95366452132367
 20
-3.33889880519013
 30
0.0
  0
SPLINE
  5
B6
330
1F
100
AcDbEntity
  8
0
  6
Continuous
 62
     1
370
    25
100
AcDbSpline
210
0.0
220
0.0
230
1.0
 70
     8
 71
     3
 72
    23
 73
    19
 74
     0
 42
0.000000001
 43
0.00000001
 40
0.0
 40
0.0
 40
0.0
 40
0.0
 40
0.013418098406805
 40
0.0832259689705365
 40
0.1490019196705765
 40
0.2148042858264216
 40
0.2806856313879048
 40
0.346497634839931
 40
0.4122723803766855
 40
0.478091688641084
 40
0.5439707854352072
 40
0.6097674630174594
 40
0.6755450385663433
 40
0.7413852941987091
 40
0.8060760428464797
 40
0.870682536222346
 40
0.9352969488562515
 40
0.9999999999999999
 40
0.9999999999999999
 40
0.9999999999999999
 40
0.9999999999999999
 10
33.96627873602255
 20
-6.755232722477222
 30
0.0
 10
33.85908523230659
 20
-6.80411649858608
 30
0.0
 10
33.19421581909805
 20
-7.107318898080725
 30
0.0
 10
32.00424640656847
 20
-7.479209730463954
 30
0.0
 10
30.39643521472671
 20
-7.851842243729003
 30
0.0
 10
28.81982584828662
 20
-8.016881177389049
 30
0.0
 10
27.24173915962371
 20
-7.996002289252741
 30
0.0
 10
25.66494176479787
 20
-7.784827831462097
 30
0.0
 10
24.08892093461493
 20
-7.38955821593282
 30
0.0
 10
22.5119849887896
 20
-6.819251072117998
 30
0.0
 10
20.93394099483179
 20
-6.08819950898174
 30
0.0
 10
19.35743874559897
 20
-5.212268217617599
 30
0.0
 10
17.78134862065041
 20
-4.212936195654407
 30
0.0
 10
16.21340606605878
 20
-3.120819636399863
 30
0.0
 10
14.65441798179212
 20
-1.963421246685827
 30
0.0
 10
13.10637595879247
 20
-0.7677554562059477
 30
0.0
 10
11.55811250741739
 20
0.4480656987904768
 30
0.0
 10
10.52496168203468
 20
1.24442576141594
 30
0.0
 10
10.00803219129797
 20
1.642878718624322
 30
0.0
  0
SPLINE
  5
B7
330
1F
100
AcDbEntity
  8
0
  6
Continuous
 62
     1
370
    25
100
AcDbSpline
210
0.0
220
0.0
230
1.0
 70
     8
 71
     3
 72
    16
 73
    12
 74
     0
 42
0.000000001
 43
0.00000001
 40
0.0
 40
0.0
 40
0.0
 40
0.0
 40
0.1212800569530751
 40
0.242456378515717
 40
0.3636104979230477
 40
0.4848241598651886
 40
0.6061400187388715
 40
0.7273625887871358
 40
0.841583660520692
 40
0.9558506031484016
 40
1.0
 40
1.0
 40
1.0
 40
1.0
 10
42.00803219129818
 20
1.771812373837197
 30
0.0
 10
41.45011666545944
 20
2.192047766260822
 30
0.0
 10
40.3347628198977
 20
3.032159107984429
 30
0.0
 10
38.66279092761213
 20
4.199596499669894
 30
0.0
 10
36.99115417968537
 20
5.258373754770235
 30
0.0
 10
35.31866102359805
 20
6.176650075634051
 30
0.0
 10
33.64501308872222
 20
6.929312887989425
 30
0.0
 10
32.00424215105414
 20
7.490519901341041
 30
0.0
 10
30.39642991424838
 20
7.841936693996251
 30
0.0
 10
29.1428743791145
 20
8.003904930863715
 30
0.0
 10
28.41406460052961
 20
7.983264318837145
 30
0.0
 10
28.21095100599871
 20
7.977511941433298
 30
0.0
  0
LINE
  5
B8
330
1F
100
AcDbEntity
  8
0
  6
Continuous
 62
     1
370
    25
100
AcDbLine
 10
42.00803219129818
 20
-0.5000000000000211
 30
0.0
 11
42.00803219129818
 21
1.771812373837351
 31
0.0
  0
LINE
  5
B9
330
1F
100
AcDbEntity
  8
0
  6
Continuous
 62
     1
370
    25
100
AcDbLine
 10
42.00803219129818
 20
-0.5000000000000209
 30
0.0
 11
41.14215812332072
 21
-1.10629154953815
 31
0.0
  0
SPLINE
  5
BA
330
1F
100
AcDbEntity
  8
0
  6
Continuous
 62
     1
370
    25
100
AcDbSpline
210
0.0
220
0.0
230
1.0
 70
     8
 71
     3
 72
    16
 73
    12
 74
     0
 42
0.000000001
 43
0.00000001
 40
0.0
 40
0.0
 40
0.0
 40
0.0
 40
0.1194907465474364
 40
0.2388535045529371
 40
0.3581727272720721
 40
0.4775573342006091
 40
0.5970530610201437
 40
0.7164311902262471
 40
0.8289214852909598
 40
0.9415079607481526
 40
1.0
 40
1.0
 40
1.0
 40
1.0
 10
10.00803219129819
 20
-1.900263839985867
 30
0.0
 10
10.55108284387308
 20
-2.307372596716112
 30
0.0
 10
11.63660247836441
 20
-3.121154049161933
 30
0.0
 10
13.26354832474637
 20
-4.250991090518638
 30
0.0
 10
14.88985672190373
 20
-5.276905338005007
 30
0.0
 10
16.51702928675943
 20
-6.169159315556142
 30
0.0
 10
18.14539487869011
 20
-6.904912140033023
 30
0.0
 10
19.74154841518899
 20
-7.459052855150979
 30
0.0
 10
21.30575338066603
 20
-7.817258807653192
 30
0.0
 10
22.59402704104462
 20
-7.99327219496745
 30
0.0
 10
23.37145520915688
 20
-7.981575558317227
 30
0.0
 10
23.63725924072714
 20
-7.977576458072392
 30
0.0
  0
SPLINE
  5
BB
330
1F
100
AcDbEntity
  8
0
  6
Continuous
 62
     1
370
    25
100
AcDbSpline
210
0.0
220
0.0
230
1.0
 70
     8
 71
     3
 72
    12
 73
     8
 74
     0
 42
0.000000001
 43
0.00000001
 40
0.0
 40
0.0
 40
0.0
 40
0.0
 40
0.0453764994928146
 40
0.2839437528242135
 40
0.5226898196266482
 40
0.7614337911038593
 40
1.0
 40
1.0
 40
1.0
 40
1.0
 10
33.96627873602255
 20
6.755232722477235
 30
0.0
 10
34.07479568670167
 20
6.80487728318865
 30
0.0
 10
34.75384124035326
 20
7.115528457987633
 30
0.0
 10
36.00388442295674
 20
7.504282985156387
 30
0.0
 10
37.71700469799661
 20
7.883959616376909
 30
0.0
 10
39.43011949694222
 20
8.043352297554446
 30
0.0
 10
40.57162028927416
 20
7.963199618537571
 30
0.0
 10
41.14215812332074
 20
7.923138204488183
 30
0.0
  0
SPLINE
  5
BC
330
1F
100
AcDbEntity
  8
0
  6
Continuous
 62
     1
370
    25
100
AcDbSpline
210
0.0
220
0.0
230
1.0
 70
     8
 71
     3
 72
    16
 73
    12
 74
     0
 42
0.000000001
 43
0.00000001
 40
0.0
 40
0.0
 40
0.0
 40
0.0
 40
0.1770280149370013
 40
0.3235604153305223
 40
0.4748303976663778
 40
0.5727358687363255
 40
0.6732842437745654
 40
0.7712800722721185
 40
0.8724832745169956
 40
0.9653475496788922
 40
1.0
 40
1.0
 40
1.0
 40
1.0
 10
41.14215812332072
 20
7.923138204488179
 30
0.0
 10
41.13125307238189
 20
7.613214225937345
 30
0.0
 10
41.11132152193084
 20
7.046755119131669
 30
0.0
 10
40.94963622282955
 20
6.235471014642559
 30
0.0
 10
40.72035121308432
 20
5.597446792417132
 30
0.0
 10
40.43474572564575
 20
5.09200916549193
 30
0.0
 10
40.13773353881403
 20
4.718163407626386
 30
0.0
 10
39.78762886359385
 20
4.409240949007348
 30
0.0
 10
39.40717228569829
 20
4.193168452541002
 30
0.0
 10
39.09175213596481
 20
4.07322168657183
 30
0.0
 10
38.90993454729292
 20
4.050074230920817
 30
0.0
 10
38.86052593101068
 20
4.043783949752064
 30
0.0
  0
SPLINE
  5
BD
330
1F
100
AcDbEntity
  8
0
  6
Continuous
 62
     1
370
    25
100
AcDbSpline
210
0.0
220
0.0
230
1.0
 70
     8
 71
     3
 72
     9
 73
     5
 74
     0
 42
0.000000001
 43
0.00000001
 40
0.0
 40
0.0
 40
0.0
 40
0.0
 40
0.666823263961486
 40
1.0
 40
1.0
 40
1.0
 40
1.0
 10
42.00803219129818
 20
1.954277833643316
 30
0.0
 10
41.74054891974192
 20
2.118431604288658
 30
0.0
 10
41.33941823637737
 20
2.36460443525759
 30
0.0
 10
40.94658911913795
 20
2.58540654219685
 30
0.0
 10
40.81570759603525
 20
2.658972667497299
 30
0.0
  0
LINE
  5
BE
330
1F
100
AcDbEntity
  8
0
  6
Continuous
 62
     1
370
    25
100
AcDbLine
 10
42.00803219129818
 20
1.778122966573355
 30
0.0
 11
42.00803219129818
 21
1.954277833643316
 31
0.0
  0
SPLINE
  5
BF
330
1F
100
AcDbEntity
  8
0
  6
Continuous
 62
     1
370
    25
100
AcDbSpline
210
0.0
220
0.0
230
1.0
 70
     8
 71
     3
 72
    13
 73
     9
 74
     0
 42
0.000000001
 43
0.00000001
 40
0.0
 40
0.0
 40
0.0
 40
0.0
 40
0.0136846381574423
 40
0.2138333899931322
 40
0.4104877388077012
 40
0.6068859587943176
 40
0.8033082526487643
 40
1.0
 40
1.0
 40
1.0
 40
1.0
 10
17.88956281284288
 20
-6.761245191037363
 30
0.0
 10
17.85362050605817
 20
-6.777869274722322
 30
0.0
 10
17.29199328467885
 20
-7.037633846425762
 30
0.0
 10
16.21337848928093
 20
-7.389304282357061
 30
0.0
 10
14.65442530267901
 20
-7.790168438354611
 30
0.0
 10
13.10637400745241
 20
-7.990951452199709
 30
0.0
 10
11.5581129960582
 20
-8.026336377007002
 30
0.0
 10
10.52496184498936
 20
-7.895136961682257
 30
0.0
 10
10.00803219129797
 20
-7.829492289788734
 30
0.0
  0
LINE
  5
C0
330
1F
100
AcDbEntity
  8
0
  6
Continuous
 62
     1
370
    25
100
AcDbLine
 10
42.00803219129818
 20
-0.4999999999999932
 30
0.0
 11
42.00803219129818
 21
-5.869334219275746
 31
0.0
  0
ELLIPSE
  5
C1
330
1F
100
AcDbEntity
  8
0
  6
Continuous
 62
     1
370
    25
100
AcDbEllipse
 10
42.72210619466923
 20
0.0000000000000047
 30
0.0
 11
11.42518405393689
 21
0.0
 31
0.0
210
0.0
220
0.0
230
1.0
 40
0.7002075382097119
 41
1.633337088591387
 42
1.709527352206388
  0
LINE
  5
C2
330
1F
100
AcDbEntity
  8
0
  6
Continuous
 62
     1
370
    25
100
AcDbLine
 10
42.00803219129818
 20
1.954277833643316
 30
0.0
 11
42.00803219129818
 21
7.984359711335666
 31
0.0
  0
LINE
  5
C3
330
1F
100
AcDbEntity
  8
0
  6
Continuous
 62
     1
370
    25
100
AcDbLine
 10
42.00803219129818
 20
7.984359711335666
 30
0.0
 11
42.00803219129818
 21
8.000000000000009
 31
0.0
  0
LINE
  5
C4
330
1F
100
AcDbEntity
  8
중심선
100
AcDbLine
 10
-60.99196780870182
 20
0.0
 30
0.0
 11
49.00803219129817
 21
0.0000000000000134
 31
0.0
  0
CIRCLE
  5
C5
330
1F
100
AcDbEntity
  8
해칭선
100
AcDbCircle
 10
0.0
 20
0.0
 30
0.0
 40
3.000000000000001
  0
INSERT
  5
C6
330
1F
100
AcDbEntity
  8
0
  6
Continuous
 62
     7
100
AcDbBlockReference
 66
     1
  2
블럭10
 10
-20.44814782084246
 20
-52.04717430164393
 30
0.0
  0
ATTRIB
  5
C7
330
C6
100
AcDbEntity
  8
FORMAT
 62
     2
100
AcDbText
 10
-36.56740886027801
 20
-49.97180738881174
 30
0.0
 40
4.233333333333333
  1
SEME7116032E [ 4 FLUTE ]
 41
0.75
  7
SLDTEXTSTYLE0
 11
-36.56740886027801
 21
-52.08847405547841
 31
0.0
100
AcDbAttribute
  2
AUTOATTR0
 70
     0
 74
     1
  0
SEQEND
  5
C8
330
C6
100
AcDbEntity
  8
0
  6
Continuous
 62
     7
  0
HATCH
  5
C9
330
1F
100
AcDbEntity
  8
중심선
100
AcDbHatch
 10
0.0
 20
0.0
 30
0.0
210
0.0
220
0.0
230
1.0
  2
SOLID
 70
     1
 71
     0
 91
        1
 92
        0
 93
        4
 72
     1
 10
-14.73323851646161
 20
-35.8
 11
-18.17951376029889
 21
-35.8
 72
     1
 10
-18.17951376029889
 20
-35.8
 11
-20.30774361950294
 21
-38.33632558057259
 72
     1
 10
-20.30774361950294
 20
-38.33632558057259
 11
-16.86143529055248
 21
-38.3362861512701
 72
     1
 10
-16.86143529055248
 20
-38.3362861512701
 11
-14.73323851646161
 21
-35.8
 97
        0
 75
     0
 76
     1
 98
        1
 10
0.0
 20
0.0
  0
HATCH
  5
CA
330
1F
100
AcDbEntity
  8
중심선
100
AcDbHatch
 10
0.0
 20
0.0
 30
0.0
210
0.0
220
0.0
230
1.0
  2
SOLID
 70
     1
 71
     0
 91
        1
 92
        0
 93
        4
 72
     1
 10
-9.720474525425626
 20
-35.8
 11
-13.16674976926291
 21
-35.8
 72
     1
 10
-13.16674976926291
 20
-35.8
 11
-17.69788777762032
 21
-41.20000000000002
 72
     1
 10
-17.69788777762032
 20
-41.20000000000002
 11
-14.25161253378304
 21
-41.20000000000002
 72
     1
 10
-14.25161253378304
 20
-41.20000000000002
 11
-9.720474525425626
 21
-35.8
 97
        0
 75
     0
 76
     1
 98
        1
 10
0.0
 20
0.0
  0
HATCH
  5
CB
330
1F
100
AcDbEntity
  8
중심선
100
AcDbHatch
 10
0.0
 20
0.0
 30
0.0
210
0.0
220
0.0
230
1.0
  2
SOLID
 70
     1
 71
     0
 91
        1
 92
        0
 93
        4
 72
     1
 10
-4.707710534389731
 20
-35.79999999999997
 11
-8.153985778226874
 21
-35.8
 72
     1
 10
-8.153985778226874
 20
-35.8
 11
-15.20242268011612
 21
-44.20000000000002
 72
     1
 10
-15.20242268011612
 20
-44.20000000000002
 11
-11.75614743627884
 21
-44.20000000000002
 72
     1
 10
-11.75614743627884
 20
-44.20000000000002
 11
-4.707710534389731
 21
-35.79999999999997
 97
        0
 75
     0
 76
     1
 98
        1
 10
0.0
 20
0.0
  0
HATCH
  5
CC
330
1F
100
AcDbEntity
  8
중심선
100
AcDbHatch
 10
0.0
 20
0.0
 30
0.0
210
0.0
220
0.0
230
1.0
  2
SOLID
 70
     1
 71
     0
 91
        1
 92
        0
 93
        6
 72
     3
 10
0.0921798966224407
 20
-40.00000000005127
 11
3.960054785062284
 21
1.540850780301639E-10
 40
0.3939339440162633
 50
17.09539180608433
 51
320.0019657685079
 73
     0
 72
     1
 10
1.775179552323036
 20
-38.5878940046383
 11
4.080481426024102
 21
-36.65356729459035
 72
     3
 10
0.0921798965695941
 20
-40.00000000000015
 11
6.600054785286829
 21
-1.249000902703301E-13
 40
0.6363583540795982
 50
39.99873849337412
 51
368.4976242363724
 73
     1
 72
     1
 10
6.517512388470204
 20
-39.03999999993002
 11
-1.227752796594483
 21
-39.03999999992999
 72
     1
 10
-1.227752796594483
 20
-39.03999999992999
 11
-1.227777841040417
 21
-40.95999999992991
 72
     1
 10
-1.227777841040417
 20
-40.95999999992991
 11
3.213601928431619
 21
-40.95999999992988
 97
        0
 75
     0
 76
     1
 98
        1
 10
0.0
 20
0.0
  0
DIMENSION
  5
CD
330
1F
100
AcDbEntity
  8
치수문자_일반주서
100
AcDbDimension
  2
_D
 10
57.16580842973535
 20
8.000000000000066
 30
0.0
 11
57.16580842973531
 21
18.54150000000006
 31
0.0
 70
   160
  1
%%c<>
 71
     2
 42
16.00000000000001
 52
-270.0
  3
SLDDIMSTYLE0
100
AcDbAlignedDimension
 13
42.00803219129822
 23
-8.000000000000002
 33
0.0
 14
42.00803219129822
 24
8.000000000000009
 34
0.0
 50
90.0000000000002
100
AcDbRotatedDimension
  0
DIMENSION
  5
DB
330
1F
100
AcDbEntity
  8
치수문자_일반주서
100
AcDbDimension
  2
_D_1
 10
42.00803219129819
 20
25.38913260158164
 30
0.0
 11
-7.991967808701821
 21
25.38913260158164
 31
0.0
 70
   160
  1
<>
 71
     2
 42
100.0
  3
SLDDIMSTYLE1
100
AcDbAlignedDimension
 13
-57.99196780870182
 23
7.499999999999999
 33
0.0
 14
42.00803219129818
 24
8.000000000000009
 34
0.0
 50
-0.0000000000000061
100
AcDbRotatedDimension
  0
DIMENSION
  5
E6
330
1F
100
AcDbEntity
  8
치수문자_일반주서
100
AcDbDimension
  2
_D_2
 10
-70.32938328342034
 20
-8.000000000000053
 30
0.0
 11
-70.32938328342044
 21
18.54149999999996
 31
0.0
 70
   160
  1
%%c<>
 71
     2
 42
16.00000000000001
 52
-270.0
  3
SLDDIMSTYLE2
100
AcDbAlignedDimension
 13
-57.49196780870182
 23
8.00000000000001
 33
0.0
 14
-57.49196780870182
 24
-8.000000000000004
 34
0.0
 50
90.0000000000002
100
AcDbRotatedDimension
  0
DIMENSION
  5
F4
330
1F
100
AcDbEntity
  8
치수문자_일반주서
100
AcDbDimension
  2
_D_3
 10
42.00803219129818
 20
18.84591830258765
 30
0.0
 11
26.00803219129817
 21
18.84591830258765
 31
0.0
 70
   160
  1
<>
 71
     2
 42
32.00000000000001
  3
SLDDIMSTYLE1
100
AcDbAlignedDimension
 13
10.00803219129818
 23
8.000000000000004
 33
0.0
 14
42.00803219129818
 24
8.000000000000009
 34
0.0
 50
-0.0000000000000064
100
AcDbRotatedDimension
  0
INSERT
  5
104
330
1F
100
AcDbEntity
  8
해칭선
100
AcDbBlockReference
  2
SW_DOWELSYMBOL_0
 10
0.0
 20
0.0
 30
0.0
  0
LINE
  5
12A
330
1F
100
AcDbEntity
  8
0
  6
Continuous
 62
     4
370
    25
100
AcDbLine
 10
10.00803219129818
 20
8.000000000000007
 30
0.0
 11
10.00803219129818
 21
-7.999999999999999
 31
0.0
  0
ENDSEC
  0
SECTION
  2
OBJECTS
  0
DICTIONARY
  5
C
330
0
100
AcDbDictionary
281
     1
  3
ACAD_GROUP
350
D
  3
ACAD_IMAGE_VARS
350
128
  3
ACAD_LAYOUT
350
1A
  3
ACAD_MLINESTYLE
350
17
  3
ACAD_PLOTSETTINGS
350
19
  3
ACAD_PLOTSTYLENAME
350
E
  3
ACAD_SCALELIST
350
47
  3
APPDATA
350
126
  3
DWGPROPS
350
15B
  0
DICTIONARY
  5
159
330
1F
100
AcDbDictionary
280
     1
281
     1
  3
DIM_BOUNDING_BOXES_V1
360
15A
  0
DICTIONARY
  5
D
102
{ACAD_REACTORS
330
C
102
}
330
C
100
AcDbDictionary
281
     1
  0
RASTERVARIABLES
  5
128
102
{ACAD_REACTORS
330
C
102
}
330
C
100
AcDbRasterVariables
 90
        0
 70
     1
 71
     1
 72
     1
  0
DICTIONARY
  5
1A
102
{ACAD_REACTORS
330
C
102
}
330
C
100
AcDbDictionary
281
     1
  3
Layout1
350
1E
  3
Layout2
350
26
  3
Model
350
22
  0
DICTIONARY
  5
17
102
{ACAD_REACTORS
330
C
102
}
330
C
100
AcDbDictionary
281
     1
  3
Standard
350
18
  0
DICTIONARY
  5
19
102
{ACAD_REACTORS
330
C
102
}
330
C
100
AcDbDictionary
281
     1
  0
ACDBDICTIONARYWDFLT
  5
E
102
{ACAD_REACTORS
330
C
102
}
330
C
100
AcDbDictionary
281
     1
  3
Normal
350
F
100
AcDbDictionaryWithDefault
340
F
  0
DICTIONARY
  5
47
102
{ACAD_REACTORS
330
C
102
}
330
C
100
AcDbDictionary
281
     1
  3
A0
350
48
  3
A1
350
49
  3
A2
350
4A
  3
A3
350
4B
  3
A4
350
4C
  3
A5
350
4D
  3
A6
350
4E
  3
A7
350
4F
  3
A8
350
50
  3
A9
350
51
  3
B0
350
52
  3
B1
350
53
  3
B2
350
54
  3
B3
350
55
  3
B4
350
56
  3
B5
350
57
  3
B6
350
58
  3
B7
350
59
  3
B8
350
5A
  3
B9
350
5B
  3
C0
350
5C
  3
C1
350
5D
  3
C2
350
5E
  3
C3
350
5F
  3
C4
350
60
  3
C5
350
61
  3
C6
350
62
  3
C7
350
63
  3
C8
350
64
  3
C9
350
65
  3
D0
350
66
  3
D1
350
67
  3
D2
350
68
  0
DICTIONARY
  5
126
102
{ACAD_REACTORS
330
C
102
}
330
C
100
AcDbDictionary
281
     1
  0
XRECORD
  5
15B
102
{ACAD_REACTORS
330
C
102
}
330
C
100
AcDbXrecord
280
     1
  1
DWGPROPS COOKIE
  2

  3

  4

  6

  7

  8
12014102
  9

300
=
301
=
302
=
303
=
304
=
305
=
306
=
307
=
308
=
309
=
 40
0.0
 41
2458260.120814063
 42
2459699.368737997
  1

 90
        0
  0
DICTIONARY
  5
15A
102
{ACAD_REACTORS
330
159
102
}
330
159
100
AcDbDictionary
281
     1
  0
LAYOUT
  5
1E
102
{ACAD_REACTORS
330
1A
102
}
330
1A
100
AcDbPlotSettings
  1

  2
none_device
  4

  6

 40
0.0
 41
0.0
 42
0.0
 43
0.0
 44
0.0
 45
0.0
 46
0.0
 47
0.0
 48
0.0
 49
0.0
140
0.0
141
0.0
142
1.0
143
1.0
 70
   688
 72
     1
 73
     0
 74
     5
  7

 75
    16
147
1.0
148
0.0
149
0.0
100
AcDbLayout
  1
Layout1
 70
     1
 71
     1
 10
0.0
 20
0.0
 11
420.0
 21
297.0
 12
0.0
 22
0.0
 32
0.0
 14
1.000000000000000E+20
 24
1.000000000000000E+20
 34
1.000000000000000E+20
 15
-1.000000000000000E+20
 25
-1.000000000000000E+20
 35
-1.000000000000000E+20
146
0.0
 13
0.0
 23
0.0
 33
0.0
 16
1.0
 26
0.0
 36
0.0
 17
0.0
 27
1.0
 37
0.0
 76
     0
330
1B
  0
LAYOUT
  5
26
102
{ACAD_REACTORS
330
1A
102
}
330
1A
100
AcDbPlotSettings
  1

  2
none_device
  4

  6

 40
0.0
 41
0.0
 42
0.0
 43
0.0
 44
0.0
 45
0.0
 46
0.0
 47
0.0
 48
0.0
 49
0.0
140
0.0
141
0.0
142
1.0
143
1.0
 70
   688
 72
     1
 73
     0
 74
     5
  7

 75
    16
147
1.0
148
0.0
149
0.0
100
AcDbLayout
  1
Layout2
 70
     1
 71
     2
 10
0.0
 20
0.0
 11
0.0
 21
0.0
 12
0.0
 22
0.0
 32
0.0
 14
0.0
 24
0.0
 34
0.0
 15
0.0
 25
0.0
 35
0.0
146
0.0
 13
0.0
 23
0.0
 33
0.0
 16
1.0
 26
0.0
 36
0.0
 17
0.0
 27
1.0
 37
0.0
 76
     0
330
23
  0
LAYOUT
  5
22
102
{ACAD_REACTORS
330
1A
102
}
330
1A
100
AcDbPlotSettings
  1

  2
none_device
  4
ANSI_A_(11.00_x_8.50_Inches)
  6

 40
6.35
 41
19.05
 42
6.35000508
 43
19.05000254
 44
279.4
 45
215.9
 46
147.9827242776575
 47
110.2458816213881
 48
0.0
 49
0.0
140
0.0
141
0.0
142
0.0807487851913163
143
1.0
 70
  1696
 72
     0
 73
     0
 74
     0
  7

 75
     0
147
0.0235690232323232
148
0.0
149
0.0
100
AcDbLayout
  1
Model
 70
     1
 71
     0
 10
0.0
 20
0.0
 11
420.0
 21
297.0
 12
0.0
 22
0.0
 32
0.0
 14
-74.70438328342046
 24
-49.97180738881174
 34
0.0
 15
57.71614176306876
 25
29.76413260158164
 35
0.0
146
0.0
 13
0.0
 23
0.0
 33
0.0
 16
1.0
 26
0.0
 36
0.0
 17
0.0
 27
1.0
 37
0.0
 76
     0
330
1F
331
29
  0
MLINESTYLE
  5
18
102
{ACAD_REACTORS
330
17
102
}
330
17
100
AcDbMlineStyle
  2
Standard
 70
     0
  3

 62
   256
 51
90.0
 52
90.0
 71
     2
 49
0.5
 62
   256
  6
BYLAYER
 49
-0.5
 62
   256
  6
BYLAYER
  0
ACDBPLACEHOLDER
  5
F
102
{ACAD_REACTORS
330
E
102
}
330
E
  0
SCALE
  5
48
102
{ACAD_REACTORS
330
47
102
}
330
47
100
AcDbScale
 70
     0
300
1:1
140
1.0
141
1.0
290
     1
  0
SCALE
  5
49
102
{ACAD_REACTORS
330
47
102
}
330
47
100
AcDbScale
 70
     0
300
1:2
140
1.0
141
2.0
290
     0
  0
SCALE
  5
4A
102
{ACAD_REACTORS
330
47
102
}
330
47
100
AcDbScale
 70
     0
300
1:4
140
1.0
141
4.0
290
     0
  0
SCALE
  5
4B
102
{ACAD_REACTORS
330
47
102
}
330
47
100
AcDbScale
 70
     0
300
1:5
140
1.0
141
5.0
290
     0
  0
SCALE
  5
4C
102
{ACAD_REACTORS
330
47
102
}
330
47
100
AcDbScale
 70
     0
300
1:8
140
1.0
141
8.0
290
     0
  0
SCALE
  5
4D
102
{ACAD_REACTORS
330
47
102
}
330
47
100
AcDbScale
 70
     0
300
1:10
140
1.0
141
10.0
290
     0
  0
SCALE
  5
4E
102
{ACAD_REACTORS
330
47
102
}
330
47
100
AcDbScale
 70
     0
300
1:16
140
1.0
141
16.0
290
     0
  0
SCALE
  5
4F
102
{ACAD_REACTORS
330
47
102
}
330
47
100
AcDbScale
 70
     0
300
1:20
140
1.0
141
20.0
290
     0
  0
SCALE
  5
50
102
{ACAD_REACTORS
330
47
102
}
330
47
100
AcDbScale
 70
     0
300
1:30
140
1.0
141
30.0
290
     0
  0
SCALE
  5
51
102
{ACAD_REACTORS
330
47
102
}
330
47
100
AcDbScale
 70
     0
300
1:40
140
1.0
141
40.0
290
     0
  0
SCALE
  5
52
102
{ACAD_REACTORS
330
47
102
}
330
47
100
AcDbScale
 70
     0
300
1:50
140
1.0
141
50.0
290
     0
  0
SCALE
  5
53
102
{ACAD_REACTORS
330
47
102
}
330
47
100
AcDbScale
 70
     0
300
1:100
140
1.0
141
100.0
290
     0
  0
SCALE
  5
54
102
{ACAD_REACTORS
330
47
102
}
330
47
100
AcDbScale
 70
     0
300
2:1
140
2.0
141
1.0
290
     0
  0
SCALE
  5
55
102
{ACAD_REACTORS
330
47
102
}
330
47
100
AcDbScale
 70
     0
300
4:1
140
4.0
141
1.0
290
     0
  0
SCALE
  5
56
102
{ACAD_REACTORS
330
47
102
}
330
47
100
AcDbScale
 70
     0
300
8:1
140
8.0
141
1.0
290
     0
  0
SCALE
  5
57
102
{ACAD_REACTORS
330
47
102
}
330
47
100
AcDbScale
 70
     0
300
10:1
140
10.0
141
1.0
290
     0
  0
SCALE
  5
58
102
{ACAD_REACTORS
330
47
102
}
330
47
100
AcDbScale
 70
     0
300
100:1
140
100.0
141
1.0
290
     0
  0
SCALE
  5
59
102
{ACAD_REACTORS
330
47
102
}
330
47
100
AcDbScale
 70
     0
300
1/128" = 1'-0"
140
0.0078125
141
12.0
290
     0
  0
SCALE
  5
5A
102
{ACAD_REACTORS
330
47
102
}
330
47
100
AcDbScale
 70
     0
300
1/64" = 1'-0"
140
0.015625
141
12.0
290
     0
  0
SCALE
  5
5B
102
{ACAD_REACTORS
330
47
102
}
330
47
100
AcDbScale
 70
     0
300
1/32" = 1'-0"
140
0.03125
141
12.0
290
     0
  0
SCALE
  5
5C
102
{ACAD_REACTORS
330
47
102
}
330
47
100
AcDbScale
 70
     0
300
1/16" = 1'-0"
140
0.0625
141
12.0
290
     0
  0
SCALE
  5
5D
102
{ACAD_REACTORS
330
47
102
}
330
47
100
AcDbScale
 70
     0
300
3/32" = 1'-0"
140
0.09375
141
12.0
290
     0
  0
SCALE
  5
5E
102
{ACAD_REACTORS
330
47
102
}
330
47
100
AcDbScale
 70
     0
300
1/8" = 1'-0"
140
0.125
141
12.0
290
     0
  0
SCALE
  5
5F
102
{ACAD_REACTORS
330
47
102
}
330
47
100
AcDbScale
 70
     0
300
3/16" = 1'-0"
140
0.1875
141
12.0
290
     0
  0
SCALE
  5
60
102
{ACAD_REACTORS
330
47
102
}
330
47
100
AcDbScale
 70
     0
300
1/4" = 1'-0"
140
0.25
141
12.0
290
     0
  0
SCALE
  5
61
102
{ACAD_REACTORS
330
47
102
}
330
47
100
AcDbScale
 70
     0
300
3/8" = 1'-0"
140
0.375
141
12.0
290
     0
  0
SCALE
  5
62
102
{ACAD_REACTORS
330
47
102
}
330
47
100
AcDbScale
 70
     0
300
1/2" = 1'-0"
140
0.5
141
12.0
290
     0
  0
SCALE
  5
63
102
{ACAD_REACTORS
330
47
102
}
330
47
100
AcDbScale
 70
     0
300
3/4" = 1'-0"
140
0.75
141
12.0
290
     0
  0
SCALE
  5
64
102
{ACAD_REACTORS
330
47
102
}
330
47
100
AcDbScale
 70
     0
300
1" = 1'-0"
140
1.0
141
12.0
290
     0
  0
SCALE
  5
65
102
{ACAD_REACTORS
330
47
102
}
330
47
100
AcDbScale
 70
     0
300
1-1/2" = 1'-0"
140
1.5
141
12.0
290
     0
  0
SCALE
  5
66
102
{ACAD_REACTORS
330
47
102
}
330
47
100
AcDbScale
 70
     0
300
3" = 1'-0"
140
3.0
141
12.0
290
     0
  0
SCALE
  5
67
102
{ACAD_REACTORS
330
47
102
}
330
47
100
AcDbScale
 70
     0
300
6" = 1'-0"
140
6.0
141
12.0
290
     0
  0
SCALE
  5
68
102
{ACAD_REACTORS
330
47
102
}
330
47
100
AcDbScale
 70
     0
300
1'-0" = 1'-0"
140
12.0
141
12.0
290
     0
  0
ENDSEC
  0
EOF
