  0
SECTION
  2
HEADER
  9
$ACADVER
  1
AC1015
  9
$ACADMAINTVER
 70
     6
  9
$DWGCODEPAGE
  3
ANSI_949
  9
$INSBASE
 10
0.0
 20
0.0
 30
0.0
  9
$EXTMIN
 10
-46.3952813268447
 20
-49.97180738881174
 30
0.0
  9
$EXTMAX
 10
65.10068798098655
 20
27.80543320531702
 30
0.0
  9
$LIMMIN
 10
0.0
 20
0.0
  9
$LIMMAX
 10
420.0
 20
297.0
  9
$ORTHOMODE
 70
     0
  9
$REGENMODE
 70
     1
  9
$FILLMODE
 70
     1
  9
$QTEXTMODE
 70
     0
  9
$MIRRTEXT
 70
     1
  9
$LTSCALE
 40
1.0
  9
$ATTMODE
 70
     1
  9
$TEXTSIZE
 40
3.5
  9
$TRACEWID
 40
1.0
  9
$TEXTSTYLE
  7
Standard
  9
$CLAYER
  8
0
  9
$CELTYPE
  6
ByLayer
  9
$CECOLOR
 62
   256
  9
$CELTSCALE
 40
1.0
  9
$DISPSILH
 70
     0
  9
$DIMSCALE
 40
1.0
  9
$DIMASZ
 40
3.302
  9
$DIMEXO
 40
1.0
  9
$DIMDLI
 40
3.75
  9
$DIMRND
 40
0.0
  9
$DIMDLE
 40
0.0
  9
$DIMEXE
 40
1.0
  9
$DIMTP
 40
0.0
  9
$DIMTM
 40
0.0
  9
$DIMTXT
 40
3.5
  9
$DIMCEN
 40
2.5
  9
$DIMTSZ
 40
0.0
  9
$DIMTOL
 70
     0
  9
$DIMLIM
 70
     0
  9
$DIMTIH
 70
     1
  9
$DIMTOH
 70
     1
  9
$DIMSE1
 70
     0
  9
$DIMSE2
 70
     0
  9
$DIMTAD
 70
     1
  9
$DIMZIN
 70
     0
  9
$DIMBLK
  1

  9
$DIMASO
 70
     1
  9
$DIMSHO
 70
     1
  9
$DIMPOST
  1

  9
$DIMAPOST
  1

  9
$DIMALT
 70
     0
  9
$DIMALTD
 70
     3
  9
$DIMALTF
 40
0.0393700787401575
  9
$DIMLFAC
 40
1.0
  9
$DIMTOFL
 70
     1
  9
$DIMTVP
 40
0.0
  9
$DIMTIX
 70
     0
  9
$DIMSOXD
 70
     0
  9
$DIMSAH
 70
     0
  9
$DIMBLK1
  1

  9
$DIMBLK2
  1

  9
$DIMSTYLE
  2
ISO-25
  9
$DIMCLRD
 70
     0
  9
$DIMCLRE
 70
     0
  9
$DIMCLRT
 70
     0
  9
$DIMTFAC
 40
1.0
  9
$DIMGAP
 40
1.524
  9
$DIMJUST
 70
     0
  9
$DIMSD1
 70
     0
  9
$DIMSD2
 70
     0
  9
$DIMTOLJ
 70
     0
  9
$DIMTZIN
 70
     0
  9
$DIMALTZ
 70
     0
  9
$DIMALTTZ
 70
     0
  9
$DIMUPT
 70
     0
  9
$DIMDEC
 70
     2
  9
$DIMTDEC
 70
     2
  9
$DIMALTU
 70
     2
  9
$DIMALTTD
 70
     3
  9
$DIMTXSTY
  7
Standard
  9
$DIMAUNIT
 70
     0
  9
$DIMADEC
 70
     2
  9
$DIMALTRND
 40
0.0
  9
$DIMAZIN
 70
     0
  9
$DIMDSEP
 70
    44
  9
$DIMATFIT
 70
     3
  9
$DIMFRAC
 70
     0
  9
$DIMLDRBLK
  1

  9
$DIMLUNIT
 70
     2
  9
$DIMLWD
 70
    -2
  9
$DIMLWE
 70
    -2
  9
$DIMTMOVE
 70
     0
  9
$LUNITS
 70
     2
  9
$LUPREC
 70
     2
  9
$SKETCHINC
 40
1.0
  9
$FILLETRAD
 40
10.0
  9
$AUNITS
 70
     0
  9
$AUPREC
 70
     2
  9
$MENU
  1
.
  9
$ELEVATION
 40
0.0
  9
$PELEVATION
 40
0.0
  9
$THICKNESS
 40
0.0
  9
$LIMCHECK
 70
     0
  9
$CHAMFERA
 40
0.0
  9
$CHAMFERB
 40
0.0
  9
$CHAMFERC
 40
0.0
  9
$CHAMFERD
 40
0.0
  9
$SKPOLY
 70
     0
  9
$TDCREATE
 40
2458260.495246585
  9
$TDUCREATE
 40
2458260.120246585
  9
$TDUPDATE
 40
2458267.737120463
  9
$TDUUPDATE
 40
2458267.362120463
  9
$TDINDWG
 40
0.001519294
  9
$TDUSRTIMER
 40
2458267.360601215
  9
$USRTIMER
 70
     1
  9
$ANGBASE
 50
0.0
  9
$ANGDIR
 70
     0
  9
$PDMODE
 70
     0
  9
$PDSIZE
 40
-1.0
  9
$PLINEWID
 40
0.0
  9
$SPLFRAME
 70
     0
  9
$SPLINETYPE
 70
     6
  9
$SPLINESEGS
 70
     8
  9
$HANDSEED
  5
13F
  9
$SURFTAB1
 70
     6
  9
$SURFTAB2
 70
     6
  9
$SURFTYPE
 70
     6
  9
$SURFU
 70
     6
  9
$SURFV
 70
     6
  9
$UCSBASE
  2

  9
$UCSNAME
  2

  9
$UCSORG
 10
0.0
 20
0.0
 30
0.0
  9
$UCSXDIR
 10
1.0
 20
0.0
 30
0.0
  9
$UCSYDIR
 10
0.0
 20
1.0
 30
0.0
  9
$UCSORTHOREF
  2

  9
$UCSORTHOVIEW
 70
     0
  9
$UCSORGTOP
 10
0.0
 20
0.0
 30
0.0
  9
$UCSORGBOTTOM
 10
0.0
 20
0.0
 30
0.0
  9
$UCSORGLEFT
 10
0.0
 20
0.0
 30
0.0
  9
$UCSORGRIGHT
 10
0.0
 20
0.0
 30
0.0
  9
$UCSORGFRONT
 10
0.0
 20
0.0
 30
0.0
  9
$UCSORGBACK
 10
0.0
 20
0.0
 30
0.0
  9
$PUCSBASE
  2

  9
$PUCSNAME
  2

  9
$PUCSORG
 10
0.0
 20
0.0
 30
0.0
  9
$PUCSXDIR
 10
1.0
 20
0.0
 30
0.0
  9
$PUCSYDIR
 10
0.0
 20
1.0
 30
0.0
  9
$PUCSORTHOREF
  2

  9
$PUCSORTHOVIEW
 70
     0
  9
$PUCSORGTOP
 10
0.0
 20
0.0
 30
0.0
  9
$PUCSORGBOTTOM
 10
0.0
 20
0.0
 30
0.0
  9
$PUCSORGLEFT
 10
0.0
 20
0.0
 30
0.0
  9
$PUCSORGRIGHT
 10
0.0
 20
0.0
 30
0.0
  9
$PUCSORGFRONT
 10
0.0
 20
0.0
 30
0.0
  9
$PUCSORGBACK
 10
0.0
 20
0.0
 30
0.0
  9
$USERI1
 70
     0
  9
$USERI2
 70
     0
  9
$USERI3
 70
     0
  9
$USERI4
 70
     0
  9
$USERI5
 70
     0
  9
$USERR1
 40
0.0
  9
$USERR2
 40
0.0
  9
$USERR3
 40
0.0
  9
$USERR4
 40
0.0
  9
$USERR5
 40
0.0
  9
$WORLDVIEW
 70
     1
  9
$SHADEDGE
 70
     3
  9
$SHADEDIF
 70
    70
  9
$TILEMODE
 70
     1
  9
$MAXACTVP
 70
    64
  9
$PINSBASE
 10
0.0
 20
0.0
 30
0.0
  9
$PLIMCHECK
 70
     0
  9
$PEXTMIN
 10
1.000000000000000E+20
 20
1.000000000000000E+20
 30
1.000000000000000E+20
  9
$PEXTMAX
 10
-1.000000000000000E+20
 20
-1.000000000000000E+20
 30
-1.000000000000000E+20
  9
$PLIMMIN
 10
0.0
 20
0.0
  9
$PLIMMAX
 10
0.0
 20
0.0
  9
$UNITMODE
 70
     0
  9
$VISRETAIN
 70
     1
  9
$PLINEGEN
 70
     0
  9
$PSLTSCALE
 70
     1
  9
$TREEDEPTH
 70
  3020
  9
$CMLSTYLE
  2
Standard
  9
$CMLJUST
 70
     0
  9
$CMLSCALE
 40
20.0
  9
$PROXYGRAPHICS
 70
     1
  9
$MEASUREMENT
 70
     1
  9
$CELWEIGHT
370
    -1
  9
$ENDCAPS
280
     0
  9
$JOINSTYLE
280
     0
  9
$LWDISPLAY
290
     1
  9
$INSUNITS
 70
     4
  9
$HYPERLINKBASE
  1

  9
$STYLESHEET
  1

  9
$XEDIT
290
     1
  9
$CEPSNTYPE
380
     0
  9
$PSTYLEMODE
290
     1
  9
$FINGERPRINTGUID
  2
{AE14A42B-508A-43EB-A45D-5C28D69712C5}
  9
$VERSIONGUID
  2
{FAEB1C32-E019-11D5-929B-00C0DF256EC4}
  9
$EXTNAMES
290
     1
  9
$PSVPSCALE
 40
0.0
  9
$OLESTARTUP
290
     0
  0
ENDSEC
  0
SECTION
  2
CLASSES
  0
CLASS
  1
ACDBDICTIONARYWDFLT
  2
AcDbDictionaryWithDefault
  3
ObjectDBX Classes
 90
        0
280
     0
281
     0
  0
CLASS
  1
VISUALSTYLE
  2
AcDbVisualStyle
  3
ObjectDBX Classes
 90
     4095
280
     0
281
     0
  0
CLASS
  1
MATERIAL
  2
AcDbMaterial
  3
ObjectDBX Classes
 90
     1153
280
     0
281
     0
  0
CLASS
  1
SCALE
  2
AcDbScale
  3
ObjectDBX Classes
 90
     1153
280
     0
281
     0
  0
CLASS
  1
TABLESTYLE
  2
AcDbTableStyle
  3
ObjectDBX Classes
 90
     4095
280
     0
281
     0
  0
CLASS
  1
MLEADERSTYLE
  2
AcDbMLeaderStyle
  3
ACDB_MLEADERSTYLE_CLASS
 90
     4095
280
     0
281
     0
  0
CLASS
  1
SUN
  2
AcDbSun
  3
SCENEOE
 90
     1153
280
     0
281
     0
  0
CLASS
  1
ACDBPLACEHOLDER
  2
AcDbPlaceHolder
  3
ObjectDBX Classes
 90
        0
280
     0
281
     0
  0
CLASS
  1
LAYOUT
  2
AcDbLayout
  3
ObjectDBX Classes
 90
        0
280
     0
281
     0
  0
CLASS
  1
RASTERVARIABLES
  2
AcDbRasterVariables
  3
ISM
 90
        0
280
     0
281
     0
  0
ENDSEC
  0
SECTION
  2
TABLES
  0
TABLE
  2
VPORT
  5
8
330
0
100
AcDbSymbolTable
 70
     1
  0
VPORT
  5
29
330
8
100
AcDbSymbolTableRecord
100
AcDbViewportTableRecord
  2
*Active
 70
     0
 10
0.0
 20
0.0
 11
1.0
 21
1.0
 12
9.35270332707092
 22
-11.08318709174736
 13
0.0
 23
0.0
 14
10.0
 24
10.0
 15
10.0
 25
10.0
 16
0.0
 26
0.0
 36
1.0
 17
0.0
 27
0.0
 37
0.0
 40
79.33278540601133
 41
1.731266149870801
 42
50.0
 43
0.0
 44
0.0
 50
0.0
 51
0.0
 71
    16
 72
  2000
 73
     1
 74
     3
 75
     0
 76
     0
 77
     0
 78
     0
281
     0
 65
     1
110
0.0
120
0.0
130
0.0
111
1.0
121
0.0
131
0.0
112
0.0
122
1.0
132
0.0
 79
     0
146
0.0
  0
ENDTAB
  0
TABLE
  2
LTYPE
  5
5
330
0
100
AcDbSymbolTable
 70
     6
  0
LTYPE
  5
14
330
5
100
AcDbSymbolTableRecord
100
AcDbLinetypeTableRecord
  2
ByBlock
 70
     0
  3

 72
    65
 73
     0
 40
0.0
  0
LTYPE
  5
15
330
5
100
AcDbSymbolTableRecord
100
AcDbLinetypeTableRecord
  2
ByLayer
 70
     0
  3

 72
    65
 73
     0
 40
0.0
  0
LTYPE
  5
16
330
5
100
AcDbSymbolTableRecord
100
AcDbLinetypeTableRecord
  2
Continuous
 70
     0
  3
Solid line
 72
    65
 73
     0
 40
0.0
  0
LTYPE
  5
6E
330
5
100
AcDbSymbolTableRecord
100
AcDbLinetypeTableRecord
  2
HIDDEN
 70
     0
  3
Hidden __ __ __ __ __ __ __ __ __ __ __ __ __ __
 72
    65
 73
     2
 40
1.905
 49
1.27
 74
     0
 49
-0.635
 74
     0
  0
LTYPE
  5
6F
330
5
100
AcDbSymbolTableRecord
100
AcDbLinetypeTableRecord
  2
PHANTOM
 70
     0
  3
Phantom ______  __  __  ______  __  __  ______
 72
    65
 73
     6
 40
12.7
 49
6.35
 74
     0
 49
-1.27
 74
     0
 49
1.27
 74
     0
 49
-1.27
 74
     0
 49
1.27
 74
     0
 49
-1.27
 74
     0
  0
LTYPE
  5
70
330
5
100
AcDbSymbolTableRecord
100
AcDbLinetypeTableRecord
  2
CENTER
 70
     0
  3
Center ____ _ ____ _ ____ _ ____ _ ____ _ ____
 72
    65
 73
     4
 40
10.16
 49
6.35
 74
     0
 49
-1.27
 74
     0
 49
1.27
 74
     0
 49
-1.27
 74
     0
  0
LTYPE
  5
71
330
5
100
AcDbSymbolTableRecord
100
AcDbLinetypeTableRecord
  2
CENTERX2
 70
     0
  3
Center (2x) ________  __  ________  __  _____
 72
    65
 73
     4
 40
20.32
 49
12.7
 74
     0
 49
-2.54
 74
     0
 49
2.54
 74
     0
 49
-2.54
 74
     0
  0
LTYPE
  5
72
330
5
100
AcDbSymbolTableRecord
100
AcDbLinetypeTableRecord
  2
DOT2
 70
     0
  3
Dot (.5x) ........................................
 72
    65
 73
     2
 40
0.635
 49
0.0
 74
     0
 49
-0.635
 74
     0
  0
ENDTAB
  0
TABLE
  2
LAYER
  5
2
330
0
100
AcDbSymbolTable
 70
    17
  0
LAYER
  5
10
330
2
100
AcDbSymbolTableRecord
100
AcDbLayerTableRecord
  2
0
 70
     0
 62
     7
  6
Continuous
370
    -3
390
F
  0
LAYER
  5
73
330
2
100
AcDbSymbolTableRecord
100
AcDbLayerTableRecord
  2
FORMAT
 70
     0
 62
     2
  6
Continuous
370
    -3
390
F
  0
LAYER
  5
74
330
2
100
AcDbSymbolTableRecord
100
AcDbLayerTableRecord
  2
외형선
 70
     0
 62
   100
  6
Continuous
370
    35
390
F
  0
LAYER
  5
75
330
2
100
AcDbSymbolTableRecord
100
AcDbLayerTableRecord
  2
숨은선
 70
     0
 62
     2
  6
HIDDEN
370
    25
390
F
  0
LAYER
  5
76
330
2
100
AcDbSymbolTableRecord
100
AcDbLayerTableRecord
  2
중심선
 70
     0
 62
     1
  6
CENTERX2
370
    -3
390
F
  0
LAYER
  5
77
330
2
100
AcDbSymbolTableRecord
100
AcDbLayerTableRecord
  2
파단선
 70
     0
 62
     4
  6
Continuous
370
    -3
390
F
  0
LAYER
  5
78
330
2
100
AcDbSymbolTableRecord
100
AcDbLayerTableRecord
  2
해칭선
 70
     0
 62
   100
  6
Continuous
370
    -3
390
F
  0
LAYER
  5
79
330
2
100
AcDbSymbolTableRecord
100
AcDbLayerTableRecord
  2
가는실선
 70
     0
 62
     4
  6
Continuous
370
    -3
390
F
  0
LAYER
  5
7A
330
2
100
AcDbSymbolTableRecord
100
AcDbLayerTableRecord
  2
치수_보조선
 70
     0
 62
     4
  6
Continuous
370
    -3
390
F
  0
LAYER
  5
7B
330
2
100
AcDbSymbolTableRecord
100
AcDbLayerTableRecord
  2
치수문자_일반주서
 70
     0
 62
     7
  6
Continuous
370
    25
390
F
  0
LAYER
  5
7C
330
2
100
AcDbSymbolTableRecord
100
AcDbLayerTableRecord
  2
개별주서
 70
     0
 62
   100
  6
Continuous
370
    35
390
F
  0
LAYER
  5
7D
330
2
100
AcDbSymbolTableRecord
100
AcDbLayerTableRecord
  2
중간선
 70
     0
 62
     2
  6
Continuous
370
    25
390
F
  0
LAYER
  5
7E
330
2
100
AcDbSymbolTableRecord
100
AcDbLayerTableRecord
  2
윤곽선
 70
     0
 62
     3
  6
Continuous
370
    50
390
F
  0
LAYER
  5
7F
330
2
100
AcDbSymbolTableRecord
100
AcDbLayerTableRecord
  2
중심마크
 70
     0
 62
   100
  6
Continuous
370
    35
390
F
  0
LAYER
  5
80
330
2
100
AcDbSymbolTableRecord
100
AcDbLayerTableRecord
  2
가상선
 70
     0
 62
     4
  6
PHANTOM
370
    -3
390
F
  0
LAYER
  5
81
330
2
100
AcDbSymbolTableRecord
100
AcDbLayerTableRecord
  2
특수지정선
 70
     0
 62
     5
  6
CENTERX2
370
    70
390
F
  0
LAYER
  5
130
330
2
100
AcDbSymbolTableRecord
100
AcDbLayerTableRecord
  2
Defpoints
 70
     0
 62
     7
  6
Continuous
290
     0
370
    -3
390
F
  0
ENDTAB
  0
TABLE
  2
STYLE
  5
3
330
0
100
AcDbSymbolTable
 70
     2
  0
STYLE
  5
11
330
3
100
AcDbSymbolTableRecord
100
AcDbTextStyleTableRecord
  2
Standard
 70
     0
 40
0.0
 41
1.0
 50
0.0
 71
     0
 42
3.5
  3
txt
  4

  0
STYLE
  5
97
330
3
100
AcDbSymbolTableRecord
100
AcDbTextStyleTableRecord
  2
SLDTEXTSTYLE0
 70
     0
 40
0.0
 41
0.75
 50
0.0
 71
     0
 42
3.5
  3
TXT
  4

  0
ENDTAB
  0
TABLE
  2
VIEW
  5
6
330
0
100
AcDbSymbolTable
 70
     0
  0
ENDTAB
  0
TABLE
  2
UCS
  5
7
330
0
100
AcDbSymbolTable
 70
     0
  0
ENDTAB
  0
TABLE
  2
APPID
  5
9
330
0
100
AcDbSymbolTable
 70
     1
  0
APPID
  5
12
330
9
100
AcDbSymbolTableRecord
100
AcDbRegAppTableRecord
  2
ACAD
 70
     0
  0
ENDTAB
  0
TABLE
  2
DIMSTYLE
  5
A
330
0
100
AcDbSymbolTable
 70
     4
100
AcDbDimStyleTable
  0
DIMSTYLE
105
27
330
A
100
AcDbSymbolTableRecord
100
AcDbDimStyleTableRecord
  2
ISO-25
 70
     0
 41
2.5
 42
0.625
 43
3.75
 44
1.25
 73
     0
 74
     0
 77
     1
 78
     8
140
2.5
141
2.5
143
0.03937007874016
147
0.625
171
     3
172
     1
178
     0
271
     2
272
     2
274
     3
278
    44
283
     0
284
     8
340
11
  0
DIMSTYLE
105
D5
102
{ACAD_REACTORS
330
D4
102
}
330
A
100
AcDbSymbolTableRecord
100
AcDbDimStyleTableRecord
  2
SLDDIMSTYLE0
 70
     0
 41
3.302
 44
0.0
 45
0.000000001
 73
     0
 74
     0
 77
     1
 78
    12
 79
     3
140
3.5
147
0.875
172
     1
173
     1
178
     0
271
     1
272
     1
276
     2
284
    12
289
     0
340
97
  0
DIMSTYLE
105
E3
102
{ACAD_REACTORS
330
E2
330
FB
102
}
330
A
100
AcDbSymbolTableRecord
100
AcDbDimStyleTableRecord
  2
SLDDIMSTYLE1
 70
     0
 41
3.302
 44
0.0
 45
0.000000001
 73
     0
 74
     0
 77
     1
 78
    12
 79
     3
140
3.5
147
0.875
173
     1
178
     0
271
     2
272
     2
276
     2
284
    12
340
97
  0
DIMSTYLE
105
EE
102
{ACAD_REACTORS
330
ED
102
}
330
A
100
AcDbSymbolTableRecord
100
AcDbDimStyleTableRecord
  2
SLDDIMSTYLE2
 70
     0
 41
3.302
 44
0.0
 45
0.000000001
 73
     0
 74
     0
 77
     1
 78
    12
 79
     3
140
3.5
147
0.875
172
     1
173
     1
178
     0
271
     2
272
     2
276
     2
284
    12
289
     0
340
97
  0
ENDTAB
  0
TABLE
  2
BLOCK_RECORD
  5
1
330
0
100
AcDbSymbolTable
 70
     7
  0
BLOCK_RECORD
  5
1F
330
1
100
AcDbSymbolTableRecord
100
AcDbBlockTableRecord
  2
*Model_Space
340
22
  0
BLOCK_RECORD
  5
1B
330
1
100
AcDbSymbolTableRecord
100
AcDbBlockTableRecord
  2
*Paper_Space
340
1E
  0
BLOCK_RECORD
  5
23
330
1
100
AcDbSymbolTableRecord
100
AcDbBlockTableRecord
  2
*Paper_Space0
340
26
  0
BLOCK_RECORD
  5
82
330
1
100
AcDbSymbolTableRecord
100
AcDbBlockTableRecord
  2
블럭10
340
0
102
{BLKREFS
331
CD
102
}
  0
BLOCK_RECORD
  5
D6
330
1
100
AcDbSymbolTableRecord
100
AcDbBlockTableRecord
  2
_D
340
0
  0
BLOCK_RECORD
  5
E4
330
1
100
AcDbSymbolTableRecord
100
AcDbBlockTableRecord
  2
_D_1
340
0
  0
BLOCK_RECORD
  5
EF
330
1
100
AcDbSymbolTableRecord
100
AcDbBlockTableRecord
  2
_D_2
340
0
  0
BLOCK_RECORD
  5
FC
330
1
100
AcDbSymbolTableRecord
100
AcDbBlockTableRecord
  2
_D_3
340
0
  0
BLOCK_RECORD
  5
105
330
1
100
AcDbSymbolTableRecord
100
AcDbBlockTableRecord
  2
SW_DOWELSYMBOL_0
340
0
102
{BLKREFS
331
10B
102
}
  0
ENDTAB
  0
ENDSEC
  0
SECTION
  2
BLOCKS
  0
BLOCK
  5
20
330
1F
100
AcDbEntity
  8
0
100
AcDbBlockBegin
  2
*Model_Space
 70
     0
 10
0.0
 20
0.0
 30
0.0
  3
*Model_Space
  1

  0
ENDBLK
  5
21
330
1F
100
AcDbEntity
  8
0
100
AcDbBlockEnd
  0
BLOCK
  5
1C
330
1B
100
AcDbEntity
 67
     1
  8
0
100
AcDbBlockBegin
  2
*Paper_Space
 70
     0
 10
0.0
 20
0.0
 30
0.0
  3
*Paper_Space
  1

  0
ENDBLK
  5
1D
330
1B
100
AcDbEntity
 67
     1
  8
0
100
AcDbBlockEnd
  0
BLOCK
  5
24
330
23
100
AcDbEntity
  8
0
100
AcDbBlockBegin
  2
*Paper_Space0
 70
     0
 10
0.0
 20
0.0
 30
0.0
  3
*Paper_Space0
  1

  0
ENDBLK
  5
25
330
23
100
AcDbEntity
  8
0
100
AcDbBlockEnd
  0
BLOCK
  5
83
330
82
100
AcDbEntity
  8
0
100
AcDbBlockBegin
  2
블럭10
 70
     2
 10
0.0
 20
0.0
 30
0.0
  3
블럭10
  1

  0
ELLIPSE
  5
85
330
82
100
AcDbEntity
  8
중심선
100
AcDbEllipse
 10
20.54032771741204
 20
12.0471743016438
 30
0.0
 11
6.600054785286829
 21
-1.261213355974178E-13
 31
0.0
210
0.0
220
0.0
230
1.0
 40
0.636358354079598
 41
0.9219305317359503
 42
6.513795318482858
  0
ELLIPSE
  5
86
330
82
100
AcDbEntity
  8
중심선
100
AcDbEllipse
 10
20.54032771746488
 20
12.04717430159265
 30
0.0
 11
3.960054785062283
 21
1.540847449632565E-10
 31
0.0
210
0.0
220
0.0
230
1.0
 40
0.3939339440162632
 41
1.131841032648279
 42
5.62031148352944
  0
LINE
  5
87
330
82
100
AcDbEntity
  8
중심선
100
AcDbLine
 10
2.268634060543552
 20
16.24717430164393
 30
0.0
 11
5.714909304380834
 21
16.24717430164393
 31
0.0
  0
LINE
  5
88
330
82
100
AcDbEntity
  8
중심선
100
AcDbLine
 10
5.245725140726316
 20
7.84717430164391
 30
0.0
 11
8.692000384563599
 21
7.84717430164391
 31
0.0
  0
LINE
  5
89
330
82
100
AcDbEntity
  8
중심선
100
AcDbLine
 10
15.74043728645272
 20
16.24717430164393
 30
0.0
 11
8.692000384563599
 21
7.84717430164391
 31
0.0
  0
LINE
  5
8A
330
82
100
AcDbEntity
  8
중심선
100
AcDbLine
 10
0.1404042013395286
 20
13.71084872107135
 30
0.0
 11
3.58671253028996
 21
13.71088815037384
 31
0.0
  0
LINE
  5
8B
330
82
100
AcDbEntity
  8
중심선
100
AcDbLine
 10
2.750260043222114
 20
10.84717430164391
 30
0.0
 11
6.196535287059397
 21
10.84717430164391
 31
0.0
  0
LINE
  5
8C
330
82
100
AcDbEntity
  8
중심선
100
AcDbLine
 10
12.29416204261559
 20
16.24717430164393
 30
0.0
 11
5.245725140726316
 21
7.84717430164391
 31
0.0
  0
LINE
  5
8D
330
82
100
AcDbEntity
  8
중심선
100
AcDbLine
 10
10.72767329541681
 20
16.24717430164393
 30
0.0
 11
6.196535287059397
 21
10.84717430164391
 31
0.0
  0
LINE
  5
8E
330
82
100
AcDbEntity
  8
중심선
100
AcDbLine
 10
7.28139805157953
 20
16.24717430164393
 30
0.0
 11
2.750260043222114
 21
10.84717430164391
 31
0.0
  0
LINE
  5
8F
330
82
100
AcDbEntity
  8
중심선
100
AcDbLine
 10
5.714909304380834
 20
16.24717430164393
 30
0.0
 11
3.58671253028996
 21
13.71088815037384
 31
0.0
  0
LINE
  5
90
330
82
100
AcDbEntity
  8
중심선
100
AcDbLine
 10
2.268634060543552
 20
16.24717430164393
 30
0.0
 11
0.1404042013395286
 21
13.71084872107135
 31
0.0
  0
LINE
  5
91
330
82
100
AcDbEntity
  8
중심선
100
AcDbLine
 10
7.28139805157953
 20
16.24717430164393
 30
0.0
 11
10.72767329541681
 21
16.24717430164393
 31
0.0
  0
LINE
  5
92
330
82
100
AcDbEntity
  8
중심선
100
AcDbLine
 10
12.29416204261559
 20
16.24717430164393
 30
0.0
 11
15.74043728645272
 21
16.24717430164393
 31
0.0
  0
LINE
  5
93
330
82
100
AcDbEntity
  8
중심선
100
AcDbLine
 10
19.22036997980202
 20
11.08717430171403
 30
0.0
 11
23.66174974927406
 21
11.08717430171406
 31
0.0
  0
LINE
  5
94
330
82
100
AcDbEntity
  8
중심선
100
AcDbLine
 10
19.22039502424796
 20
13.00717430171391
 30
0.0
 11
19.22036997980202
 21
11.08717430171403
 31
0.0
  0
LINE
  5
95
330
82
100
AcDbEntity
  8
중심선
100
AcDbLine
 10
19.22039502424796
 20
13.00717430171391
 30
0.0
 11
26.96566020931264
 21
13.00717430171391
 31
0.0
  0
LINE
  5
96
330
82
100
AcDbEntity
  8
중심선
100
AcDbLine
 10
22.22332737316547
 20
13.45928029700563
 30
0.0
 11
24.52862924686651
 21
15.39360700705356
 31
0.0
  0
ATTDEF
  5
98
330
82
100
AcDbEntity
  8
FORMAT
 62
     2
100
AcDbText
 10
-16.11926103943555
 20
2.075366912832191
 30
0.0
 40
4.233333333333333
  1
SEME7112040E [ 4 FLUTE ]
 41
0.75
  7
SLDTEXTSTYLE0
 11
-16.11926103943555
 21
-0.0412997538344756
 31
0.0
100
AcDbAttributeDefinition
  3

  2
AUTOATTR0
 70
     0
 74
     1
  0
ENDBLK
  5
84
330
82
100
AcDbEntity
  8
0
100
AcDbBlockEnd
  0
BLOCK
  5
D7
330
D6
100
AcDbEntity
  8
0
100
AcDbBlockBegin
  2
_D
 70
     0
 10
0.0
 20
0.0
 30
0.0
  3
_D
  1

  0
LINE
  5
D9
330
D6
100
AcDbEntity
  8
치수문자_일반주서
 62
     0
370
    -2
100
AcDbLine
 10
50.06250000000004
 20
-5.958699396264629
 30
0.0
 11
64.5503546476532
 21
-5.958699396264578
 31
0.0
  0
LINE
  5
DA
330
D6
100
AcDbEntity
  8
치수문자_일반주서
 62
     0
370
    -2
100
AcDbLine
 10
50.06250000000004
 20
6.041300603735376
 30
0.0
 11
64.55035464765315
 21
6.041300603735429
 31
0.0
  0
LINE
  5
DB
330
D6
100
AcDbEntity
  8
치수문자_일반주서
 62
     0
370
    -2
100
AcDbLine
 10
64.5503546476532
 20
-5.958699396264578
 30
0.0
 11
64.5503546476531
 21
20.52030060373543
 31
0.0
  0
LINE
  5
DC
330
D6
100
AcDbEntity
  8
치수문자_일반주서
 62
     0
370
    -2
100
AcDbLine
 10
64.5503546476532
 20
-5.958699396264578
 30
0.0
 11
64.55035464765315
 21
6.041300603735429
 31
0.0
  0
LINE
  5
DD
330
D6
100
AcDbEntity
  8
치수문자_일반주서
 62
     0
370
    -2
100
AcDbLine
 10
64.55035464765321
 20
-9.260699396264577
 30
0.0
 11
64.55035464765322
 21
-12.56269939626458
 31
0.0
  0
LINE
  5
DE
330
D6
100
AcDbEntity
  8
치수문자_일반주서
 62
     0
370
    -2
100
AcDbLine
 10
64.55035464765314
 20
9.343300603735429
 30
0.0
 11
64.55035464765312
 21
12.64530060373543
 31
0.0
  0
SOLID
  5
DF
330
D6
100
AcDbEntity
  8
치수문자_일반주서
 62
     0
100
AcDbTrace
 10
65.10068798098654
 20
-9.260699396264576
 30
0.0
 11
64.00002131431988
 21
-9.26069939626458
 31
0.0
 12
64.5503546476532
 22
-5.958699396264578
 32
0.0
 13
64.5503546476532
 23
-5.958699396264578
 33
0.0
  0
SOLID
  5
E0
330
D6
100
AcDbEntity
  8
치수문자_일반주서
 62
     0
100
AcDbTrace
 10
64.00002131431981
 20
9.343300603735427
 30
0.0
 11
65.10068798098646
 21
9.34330060373543
 31
0.0
 12
64.55035464765315
 22
6.041300603735429
 32
0.0
 13
64.55035464765315
 23
6.041300603735429
 33
0.0
  0
MTEXT
  5
E1
330
D6
100
AcDbEntity
  8
치수문자_일반주서
 62
     0
100
AcDbMText
 10
60.17535464765311
 20
16.58280060373541
 30
0.0
 40
3.5
 41
0.0
 71
     2
 72
     1
  1
\A1;%%c12
  7
SLDTEXTSTYLE0
 11
-3.552713678800499E-15
 21
1.0
 31
0.0
 73
     1
 44
1.0
  0
POINT
  5
134
330
D6
100
AcDbEntity
  8
Defpoints
 62
     0
100
AcDbPoint
 10
50.00000000000004
 20
-5.958699396264629
 30
0.0
  0
POINT
  5
135
330
D6
100
AcDbEntity
  8
Defpoints
 62
     0
100
AcDbPoint
 10
50.00000000000004
 20
6.041300603735376
 30
0.0
  0
POINT
  5
136
330
D6
100
AcDbEntity
  8
Defpoints
 62
     0
100
AcDbPoint
 10
64.55035464765315
 20
6.04130060373543
 30
0.0
  0
ENDBLK
  5
D8
330
D6
100
AcDbEntity
  8
0
100
AcDbBlockEnd
  0
BLOCK
  5
E5
330
E4
100
AcDbEntity
  8
0
100
AcDbBlockBegin
  2
_D_1
 70
     0
 10
0.0
 20
0.0
 30
0.0
  3
_D_1
  1

  0
LINE
  5
E7
330
E4
100
AcDbEntity
  8
치수문자_일반주서
 62
     0
370
    -2
100
AcDbLine
 10
-29.99999999999999
 20
5.60380060373537
 30
0.0
 11
-29.99999999999999
 21
23.43043320531702
 31
0.0
  0
LINE
  5
E8
330
E4
100
AcDbEntity
  8
치수문자_일반주서
 62
     0
370
    -2
100
AcDbLine
 10
50.00000000000001
 20
6.103800603735377
 30
0.0
 11
50.00000000000002
 21
23.43043320531702
 31
0.0
  0
LINE
  5
E9
330
E4
100
AcDbEntity
  8
치수문자_일반주서
 62
     0
370
    -2
100
AcDbLine
 10
-26.69799999999999
 20
23.43043320531702
 30
0.0
 11
46.69800000000002
 21
23.43043320531702
 31
0.0
  0
SOLID
  5
EA
330
E4
100
AcDbEntity
  8
치수문자_일반주서
 62
     0
100
AcDbTrace
 10
-26.69799999999999
 20
23.98076653865035
 30
0.0
 11
-26.69799999999999
 21
22.88009987198368
 31
0.0
 12
-29.99999999999999
 22
23.43043320531702
 32
0.0
 13
-29.99999999999999
 23
23.43043320531702
 33
0.0
  0
SOLID
  5
EB
330
E4
100
AcDbEntity
  8
치수문자_일반주서
 62
     0
100
AcDbTrace
 10
46.69800000000002
 20
22.88009987198368
 30
0.0
 11
46.69800000000002
 21
23.98076653865035
 31
0.0
 12
50.00000000000002
 22
23.43043320531702
 32
0.0
 13
50.00000000000002
 23
23.43043320531702
 33
0.0
  0
MTEXT
  5
EC
330
E4
100
AcDbEntity
  8
치수문자_일반주서
 62
     0
100
AcDbMText
 10
10.00000000000001
 20
27.80543320531702
 30
0.0
 40
3.5
 41
0.0
 71
     2
 72
     1
  1
\A1;80
  7
SLDTEXTSTYLE0
 73
     1
 44
1.0
  0
POINT
  5
138
330
E4
100
AcDbEntity
  8
Defpoints
 62
     0
100
AcDbPoint
 10
-29.99999999999999
 20
5.54130060373537
 30
0.0
  0
POINT
  5
139
330
E4
100
AcDbEntity
  8
Defpoints
 62
     0
100
AcDbPoint
 10
50.00000000000001
 20
6.041300603735377
 30
0.0
  0
POINT
  5
13A
330
E4
100
AcDbEntity
  8
Defpoints
 62
     0
100
AcDbPoint
 10
50.00000000000001
 20
23.43043320531702
 30
0.0
  0
ENDBLK
  5
E6
330
E4
100
AcDbEntity
  8
0
100
AcDbBlockEnd
  0
BLOCK
  5
F0
330
EF
100
AcDbEntity
  8
0
100
AcDbBlockBegin
  2
_D_2
 70
     0
 10
0.0
 20
0.0
 30
0.0
  3
_D_2
  1

  0
LINE
  5
F2
330
EF
100
AcDbEntity
  8
치수문자_일반주서
 62
     0
370
    -2
100
AcDbLine
 10
-29.56249999999998
 20
6.041300603735379
 30
0.0
 11
-42.02028132684466
 21
6.041300603735332
 31
0.0
  0
LINE
  5
F3
330
EF
100
AcDbEntity
  8
치수문자_일반주서
 62
     0
370
    -2
100
AcDbLine
 10
-29.56249999999998
 20
-5.958699396264632
 30
0.0
 11
-42.02028132684462
 21
-5.958699396264677
 31
0.0
  0
LINE
  5
F4
330
EF
100
AcDbEntity
  8
치수문자_일반주서
 62
     0
370
    -2
100
AcDbLine
 10
-42.02028132684466
 20
6.041300603735332
 30
0.0
 11
-42.02028132684471
 21
20.52030060373533
 31
0.0
  0
LINE
  5
F5
330
EF
100
AcDbEntity
  8
치수문자_일반주서
 62
     0
370
    -2
100
AcDbLine
 10
-42.02028132684466
 20
6.041300603735332
 30
0.0
 11
-42.02028132684462
 21
-5.958699396264677
 31
0.0
  0
LINE
  5
F6
330
EF
100
AcDbEntity
  8
치수문자_일반주서
 62
     0
370
    -2
100
AcDbLine
 10
-42.02028132684467
 20
9.343300603735331
 30
0.0
 11
-42.02028132684469
 21
12.64530060373533
 31
0.0
  0
LINE
  5
F7
330
EF
100
AcDbEntity
  8
치수문자_일반주서
 62
     0
370
    -2
100
AcDbLine
 10
-42.0202813268446
 20
-9.260699396264677
 30
0.0
 11
-42.02028132684459
 21
-12.56269939626468
 31
0.0
  0
SOLID
  5
F8
330
EF
100
AcDbEntity
  8
치수문자_일반주서
 62
     0
100
AcDbTrace
 10
-42.57061466017801
 20
9.34330060373533
 30
0.0
 11
-41.46994799351134
 21
9.343300603735333
 31
0.0
 12
-42.02028132684466
 22
6.041300603735332
 32
0.0
 13
-42.02028132684466
 23
6.041300603735332
 33
0.0
  0
SOLID
  5
F9
330
EF
100
AcDbEntity
  8
치수문자_일반주서
 62
     0
100
AcDbTrace
 10
-41.46994799351127
 20
-9.260699396264675
 30
0.0
 11
-42.57061466017794
 21
-9.260699396264679
 31
0.0
 12
-42.02028132684462
 22
-5.958699396264677
 32
0.0
 13
-42.02028132684462
 23
-5.958699396264677
 33
0.0
  0
MTEXT
  5
FA
330
EF
100
AcDbEntity
  8
치수문자_일반주서
 62
     0
100
AcDbMText
 10
-46.3952813268447
 20
16.58280060373531
 30
0.0
 40
3.5
 41
0.0
 71
     2
 72
     1
  1
\A1;%%c12
  7
SLDTEXTSTYLE0
 11
-3.552713678800498E-15
 21
1.0
 31
0.0
 73
     1
 44
1.0
  0
POINT
  5
131
330
EF
100
AcDbEntity
  8
Defpoints
 62
     0
100
AcDbPoint
 10
-29.49999999999998
 20
6.041300603735379
 30
0.0
  0
POINT
  5
132
330
EF
100
AcDbEntity
  8
Defpoints
 62
     0
100
AcDbPoint
 10
-29.49999999999998
 20
-5.958699396264632
 30
0.0
  0
POINT
  5
133
330
EF
100
AcDbEntity
  8
Defpoints
 62
     0
100
AcDbPoint
 10
-42.02028132684462
 20
-5.958699396264679
 30
0.0
  0
ENDBLK
  5
F1
330
EF
100
AcDbEntity
  8
0
100
AcDbBlockEnd
  0
BLOCK
  5
FD
330
FC
100
AcDbEntity
  8
0
100
AcDbBlockBegin
  2
_D_3
 70
     0
 10
0.0
 20
0.0
 30
0.0
  3
_D_3
  1

  0
LINE
  5
FF
330
FC
100
AcDbEntity
  8
치수문자_일반주서
 62
     0
370
    -2
100
AcDbLine
 10
9.999999999999996
 20
5.88188572020327
 30
0.0
 11
10.0
 21
16.66530402279092
 31
0.0
  0
LINE
  5
100
330
FC
100
AcDbEntity
  8
치수문자_일반주서
 62
     0
370
    -2
100
AcDbLine
 10
50.00000000000001
 20
6.103800603735377
 30
0.0
 11
50.00000000000001
 21
16.66530402279092
 31
0.0
  0
LINE
  5
101
330
FC
100
AcDbEntity
  8
치수문자_일반주서
 62
     0
370
    -2
100
AcDbLine
 10
13.302
 20
16.66530402279092
 30
0.0
 11
46.69800000000001
 21
16.66530402279092
 31
0.0
  0
SOLID
  5
102
330
FC
100
AcDbEntity
  8
치수문자_일반주서
 62
     0
100
AcDbTrace
 10
13.302
 20
17.21563735612426
 30
0.0
 11
13.302
 21
16.11497068945759
 31
0.0
 12
10.0
 22
16.66530402279092
 32
0.0
 13
10.0
 23
16.66530402279092
 33
0.0
  0
SOLID
  5
103
330
FC
100
AcDbEntity
  8
치수문자_일반주서
 62
     0
100
AcDbTrace
 10
46.69800000000001
 20
16.11497068945759
 30
0.0
 11
46.69800000000001
 21
17.21563735612426
 31
0.0
 12
50.00000000000001
 22
16.66530402279092
 32
0.0
 13
50.00000000000001
 23
16.66530402279092
 33
0.0
  0
MTEXT
  5
104
330
FC
100
AcDbEntity
  8
치수문자_일반주서
 62
     0
100
AcDbMText
 10
29.99999999999999
 20
21.04030402279092
 30
0.0
 40
3.5
 41
0.0
 71
     2
 72
     1
  1
\A1;40
  7
SLDTEXTSTYLE0
 73
     1
 44
1.0
  0
POINT
  5
13B
330
FC
100
AcDbEntity
  8
Defpoints
 62
     0
100
AcDbPoint
 10
9.999999999999996
 20
5.81938572020327
 30
0.0
  0
POINT
  5
13C
330
FC
100
AcDbEntity
  8
Defpoints
 62
     0
100
AcDbPoint
 10
50.00000000000001
 20
6.041300603735377
 30
0.0
  0
POINT
  5
13D
330
FC
100
AcDbEntity
  8
Defpoints
 62
     0
100
AcDbPoint
 10
50.00000000000001
 20
16.66530402279092
 30
0.0
  0
ENDBLK
  5
FE
330
FC
100
AcDbEntity
  8
0
100
AcDbBlockEnd
  0
BLOCK
  5
106
330
105
100
AcDbEntity
  8
0
100
AcDbBlockBegin
  2
SW_DOWELSYMBOL_0
 70
     0
 10
0.0
 20
0.0
 30
0.0
  3
SW_DOWELSYMBOL_0
  1

  0
CIRCLE
  5
108
330
105
100
AcDbEntity
  8
해칭선
 62
     0
100
AcDbCircle
 10
0.0
 20
0.0
 30
0.0
 40
3.000000000000001
  0
HATCH
  5
109
330
105
100
AcDbEntity
  8
0
  6
Continuous
 62
     0
370
    18
100
AcDbHatch
 10
0.0
 20
0.0
 30
0.0
210
0.0
220
0.0
230
1.0
  2
SOLID
 70
     1
 71
     0
 91
        1
 92
        0
 93
        3
 72
     2
 10
0.0
 20
0.0
 40
3.000000000000001
 50
0.0
 51
90.0
 73
     1
 72
     1
 10
0.0
 20
3.000000000000001
 11
0.0
 21
0.0
 72
     1
 10
0.0
 20
0.0
 11
3.000000000000001
 21
0.0
 97
        0
 75
     0
 76
     1
 98
        1
 10
0.0
 20
0.0
  0
HATCH
  5
10A
330
105
100
AcDbEntity
  8
0
  6
Continuous
 62
     0
370
    18
100
AcDbHatch
 10
0.0
 20
0.0
 30
0.0
210
0.0
220
0.0
230
1.0
  2
SOLID
 70
     1
 71
     0
 91
        1
 92
        0
 93
        3
 72
     2
 10
0.0
 20
0.0
 40
3.000000000000001
 50
180.0
 51
270.0000000000008
 73
     1
 72
     1
 10
0.0
 20
-3.000000000000001
 11
0.0
 21
0.0
 72
     1
 10
0.0
 20
0.0
 11
-3.000000000000001
 21
0.0
 97
        0
 75
     0
 76
     1
 98
        1
 10
0.0
 20
0.0
  0
ENDBLK
  5
107
330
105
100
AcDbEntity
  8
0
100
AcDbBlockEnd
  0
ENDSEC
  0
SECTION
  2
ENTITIES
  0
LINE
  5
99
330
1F
100
AcDbEntity
  8
0
  6
Continuous
 62
     4
370
    25
100
AcDbLine
 10
8.500203624799422
 20
6.041300603735373
 30
0.0
 11
-29.49999999999999
 21
6.041300603735372
 31
0.0
  0
LINE
  5
9A
330
1F
100
AcDbEntity
  8
0
  6
Continuous
 62
     4
370
    25
100
AcDbLine
 10
-29.49999999999999
 20
-5.958699396264628
 30
0.0
 11
8.500203624799422
 21
-5.958699396264627
 31
0.0
  0
LINE
  5
9B
330
1F
100
AcDbEntity
  8
0
  6
Continuous
 62
     4
370
    25
100
AcDbLine
 10
-29.49999999999999
 20
6.04130060373537
 30
0.0
 11
-29.99999999999999
 21
5.54130060373537
 31
0.0
  0
LINE
  5
9C
330
1F
100
AcDbEntity
  8
0
  6
Continuous
 62
     4
370
    25
100
AcDbLine
 10
-29.99999999999999
 20
-5.458699396264628
 30
0.0
 11
-29.49999999999999
 21
-5.958699396264628
 31
0.0
  0
LINE
  5
9D
330
1F
100
AcDbEntity
  8
0
  6
Continuous
 62
     1
370
    25
100
AcDbLine
 10
48.28504985320156
 20
-5.95869939626463
 30
0.0
 11
50.00000000000001
 21
-5.95869939626463
 31
0.0
  0
LINE
  5
9E
330
1F
100
AcDbEntity
  8
0
  6
Continuous
 62
     1
370
    25
100
AcDbLine
 10
27.58840561218631
 20
6.041300603735377
 30
0.0
 11
24.15827871152215
 21
6.041300603735377
 31
0.0
  0
LINE
  5
9F
330
1F
100
AcDbEntity
  8
0
  6
Continuous
 62
     1
370
    25
100
AcDbLine
 10
36.2210782071197
 20
-5.95869939626463
 30
0.0
 11
39.65145484045074
 21
-5.95869939626463
 31
0.0
  0
LINE
  5
A0
330
1F
100
AcDbEntity
  8
0
  6
Continuous
 62
     1
370
    25
100
AcDbLine
 10
15.52512941475358
 20
6.041300603735377
 30
0.0
 11
12.09591776144769
 21
6.041300603735377
 31
0.0
  0
LINE
  5
A1
330
1F
100
AcDbEntity
  8
0
  6
Continuous
 62
     1
370
    25
100
AcDbLine
 10
12.09591776144777
 20
-5.95869939626463
 30
0.0
 11
15.5251294147536
 21
-5.95869939626463
 31
0.0
  0
LINE
  5
A2
330
1F
100
AcDbEntity
  8
0
  6
Continuous
 62
     1
370
    25
100
AcDbLine
 10
39.65145484045073
 20
6.041300603735377
 30
0.0
 11
36.22107820711976
 21
6.041300603735377
 31
0.0
  0
LINE
  5
A3
330
1F
100
AcDbEntity
  8
0
  6
Continuous
 62
     1
370
    25
100
AcDbLine
 10
24.15827871152216
 20
-5.95869939626463
 30
0.0
 11
27.58840561218625
 21
-5.95869939626463
 31
0.0
  0
LINE
  5
A4
330
1F
100
AcDbEntity
  8
0
  6
Continuous
 62
     1
370
    25
100
AcDbLine
 10
50.00000000000001
 20
6.041300603735377
 30
0.0
 11
48.28504985320154
 21
6.041300603735377
 31
0.0
  0
SPLINE
  5
A5
330
1F
100
AcDbEntity
  8
0
  6
Continuous
 62
     4
370
    25
100
AcDbSpline
210
0.0
220
0.0
230
1.0
 70
    24
 71
     3
 72
    10
 73
     6
 74
     0
 42
0.000000001
 43
0.00000001
 40
0.0
 40
0.0
 40
0.0
 40
0.0
 40
0.5
 40
0.5
 40
1.0
 40
1.0
 40
1.0
 40
1.0
 10
10.0
 20
1.537986704530234
 30
0.0
 10
10.0
 20
1.392058797831666
 30
0.0
 10
10.0
 20
1.190371627638403
 30
0.0
 10
10.0
 20
0.6682839355331389
 30
0.0
 10
10.0
 20
0.3610386504361259
 30
0.0
 10
10.0
 20
0.0
 30
0.0
  0
SPLINE
  5
A6
330
1F
100
AcDbEntity
  8
0
  6
Continuous
 62
     4
370
    25
100
AcDbSpline
210
0.0
220
0.0
230
1.0
 70
     8
 71
     3
 72
    12
 73
     8
 74
     0
 42
0.000000001
 43
0.00000001
 40
0.0
 40
0.0
 40
0.0
 40
0.0
 40
0.2500000000000002
 40
0.2500000000000002
 40
0.5000000000000004
 40
0.5000000000000004
 40
1.0
 40
1.0
 40
1.0
 40
1.0
 10
8.965230058432573
 20
-3.898986313429159
 30
0.0
 10
8.890733709277441
 20
-3.855005894089027
 30
0.0
 10
8.824611257809837
 20
-3.804746189294121
 30
0.0
 10
8.70840946288928
 20
-3.691220479673924
 30
0.0
 10
8.658294669284029
 20
-3.62733688270139
 30
0.0
 10
8.539734237036354
 20
-3.424421460128532
 30
0.0
 10
8.50020362479941
 20
-3.2695105858585
 30
0.0
 10
8.50020362479941
 20
-3.108608731782717
 30
0.0
  0
SPLINE
  5
A7
330
1F
100
AcDbEntity
  8
0
  6
Continuous
 62
     4
370
    25
100
AcDbSpline
210
0.0
220
0.0
230
1.0
 70
     8
 71
     3
 72
    18
 73
    14
 74
     0
 42
0.000000001
 43
0.00000001
 40
0.0
 40
0.0
 40
0.0
 40
0.0
 40
0.1249999999999999
 40
0.1249999999999999
 40
0.2499999999999999
 40
0.2499999999999999
 40
0.5
 40
0.5
 40
0.6249999999999999
 40
0.6249999999999999
 40
0.7499999999999999
 40
0.7499999999999999
 40
1.0
 40
1.0
 40
1.0
 40
1.0
 10
8.500203624799422
 20
0.3562074495773262
 30
0.0
 10
8.500203624799422
 20
0.4493534596286292
 30
0.0
 10
8.509491824799433
 20
0.5408207496517696
 30
0.0
 10
8.547526044753806
 20
0.7202940451046059
 30
0.0
 10
8.576849686929467
 20
0.8091974656232451
 30
0.0
 10
8.69216327440512
 20
1.057848722844823
 30
0.0
 10
8.808644682148262
 20
1.205750070644304
 30
0.0
 10
9.023885761277798
 20
1.375214547572217
 30
0.0
 10
9.103699194656434
 20
1.424079992959711
 30
0.0
 10
9.27021656944985
 20
1.501148634152343
 30
0.0
 10
9.357725054501477
 20
1.53012781583688
 30
0.0
 10
9.631237236617432
 20
1.587106351705879
 30
0.0
 10
9.819206722931625
 20
1.58339174994051
 30
0.0
 10
9.999999999999874
 20
1.537986704529198
 30
0.0
  0
SPLINE
  5
A8
330
1F
100
AcDbEntity
  8
0
  6
Continuous
 62
     4
370
    25
100
AcDbSpline
210
0.0
220
0.0
230
1.0
 70
     8
 71
     3
 72
    12
 73
     8
 74
     0
 42
0.000000001
 43
0.00000001
 40
0.0
 40
0.0
 40
0.0
 40
0.0
 40
0.2500000000000002
 40
0.2500000000000002
 40
0.5000000000000003
 40
0.5000000000000003
 40
1.0
 40
1.0
 40
1.0
 40
1.0
 10
8.965230058432569
 20
4.566136403010807
 30
0.0
 10
8.890733709277441
 20
4.604435134417831
 30
0.0
 10
8.824611257809837
 20
4.647088684739658
 30
0.0
 10
8.708409462889277
 20
4.739560509615279
 30
0.0
 10
8.658294669284029
 20
4.789800325306946
 30
0.0
 10
8.539734237036354
 20
4.942052895645825
 30
0.0
 10
8.50020362479941
 20
5.048721978165036
 30
0.0
 10
8.50020362479941
 20
5.147969887918133
 30
0.0
  0
SPLINE
  5
A9
330
1F
100
AcDbEntity
  8
0
  6
Continuous
 62
     4
370
    25
100
AcDbSpline
210
0.0
220
0.0
230
1.0
 70
     8
 71
     3
 72
     8
 73
     4
 74
     0
 42
0.000000001
 43
0.00000001
 40
0.0
 40
0.0
 40
0.0
 40
0.0
 40
1.0
 40
1.0
 40
1.0
 40
1.0
 10
9.999999999999996
 20
3.995259333362273
 30
0.0
 10
9.653389659254383
 20
4.198463988775774
 30
0.0
 10
9.309592506034981
 20
4.389098936920669
 30
0.0
 10
8.965230058432569
 20
4.566136403010807
 30
0.0
  0
SPLINE
  5
AA
330
1F
100
AcDbEntity
  8
0
  6
Continuous
 62
     4
370
    25
100
AcDbSpline
210
0.0
220
0.0
230
1.0
 70
     8
 71
     3
 72
     8
 73
     4
 74
     0
 42
0.000000001
 43
0.00000001
 40
0.0
 40
0.0
 40
0.0
 40
0.0
 40
1.0
 40
1.0
 40
1.0
 40
1.0
 10
9.999999999999996
 20
-4.471593186770866
 30
0.0
 10
9.653389659254383
 20
-4.293556020714955
 30
0.0
 10
9.309592506034981
 20
-4.102287616409935
 30
0.0
 10
8.965230058432573
 20
-3.898986313429159
 30
0.0
  0
SPLINE
  5
AB
330
1F
100
AcDbEntity
  8
0
  6
Continuous
 62
     4
370
    25
100
AcDbSpline
210
0.0
220
0.0
230
1.0
 70
     8
 71
     3
 72
    18
 73
    14
 74
     0
 42
0.000000001
 43
0.00000001
 40
0.0
 40
0.0
 40
0.0
 40
0.0
 40
0.1249999999999999
 40
0.1249999999999999
 40
0.2499999999999999
 40
0.2499999999999999
 40
0.4999999999999998
 40
0.4999999999999998
 40
0.6249999999999998
 40
0.6249999999999998
 40
0.7499999999999999
 40
0.7499999999999999
 40
1.0
 40
1.0
 40
1.0
 40
1.0
 10
8.500203624799422
 20
-5.950429837334376
 30
0.0
 10
8.500203624799422
 20
-5.945534370738121
 30
0.0
 10
8.509491824799433
 20
-5.938549788619707
 30
0.0
 10
8.547526044753806
 20
-5.920838190162594
 30
0.0
 10
8.576849686929467
 20
-5.90994675163672
 30
0.0
 10
8.69216327440512
 20
-5.874328916680626
 30
0.0
 10
8.808644682148262
 20
-5.845755291288785
 30
0.0
 10
9.023885761277798
 20
-5.808828968203055
 30
0.0
 10
9.103699194656434
 20
-5.797320323575432
 30
0.0
 10
9.27021656944985
 20
-5.77852902437085
 30
0.0
 10
9.357725054501477
 20
-5.77108088560029
 30
0.0
 10
9.631237236617432
 20
-5.756287236893216
 30
0.0
 10
9.819206722931625
 20
-5.757333141319241
 30
0.0
 10
9.999999999999877
 20
-5.769029052634448
 30
0.0
  0
LINE
  5
AC
330
1F
100
AcDbEntity
  8
0
  6
Continuous
 62
     4
370
    25
100
AcDbLine
 10
8.500203624799422
 20
-5.950429837334374
 30
0.0
 11
8.500203624799422
 21
-5.958699396264627
 31
0.0
  0
SPLINE
  5
AD
330
1F
100
AcDbEntity
  8
0
  6
Continuous
 62
     4
370
    25
100
AcDbSpline
210
0.0
220
0.0
230
1.0
 70
     8
 71
     3
 72
    18
 73
    14
 74
     0
 42
0.000000001
 43
0.00000001
 40
0.0
 40
0.0
 40
0.0
 40
0.0
 40
0.125
 40
0.125
 40
0.25
 40
0.25
 40
0.4999999999999999
 40
0.4999999999999999
 40
0.625
 40
0.625
 40
0.75
 40
0.75
 40
1.0
 40
1.0
 40
1.0
 40
1.0
 10
8.500203624799422
 20
6.033031044805126
 30
0.0
 10
8.500203624799422
 20
6.028135578208872
 30
0.0
 10
8.509491824799433
 20
6.021150996090458
 30
0.0
 10
8.547526044753806
 20
6.003439397633347
 30
0.0
 10
8.576849686929467
 20
5.992547959107471
 30
0.0
 10
8.69216327440512
 20
5.956930124151382
 30
0.0
 10
8.80864468214826
 20
5.928356498759541
 30
0.0
 10
9.023885761277798
 20
5.89143017567381
 30
0.0
 10
9.103699194656434
 20
5.879921531046191
 30
0.0
 10
9.27021656944985
 20
5.861130231841607
 30
0.0
 10
9.357725054501477
 20
5.853682093071051
 30
0.0
 10
9.631237236617432
 20
5.838888444363975
 30
0.0
 10
9.819206722931622
 20
5.839934348789998
 30
0.0
 10
9.999999999999874
 20
5.851630260105205
 30
0.0
  0
LINE
  5
AE
330
1F
100
AcDbEntity
  8
0
  6
Continuous
 62
     4
370
    25
100
AcDbLine
 10
8.500203624799422
 20
6.041300603735373
 30
0.0
 11
8.500203624799422
 21
5.147969887918133
 31
0.0
  0
LINE
  5
AF
330
1F
100
AcDbEntity
  8
0
  6
Continuous
 62
     4
370
    25
100
AcDbLine
 10
-29.49999999999999
 20
6.04130060373537
 30
0.0
 11
-29.49999999999999
 21
-5.958699396264628
 31
0.0
  0
LINE
  5
B0
330
1F
100
AcDbEntity
  8
0
  6
Continuous
 62
     4
370
    25
100
AcDbLine
 10
8.500203624799422
 20
0.3562074495773261
 30
0.0
 11
8.500203624799422
 21
-3.108608731782714
 31
0.0
  0
LINE
  5
B1
330
1F
100
AcDbEntity
  8
0
  6
Continuous
 62
     4
370
    25
100
AcDbLine
 10
-29.99999999999999
 20
5.54130060373537
 30
0.0
 11
-29.99999999999999
 21
-5.458699396264633
 31
0.0
  0
SPLINE
  5
B2
330
1F
100
AcDbEntity
  8
0
  6
Continuous
 62
     4
370
    25
100
AcDbSpline
210
0.0
220
0.0
230
1.0
 70
    24
 71
     3
 72
    11
 73
     7
 74
     0
 42
0.000000001
 43
0.00000001
 40
0.0
 40
0.0
 40
0.0
 40
0.0
 40
0.2511261447866097
 40
0.5080821952601794
 40
0.7725065157903034
 40
1.0
 40
1.0
 40
1.0
 40
1.0
 10
9.999999999999996
 20
5.851630260104943
 30
0.0
 10
9.999999999999996
 20
5.666077739220156
 30
0.0
 10
10.0
 20
5.290665086637476
 30
0.0
 10
10.0
 20
4.775522679373426
 30
0.0
 10
10.0
 20
4.324106885804561
 30
0.0
 10
9.999999999999996
 20
4.099248076141875
 30
0.0
 10
9.999999999999996
 20
3.995259333363061
 30
0.0
  0
SPLINE
  5
B3
330
1F
100
AcDbEntity
  8
0
  6
Continuous
 62
     1
370
    25
100
AcDbSpline
210
0.0
220
0.0
230
1.0
 70
     8
 71
     3
 72
    30
 73
    26
 74
     0
 42
0.000000001
 43
0.00000001
 40
0.0
 40
0.0
 40
0.0
 40
0.0
 40
0.0116152486653311
 40
0.0572128104637138
 40
0.1027613084229086
 40
0.1483777504873874
 40
0.1940144228558413
 40
0.2395658942678303
 40
0.2851478939742131
 40
0.3308071670925053
 40
0.3763736169541827
 40
0.4219331065611105
 40
0.4675872265959344
 40
0.5131806241986239
 40
0.5587295895851401
 40
0.6043511198569678
 40
0.6499830679100216
 40
0.6955335200500986
 40
0.7447833494494496
 40
0.7941053537033802
 40
0.8433777570889329
 40
0.892605232460948
 40
0.9418507139722315
 40
0.9911692628468844
 40
0.9999999999999999
 40
0.9999999999999999
 40
0.9999999999999999
 40
0.9999999999999999
 10
19.8416764666149
 20
5.104490359808743
 30
0.0
 10
19.95184698110494
 20
5.154342303908564
 30
0.0
 10
20.49450990170359
 20
5.399896222831003
 30
0.0
 10
21.46875514819174
 20
5.69659254684893
 30
0.0
 10
22.76461366086487
 20
5.97291358754067
 30
0.0
 10
24.06191352889586
 20
6.068881459531936
 30
0.0
 10
25.35962439721091
 20
5.996621190427348
 30
0.0
 10
26.65557221842819
 20
5.753876011173944
 30
0.0
 10
27.952180143015
 20
5.348675013300028
 30
0.0
 10
29.25034867936987
 20
4.793400845783125
 30
0.0
 10
30.54663673632751
 20
4.101863548694022
 30
0.0
 10
31.84277390843835
 20
3.294494841106405
 30
0.0
 10
33.14083913593539
 20
2.396253481895648
 30
0.0
 10
34.43767400960056
 20
1.429850386757124
 30
0.0
 10
35.73355100358852
 20
0.4233145308603991
 30
0.0
 10
37.03095104851297
 20
-0.5929004213889764
 30
0.0
 10
38.32857439851333
 20
-1.590860664379241
 30
0.0
 10
39.65918168588982
 20
-2.56930353595857
 30
0.0
 10
41.02548006513921
 20
-3.492111198048676
 30
0.0
 10
42.42812740565338
 20
-4.320640933818144
 30
0.0
 10
43.82969069138971
 20
-5.003776333814509
 30
0.0
 10
45.23009553853116
 20
-5.524139588330123
 30
0.0
 10
46.63094517897312
 20
-5.84169322283805
 30
0.0
 10
47.64994284570928
 20
-5.979104222063974
 30
0.0
 10
48.20131648344562
 20
-5.948650187850327
 30
0.0
 10
48.28504985320156
 20
-5.944025340500279
 30
0.0
  0
SPLINE
  5
B4
330
1F
100
AcDbEntity
  8
0
  6
Continuous
 62
     1
370
    25
100
AcDbSpline
210
0.0
220
0.0
230
1.0
 70
     8
 71
     3
 72
    25
 73
    21
 74
     0
 42
0.000000001
 43
0.00000001
 40
0.0
 40
0.0
 40
0.0
 40
0.0
 40
0.0579056576384889
 40
0.1157133611463451
 40
0.1735715741276098
 40
0.2315146236285439
 40
0.2893375684721847
 40
0.3471634578063113
 40
0.405108687290994
 40
0.4629620784664751
 40
0.5207708421321126
 40
0.5786830334862069
 40
0.6365820034775148
 40
0.6943888802818549
 40
0.7522521466797827
 40
0.8101924768292985
 40
0.8680127100799956
 40
0.925841776694643
 40
0.9837886466998665
 40
1.0
 40
1.0
 40
1.0
 40
1.0
 10
50.00000000000001
 20
-5.80969358639619
 30
0.0
 10
49.56725272978575
 20
-5.718808646475543
 30
0.0
 10
48.70249023151625
 20
-5.53719250904286
 30
0.0
 10
47.40659408690928
 20
-5.060892888223525
 30
0.0
 10
46.10983815721706
 20
-4.451421577140218
 30
0.0
 10
44.81172992446206
 20
-3.712083709180896
 30
0.0
 10
43.51554562659383
 20
-2.865369774494167
 30
0.0
 10
42.21931102316094
 20
-1.935588497283598
 30
0.0
 10
40.92116838178144
 20
-0.9515213507194554
 30
0.0
 10
39.62448800085917
 20
0.0623453911938914
 30
0.0
 10
38.32856767234237
 20
1.076074022676122
 30
0.0
 10
37.03095286843346
 20
2.058917974200587
 30
0.0
 10
35.73355045477872
 20
2.984682112993517
 30
0.0
 10
34.4376743880744
 20
3.827646103358747
 30
0.0
 10
33.14083816928651
 20
4.562533459101893
 30
0.0
 10
31.84277739787093
 20
5.167125269789815
 30
0.0
 10
30.54662377545487
 20
5.630469513960541
 30
0.0
 10
29.2503970944595
 20
5.921464397105477
 30
0.0
 10
28.26337171730125
 20
6.052162087103811
 30
0.0
 10
27.70948744532802
 20
6.029105238604929
 30
0.0
 10
27.58840561218631
 20
6.024064897826213
 30
0.0
  0
LINE
  5
B5
330
1F
100
AcDbEntity
  8
0
  6
Continuous
 62
     1
370
    25
100
AcDbLine
 10
50.00000000000001
 20
-5.958699396264634
 30
0.0
 11
50.00000000000001
 21
-5.809693586396195
 31
0.0
  0
SPLINE
  5
B6
330
1F
100
AcDbEntity
  8
0
  6
Continuous
 62
     1
370
    25
100
AcDbSpline
210
0.0
220
0.0
230
1.0
 70
     8
 71
     3
 72
     9
 73
     5
 74
     0
 42
0.000000001
 43
0.00000001
 40
0.0
 40
0.0
 40
0.0
 40
0.0
 40
0.604640162867023
 40
1.0
 40
1.0
 40
1.0
 40
1.0
 10
9.999999999999996
 20
-5.736784512732496
 30
0.0
 10
10.42223742934655
 20
-5.815497878906437
 30
0.0
 10
11.12056588199916
 20
-5.945680045107083
 30
0.0
 10
11.81956255188515
 20
-5.941721301249455
 30
0.0
 10
12.09591776144777
 20
-5.94015617292265
 30
0.0
  0
SPLINE
  5
B7
330
1F
100
AcDbEntity
  8
0
  6
Continuous
 62
     1
370
    25
100
AcDbSpline
210
0.0
220
0.0
230
1.0
 70
     8
 71
     3
 72
    20
 73
    16
 74
     0
 42
0.000000001
 43
0.00000001
 40
0.0
 40
0.0
 40
0.0
 40
0.0
 40
0.0705089117670205
 40
0.1444861158932186
 40
0.2183912268809701
 40
0.2924140774454
 40
0.3664538312977801
 40
0.4403613546056795
 40
0.5202712730198599
 40
0.6002982981694623
 40
0.6802448438251517
 40
0.7601184918903303
 40
0.8400213556733576
 40
0.9200427743248356
 40
1.0
 40
1.0
 40
1.0
 40
1.0
 10
31.90470692965546
 20
5.114908825894171
 30
0.0
 10
32.31691542350841
 20
5.275042118369745
 30
0.0
 10
33.16160870727091
 20
5.603185566838206
 30
0.0
 10
34.43769319986387
 20
5.905851066618674
 30
0.0
 10
35.73354585534079
 20
6.058306126952661
 30
0.0
 10
37.03095242654354
 20
6.036271029371404
 30
0.0
 10
38.32857404041165
 20
5.844775118322522
 30
0.0
 10
39.6591817541166
 20
5.477975426686051
 30
0.0
 10
41.0254801955778
 20
4.931730656854099
 30
0.0
 10
42.42812681639029
 20
4.209877905778595
 30
0.0
 10
43.82969291433895
 20
3.349032883319085
 30
0.0
 10
45.23008724197901
 20
2.378146564021554
 30
0.0
 10
46.63097617712589
 20
1.329946146204013
 30
0.0
 10
48.03361359072086
 20
0.2380131596469046
 30
0.0
 10
48.96845211915435
 20
-0.4899848752784927
 30
0.0
 10
49.43568382687637
 20
-0.853837834619468
 30
0.0
  0
SPLINE
  5
B8
330
1F
100
AcDbEntity
  8
0
  6
Continuous
 62
     1
370
    25
100
AcDbSpline
210
0.0
220
0.0
230
1.0
 70
     8
 71
     3
 72
    12
 73
     8
 74
     0
 42
0.000000001
 43
0.00000001
 40
0.0
 40
0.0
 40
0.0
 40
0.0
 40
0.5
 40
0.5
 40
0.75
 40
0.75
 40
1.0
 40
1.0
 40
1.0
 40
1.0
 10
50.00000000000001
 20
-4.432990210805501
 30
0.0
 10
49.46199465177462
 20
-4.252358936433156
 30
0.0
 10
48.93737359306412
 20
-4.015360739773183
 30
0.0
 10
48.17485958286605
 20
-3.557030663663585
 30
0.0
 10
47.92479972057765
 20
-3.386938808186239
 30
0.0
 10
47.43482344698955
 20
-3.004036721110464
 30
0.0
 10
47.20036602413562
 20
-2.796551920072881
 30
0.0
 10
46.97504588583885
 20
-2.576795069738747
 30
0.0
  0
LINE
  5
B9
330
1F
100
AcDbEntity
  8
0
  6
Continuous
 62
     1
370
    25
100
AcDbLine
 10
50.00000000000001
 20
-5.809693586396195
 30
0.0
 11
50.00000000000001
 21
-4.432990210805503
 31
0.0
  0
SPLINE
  5
BA
330
1F
100
AcDbEntity
  8
0
  6
Continuous
 62
     1
370
    25
100
AcDbSpline
210
0.0
220
0.0
230
1.0
 70
    24
 71
     3
 72
    18
 73
    14
 74
     0
 42
0.000000001
 43
0.00000001
 40
0.0
 40
0.0
 40
0.0
 40
0.0
 40
0.1396908680929291
 40
0.2865749804584287
 40
0.3725049456158089
 40
0.4583435492736779
 40
0.5448836527657167
 40
0.6313852002589277
 40
0.7084923196725299
 40
0.7856360184533178
 40
0.8639050327242921
 40
0.9422208279957746
 40
1.0
 40
1.0
 40
1.0
 40
1.0
 10
49.43353990440745
 20
-0.8553390252935371
 30
0.0
 10
49.42691251258269
 20
-0.8599795750079168
 30
0.0
 10
49.41331645788991
 20
-0.8694996349937275
 30
0.0
 10
49.28928224096664
 20
-0.956349328679302
 30
0.0
 10
49.11359776096982
 20
-1.079364925919561
 30
0.0
 10
48.92357116602263
 20
-1.212422980161879
 30
0.0
 10
48.68381827173677
 20
-1.38029976404844
 30
0.0
 10
48.41176814377953
 20
-1.570791314415019
 30
0.0
 10
48.12023194384392
 20
-1.774927159270956
 30
0.0
 10
47.82180821137908
 20
-1.983885706323505
 30
0.0
 10
47.51297732752906
 20
-2.200131419227264
 30
0.0
 10
47.22810931640394
 20
-2.399598148011843
 30
0.0
 10
47.05046489498005
 20
-2.523986111013822
 30
0.0
 10
46.97504588583884
 20
-2.576795069738849
 30
0.0
  0
SPLINE
  5
BB
330
1F
100
AcDbEntity
  8
0
  6
Continuous
 62
     1
370
    25
100
AcDbSpline
210
0.0
220
0.0
230
1.0
 70
     8
 71
     3
 72
    25
 73
    21
 74
     0
 42
0.000000001
 43
0.00000001
 40
0.0
 40
0.0
 40
0.0
 40
0.0
 40
0.0028543608378604
 40
0.0620109119422319
 40
0.1211765005636899
 40
0.180462615200058
 40
0.2396483944599743
 40
0.2987945343687253
 40
0.3580513031448922
 40
0.4172818039575396
 40
0.476424082997486
 40
0.5356300687983144
 40
0.5949061585211103
 40
0.6527265380558558
 40
0.710572368818101
 40
0.7685309567988963
 40
0.8263632944330187
 40
0.8841935417587476
 40
0.9421514308954061
 40
1.0
 40
1.0
 40
1.0
 40
1.0
 10
31.90470692965541
 20
-5.032307618423422
 30
0.0
 10
31.88385606385554
 20
-5.042040737968724
 30
0.0
 10
31.43087156873338
 20
-5.253492496639621
 30
0.0
 10
30.5466869138412
 20
-5.535810064344397
 30
0.0
 10
29.25033520054354
 20
-5.849632114834904
 30
0.0
 10
27.95218375722908
 20
-5.979753824526512
 30
0.0
 10
26.65557122835066
 20
-5.943106071700078
 30
0.0
 10
25.35962474929111
 20
-5.734723431039781
 30
0.0
 10
24.06191311171808
 20
-5.362769852447783
 30
0.0
 10
22.76461497565805
 20
-4.836989037112282
 30
0.0
 10
21.46875031142383
 20
-4.171730717586253
 30
0.0
 10
20.17184127062327
 20
-3.38693149711463
 30
0.0
 10
18.88353919919287
 20
-2.512364557821606
 30
0.0
 10
17.60694024149058
 20
-1.572071458944946
 30
0.0
 10
16.33964516434658
 20
-0.5952217656899097
 30
0.0
 10
15.07063926537958
 20
0.3967734779130569
 30
0.0
 10
13.80354589627082
 20
1.381865158128258
 30
0.0
 10
12.53649229039807
 20
2.328388712069575
 30
0.0
 10
11.26747584193863
 20
3.218458255845032
 30
0.0
 10
10.42222597843231
 20
3.736488645867617
 30
0.0
 10
9.999999999999996
 20
3.995259333363061
 30
0.0
  0
SPLINE
  5
BC
330
1F
100
AcDbEntity
  8
0
  6
Continuous
 62
     1
370
    25
100
AcDbSpline
210
0.0
220
0.0
230
1.0
 70
     8
 71
     3
 72
    28
 73
    24
 74
     0
 42
0.000000001
 43
0.00000001
 40
0.0
 40
0.0
 40
0.0
 40
0.0
 40
0.0483262086303932
 40
0.0967437422971498
 40
0.1450546450674051
 40
0.1933672940637312
 40
0.2417854115390085
 40
0.2901093325812094
 40
0.3384119918817792
 40
0.3879307392436788
 40
0.4373909223781264
 40
0.4867978854197486
 40
0.536278548189113
 40
0.5857811549945184
 40
0.635191343373504
 40
0.6846346461334332
 40
0.7341617682239084
 40
0.7835882038940963
 40
0.8330070896984362
 40
0.8825286221818798
 40
0.9319842883668792
 40
0.9813917584321232
 40
1.0
 40
1.0
 40
1.0
 40
1.0
 10
9.999999999999996
 20
5.819385720203254
 30
0.0
 10
10.42222597843235
 20
5.893144129776295
 30
0.0
 10
11.26747584193874
 20
6.040800334767601
 30
0.0
 10
12.53649229039759
 20
6.056836202848831
 30
0.0
 10
13.80354589627261
 20
5.920680010139169
 30
0.0
 10
15.07063926537285
 20
5.621277368817493
 30
0.0
 10
16.3396451643717
 20
5.171967714393759
 30
0.0
 10
17.60694024139699
 20
4.582074352363897
 30
0.0
 10
18.88353919954567
 20
3.862859603438106
 30
0.0
 10
20.1718412692703
 20
3.032888848894606
 30
0.0
 10
21.46875031646008
 20
2.11056728531306
 30
0.0
 10
22.76461495687361
 20
1.128683164600253
 30
0.0
 10
24.06191318195462
 20
0.1168977725683745
 30
0.0
 10
25.35962448725474
 20
-0.8965718046668693
 30
0.0
 10
26.65557220451015
 20
-1.884910602607127
 30
0.0
 10
27.95218010859922
 20
-2.817987129304655
 30
0.0
 10
29.25034883114757
 20
-3.668267889439286
 30
0.0
 10
30.54663616505055
 20
-4.414855878945051
 30
0.0
 10
31.84277604377841
 20
-5.033676254382195
 30
0.0
 10
33.14083115227562
 20
-5.510127581237418
 30
0.0
 10
34.4377037467434
 20
-5.818315938441646
 30
0.0
 10
35.46374102360087
 20
-5.962924003515035
 30
0.0
 10
36.05838979659943
 20
-5.943848640642234
 30
0.0
 10
36.2210782071197
 20
-5.938629861748226
 30
0.0
  0
SPLINE
  5
BD
330
1F
100
AcDbEntity
  8
0
  6
Continuous
 62
     1
370
    25
100
AcDbSpline
210
0.0
220
0.0
230
1.0
 70
     8
 71
     3
 72
    30
 73
    26
 74
     0
 42
0.000000001
 43
0.00000001
 40
0.0
 40
0.0
 40
0.0
 40
0.0
 40
0.0155621164254106
 40
0.0611416560670013
 40
0.1068152620374584
 40
0.1524164791885983
 40
0.1979825200306931
 40
0.2436300846760591
 40
0.2892672279749283
 40
0.3348317815546516
 40
0.3804407825565573
 40
0.4261105267715961
 40
0.4716856081734284
 40
0.5172676522120134
 40
0.5629425512740579
 40
0.608540150478962
 40
0.6541072109417938
 40
0.6997595015193592
 40
0.7453915548695453
 40
0.79095564086198
 40
0.8365688074846886
 40
0.8822359832051323
 40
0.9267816582789136
 40
0.9713469413545716
 40
1.0
 40
1.0
 40
1.0
 40
1.0
 10
43.95792146311383
 20
-5.023786063389215
 30
0.0
 10
43.81046412754404
 20
-5.089471549573095
 30
0.0
 10
43.23112225337302
 20
-5.347541807824789
 30
0.0
 10
42.21934131985454
 20
-5.647788836573034
 30
0.0
 10
40.92116027121382
 20
-5.906591160501011
 30
0.0
 10
39.62449016943617
 20
-5.986839163542639
 30
0.0
 10
38.32856709475283
 20
-5.897933809403634
 30
0.0
 10
37.03095300662859
 20
-5.639581431334027
 30
0.0
 10
35.73355047991343
 20
-5.219934076765222
 30
0.0
 10
34.43767414996233
 20
-4.649902914037169
 30
0.0
 10
33.14083909828491
 20
-3.946612427436433
 30
0.0
 10
31.84277391838497
 20
-3.131023164075938
 30
0.0
 10
30.54663673412627
 20
-2.223599991786802
 30
0.0
 10
29.25034867823532
 20
-1.25169404810722
 30
0.0
 10
27.95218014977129
 20
-0.2449415867617121
 30
0.0
 10
26.65557219259903
 20
0.7716338953782108
 30
0.0
 10
25.35962449379559
 20
1.767793877609006
 30
0.0
 10
24.06191316769613
 20
2.713336296472309
 30
0.0
 10
22.76461500729886
 20
3.58334254994373
 30
0.0
 10
21.46875012922363
 20
4.353515618797539
 30
0.0
 10
20.17184196907368
 20
4.999902336944684
 30
0.0
 10
18.88353661168389
 20
5.502736949499242
 30
0.0
 10
17.60694963711438
 20
5.844565401646653
 30
0.0
 10
16.49119356422472
 20
6.02576603456505
 30
0.0
 10
15.79685133700509
 20
6.023413729359453
 30
0.0
 10
15.52512941475359
 20
6.022493184897183
 30
0.0
  0
SPLINE
  5
BE
330
1F
100
AcDbEntity
  8
0
  6
Continuous
 62
     1
370
    25
100
AcDbSpline
210
0.0
220
0.0
230
1.0
 70
     8
 71
     3
 72
    15
 73
    11
 74
     0
 42
0.000000001
 43
0.00000001
 40
0.0
 40
0.0
 40
0.0
 40
0.0
 40
0.1254054178192187
 40
0.2505986978408529
 40
0.3759013654745951
 40
0.5013877622917944
 40
0.6266140502466798
 40
0.7518467150406287
 40
0.8773378330160703
 40
0.9999999999999999
 40
0.9999999999999999
 40
0.9999999999999999
 40
0.9999999999999999
 10
50.00000000000001
 20
1.370159884113385
 30
0.0
 10
49.56725272683691
 20
1.695879140427748
 30
0.0
 10
48.70249022267475
 20
2.34676666118653
 30
0.0
 10
47.40659412221835
 20
3.248860342757272
 30
0.0
 10
46.10983802458934
 20
4.061892596623146
 30
0.0
 10
44.81173041996695
 20
4.758601881795924
 30
0.0
 10
43.51554378161914
 20
5.323537176450253
 30
0.0
 10
42.2193179155605
 20
5.73435257171363
 30
0.0
 10
40.9302227531296
 20
5.993819194539925
 30
0.0
 10
40.07445890464676
 20
6.024420467385704
 30
0.0
 10
39.65145484045073
 20
6.03954667633492
 30
0.0
  0
SPLINE
  5
BF
330
1F
100
AcDbEntity
  8
0
  6
Continuous
 62
     1
370
    25
100
AcDbSpline
210
0.0
220
0.0
230
1.0
 70
     8
 71
     3
 72
    15
 73
    11
 74
     0
 42
0.000000001
 43
0.00000001
 40
0.0
 40
0.0
 40
0.0
 40
0.0
 40
0.0983651861987451
 40
0.227058495742541
 40
0.355808453179783
 40
0.4848093792157597
 40
0.6135293044164756
 40
0.7422445771277525
 40
0.8712439477162288
 40
1.0
 40
1.0
 40
1.0
 40
1.0
 10
19.8416764666149
 20
-5.021889152337996
 30
0.0
 10
19.51879764854096
 20
-5.153961021226699
 30
0.0
 10
18.77348946002319
 20
-5.458825384713845
 30
0.0
 10
17.6069384954531
 20
-5.763152311650286
 30
0.0
 10
16.33964563333152
 20
-5.953101575106904
 30
0.0
 10
15.07063913992053
 20
-5.975176386361917
 30
0.0
 10
13.80354592984129
 20
-5.83561699713141
 30
0.0
 10
12.53649228142346
 20
-5.533185343553238
 30
0.0
 10
11.26747584417941
 20
-5.089135730084543
 30
0.0
 10
10.42222597917877
 20
-4.677311115229692
 30
0.0
 10
9.999999999999996
 20
-4.471593186772076
 30
0.0
  0
SPLINE
  5
C0
330
1F
100
AcDbEntity
  8
0
  6
Continuous
 62
     1
370
    25
100
AcDbSpline
210
0.0
220
0.0
230
1.0
 70
     8
 71
     3
 72
    19
 73
    15
 74
     0
 42
0.000000001
 43
0.00000001
 40
0.0
 40
0.0
 40
0.0
 40
0.0
 40
0.08950003719396
 40
0.1791692081640409
 40
0.2686408989370742
 40
0.3581158237171344
 40
0.4477860758993732
 40
0.537281876484791
 40
0.6267383003692276
 40
0.7184469167968986
 40
0.8100470723979549
 40
0.9015486644985357
 40
0.9931867483405762
 40
1.0
 40
1.0
 40
1.0
 40
1.0
 10
9.999999999999996
 20
1.658004777928147
 30
0.0
 10
10.42222597846901
 20
1.335760570899497
 30
0.0
 10
11.26747584204879
 20
0.6906631919604332
 30
0.0
 10
12.53649228995682
 20
-0.3039034426499283
 30
0.0
 10
13.80354589792132
 20
-1.28817603493302
 30
0.0
 10
15.0706392592113
 20
-2.237020383847602
 30
0.0
 10
16.33964518740448
 20
-3.121747843624949
 30
0.0
 10
17.60694015564564
 20
-3.922258824427392
 30
0.0
 10
18.88353952284017
 20
-4.62064714848694
 30
0.0
 10
20.17184002945022
 20
-5.191791800511099
 30
0.0
 10
21.46875493152462
 20
-5.624149667267862
 30
0.0
 10
22.76459774334723
 20
-5.876867618272207
 30
0.0
 10
23.66133934213222
 20
-5.982695358623009
 30
0.0
 10
24.12611430491166
 20
-5.954753909243544
 30
0.0
 10
24.15827871152215
 20
-5.95282024196131
 30
0.0
  0
SPLINE
  5
C1
330
1F
100
AcDbEntity
  8
0
  6
Continuous
 62
     1
370
    25
100
AcDbSpline
210
0.0
220
0.0
230
1.0
 70
     8
 71
     3
 72
    11
 73
     7
 74
     0
 42
0.000000001
 43
0.00000001
 40
0.0
 40
0.0
 40
0.0
 40
0.0
 40
0.232278013823868
 40
0.4880008736977584
 40
0.7441031591463622
 40
0.9999999999999999
 40
0.9999999999999999
 40
0.9999999999999999
 40
0.9999999999999999
 10
43.95792146311383
 20
5.106387270859966
 30
0.0
 10
44.38192600978587
 20
5.273122982016803
 30
0.0
 10
45.27273175511432
 20
5.623423776231668
 30
0.0
 10
46.63097071534295
 20
5.930651225374501
 30
0.0
 10
48.03361495573144
 20
6.080931842119075
 30
0.0
 10
48.96845257403612
 20
6.009735841503114
 30
0.0
 10
49.43568382687637
 20
5.974152125236607
 30
0.0
  0
SPLINE
  5
C2
330
1F
100
AcDbEntity
  8
0
  6
Continuous
 62
     1
370
    25
100
AcDbSpline
210
0.0
220
0.0
230
1.0
 70
     8
 71
     3
 72
    16
 73
    12
 74
     0
 42
0.000000001
 43
0.00000001
 40
0.0
 40
0.0
 40
0.0
 40
0.0
 40
0.1754874748176686
 40
0.35636919662664
 40
0.4591588085358461
 40
0.5644513508939715
 40
0.6673979758433166
 40
0.7740912192897483
 40
0.8662131680742379
 40
0.9609570445771668
 40
1.0
 40
1.0
 40
1.0
 40
1.0
 10
49.43568382687639
 20
5.974152125236607
 30
0.0
 10
49.42913773914455
 20
5.739724661028874
 30
0.0
 10
49.41584434582141
 20
5.263663750278799
 30
0.0
 10
49.29088022415229
 20
4.663811743945089
 30
0.0
 10
49.11461765786032
 20
4.190036019372376
 30
0.0
 10
48.9254940558862
 20
3.842539771256177
 30
0.0
 10
48.68595526242585
 20
3.537796735895926
 30
0.0
 10
48.414716082323
 20
3.303293956799747
 30
0.0
 10
48.1215724577462
 20
3.141749134024296
 30
0.0
 10
47.8828723997259
 20
3.054771716681761
 30
0.0
 10
47.73709161691961
 20
3.038764142107305
 30
0.0
 10
47.69454847180823
 20
3.034092658288292
 30
0.0
  0
SPLINE
  5
C3
330
1F
100
AcDbEntity
  8
0
  6
Continuous
 62
     1
370
    25
100
AcDbSpline
210
0.0
220
0.0
230
1.0
 70
     8
 71
     3
 72
     9
 73
     5
 74
     0
 42
0.000000001
 43
0.00000001
 40
0.0
 40
0.0
 40
0.0
 40
0.0
 40
0.7275590169920398
 40
1.0
 40
1.0
 40
1.0
 40
1.0
 10
50.00000000000001
 20
1.487824162545816
 30
0.0
 10
49.80213927643139
 20
1.610371119489679
 30
0.0
 10
49.53018783476463
 20
1.778806880825591
 30
0.0
 10
49.26349042024364
 20
1.930301625133311
 30
0.0
 10
49.19083111446587
 20
1.971575002193046
 30
0.0
  0
LINE
  5
C4
330
1F
100
AcDbEntity
  8
0
  6
Continuous
 62
     1
370
    25
100
AcDbLine
 10
50.00000000000001
 20
1.374914365949454
 30
0.0
 11
50.00000000000001
 21
1.487824162545816
 31
0.0
  0
LINE
  5
C5
330
1F
100
AcDbEntity
  8
0
  6
Continuous
 62
     1
370
    25
100
AcDbLine
 10
50.00000000000001
 20
-0.4586993962646441
 30
0.0
 11
50.00000000000001
 21
1.370159884113384
 31
0.0
  0
LINE
  5
C6
330
1F
100
AcDbEntity
  8
0
  6
Continuous
 62
     1
370
    25
100
AcDbLine
 10
50.00000000000001
 20
-0.458699396264645
 30
0.0
 11
49.43568382687637
 21
-0.8538378346194678
 31
0.0
  0
LINE
  5
C7
330
1F
100
AcDbEntity
  8
0
  6
Continuous
 62
     4
370
    25
100
AcDbLine
 10
50.00000000000001
 20
6.020430975286078
 30
0.0
 11
50.00000000000001
 21
6.041300603735382
 31
0.0
  0
ELLIPSE
  5
C8
330
1F
100
AcDbEntity
  8
0
  6
Continuous
 62
     1
370
    25
100
AcDbEllipse
 10
50.71407400337105
 20
0.0413006037353742
 30
0.0
 11
8.56888804045267
 21
0.0
 31
0.0
210
0.0
220
0.0
230
1.0
 40
0.7002075382097116
 41
1.65422641340551
 42
1.720545117955219
  0
LINE
  5
C9
330
1F
100
AcDbEntity
  8
0
  6
Continuous
 62
     1
370
    25
100
AcDbLine
 10
50.00000000000001
 20
-0.4586993962646233
 30
0.0
 11
50.00000000000001
 21
-4.432990210805503
 31
0.0
  0
LINE
  5
CA
330
1F
100
AcDbEntity
  8
0
  6
Continuous
 62
     1
370
    25
100
AcDbLine
 10
50.00000000000001
 20
1.487824162545816
 30
0.0
 11
50.00000000000001
 21
6.020430975286078
 31
0.0
  0
LINE
  5
CB
330
1F
100
AcDbEntity
  8
중심선
100
AcDbLine
 10
-32.99999999999999
 20
0.0413006037353694
 30
0.0
 11
53.00000000000001
 21
0.04130060373538
 31
0.0
  0
CIRCLE
  5
CC
330
1F
100
AcDbEntity
  8
해칭선
100
AcDbCircle
 10
-0.0076712639178241
 20
-0.0000000000000043
 30
0.0
 40
3.000000000000001
  0
INSERT
  5
CD
330
1F
100
AcDbEntity
  8
0
  6
Continuous
 62
     7
100
AcDbBlockReference
 66
     1
  2
블럭10
 10
-2.448147820842444
 20
-52.04717430164393
 30
0.0
  0
ATTRIB
  5
CE
330
CD
100
AcDbEntity
  8
FORMAT
 62
     2
100
AcDbText
 10
-18.567408860278
 20
-49.97180738881174
 30
0.0
 40
4.233333333333333
  1
SEME7112040E [ 4 FLUTE ]
 41
0.75
  7
SLDTEXTSTYLE0
 11
-18.567408860278
 21
-52.08847405547841
 31
0.0
100
AcDbAttribute
  2
AUTOATTR0
 70
     0
 74
     1
  0
SEQEND
  5
CF
330
CD
100
AcDbEntity
  8
0
  6
Continuous
 62
     7
  0
HATCH
  5
D0
330
1F
100
AcDbEntity
  8
중심선
100
AcDbHatch
 10
0.0
 20
0.0
 30
0.0
210
0.0
220
0.0
230
1.0
  2
SOLID
 70
     1
 71
     0
 91
        1
 92
        0
 93
        4
 72
     1
 10
3.266761483538411
 20
-35.8
 11
-0.1795137602988719
 21
-35.8
 72
     1
 10
-0.1795137602988717
 20
-35.8
 11
-2.307743619502895
 21
-38.33632558057259
 72
     1
 10
-2.307743619502895
 20
-38.33632558057259
 11
1.138564709447537
 21
-38.3362861512701
 72
     1
 10
1.138564709447537
 20
-38.3362861512701
 11
3.266761483538411
 21
-35.8
 97
        0
 75
     0
 76
     1
 98
        1
 10
0.0
 20
0.0
  0
HATCH
  5
D1
330
1F
100
AcDbEntity
  8
중심선
100
AcDbHatch
 10
0.0
 20
0.0
 30
0.0
210
0.0
220
0.0
230
1.0
  2
SOLID
 70
     1
 71
     0
 91
        1
 92
        0
 93
        4
 72
     1
 10
8.27952547457439
 20
-35.8
 11
4.833250230737135
 21
-35.79999999999997
 72
     1
 10
4.833250230737135
 20
-35.79999999999997
 11
0.3021122223796917
 21
-41.20000000000002
 72
     1
 10
0.3021122223796913
 20
-41.20000000000002
 11
3.748387466216974
 21
-41.20000000000002
 72
     1
 10
3.748387466216974
 20
-41.20000000000002
 11
8.27952547457439
 21
-35.8
 97
        0
 75
     0
 76
     1
 98
        1
 10
0.0
 20
0.0
  0
HATCH
  5
D2
330
1F
100
AcDbEntity
  8
중심선
100
AcDbHatch
 10
0.0
 20
0.0
 30
0.0
210
0.0
220
0.0
230
1.0
  2
SOLID
 70
     1
 71
     0
 91
        1
 92
        0
 93
        4
 72
     1
 10
13.29228946561028
 20
-35.79999999999997
 11
9.846014221773169
 21
-35.79999999999997
 72
     1
 10
9.846014221773169
 20
-35.79999999999997
 11
2.797577319883892
 21
-44.20000000000002
 72
     1
 10
2.797577319883893
 20
-44.20000000000002
 11
6.243852563721175
 21
-44.20000000000002
 72
     1
 10
6.243852563721175
 20
-44.20000000000002
 11
13.29228946561028
 21
-35.79999999999997
 97
        0
 75
     0
 76
     1
 98
        1
 10
0.0
 20
0.0
  0
HATCH
  5
D3
330
1F
100
AcDbEntity
  8
중심선
100
AcDbHatch
 10
0.0
 20
0.0
 30
0.0
210
0.0
220
0.0
230
1.0
  2
SOLID
 70
     1
 71
     0
 91
        1
 92
        0
 93
        6
 72
     3
 10
18.09217989662246
 20
-40.00000000005127
 11
3.960054785062284
 21
1.540850780301639E-10
 40
0.3939339440162633
 50
17.09539180608434
 51
320.0019657685086
 73
     0
 72
     1
 10
19.77517955232305
 20
-38.58789400463833
 11
22.08048142602412
 21
-36.65356729459038
 72
     3
 10
18.09217989656961
 20
-40.00000000000015
 11
6.600054785286829
 21
-1.249000902703301E-13
 40
0.6363583540795982
 50
39.99873849337388
 51
368.4976242363725
 73
     1
 72
     1
 10
24.51751238847022
 20
-39.03999999993002
 11
16.77224720340553
 21
-39.03999999993002
 72
     1
 10
16.77224720340553
 20
-39.03999999993002
 11
16.7722221589596
 21
-40.95999999992991
 72
     1
 10
16.7722221589596
 20
-40.95999999992991
 11
21.21360192843164
 21
-40.95999999992988
 97
        0
 75
     0
 76
     1
 98
        1
 10
0.0
 20
0.0
  0
DIMENSION
  5
D4
330
1F
100
AcDbEntity
  8
치수문자_일반주서
100
AcDbDimension
  2
_D
 10
64.55035464765315
 20
6.041300603735429
 30
0.0
 11
64.55035464765311
 21
16.58280060373543
 31
0.0
 70
   160
  1
%%c<>
 71
     2
 42
12.00000000000001
 52
-270.0
  3
SLDDIMSTYLE0
100
AcDbAlignedDimension
 13
50.00000000000004
 23
-5.958699396264629
 33
0.0
 14
50.00000000000004
 24
6.041300603735376
 34
0.0
 50
90.0000000000002
100
AcDbRotatedDimension
  0
DIMENSION
  5
E2
330
1F
100
AcDbEntity
  8
치수문자_일반주서
100
AcDbDimension
  2
_D_1
 10
50.00000000000002
 20
23.43043320531702
 30
0.0
 11
10.00000000000001
 21
23.43043320531702
 31
0.0
 70
   160
  1
<>
 71
     2
 42
80.0
  3
SLDDIMSTYLE1
100
AcDbAlignedDimension
 13
-29.99999999999999
 23
5.54130060373537
 33
0.0
 14
50.00000000000001
 24
6.041300603735377
 34
0.0
 50
-0.0000000000000051
100
AcDbRotatedDimension
  0
DIMENSION
  5
ED
330
1F
100
AcDbEntity
  8
치수문자_일반주서
100
AcDbDimension
  2
_D_2
 10
-42.02028132684462
 20
-5.958699396264677
 30
0.0
 11
-42.0202813268447
 21
16.58280060373533
 31
0.0
 70
   160
  1
%%c<>
 71
     2
 42
12.00000000000001
 52
-270.0
  3
SLDDIMSTYLE2
100
AcDbAlignedDimension
 13
-29.49999999999998
 23
6.041300603735379
 33
0.0
 14
-29.49999999999998
 24
-5.958699396264632
 34
0.0
 50
90.0000000000002
100
AcDbRotatedDimension
  0
DIMENSION
  5
FB
330
1F
100
AcDbEntity
  8
치수문자_일반주서
100
AcDbDimension
  2
_D_3
 10
50.00000000000001
 20
16.66530402279092
 30
0.0
 11
29.99999999999999
 21
16.66530402279092
 31
0.0
 70
   160
  1
<>
 71
     2
 42
40.00000000000001
  3
SLDDIMSTYLE1
100
AcDbAlignedDimension
 13
9.999999999999996
 23
5.81938572020327
 33
0.0
 14
50.00000000000001
 24
6.041300603735377
 34
0.0
 50
0.0000000000000102
100
AcDbRotatedDimension
  0
INSERT
  5
10B
330
1F
100
AcDbEntity
  8
해칭선
100
AcDbBlockReference
  2
SW_DOWELSYMBOL_0
 10
-0.0076712639178241
 20
-0.0000000000000043
 30
0.0
  0
LINE
  5
137
330
1F
100
AcDbEntity
  8
0
  6
Continuous
 62
     4
370
    25
100
AcDbLine
 10
9.999999999999996
 20
5.819385720203254
 30
0.0
 11
9.999999999999877
 21
-5.769029052634448
 31
0.0
  0
ENDSEC
  0
SECTION
  2
OBJECTS
  0
DICTIONARY
  5
C
330
0
100
AcDbDictionary
281
     1
  3
ACAD_GROUP
350
D
  3
ACAD_IMAGE_VARS
350
12F
  3
ACAD_LAYOUT
350
1A
  3
ACAD_MLINESTYLE
350
17
  3
ACAD_PLOTSETTINGS
350
19
  3
ACAD_PLOTSTYLENAME
350
E
  3
ACAD_SCALELIST
350
47
  3
APPDATA
350
12D
  3
DWGPROPS
350
13E
  0
DICTIONARY
  5
D
102
{ACAD_REACTORS
330
C
102
}
330
C
100
AcDbDictionary
281
     1
  0
RASTERVARIABLES
  5
12F
102
{ACAD_REACTORS
330
C
102
}
330
C
100
AcDbRasterVariables
 90
        0
 70
     1
 71
     1
 72
     1
  0
DICTIONARY
  5
1A
102
{ACAD_REACTORS
330
C
102
}
330
C
100
AcDbDictionary
281
     1
  3
Layout1
350
1E
  3
Layout2
350
26
  3
Model
350
22
  0
DICTIONARY
  5
17
102
{ACAD_REACTORS
330
C
102
}
330
C
100
AcDbDictionary
281
     1
  3
Standard
350
18
  0
DICTIONARY
  5
19
102
{ACAD_REACTORS
330
C
102
}
330
C
100
AcDbDictionary
281
     1
  0
ACDBDICTIONARYWDFLT
  5
E
102
{ACAD_REACTORS
330
C
102
}
330
C
100
AcDbDictionary
281
     1
  3
Normal
350
F
100
AcDbDictionaryWithDefault
340
F
  0
DICTIONARY
  5
47
102
{ACAD_REACTORS
330
C
102
}
330
C
100
AcDbDictionary
281
     1
  3
A0
350
48
  3
A1
350
49
  3
A2
350
4A
  3
A3
350
4B
  3
A4
350
4C
  3
A5
350
4D
  3
A6
350
4E
  3
A7
350
4F
  3
A8
350
50
  3
A9
350
51
  3
B0
350
52
  3
B1
350
53
  3
B2
350
54
  3
B3
350
55
  3
B4
350
56
  3
B5
350
57
  3
B6
350
58
  3
B7
350
59
  3
B8
350
5A
  3
B9
350
5B
  3
C0
350
5C
  3
C1
350
5D
  3
C2
350
5E
  3
C3
350
5F
  3
C4
350
60
  3
C5
350
61
  3
C6
350
62
  3
C7
350
63
  3
C8
350
64
  3
C9
350
65
  3
D0
350
66
  3
D1
350
67
  3
D2
350
68
  0
DICTIONARY
  5
12D
102
{ACAD_REACTORS
330
C
102
}
330
C
100
AcDbDictionary
281
     1
  0
XRECORD
  5
13E
102
{ACAD_REACTORS
330
C
102
}
330
C
100
AcDbXrecord
280
     1
  1
DWGPROPS COOKIE
  2

  3

  4

  6

  7

  8
12014102
  9

300
=
301
=
302
=
303
=
304
=
305
=
306
=
307
=
308
=
309
=
 40
0.0
 41
2458260.120246585
 42
2458267.362120463
  1

 90
        0
  0
LAYOUT
  5
1E
102
{ACAD_REACTORS
330
1A
102
}
330
1A
100
AcDbPlotSettings
  1

  2
none_device
  4

  6

 40
0.0
 41
0.0
 42
0.0
 43
0.0
 44
0.0
 45
0.0
 46
0.0
 47
0.0
 48
0.0
 49
0.0
140
0.0
141
0.0
142
1.0
143
1.0
 70
   688
 72
     1
 73
     0
 74
     5
  7

 75
    16
147
1.0
148
0.0
149
0.0
100
AcDbLayout
  1
Layout1
 70
     1
 71
     1
 10
0.0
 20
0.0
 11
420.0
 21
297.0
 12
0.0
 22
0.0
 32
0.0
 14
1.000000000000000E+20
 24
1.000000000000000E+20
 34
1.000000000000000E+20
 15
-1.000000000000000E+20
 25
-1.000000000000000E+20
 35
-1.000000000000000E+20
146
0.0
 13
0.0
 23
0.0
 33
0.0
 16
1.0
 26
0.0
 36
0.0
 17
0.0
 27
1.0
 37
0.0
 76
     0
330
1B
  0
LAYOUT
  5
26
102
{ACAD_REACTORS
330
1A
102
}
330
1A
100
AcDbPlotSettings
  1

  2
none_device
  4

  6

 40
0.0
 41
0.0
 42
0.0
 43
0.0
 44
0.0
 45
0.0
 46
0.0
 47
0.0
 48
0.0
 49
0.0
140
0.0
141
0.0
142
1.0
143
1.0
 70
   688
 72
     1
 73
     0
 74
     5
  7

 75
    16
147
1.0
148
0.0
149
0.0
100
AcDbLayout
  1
Layout2
 70
     1
 71
     2
 10
0.0
 20
0.0
 11
0.0
 21
0.0
 12
0.0
 22
0.0
 32
0.0
 14
0.0
 24
0.0
 34
0.0
 15
0.0
 25
0.0
 35
0.0
146
0.0
 13
0.0
 23
0.0
 33
0.0
 16
1.0
 26
0.0
 36
0.0
 17
0.0
 27
1.0
 37
0.0
 76
     0
330
23
  0
LAYOUT
  5
22
102
{ACAD_REACTORS
330
1A
102
}
330
1A
100
AcDbPlotSettings
  1

  2
none_device
  4
ANSI_A_(11.00_x_8.50_Inches)
  6

 40
6.35
 41
19.05
 42
6.35000508
 43
19.05000254
 44
279.4
 45
215.9
 46
107.1839875623055
 47
116.370790722314
 48
0.0
 49
0.0
140
0.0
141
0.0
142
0.0948088374384318
143
1.0
 70
  1696
 72
     0
 73
     0
 74
     0
  7

 75
     0
147
0.0235690232323232
148
0.0
149
0.0
100
AcDbLayout
  1
Model
 70
     1
 71
     0
 10
0.0
 20
0.0
 11
420.0
 21
297.0
 12
0.0
 22
0.0
 32
0.0
 14
-46.3952813268447
 24
-49.97180738881174
 34
0.0
 15
65.10068798098655
 25
27.80543320531702
 35
0.0
146
0.0
 13
0.0
 23
0.0
 33
0.0
 16
1.0
 26
0.0
 36
0.0
 17
0.0
 27
1.0
 37
0.0
 76
     0
330
1F
331
29
  0
MLINESTYLE
  5
18
102
{ACAD_REACTORS
330
17
102
}
330
17
100
AcDbMlineStyle
  2
Standard
 70
     0
  3

 62
   256
 51
90.0
 52
90.0
 71
     2
 49
0.5
 62
   256
  6
BYLAYER
 49
-0.5
 62
   256
  6
BYLAYER
  0
ACDBPLACEHOLDER
  5
F
102
{ACAD_REACTORS
330
E
102
}
330
E
  0
SCALE
  5
48
102
{ACAD_REACTORS
330
47
102
}
330
47
100
AcDbScale
 70
     0
300
1:1
140
1.0
141
1.0
290
     1
  0
SCALE
  5
49
102
{ACAD_REACTORS
330
47
102
}
330
47
100
AcDbScale
 70
     0
300
1:2
140
1.0
141
2.0
290
     0
  0
SCALE
  5
4A
102
{ACAD_REACTORS
330
47
102
}
330
47
100
AcDbScale
 70
     0
300
1:4
140
1.0
141
4.0
290
     0
  0
SCALE
  5
4B
102
{ACAD_REACTORS
330
47
102
}
330
47
100
AcDbScale
 70
     0
300
1:5
140
1.0
141
5.0
290
     0
  0
SCALE
  5
4C
102
{ACAD_REACTORS
330
47
102
}
330
47
100
AcDbScale
 70
     0
300
1:8
140
1.0
141
8.0
290
     0
  0
SCALE
  5
4D
102
{ACAD_REACTORS
330
47
102
}
330
47
100
AcDbScale
 70
     0
300
1:10
140
1.0
141
10.0
290
     0
  0
SCALE
  5
4E
102
{ACAD_REACTORS
330
47
102
}
330
47
100
AcDbScale
 70
     0
300
1:16
140
1.0
141
16.0
290
     0
  0
SCALE
  5
4F
102
{ACAD_REACTORS
330
47
102
}
330
47
100
AcDbScale
 70
     0
300
1:20
140
1.0
141
20.0
290
     0
  0
SCALE
  5
50
102
{ACAD_REACTORS
330
47
102
}
330
47
100
AcDbScale
 70
     0
300
1:30
140
1.0
141
30.0
290
     0
  0
SCALE
  5
51
102
{ACAD_REACTORS
330
47
102
}
330
47
100
AcDbScale
 70
     0
300
1:40
140
1.0
141
40.0
290
     0
  0
SCALE
  5
52
102
{ACAD_REACTORS
330
47
102
}
330
47
100
AcDbScale
 70
     0
300
1:50
140
1.0
141
50.0
290
     0
  0
SCALE
  5
53
102
{ACAD_REACTORS
330
47
102
}
330
47
100
AcDbScale
 70
     0
300
1:100
140
1.0
141
100.0
290
     0
  0
SCALE
  5
54
102
{ACAD_REACTORS
330
47
102
}
330
47
100
AcDbScale
 70
     0
300
2:1
140
2.0
141
1.0
290
     0
  0
SCALE
  5
55
102
{ACAD_REACTORS
330
47
102
}
330
47
100
AcDbScale
 70
     0
300
4:1
140
4.0
141
1.0
290
     0
  0
SCALE
  5
56
102
{ACAD_REACTORS
330
47
102
}
330
47
100
AcDbScale
 70
     0
300
8:1
140
8.0
141
1.0
290
     0
  0
SCALE
  5
57
102
{ACAD_REACTORS
330
47
102
}
330
47
100
AcDbScale
 70
     0
300
10:1
140
10.0
141
1.0
290
     0
  0
SCALE
  5
58
102
{ACAD_REACTORS
330
47
102
}
330
47
100
AcDbScale
 70
     0
300
100:1
140
100.0
141
1.0
290
     0
  0
SCALE
  5
59
102
{ACAD_REACTORS
330
47
102
}
330
47
100
AcDbScale
 70
     0
300
1/128" = 1'-0"
140
0.0078125
141
12.0
290
     0
  0
SCALE
  5
5A
102
{ACAD_REACTORS
330
47
102
}
330
47
100
AcDbScale
 70
     0
300
1/64" = 1'-0"
140
0.015625
141
12.0
290
     0
  0
SCALE
  5
5B
102
{ACAD_REACTORS
330
47
102
}
330
47
100
AcDbScale
 70
     0
300
1/32" = 1'-0"
140
0.03125
141
12.0
290
     0
  0
SCALE
  5
5C
102
{ACAD_REACTORS
330
47
102
}
330
47
100
AcDbScale
 70
     0
300
1/16" = 1'-0"
140
0.0625
141
12.0
290
     0
  0
SCALE
  5
5D
102
{ACAD_REACTORS
330
47
102
}
330
47
100
AcDbScale
 70
     0
300
3/32" = 1'-0"
140
0.09375
141
12.0
290
     0
  0
SCALE
  5
5E
102
{ACAD_REACTORS
330
47
102
}
330
47
100
AcDbScale
 70
     0
300
1/8" = 1'-0"
140
0.125
141
12.0
290
     0
  0
SCALE
  5
5F
102
{ACAD_REACTORS
330
47
102
}
330
47
100
AcDbScale
 70
     0
300
3/16" = 1'-0"
140
0.1875
141
12.0
290
     0
  0
SCALE
  5
60
102
{ACAD_REACTORS
330
47
102
}
330
47
100
AcDbScale
 70
     0
300
1/4" = 1'-0"
140
0.25
141
12.0
290
     0
  0
SCALE
  5
61
102
{ACAD_REACTORS
330
47
102
}
330
47
100
AcDbScale
 70
     0
300
3/8" = 1'-0"
140
0.375
141
12.0
290
     0
  0
SCALE
  5
62
102
{ACAD_REACTORS
330
47
102
}
330
47
100
AcDbScale
 70
     0
300
1/2" = 1'-0"
140
0.5
141
12.0
290
     0
  0
SCALE
  5
63
102
{ACAD_REACTORS
330
47
102
}
330
47
100
AcDbScale
 70
     0
300
3/4" = 1'-0"
140
0.75
141
12.0
290
     0
  0
SCALE
  5
64
102
{ACAD_REACTORS
330
47
102
}
330
47
100
AcDbScale
 70
     0
300
1" = 1'-0"
140
1.0
141
12.0
290
     0
  0
SCALE
  5
65
102
{ACAD_REACTORS
330
47
102
}
330
47
100
AcDbScale
 70
     0
300
1-1/2" = 1'-0"
140
1.5
141
12.0
290
     0
  0
SCALE
  5
66
102
{ACAD_REACTORS
330
47
102
}
330
47
100
AcDbScale
 70
     0
300
3" = 1'-0"
140
3.0
141
12.0
290
     0
  0
SCALE
  5
67
102
{ACAD_REACTORS
330
47
102
}
330
47
100
AcDbScale
 70
     0
300
6" = 1'-0"
140
6.0
141
12.0
290
     0
  0
SCALE
  5
68
102
{ACAD_REACTORS
330
47
102
}
330
47
100
AcDbScale
 70
     0
300
1'-0" = 1'-0"
140
12.0
141
12.0
290
     0
  0
ENDSEC
  0
EOF
