  0
SECTION
  2
HEADER
  9
$ACADVER
  1
AC1015
  9
$ACADMAINTVER
 70
     6
  9
$DWGCODEPAGE
  3
ANSI_949
  9
$INSBASE
 10
0.0
 20
0.0
 30
0.0
  9
$EXTMIN
 10
-50.46974419493463
 20
-49.97180738881174
 30
0.0
  9
$EXTMAX
 10
62.00786610944678
 20
27.76413260158165
 30
0.0
  9
$LIMMIN
 10
0.0
 20
0.0
  9
$LIMMAX
 10
420.0
 20
297.0
  9
$ORTHOMODE
 70
     0
  9
$REGENMODE
 70
     1
  9
$FILLMODE
 70
     1
  9
$QTEXTMODE
 70
     0
  9
$MIRRTEXT
 70
     1
  9
$LTSCALE
 40
1.0
  9
$ATTMODE
 70
     1
  9
$TEXTSIZE
 40
3.5
  9
$TRACEWID
 40
1.0
  9
$TEXTSTYLE
  7
Standard
  9
$CLAYER
  8
0
  9
$CELTYPE
  6
ByLayer
  9
$CECOLOR
 62
   256
  9
$CELTSCALE
 40
1.0
  9
$DISPSILH
 70
     0
  9
$DIMSCALE
 40
1.0
  9
$DIMASZ
 40
3.302
  9
$DIMEXO
 40
1.0
  9
$DIMDLI
 40
3.75
  9
$DIMRND
 40
0.0
  9
$DIMDLE
 40
0.0
  9
$DIMEXE
 40
1.0
  9
$DIMTP
 40
0.0
  9
$DIMTM
 40
0.0
  9
$DIMTXT
 40
3.5
  9
$DIMCEN
 40
2.5
  9
$DIMTSZ
 40
0.0
  9
$DIMTOL
 70
     0
  9
$DIMLIM
 70
     0
  9
$DIMTIH
 70
     1
  9
$DIMTOH
 70
     1
  9
$DIMSE1
 70
     0
  9
$DIMSE2
 70
     0
  9
$DIMTAD
 70
     1
  9
$DIMZIN
 70
     0
  9
$DIMBLK
  1

  9
$DIMASO
 70
     1
  9
$DIMSHO
 70
     1
  9
$DIMPOST
  1

  9
$DIMAPOST
  1

  9
$DIMALT
 70
     0
  9
$DIMALTD
 70
     3
  9
$DIMALTF
 40
0.0393700787401575
  9
$DIMLFAC
 40
1.0
  9
$DIMTOFL
 70
     1
  9
$DIMTVP
 40
0.0
  9
$DIMTIX
 70
     0
  9
$DIMSOXD
 70
     0
  9
$DIMSAH
 70
     0
  9
$DIMBLK1
  1

  9
$DIMBLK2
  1

  9
$DIMSTYLE
  2
ISO-25
  9
$DIMCLRD
 70
     0
  9
$DIMCLRE
 70
     0
  9
$DIMCLRT
 70
     0
  9
$DIMTFAC
 40
1.0
  9
$DIMGAP
 40
1.524
  9
$DIMJUST
 70
     0
  9
$DIMSD1
 70
     0
  9
$DIMSD2
 70
     0
  9
$DIMTOLJ
 70
     0
  9
$DIMTZIN
 70
     0
  9
$DIMALTZ
 70
     0
  9
$DIMALTTZ
 70
     0
  9
$DIMUPT
 70
     0
  9
$DIMDEC
 70
     2
  9
$DIMTDEC
 70
     2
  9
$DIMALTU
 70
     2
  9
$DIMALTTD
 70
     3
  9
$DIMTXSTY
  7
Standard
  9
$DIMAUNIT
 70
     0
  9
$DIMADEC
 70
     2
  9
$DIMALTRND
 40
0.0
  9
$DIMAZIN
 70
     0
  9
$DIMDSEP
 70
    44
  9
$DIMATFIT
 70
     3
  9
$DIMFRAC
 70
     0
  9
$DIMLDRBLK
  1

  9
$DIMLUNIT
 70
     2
  9
$DIMLWD
 70
    -2
  9
$DIMLWE
 70
    -2
  9
$DIMTMOVE
 70
     0
  9
$LUNITS
 70
     2
  9
$LUPREC
 70
     2
  9
$SKETCHINC
 40
1.0
  9
$FILLETRAD
 40
10.0
  9
$AUNITS
 70
     0
  9
$AUPREC
 70
     2
  9
$MENU
  1
.
  9
$ELEVATION
 40
0.0
  9
$PELEVATION
 40
0.0
  9
$THICKNESS
 40
0.0
  9
$LIMCHECK
 70
     0
  9
$CHAMFERA
 40
0.0
  9
$CHAMFERB
 40
0.0
  9
$CHAMFERC
 40
0.0
  9
$CHAMFERD
 40
0.0
  9
$SKPOLY
 70
     0
  9
$TDCREATE
 40
2458260.495057905
  9
$TDUCREATE
 40
2458260.120057905
  9
$TDUPDATE
 40
2458267.735314722
  9
$TDUUPDATE
 40
2458267.360314722
  9
$TDINDWG
 40
0.0033118981
  9
$TDUSRTIMER
 40
2458267.35700287
  9
$USRTIMER
 70
     1
  9
$ANGBASE
 50
0.0
  9
$ANGDIR
 70
     0
  9
$PDMODE
 70
     0
  9
$PDSIZE
 40
-1.0
  9
$PLINEWID
 40
0.0
  9
$SPLFRAME
 70
     0
  9
$SPLINETYPE
 70
     6
  9
$SPLINESEGS
 70
     8
  9
$HANDSEED
  5
143
  9
$SURFTAB1
 70
     6
  9
$SURFTAB2
 70
     6
  9
$SURFTYPE
 70
     6
  9
$SURFU
 70
     6
  9
$SURFV
 70
     6
  9
$UCSBASE
  2

  9
$UCSNAME
  2

  9
$UCSORG
 10
0.0
 20
0.0
 30
0.0
  9
$UCSXDIR
 10
1.0
 20
0.0
 30
0.0
  9
$UCSYDIR
 10
0.0
 20
1.0
 30
0.0
  9
$UCSORTHOREF
  2

  9
$UCSORTHOVIEW
 70
     0
  9
$UCSORGTOP
 10
0.0
 20
0.0
 30
0.0
  9
$UCSORGBOTTOM
 10
0.0
 20
0.0
 30
0.0
  9
$UCSORGLEFT
 10
0.0
 20
0.0
 30
0.0
  9
$UCSORGRIGHT
 10
0.0
 20
0.0
 30
0.0
  9
$UCSORGFRONT
 10
0.0
 20
0.0
 30
0.0
  9
$UCSORGBACK
 10
0.0
 20
0.0
 30
0.0
  9
$PUCSBASE
  2

  9
$PUCSNAME
  2

  9
$PUCSORG
 10
0.0
 20
0.0
 30
0.0
  9
$PUCSXDIR
 10
1.0
 20
0.0
 30
0.0
  9
$PUCSYDIR
 10
0.0
 20
1.0
 30
0.0
  9
$PUCSORTHOREF
  2

  9
$PUCSORTHOVIEW
 70
     0
  9
$PUCSORGTOP
 10
0.0
 20
0.0
 30
0.0
  9
$PUCSORGBOTTOM
 10
0.0
 20
0.0
 30
0.0
  9
$PUCSORGLEFT
 10
0.0
 20
0.0
 30
0.0
  9
$PUCSORGRIGHT
 10
0.0
 20
0.0
 30
0.0
  9
$PUCSORGFRONT
 10
0.0
 20
0.0
 30
0.0
  9
$PUCSORGBACK
 10
0.0
 20
0.0
 30
0.0
  9
$USERI1
 70
     0
  9
$USERI2
 70
     0
  9
$USERI3
 70
     0
  9
$USERI4
 70
     0
  9
$USERI5
 70
     0
  9
$USERR1
 40
0.0
  9
$USERR2
 40
0.0
  9
$USERR3
 40
0.0
  9
$USERR4
 40
0.0
  9
$USERR5
 40
0.0
  9
$WORLDVIEW
 70
     1
  9
$SHADEDGE
 70
     3
  9
$SHADEDIF
 70
    70
  9
$TILEMODE
 70
     1
  9
$MAXACTVP
 70
    64
  9
$PINSBASE
 10
0.0
 20
0.0
 30
0.0
  9
$PLIMCHECK
 70
     0
  9
$PEXTMIN
 10
1.000000000000000E+20
 20
1.000000000000000E+20
 30
1.000000000000000E+20
  9
$PEXTMAX
 10
-1.000000000000000E+20
 20
-1.000000000000000E+20
 30
-1.000000000000000E+20
  9
$PLIMMIN
 10
0.0
 20
0.0
  9
$PLIMMAX
 10
0.0
 20
0.0
  9
$UNITMODE
 70
     0
  9
$VISRETAIN
 70
     1
  9
$PLINEGEN
 70
     0
  9
$PSLTSCALE
 70
     1
  9
$TREEDEPTH
 70
  3020
  9
$CMLSTYLE
  2
Standard
  9
$CMLJUST
 70
     0
  9
$CMLSCALE
 40
20.0
  9
$PROXYGRAPHICS
 70
     1
  9
$MEASUREMENT
 70
     1
  9
$CELWEIGHT
370
    -1
  9
$ENDCAPS
280
     0
  9
$JOINSTYLE
280
     0
  9
$LWDISPLAY
290
     1
  9
$INSUNITS
 70
     4
  9
$HYPERLINKBASE
  1

  9
$STYLESHEET
  1

  9
$XEDIT
290
     1
  9
$CEPSNTYPE
380
     0
  9
$PSTYLEMODE
290
     1
  9
$FINGERPRINTGUID
  2
{2684D2E4-08E7-4122-A81D-6CDA3C6E4D0A}
  9
$VERSIONGUID
  2
{FAEB1C32-E019-11D5-929B-00C0DF256EC4}
  9
$EXTNAMES
290
     1
  9
$PSVPSCALE
 40
0.0
  9
$OLESTARTUP
290
     0
  0
ENDSEC
  0
SECTION
  2
CLASSES
  0
CLASS
  1
ACDBDICTIONARYWDFLT
  2
AcDbDictionaryWithDefault
  3
ObjectDBX Classes
 90
        0
280
     0
281
     0
  0
CLASS
  1
VISUALSTYLE
  2
AcDbVisualStyle
  3
ObjectDBX Classes
 90
     4095
280
     0
281
     0
  0
CLASS
  1
MATERIAL
  2
AcDbMaterial
  3
ObjectDBX Classes
 90
     1153
280
     0
281
     0
  0
CLASS
  1
SCALE
  2
AcDbScale
  3
ObjectDBX Classes
 90
     1153
280
     0
281
     0
  0
CLASS
  1
TABLESTYLE
  2
AcDbTableStyle
  3
ObjectDBX Classes
 90
     4095
280
     0
281
     0
  0
CLASS
  1
MLEADERSTYLE
  2
AcDbMLeaderStyle
  3
ACDB_MLEADERSTYLE_CLASS
 90
     4095
280
     0
281
     0
  0
CLASS
  1
SUN
  2
AcDbSun
  3
SCENEOE
 90
     1153
280
     0
281
     0
  0
CLASS
  1
ACDBPLACEHOLDER
  2
AcDbPlaceHolder
  3
ObjectDBX Classes
 90
        0
280
     0
281
     0
  0
CLASS
  1
LAYOUT
  2
AcDbLayout
  3
ObjectDBX Classes
 90
        0
280
     0
281
     0
  0
CLASS
  1
RASTERVARIABLES
  2
AcDbRasterVariables
  3
ISM
 90
        0
280
     0
281
     0
  0
ENDSEC
  0
SECTION
  2
TABLES
  0
TABLE
  2
VPORT
  5
8
330
0
100
AcDbSymbolTable
 70
     1
  0
VPORT
  5
29
330
8
100
AcDbSymbolTableRecord
100
AcDbViewportTableRecord
  2
*Active
 70
     0
 10
0.0
 20
0.0
 11
1.0
 21
1.0
 12
5.769060957256073
 22
-11.10383739361504
 13
0.0
 23
0.0
 14
10.0
 24
10.0
 15
10.0
 25
10.0
 16
0.0
 26
0.0
 36
1.0
 17
0.0
 27
0.0
 37
0.0
 40
79.29065879020126
 41
1.731266149870801
 42
50.0
 43
0.0
 44
0.0
 50
0.0
 51
0.0
 71
    16
 72
  2000
 73
     1
 74
     3
 75
     0
 76
     0
 77
     0
 78
     0
281
     0
 65
     1
110
0.0
120
0.0
130
0.0
111
1.0
121
0.0
131
0.0
112
0.0
122
1.0
132
0.0
 79
     0
146
0.0
  0
ENDTAB
  0
TABLE
  2
LTYPE
  5
5
330
0
100
AcDbSymbolTable
 70
     6
  0
LTYPE
  5
14
330
5
100
AcDbSymbolTableRecord
100
AcDbLinetypeTableRecord
  2
ByBlock
 70
     0
  3

 72
    65
 73
     0
 40
0.0
  0
LTYPE
  5
15
330
5
100
AcDbSymbolTableRecord
100
AcDbLinetypeTableRecord
  2
ByLayer
 70
     0
  3

 72
    65
 73
     0
 40
0.0
  0
LTYPE
  5
16
330
5
100
AcDbSymbolTableRecord
100
AcDbLinetypeTableRecord
  2
Continuous
 70
     0
  3
Solid line
 72
    65
 73
     0
 40
0.0
  0
LTYPE
  5
6E
330
5
100
AcDbSymbolTableRecord
100
AcDbLinetypeTableRecord
  2
HIDDEN
 70
     0
  3
Hidden __ __ __ __ __ __ __ __ __ __ __ __ __ __
 72
    65
 73
     2
 40
1.905
 49
1.27
 74
     0
 49
-0.635
 74
     0
  0
LTYPE
  5
6F
330
5
100
AcDbSymbolTableRecord
100
AcDbLinetypeTableRecord
  2
PHANTOM
 70
     0
  3
Phantom ______  __  __  ______  __  __  ______
 72
    65
 73
     6
 40
12.7
 49
6.35
 74
     0
 49
-1.27
 74
     0
 49
1.27
 74
     0
 49
-1.27
 74
     0
 49
1.27
 74
     0
 49
-1.27
 74
     0
  0
LTYPE
  5
70
330
5
100
AcDbSymbolTableRecord
100
AcDbLinetypeTableRecord
  2
CENTER
 70
     0
  3
Center ____ _ ____ _ ____ _ ____ _ ____ _ ____
 72
    65
 73
     4
 40
10.16
 49
6.35
 74
     0
 49
-1.27
 74
     0
 49
1.27
 74
     0
 49
-1.27
 74
     0
  0
LTYPE
  5
71
330
5
100
AcDbSymbolTableRecord
100
AcDbLinetypeTableRecord
  2
CENTERX2
 70
     0
  3
Center (2x) ________  __  ________  __  _____
 72
    65
 73
     4
 40
20.32
 49
12.7
 74
     0
 49
-2.54
 74
     0
 49
2.54
 74
     0
 49
-2.54
 74
     0
  0
LTYPE
  5
72
330
5
100
AcDbSymbolTableRecord
100
AcDbLinetypeTableRecord
  2
DOT2
 70
     0
  3
Dot (.5x) ........................................
 72
    65
 73
     2
 40
0.635
 49
0.0
 74
     0
 49
-0.635
 74
     0
  0
ENDTAB
  0
TABLE
  2
LAYER
  5
2
330
0
100
AcDbSymbolTable
 70
    17
  0
LAYER
  5
10
330
2
100
AcDbSymbolTableRecord
100
AcDbLayerTableRecord
  2
0
 70
     0
 62
     7
  6
Continuous
370
    -3
390
F
  0
LAYER
  5
73
330
2
100
AcDbSymbolTableRecord
100
AcDbLayerTableRecord
  2
FORMAT
 70
     0
 62
     2
  6
Continuous
370
    -3
390
F
  0
LAYER
  5
74
330
2
100
AcDbSymbolTableRecord
100
AcDbLayerTableRecord
  2
외형선
 70
     0
 62
   100
  6
Continuous
370
    35
390
F
  0
LAYER
  5
75
330
2
100
AcDbSymbolTableRecord
100
AcDbLayerTableRecord
  2
숨은선
 70
     0
 62
     2
  6
HIDDEN
370
    25
390
F
  0
LAYER
  5
76
330
2
100
AcDbSymbolTableRecord
100
AcDbLayerTableRecord
  2
중심선
 70
     0
 62
     1
  6
CENTERX2
370
    -3
390
F
  0
LAYER
  5
77
330
2
100
AcDbSymbolTableRecord
100
AcDbLayerTableRecord
  2
파단선
 70
     0
 62
     4
  6
Continuous
370
    -3
390
F
  0
LAYER
  5
78
330
2
100
AcDbSymbolTableRecord
100
AcDbLayerTableRecord
  2
해칭선
 70
     0
 62
   100
  6
Continuous
370
    -3
390
F
  0
LAYER
  5
79
330
2
100
AcDbSymbolTableRecord
100
AcDbLayerTableRecord
  2
가는실선
 70
     0
 62
     4
  6
Continuous
370
    -3
390
F
  0
LAYER
  5
7A
330
2
100
AcDbSymbolTableRecord
100
AcDbLayerTableRecord
  2
치수_보조선
 70
     0
 62
     4
  6
Continuous
370
    -3
390
F
  0
LAYER
  5
7B
330
2
100
AcDbSymbolTableRecord
100
AcDbLayerTableRecord
  2
치수문자_일반주서
 70
     0
 62
     7
  6
Continuous
370
    25
390
F
  0
LAYER
  5
7C
330
2
100
AcDbSymbolTableRecord
100
AcDbLayerTableRecord
  2
개별주서
 70
     0
 62
   100
  6
Continuous
370
    35
390
F
  0
LAYER
  5
7D
330
2
100
AcDbSymbolTableRecord
100
AcDbLayerTableRecord
  2
중간선
 70
     0
 62
     2
  6
Continuous
370
    25
390
F
  0
LAYER
  5
7E
330
2
100
AcDbSymbolTableRecord
100
AcDbLayerTableRecord
  2
윤곽선
 70
     0
 62
     3
  6
Continuous
370
    50
390
F
  0
LAYER
  5
7F
330
2
100
AcDbSymbolTableRecord
100
AcDbLayerTableRecord
  2
중심마크
 70
     0
 62
   100
  6
Continuous
370
    35
390
F
  0
LAYER
  5
80
330
2
100
AcDbSymbolTableRecord
100
AcDbLayerTableRecord
  2
가상선
 70
     0
 62
     4
  6
PHANTOM
370
    -3
390
F
  0
LAYER
  5
81
330
2
100
AcDbSymbolTableRecord
100
AcDbLayerTableRecord
  2
특수지정선
 70
     0
 62
     5
  6
CENTERX2
370
    70
390
F
  0
LAYER
  5
132
330
2
100
AcDbSymbolTableRecord
100
AcDbLayerTableRecord
  2
Defpoints
 70
     0
 62
     7
  6
Continuous
290
     0
370
    -3
390
F
  0
ENDTAB
  0
TABLE
  2
STYLE
  5
3
330
0
100
AcDbSymbolTable
 70
     2
  0
STYLE
  5
11
330
3
100
AcDbSymbolTableRecord
100
AcDbTextStyleTableRecord
  2
Standard
 70
     0
 40
0.0
 41
1.0
 50
0.0
 71
     0
 42
3.5
  3
txt
  4

  0
STYLE
  5
97
330
3
100
AcDbSymbolTableRecord
100
AcDbTextStyleTableRecord
  2
SLDTEXTSTYLE0
 70
     0
 40
0.0
 41
0.75
 50
0.0
 71
     0
 42
3.5
  3
TXT
  4

  0
ENDTAB
  0
TABLE
  2
VIEW
  5
6
330
0
100
AcDbSymbolTable
 70
     0
  0
ENDTAB
  0
TABLE
  2
UCS
  5
7
330
0
100
AcDbSymbolTable
 70
     0
  0
ENDTAB
  0
TABLE
  2
APPID
  5
9
330
0
100
AcDbSymbolTable
 70
     1
  0
APPID
  5
12
330
9
100
AcDbSymbolTableRecord
100
AcDbRegAppTableRecord
  2
ACAD
 70
     0
  0
ENDTAB
  0
TABLE
  2
DIMSTYLE
  5
A
330
0
100
AcDbSymbolTable
 70
     4
100
AcDbDimStyleTable
  0
DIMSTYLE
105
27
330
A
100
AcDbSymbolTableRecord
100
AcDbDimStyleTableRecord
  2
ISO-25
 70
     0
 41
2.5
 42
0.625
 43
3.75
 44
1.25
 73
     0
 74
     0
 77
     1
 78
     8
140
2.5
141
2.5
143
0.03937007874016
147
0.625
171
     3
172
     1
178
     0
271
     2
272
     2
274
     3
278
    44
283
     0
284
     8
340
11
  0
DIMSTYLE
105
D6
102
{ACAD_REACTORS
330
D5
102
}
330
A
100
AcDbSymbolTableRecord
100
AcDbDimStyleTableRecord
  2
SLDDIMSTYLE0
 70
     0
 41
3.302
 44
0.0
 45
0.000000001
 73
     0
 74
     0
 77
     1
 78
    12
 79
     3
140
3.5
147
0.875
172
     1
173
     1
178
     0
271
     1
272
     1
276
     2
284
    12
289
     0
340
97
  0
DIMSTYLE
105
E4
102
{ACAD_REACTORS
330
E3
330
FC
102
}
330
A
100
AcDbSymbolTableRecord
100
AcDbDimStyleTableRecord
  2
SLDDIMSTYLE1
 70
     0
 41
3.302
 44
0.0
 45
0.000000001
 73
     0
 74
     0
 77
     1
 78
    12
 79
     3
140
3.5
147
0.875
173
     1
178
     0
271
     2
272
     2
276
     2
284
    12
340
97
  0
DIMSTYLE
105
EF
102
{ACAD_REACTORS
330
EE
102
}
330
A
100
AcDbSymbolTableRecord
100
AcDbDimStyleTableRecord
  2
SLDDIMSTYLE2
 70
     0
 41
3.302
 44
0.0
 45
0.000000001
 73
     0
 74
     0
 77
     1
 78
    12
 79
     3
140
3.5
147
0.875
172
     1
173
     1
178
     0
271
     2
272
     2
276
     2
284
    12
289
     0
340
97
  0
ENDTAB
  0
TABLE
  2
BLOCK_RECORD
  5
1
330
0
100
AcDbSymbolTable
 70
     7
  0
BLOCK_RECORD
  5
1F
330
1
100
AcDbSymbolTableRecord
100
AcDbBlockTableRecord
  2
*Model_Space
340
22
  0
BLOCK_RECORD
  5
1B
330
1
100
AcDbSymbolTableRecord
100
AcDbBlockTableRecord
  2
*Paper_Space
340
1E
  0
BLOCK_RECORD
  5
23
330
1
100
AcDbSymbolTableRecord
100
AcDbBlockTableRecord
  2
*Paper_Space0
340
26
  0
BLOCK_RECORD
  5
82
330
1
100
AcDbSymbolTableRecord
100
AcDbBlockTableRecord
  2
블럭10
340
0
102
{BLKREFS
331
CE
102
}
  0
BLOCK_RECORD
  5
D7
330
1
100
AcDbSymbolTableRecord
100
AcDbBlockTableRecord
  2
_D
340
0
  0
BLOCK_RECORD
  5
E5
330
1
100
AcDbSymbolTableRecord
100
AcDbBlockTableRecord
  2
_D_1
340
0
  0
BLOCK_RECORD
  5
F0
330
1
100
AcDbSymbolTableRecord
100
AcDbBlockTableRecord
  2
_D_2
340
0
  0
BLOCK_RECORD
  5
FD
330
1
100
AcDbSymbolTableRecord
100
AcDbBlockTableRecord
  2
_D_3
340
0
  0
BLOCK_RECORD
  5
106
330
1
100
AcDbSymbolTableRecord
100
AcDbBlockTableRecord
  2
SW_DOWELSYMBOL_0
340
0
102
{BLKREFS
331
10C
102
}
  0
ENDTAB
  0
ENDSEC
  0
SECTION
  2
BLOCKS
  0
BLOCK
  5
20
330
1F
100
AcDbEntity
  8
0
100
AcDbBlockBegin
  2
*Model_Space
 70
     0
 10
0.0
 20
0.0
 30
0.0
  3
*Model_Space
  1

  0
ENDBLK
  5
21
330
1F
100
AcDbEntity
  8
0
100
AcDbBlockEnd
  0
BLOCK
  5
1C
330
1B
100
AcDbEntity
 67
     1
  8
0
100
AcDbBlockBegin
  2
*Paper_Space
 70
     0
 10
0.0
 20
0.0
 30
0.0
  3
*Paper_Space
  1

  0
ENDBLK
  5
1D
330
1B
100
AcDbEntity
 67
     1
  8
0
100
AcDbBlockEnd
  0
BLOCK
  5
24
330
23
100
AcDbEntity
  8
0
100
AcDbBlockBegin
  2
*Paper_Space0
 70
     0
 10
0.0
 20
0.0
 30
0.0
  3
*Paper_Space0
  1

  0
ENDBLK
  5
25
330
23
100
AcDbEntity
  8
0
100
AcDbBlockEnd
  0
BLOCK
  5
83
330
82
100
AcDbEntity
  8
0
100
AcDbBlockBegin
  2
블럭10
 70
     2
 10
0.0
 20
0.0
 30
0.0
  3
블럭10
  1

  0
ELLIPSE
  5
85
330
82
100
AcDbEntity
  8
중심선
100
AcDbEllipse
 10
20.54032771741204
 20
12.0471743016438
 30
0.0
 11
6.600054785286829
 21
-1.261213355974178E-13
 31
0.0
210
0.0
220
0.0
230
1.0
 40
0.636358354079598
 41
0.9219305317359503
 42
6.513795318482858
  0
ELLIPSE
  5
86
330
82
100
AcDbEntity
  8
중심선
100
AcDbEllipse
 10
20.54032771746488
 20
12.04717430159265
 30
0.0
 11
3.960054785062283
 21
1.540847449632565E-10
 31
0.0
210
0.0
220
0.0
230
1.0
 40
0.3939339440162632
 41
1.131841032648279
 42
5.62031148352944
  0
LINE
  5
87
330
82
100
AcDbEntity
  8
중심선
100
AcDbLine
 10
2.268634060543552
 20
16.24717430164393
 30
0.0
 11
5.714909304380834
 21
16.24717430164393
 31
0.0
  0
LINE
  5
88
330
82
100
AcDbEntity
  8
중심선
100
AcDbLine
 10
5.245725140726316
 20
7.84717430164391
 30
0.0
 11
8.692000384563599
 21
7.84717430164391
 31
0.0
  0
LINE
  5
89
330
82
100
AcDbEntity
  8
중심선
100
AcDbLine
 10
15.74043728645272
 20
16.24717430164393
 30
0.0
 11
8.692000384563599
 21
7.84717430164391
 31
0.0
  0
LINE
  5
8A
330
82
100
AcDbEntity
  8
중심선
100
AcDbLine
 10
0.1404042013395286
 20
13.71084872107135
 30
0.0
 11
3.58671253028996
 21
13.71088815037384
 31
0.0
  0
LINE
  5
8B
330
82
100
AcDbEntity
  8
중심선
100
AcDbLine
 10
2.750260043222114
 20
10.84717430164391
 30
0.0
 11
6.196535287059397
 21
10.84717430164391
 31
0.0
  0
LINE
  5
8C
330
82
100
AcDbEntity
  8
중심선
100
AcDbLine
 10
12.29416204261559
 20
16.24717430164393
 30
0.0
 11
5.245725140726316
 21
7.84717430164391
 31
0.0
  0
LINE
  5
8D
330
82
100
AcDbEntity
  8
중심선
100
AcDbLine
 10
10.72767329541681
 20
16.24717430164393
 30
0.0
 11
6.196535287059397
 21
10.84717430164391
 31
0.0
  0
LINE
  5
8E
330
82
100
AcDbEntity
  8
중심선
100
AcDbLine
 10
7.28139805157953
 20
16.24717430164393
 30
0.0
 11
2.750260043222114
 21
10.84717430164391
 31
0.0
  0
LINE
  5
8F
330
82
100
AcDbEntity
  8
중심선
100
AcDbLine
 10
5.714909304380834
 20
16.24717430164393
 30
0.0
 11
3.58671253028996
 21
13.71088815037384
 31
0.0
  0
LINE
  5
90
330
82
100
AcDbEntity
  8
중심선
100
AcDbLine
 10
2.268634060543552
 20
16.24717430164393
 30
0.0
 11
0.1404042013395286
 21
13.71084872107135
 31
0.0
  0
LINE
  5
91
330
82
100
AcDbEntity
  8
중심선
100
AcDbLine
 10
7.28139805157953
 20
16.24717430164393
 30
0.0
 11
10.72767329541681
 21
16.24717430164393
 31
0.0
  0
LINE
  5
92
330
82
100
AcDbEntity
  8
중심선
100
AcDbLine
 10
12.29416204261559
 20
16.24717430164393
 30
0.0
 11
15.74043728645272
 21
16.24717430164393
 31
0.0
  0
LINE
  5
93
330
82
100
AcDbEntity
  8
중심선
100
AcDbLine
 10
19.22036997980202
 20
11.08717430171403
 30
0.0
 11
23.66174974927406
 21
11.08717430171406
 31
0.0
  0
LINE
  5
94
330
82
100
AcDbEntity
  8
중심선
100
AcDbLine
 10
19.22039502424796
 20
13.00717430171391
 30
0.0
 11
19.22036997980202
 21
11.08717430171403
 31
0.0
  0
LINE
  5
95
330
82
100
AcDbEntity
  8
중심선
100
AcDbLine
 10
19.22039502424796
 20
13.00717430171391
 30
0.0
 11
26.96566020931264
 21
13.00717430171391
 31
0.0
  0
LINE
  5
96
330
82
100
AcDbEntity
  8
중심선
100
AcDbLine
 10
22.22332737316547
 20
13.45928029700563
 30
0.0
 11
24.52862924686651
 21
15.39360700705356
 31
0.0
  0
ATTDEF
  5
98
330
82
100
AcDbEntity
  8
FORMAT
 62
     2
100
AcDbText
 10
-16.11926103943555
 20
2.075366912832191
 30
0.0
 40
4.233333333333333
  1
SEME7112035E [ 4 FLUTE ]
 41
0.75
  7
SLDTEXTSTYLE0
 11
-16.11926103943555
 21
-0.0412997538344756
 31
0.0
100
AcDbAttributeDefinition
  3

  2
AUTOATTR0
 70
     0
 74
     1
  0
ENDBLK
  5
84
330
82
100
AcDbEntity
  8
0
100
AcDbBlockEnd
  0
BLOCK
  5
D8
330
D7
100
AcDbEntity
  8
0
100
AcDbBlockBegin
  2
_D
 70
     0
 10
0.0
 20
0.0
 30
0.0
  3
_D
  1

  0
LINE
  5
DA
330
D7
100
AcDbEntity
  8
치수문자_일반주서
 62
     0
370
    -2
100
AcDbLine
 10
46.55462511128278
 20
-6.000000000000003
 30
0.0
 11
61.45753277611344
 21
-5.99999999999995
 31
0.0
  0
LINE
  5
DB
330
D7
100
AcDbEntity
  8
치수문자_일반주서
 62
     0
370
    -2
100
AcDbLine
 10
46.55462511128278
 20
6.000000000000003
 30
0.0
 11
61.4575327761134
 21
6.000000000000055
 31
0.0
  0
LINE
  5
DC
330
D7
100
AcDbEntity
  8
치수문자_일반주서
 62
     0
370
    -2
100
AcDbLine
 10
61.45753277611344
 20
-5.99999999999995
 30
0.0
 11
61.45753277611335
 21
20.47900000000006
 31
0.0
  0
LINE
  5
DD
330
D7
100
AcDbEntity
  8
치수문자_일반주서
 62
     0
370
    -2
100
AcDbLine
 10
61.45753277611344
 20
-5.99999999999995
 30
0.0
 11
61.4575327761134
 21
6.000000000000055
 31
0.0
  0
LINE
  5
DE
330
D7
100
AcDbEntity
  8
치수문자_일반주서
 62
     0
370
    -2
100
AcDbLine
 10
61.45753277611345
 20
-9.30199999999995
 30
0.0
 11
61.45753277611347
 21
-12.60399999999995
 31
0.0
  0
LINE
  5
DF
330
D7
100
AcDbEntity
  8
치수문자_일반주서
 62
     0
370
    -2
100
AcDbLine
 10
61.45753277611338
 20
9.302000000000055
 30
0.0
 11
61.45753277611337
 21
12.60400000000005
 31
0.0
  0
SOLID
  5
E0
330
D7
100
AcDbEntity
  8
치수문자_일반주서
 62
     0
100
AcDbTrace
 10
62.00786610944679
 20
-9.301999999999948
 30
0.0
 11
60.90719944278012
 21
-9.301999999999952
 31
0.0
 12
61.45753277611344
 22
-5.99999999999995
 32
0.0
 13
61.45753277611344
 23
-5.99999999999995
 33
0.0
  0
SOLID
  5
E1
330
D7
100
AcDbEntity
  8
치수문자_일반주서
 62
     0
100
AcDbTrace
 10
60.90719944278005
 20
9.302000000000053
 30
0.0
 11
62.00786610944672
 21
9.302000000000056
 31
0.0
 12
61.4575327761134
 22
6.000000000000055
 32
0.0
 13
61.4575327761134
 23
6.000000000000055
 33
0.0
  0
MTEXT
  5
E2
330
D7
100
AcDbEntity
  8
치수문자_일반주서
 62
     0
100
AcDbMText
 10
57.08253277611336
 20
16.54150000000004
 30
0.0
 40
3.5
 41
0.0
 71
     2
 72
     1
  1
\A1;%%c12
  7
SLDTEXTSTYLE0
 11
-3.552713678800499E-15
 21
1.0
 31
0.0
 73
     1
 44
1.0
  0
POINT
  5
13C
330
D7
100
AcDbEntity
  8
Defpoints
 62
     0
100
AcDbPoint
 10
46.49212511128278
 20
-6.000000000000003
 30
0.0
  0
POINT
  5
13D
330
D7
100
AcDbEntity
  8
Defpoints
 62
     0
100
AcDbPoint
 10
46.49212511128278
 20
6.000000000000003
 30
0.0
  0
POINT
  5
13E
330
D7
100
AcDbEntity
  8
Defpoints
 62
     0
100
AcDbPoint
 10
61.4575327761134
 20
6.000000000000055
 30
0.0
  0
ENDBLK
  5
D9
330
D7
100
AcDbEntity
  8
0
100
AcDbBlockEnd
  0
BLOCK
  5
E6
330
E5
100
AcDbEntity
  8
0
100
AcDbBlockBegin
  2
_D_1
 70
     0
 10
0.0
 20
0.0
 30
0.0
  3
_D_1
  1

  0
LINE
  5
E8
330
E5
100
AcDbEntity
  8
치수문자_일반주서
 62
     0
370
    -2
100
AcDbLine
 10
-33.50787488871725
 20
5.562499999999995
 30
0.0
 11
-33.50787488871725
 21
23.38913260158165
 31
0.0
  0
LINE
  5
E9
330
E5
100
AcDbEntity
  8
치수문자_일반주서
 62
     0
370
    -2
100
AcDbLine
 10
46.49212511128275
 20
6.062500000000005
 30
0.0
 11
46.49212511128275
 21
23.38913260158165
 31
0.0
  0
LINE
  5
EA
330
E5
100
AcDbEntity
  8
치수문자_일반주서
 62
     0
370
    -2
100
AcDbLine
 10
-30.20587488871725
 20
23.38913260158165
 30
0.0
 11
43.19012511128275
 21
23.38913260158165
 31
0.0
  0
SOLID
  5
EB
330
E5
100
AcDbEntity
  8
치수문자_일반주서
 62
     0
100
AcDbTrace
 10
-30.20587488871725
 20
23.93946593491498
 30
0.0
 11
-30.20587488871725
 21
22.83879926824831
 31
0.0
 12
-33.50787488871725
 22
23.38913260158165
 32
0.0
 13
-33.50787488871725
 23
23.38913260158165
 33
0.0
  0
SOLID
  5
EC
330
E5
100
AcDbEntity
  8
치수문자_일반주서
 62
     0
100
AcDbTrace
 10
43.19012511128275
 20
22.83879926824831
 30
0.0
 11
43.19012511128275
 21
23.93946593491498
 31
0.0
 12
46.49212511128275
 22
23.38913260158165
 32
0.0
 13
46.49212511128275
 23
23.38913260158165
 33
0.0
  0
MTEXT
  5
ED
330
E5
100
AcDbEntity
  8
치수문자_일반주서
 62
     0
100
AcDbMText
 10
6.492125111282752
 20
27.76413260158165
 30
0.0
 40
3.5
 41
0.0
 71
     2
 72
     1
  1
\A1;80
  7
SLDTEXTSTYLE0
 73
     1
 44
1.0
  0
POINT
  5
133
330
E5
100
AcDbEntity
  8
Defpoints
 62
     0
100
AcDbPoint
 10
-33.50787488871725
 20
5.499999999999995
 30
0.0
  0
POINT
  5
134
330
E5
100
AcDbEntity
  8
Defpoints
 62
     0
100
AcDbPoint
 10
46.49212511128275
 20
6.000000000000005
 30
0.0
  0
POINT
  5
135
330
E5
100
AcDbEntity
  8
Defpoints
 62
     0
100
AcDbPoint
 10
46.49212511128275
 20
23.38913260158165
 30
0.0
  0
ENDBLK
  5
E7
330
E5
100
AcDbEntity
  8
0
100
AcDbBlockEnd
  0
BLOCK
  5
F1
330
F0
100
AcDbEntity
  8
0
100
AcDbBlockBegin
  2
_D_2
 70
     0
 10
0.0
 20
0.0
 30
0.0
  3
_D_2
  1

  0
LINE
  5
F3
330
F0
100
AcDbEntity
  8
치수문자_일반주서
 62
     0
370
    -2
100
AcDbLine
 10
-33.07037488871723
 20
6.000000000000005
 30
0.0
 11
-46.09474419493459
 21
5.999999999999959
 31
0.0
  0
LINE
  5
F4
330
F0
100
AcDbEntity
  8
치수문자_일반주서
 62
     0
370
    -2
100
AcDbLine
 10
-33.07037488871723
 20
-6.000000000000005
 30
0.0
 11
-46.09474419493455
 21
-6.00000000000005
 31
0.0
  0
LINE
  5
F5
330
F0
100
AcDbEntity
  8
치수문자_일반주서
 62
     0
370
    -2
100
AcDbLine
 10
-46.09474419493459
 20
5.999999999999959
 30
0.0
 11
-46.09474419493464
 21
20.47899999999996
 31
0.0
  0
LINE
  5
F6
330
F0
100
AcDbEntity
  8
치수문자_일반주서
 62
     0
370
    -2
100
AcDbLine
 10
-46.09474419493459
 20
5.999999999999959
 30
0.0
 11
-46.09474419493455
 21
-6.00000000000005
 31
0.0
  0
LINE
  5
F7
330
F0
100
AcDbEntity
  8
치수문자_일반주서
 62
     0
370
    -2
100
AcDbLine
 10
-46.09474419493461
 20
9.301999999999959
 30
0.0
 11
-46.09474419493462
 21
12.60399999999996
 31
0.0
  0
LINE
  5
F8
330
F0
100
AcDbEntity
  8
치수문자_일반주서
 62
     0
370
    -2
100
AcDbLine
 10
-46.09474419493453
 20
-9.30200000000005
 30
0.0
 11
-46.09474419493452
 21
-12.60400000000005
 31
0.0
  0
SOLID
  5
F9
330
F0
100
AcDbEntity
  8
치수문자_일반주서
 62
     0
100
AcDbTrace
 10
-46.64507752826794
 20
9.301999999999957
 30
0.0
 11
-45.54441086160127
 21
9.30199999999996
 31
0.0
 12
-46.09474419493459
 22
5.999999999999959
 32
0.0
 13
-46.09474419493459
 23
5.999999999999959
 33
0.0
  0
SOLID
  5
FA
330
F0
100
AcDbEntity
  8
치수문자_일반주서
 62
     0
100
AcDbTrace
 10
-45.5444108616012
 20
-9.302000000000048
 30
0.0
 11
-46.64507752826787
 21
-9.302000000000051
 31
0.0
 12
-46.09474419493455
 22
-6.00000000000005
 32
0.0
 13
-46.09474419493455
 23
-6.00000000000005
 33
0.0
  0
MTEXT
  5
FB
330
F0
100
AcDbEntity
  8
치수문자_일반주서
 62
     0
100
AcDbMText
 10
-50.46974419493463
 20
16.54149999999994
 30
0.0
 40
3.5
 41
0.0
 71
     2
 72
     1
  1
\A1;%%c12
  7
SLDTEXTSTYLE0
 11
-3.552713678800498E-15
 21
1.0
 31
0.0
 73
     1
 44
1.0
  0
POINT
  5
139
330
F0
100
AcDbEntity
  8
Defpoints
 62
     0
100
AcDbPoint
 10
-33.00787488871723
 20
6.000000000000005
 30
0.0
  0
POINT
  5
13A
330
F0
100
AcDbEntity
  8
Defpoints
 62
     0
100
AcDbPoint
 10
-33.00787488871723
 20
-6.000000000000005
 30
0.0
  0
POINT
  5
13B
330
F0
100
AcDbEntity
  8
Defpoints
 62
     0
100
AcDbPoint
 10
-46.09474419493455
 20
-6.000000000000051
 30
0.0
  0
ENDBLK
  5
F2
330
F0
100
AcDbEntity
  8
0
100
AcDbBlockEnd
  0
BLOCK
  5
FE
330
FD
100
AcDbEntity
  8
0
100
AcDbBlockBegin
  2
_D_3
 70
     0
 10
0.0
 20
0.0
 30
0.0
  3
_D_3
  1

  0
LINE
  5
100
330
FD
100
AcDbEntity
  8
치수문자_일반주서
 62
     0
370
    -2
100
AcDbLine
 10
11.49212511128275
 20
6.0625
 30
0.0
 11
11.49212511128275
 21
16.84591830258765
 31
0.0
  0
LINE
  5
101
330
FD
100
AcDbEntity
  8
치수문자_일반주서
 62
     0
370
    -2
100
AcDbLine
 10
46.49212511128275
 20
6.062500000000005
 30
0.0
 11
46.49212511128276
 21
16.84591830258765
 31
0.0
  0
LINE
  5
102
330
FD
100
AcDbEntity
  8
치수문자_일반주서
 62
     0
370
    -2
100
AcDbLine
 10
14.79412511128275
 20
16.84591830258765
 30
0.0
 11
43.19012511128276
 21
16.84591830258765
 31
0.0
  0
SOLID
  5
103
330
FD
100
AcDbEntity
  8
치수문자_일반주서
 62
     0
100
AcDbTrace
 10
14.79412511128275
 20
17.39625163592099
 30
0.0
 11
14.79412511128275
 21
16.29558496925432
 31
0.0
 12
11.49212511128275
 22
16.84591830258765
 32
0.0
 13
11.49212511128275
 23
16.84591830258765
 33
0.0
  0
SOLID
  5
104
330
FD
100
AcDbEntity
  8
치수문자_일반주서
 62
     0
100
AcDbTrace
 10
43.19012511128276
 20
16.29558496925432
 30
0.0
 11
43.19012511128276
 21
17.39625163592099
 31
0.0
 12
46.49212511128276
 22
16.84591830258765
 32
0.0
 13
46.49212511128276
 23
16.84591830258765
 33
0.0
  0
MTEXT
  5
105
330
FD
100
AcDbEntity
  8
치수문자_일반주서
 62
     0
100
AcDbMText
 10
28.99212511128275
 20
21.22091830258765
 30
0.0
 40
3.5
 41
0.0
 71
     2
 72
     1
  1
\A1;35
  7
SLDTEXTSTYLE0
 73
     1
 44
1.0
  0
POINT
  5
136
330
FD
100
AcDbEntity
  8
Defpoints
 62
     0
100
AcDbPoint
 10
11.49212511128275
 20
6.0
 30
0.0
  0
POINT
  5
137
330
FD
100
AcDbEntity
  8
Defpoints
 62
     0
100
AcDbPoint
 10
46.49212511128275
 20
6.000000000000005
 30
0.0
  0
POINT
  5
138
330
FD
100
AcDbEntity
  8
Defpoints
 62
     0
100
AcDbPoint
 10
46.49212511128275
 20
16.84591830258765
 30
0.0
  0
ENDBLK
  5
FF
330
FD
100
AcDbEntity
  8
0
100
AcDbBlockEnd
  0
BLOCK
  5
107
330
106
100
AcDbEntity
  8
0
100
AcDbBlockBegin
  2
SW_DOWELSYMBOL_0
 70
     0
 10
0.0
 20
0.0
 30
0.0
  3
SW_DOWELSYMBOL_0
  1

  0
CIRCLE
  5
109
330
106
100
AcDbEntity
  8
해칭선
 62
     0
100
AcDbCircle
 10
0.0
 20
0.0
 30
0.0
 40
3.000000000000001
  0
HATCH
  5
10A
330
106
100
AcDbEntity
  8
0
  6
Continuous
 62
     0
370
    18
100
AcDbHatch
 10
0.0
 20
0.0
 30
0.0
210
0.0
220
0.0
230
1.0
  2
SOLID
 70
     1
 71
     0
 91
        1
 92
        0
 93
        3
 72
     2
 10
0.0
 20
0.0
 40
3.000000000000001
 50
0.0
 51
90.0
 73
     1
 72
     1
 10
0.0
 20
3.000000000000001
 11
0.0
 21
0.0
 72
     1
 10
0.0
 20
0.0
 11
3.000000000000001
 21
0.0
 97
        0
 75
     0
 76
     1
 98
        1
 10
0.0
 20
0.0
  0
HATCH
  5
10B
330
106
100
AcDbEntity
  8
0
  6
Continuous
 62
     0
370
    18
100
AcDbHatch
 10
0.0
 20
0.0
 30
0.0
210
0.0
220
0.0
230
1.0
  2
SOLID
 70
     1
 71
     0
 91
        1
 92
        0
 93
        3
 72
     2
 10
0.0
 20
0.0
 40
3.000000000000001
 50
180.0
 51
270.0000000000008
 73
     1
 72
     1
 10
0.0
 20
-3.000000000000001
 11
0.0
 21
0.0
 72
     1
 10
0.0
 20
0.0
 11
-3.000000000000001
 21
0.0
 97
        0
 75
     0
 76
     1
 98
        1
 10
0.0
 20
0.0
  0
ENDBLK
  5
108
330
106
100
AcDbEntity
  8
0
100
AcDbBlockEnd
  0
ENDSEC
  0
SECTION
  2
ENTITIES
  0
LINE
  5
99
330
1F
100
AcDbEntity
  8
0
  6
Continuous
 62
     4
370
    25
100
AcDbLine
 10
11.49212511128275
 20
6.0
 30
0.0
 11
-33.00787488871725
 21
5.999999999999998
 31
0.0
  0
LINE
  5
9A
330
1F
100
AcDbEntity
  8
0
  6
Continuous
 62
     4
370
    25
100
AcDbLine
 10
-33.00787488871725
 20
-6.000000000000002
 30
0.0
 11
11.49212511128275
 21
-6.0
 31
0.0
  0
LINE
  5
9B
330
1F
100
AcDbEntity
  8
0
  6
Continuous
 62
     4
370
    25
100
AcDbLine
 10
-33.00787488871725
 20
5.999999999999996
 30
0.0
 11
-33.50787488871725
 21
5.499999999999995
 31
0.0
  0
LINE
  5
9C
330
1F
100
AcDbEntity
  8
0
  6
Continuous
 62
     4
370
    25
100
AcDbLine
 10
-33.50787488871725
 20
-5.5
 30
0.0
 11
-33.00787488871725
 21
-6.000000000000002
 31
0.0
  0
LINE
  5
9D
330
1F
100
AcDbEntity
  8
0
  6
Continuous
 62
     1
370
    25
100
AcDbLine
 10
44.77721591689225
 20
-6.000000000000002
 30
0.0
 11
46.49212511128275
 21
-6.000000000000002
 31
0.0
  0
LINE
  5
9E
330
1F
100
AcDbEntity
  8
0
  6
Continuous
 62
     1
370
    25
100
AcDbLine
 10
24.08070354781258
 20
6.000000000000004
 30
0.0
 11
20.6508331498807
 21
6.000000000000004
 31
0.0
  0
LINE
  5
9F
330
1F
100
AcDbEntity
  8
0
  6
Continuous
 62
     4
370
    25
100
AcDbLine
 10
45.90284641954565
 20
-0.8756981617362575
 30
0.0
 11
45.88740299917499
 21
-0.8639557813860236
 31
0.0
  0
SPLINE
  5
A0
330
1F
100
AcDbEntity
  8
0
  6
Continuous
 62
     1
370
    25
100
AcDbSpline
210
0.0
220
0.0
230
1.0
 70
     8
 71
     3
 72
    10
 73
     6
 74
     0
 42
0.000000001
 43
0.00000001
 40
0.0
 40
0.0
 40
0.0
 40
0.0
 40
0.2582072214792768
 40
0.6184750879583998
 40
1.0
 40
1.0
 40
1.0
 40
1.0
 10
34.47579700620586
 20
1.289961075828911
 30
0.0
 10
34.53698835710907
 20
1.246539641448067
 30
0.0
 10
34.68355794534653
 20
1.142533737608048
 30
0.0
 10
34.86618784051071
 20
0.9960106090294554
 30
0.0
 10
34.98363883536129
 20
0.9042966251550226
 30
0.0
 10
35.0440471889839
 20
0.8571255409332853
 30
0.0
  0
SPLINE
  5
A1
330
1F
100
AcDbEntity
  8
0
  6
Continuous
 62
     1
370
    25
100
AcDbSpline
210
0.0
220
0.0
230
1.0
 70
     8
 71
     3
 72
     9
 73
     5
 74
     0
 42
0.000000001
 43
0.00000001
 40
0.0
 40
0.0
 40
0.0
 40
0.0
 40
0.228556148024489
 40
0.9999999999999999
 40
0.9999999999999999
 40
0.9999999999999999
 40
0.9999999999999999
 10
22.24406774921469
 20
-1.231352571909404
 30
0.0
 10
22.20142179813251
 20
-1.200275905024423
 30
0.0
 10
22.0148332882596
 20
-1.064306397515697
 30
0.0
 10
21.86662321860184
 20
-0.9473781099727442
 30
0.0
 10
21.7522874715635
 20
-0.8571745014257086
 30
0.0
  0
LINE
  5
A2
330
1F
100
AcDbEntity
  8
0
  6
Continuous
 62
     1
370
    25
100
AcDbLine
 10
32.71339093730237
 20
-6.000000000000002
 30
0.0
 11
36.14337116116558
 21
-6.000000000000002
 31
0.0
  0
LINE
  5
A3
330
1F
100
AcDbEntity
  8
0
  6
Continuous
 62
     1
370
    25
100
AcDbLine
 10
12.01747561830465
 20
6.000000000000004
 30
0.0
 11
11.49212511128275
 21
6.000000000000004
 31
0.0
  0
LINE
  5
A4
330
1F
100
AcDbEntity
  8
0
  6
Continuous
 62
     1
370
    25
100
AcDbLine
 10
11.49212511128275
 20
-6.000000000000002
 30
0.0
 11
12.01747561830465
 21
-6.000000000000002
 31
0.0
  0
LINE
  5
A5
330
1F
100
AcDbEntity
  8
0
  6
Continuous
 62
     1
370
    25
100
AcDbLine
 10
36.14337116116558
 20
6.000000000000004
 30
0.0
 11
32.71339093730243
 21
6.000000000000004
 31
0.0
  0
LINE
  5
A6
330
1F
100
AcDbEntity
  8
0
  6
Continuous
 62
     1
370
    25
100
AcDbLine
 10
20.65083314988071
 20
-6.000000000000002
 30
0.0
 11
24.08070354781252
 21
-6.000000000000002
 31
0.0
  0
LINE
  5
A7
330
1F
100
AcDbEntity
  8
0
  6
Continuous
 62
     1
370
    25
100
AcDbLine
 10
46.49212511128275
 20
6.000000000000004
 30
0.0
 11
44.77721591689225
 21
6.000000000000004
 31
0.0
  0
SPLINE
  5
A8
330
1F
100
AcDbEntity
  8
0
  6
Continuous
 62
     4
370
    25
100
AcDbSpline
210
0.0
220
0.0
230
1.0
 70
    24
 71
     3
 72
    10
 73
     6
 74
     0
 42
0.000000001
 43
0.00000001
 40
0.0
 40
0.0
 40
0.0
 40
0.0
 40
0.5
 40
0.5
 40
1.0
 40
1.0
 40
1.0
 40
1.0
 10
11.49212511128275
 20
5.528502582018422
 30
0.0
 10
11.49212511128275
 20
5.125068128709371
 30
0.0
 10
11.49212511128275
 20
4.711012426583155
 30
0.0
 10
11.49212511128275
 20
3.868017107784222
 30
0.0
 10
11.49212511128275
 20
3.459277578363956
 30
0.0
 10
11.49212511128275
 20
3.065417087584966
 30
0.0
  0
LINE
  5
A9
330
1F
100
AcDbEntity
  8
0
  6
Continuous
 62
     4
370
    25
100
AcDbLine
 10
10.50263552633427
 20
1.190152647310653
 30
0.0
 11
10.48550406113961
 21
1.197860085425463
 31
0.0
  0
SPLINE
  5
AA
330
1F
100
AcDbEntity
  8
0
  6
Continuous
 62
     4
370
    25
100
AcDbSpline
210
0.0
220
0.0
230
1.0
 70
     8
 71
     3
 72
    12
 73
     8
 74
     0
 42
0.000000001
 43
0.00000001
 40
0.0
 40
0.0
 40
0.0
 40
0.0
 40
0.2499999999999998
 40
0.2499999999999998
 40
0.4999999999999997
 40
0.4999999999999997
 40
1.0
 40
1.0
 40
1.0
 40
1.0
 10
10.4588515270293
 20
1.209851047956916
 30
0.0
 10
10.38406559436039
 20
1.266952650489718
 30
0.0
 10
10.31767578553813
 20
1.331375102119303
 30
0.0
 10
10.20098445609427
 20
1.473900169866346
 30
0.0
 10
10.15065751410899
 20
1.552702160062512
 30
0.0
 10
10.0315892451057
 20
1.797234950078813
 30
0.0
 10
9.991888504482253
 20
1.976375321002859
 30
0.0
 10
9.991888504482239
 20
2.153232974529478
 30
0.0
  0
SPLINE
  5
AB
330
1F
100
AcDbEntity
  8
0
  6
Continuous
 62
     4
370
    25
100
AcDbSpline
210
0.0
220
0.0
230
1.0
 70
     8
 71
     3
 72
    18
 73
    14
 74
     0
 42
0.000000001
 43
0.00000001
 40
0.0
 40
0.0
 40
0.0
 40
0.0
 40
0.1249999999999999
 40
0.1249999999999999
 40
0.2499999999999998
 40
0.2499999999999998
 40
0.5
 40
0.5
 40
0.625
 40
0.625
 40
0.75
 40
0.75
 40
1.0
 40
1.0
 40
1.0
 40
1.0
 10
9.991888504482253
 20
4.956521026367859
 30
0.0
 10
9.991888504482253
 20
5.009096137409757
 30
0.0
 10
10.00118035127725
 20
5.05899102538389
 30
0.0
 10
10.03922988930719
 20
5.153704185722509
 30
0.0
 10
10.06856540035371
 20
5.198935296859058
 30
0.0
 10
10.18392396722527
 20
5.321335027767951
 30
0.0
 10
10.3004501933702
 20
5.388258580233811
 30
0.0
 10
10.51576971951098
 20
5.461599962276225
 30
0.0
 10
10.59561077713067
 20
5.48206110303188
 30
0.0
 10
10.76217902960584
 20
5.513817202268045
 30
0.0
 10
10.84972216539778
 20
5.525452203916601
 30
0.0
 10
11.12329556001236
 20
5.548194649799762
 30
0.0
 10
11.31131224318141
 20
5.546752409598097
 30
0.0
 10
11.49212511128261
 20
5.528502582017885
 30
0.0
  0
SPLINE
  5
AC
330
1F
100
AcDbEntity
  8
0
  6
Continuous
 62
     4
370
    25
100
AcDbSpline
210
0.0
220
0.0
230
1.0
 70
     8
 71
     3
 72
     8
 73
     4
 74
     0
 42
0.000000001
 43
0.00000001
 40
0.0
 40
0.0
 40
0.0
 40
0.0
 40
1.0
 40
1.0
 40
1.0
 40
1.0
 10
11.49212511128341
 20
0.4096989917791141
 30
0.0
 10
11.14780717662248
 20
0.6784378659652531
 30
0.0
 10
10.80500958112706
 20
0.9455476032686397
 30
0.0
 10
10.4588515270293
 20
1.209851047956917
 30
0.0
  0
SPLINE
  5
AD
330
1F
100
AcDbEntity
  8
0
  6
Continuous
 62
     4
370
    25
100
AcDbSpline
210
0.0
220
0.0
230
1.0
 70
     8
 71
     3
 72
    18
 73
    14
 74
     0
 42
0.000000001
 43
0.00000001
 40
0.0
 40
0.0
 40
0.0
 40
0.0
 40
0.125
 40
0.125
 40
0.2499999999999999
 40
0.2499999999999999
 40
0.4999999999999999
 40
0.4999999999999999
 40
0.6249999999999999
 40
0.6249999999999999
 40
0.7499999999999998
 40
0.7499999999999998
 40
1.0
 40
1.0
 40
1.0
 40
1.0
 10
9.991888504482253
 20
-3.381257061386038
 30
0.0
 10
9.991888504482253
 20
-3.304188196578708
 30
0.0
 10
10.00118035127725
 20
-3.2271882751174
 30
0.0
 10
10.03922988930719
 20
-3.073673294941456
 30
0.0
 10
10.06856540035371
 20
-2.996345226506467
 30
0.0
 10
10.18392396722527
 20
-2.776948914112596
 30
0.0
 10
10.3004501933702
 20
-2.641976306848351
 30
0.0
 10
10.51576971951098
 20
-2.484807474517283
 30
0.0
 10
10.59561077713068
 20
-2.438970747763771
 30
0.0
 10
10.76217902960584
 20
-2.366303468660659
 30
0.0
 10
10.84972216539779
 20
-2.33875225186026
 30
0.0
 10
11.12329556001236
 20
-2.284528997698888
 30
0.0
 10
11.31131224318141
 20
-2.288174712549147
 30
0.0
 10
11.49212511128261
 20
-2.331450021042981
 30
0.0
  0
LINE
  5
AE
330
1F
100
AcDbEntity
  8
0
  6
Continuous
 62
     4
370
    25
100
AcDbLine
 10
9.991888504482253
 20
-3.381257061386039
 30
0.0
 11
9.991888504482253
 21
-5.600320326320698
 31
0.0
  0
SPLINE
  5
AF
330
1F
100
AcDbEntity
  8
0
  6
Continuous
 62
     4
370
    25
100
AcDbSpline
210
0.0
220
0.0
230
1.0
 70
     8
 71
     3
 72
    12
 73
     8
 74
     0
 42
0.000000001
 43
0.00000001
 40
0.0
 40
0.0
 40
0.0
 40
0.0
 40
0.2500000000000001
 40
0.2500000000000001
 40
0.5000000000000002
 40
0.5000000000000002
 40
1.0
 40
1.0
 40
1.0
 40
1.0
 10
10.4588515270293
 20
-5.876755945396866
 30
0.0
 10
10.38406559436043
 20
-5.865000406404575
 30
0.0
 10
10.3176757855382
 20
-5.850881323412625
 30
0.0
 10
10.20098445609439
 20
-5.816613294045781
 30
0.0
 10
10.15065751410912
 20
-5.796230880019182
 30
0.0
 10
10.03158924510583
 20
-5.727010754627353
 30
0.0
 10
9.991888504482235
 20
-5.668319245879174
 30
0.0
 10
9.991888504482235
 20
-5.6003203263207
 30
0.0
  0
SPLINE
  5
B0
330
1F
100
AcDbEntity
  8
0
  6
Continuous
 62
     4
370
    25
100
AcDbSpline
210
0.0
220
0.0
230
1.0
 70
     8
 71
     3
 72
     8
 73
     4
 74
     0
 42
0.000000001
 43
0.00000001
 40
0.0
 40
0.0
 40
0.0
 40
0.0
 40
1.0
 40
1.0
 40
1.0
 40
1.0
 10
11.49212511128341
 20
-5.985995885075027
 30
0.0
 10
11.14780717662248
 20
-5.967602613860047
 30
0.0
 10
10.80500958112706
 20
-5.931168244036769
 30
0.0
 10
10.4588515270293
 20
-5.876755945396868
 30
0.0
  0
LINE
  5
B1
330
1F
100
AcDbEntity
  8
0
  6
Continuous
 62
     4
370
    25
100
AcDbLine
 10
9.991888504482253
 20
4.956521026367859
 30
0.0
 11
9.991888504482253
 21
2.153232974529556
 31
0.0
  0
LINE
  5
B2
330
1F
100
AcDbEntity
  8
0
  6
Continuous
 62
     4
370
    25
100
AcDbLine
 10
-33.00787488871725
 20
5.999999999999996
 30
0.0
 11
-33.00787488871725
 21
-6.000000000000002
 31
0.0
  0
LINE
  5
B3
330
1F
100
AcDbEntity
  8
0
  6
Continuous
 62
     4
370
    25
100
AcDbLine
 10
-33.50787488871725
 20
5.499999999999995
 30
0.0
 11
-33.50787488871725
 21
-5.500000000000005
 31
0.0
  0
LINE
  5
B4
330
1F
100
AcDbEntity
  8
0
  6
Continuous
 62
     4
370
    25
100
AcDbLine
 10
11.49212511128275
 20
-2.331450021041903
 30
0.0
 11
11.49212511128275
 21
-2.390308913767878
 31
0.0
  0
SPLINE
  5
B5
330
1F
100
AcDbEntity
  8
0
  6
Continuous
 62
     1
370
    25
100
AcDbSpline
210
0.0
220
0.0
230
1.0
 70
     8
 71
     3
 72
    30
 73
    26
 74
     0
 42
0.000000001
 43
0.00000001
 40
0.0
 40
0.0
 40
0.0
 40
0.0
 40
0.0085483987451365
 40
0.0532095813743415
 40
0.0978430232414537
 40
0.1437219748294202
 40
0.1895631459470646
 40
0.2353456704670209
 40
0.2811824475391515
 40
0.3270647144539359
 40
0.3728553643863535
 40
0.4186596208826686
 40
0.4645534126017576
 40
0.5103668273213773
 40
0.556153162518966
 40
0.6020240185364121
 40
0.6478747703510196
 40
0.6936578363470456
 40
0.7394861033961307
 40
0.7896918775893929
 40
0.8398320159303144
 40
0.8899444789569368
 40
0.9400823424844562
 40
0.9902869004744305
 40
1.0
 40
1.0
 40
1.0
 40
1.0
 10
16.33407541341459
 20
5.066180707403884
 30
0.0
 10
16.41516145473105
 20
5.103183388860075
 30
0.0
 10
16.91988221500279
 20
5.333506897240196
 30
0.0
 10
17.84720185141557
 20
5.622656279788797
 30
0.0
 10
19.12796195467617
 20
5.912343658947801
 30
0.0
 10
20.42157160880083
 20
6.025596905101867
 30
0.0
 10
21.7253260057238
 20
5.970227433709297
 30
0.0
 10
23.02782670098929
 20
5.742111157959265
 30
0.0
 10
24.33150059082208
 20
5.349253617045961
 30
0.0
 10
25.63610639068196
 20
4.803248217086879
 30
0.0
 10
26.93882137750927
 20
4.118193622515722
 30
0.0
 10
28.24183568186699
 20
3.314658555211171
 30
0.0
 10
29.54667517715098
 20
2.417511804230256
 30
0.0
 10
30.84987865422403
 20
1.449373708536547
 30
0.0
 10
32.15248752451069
 20
0.4392026882522397
 30
0.0
 10
33.45685896917937
 20
-0.5820804312881973
 30
0.0
 10
34.76082014531945
 20
-1.587098413381435
 30
0.0
 10
36.06332806568687
 20
-2.547505018647025
 30
0.0
 10
37.40779047961317
 20
-3.461762539549454
 30
0.0
 10
38.79466257052705
 20
-4.293863495214456
 30
0.0
 10
40.22096765003434
 20
-5.002340398601023
 30
0.0
 10
41.64651828760663
 20
-5.543337320543339
 30
0.0
 10
43.07273590031534
 20
-5.875470549910113
 30
0.0
 10
44.11698424281324
 20
-6.020024178689973
 30
0.0
 10
44.68511730655435
 20
-5.988903201524516
 30
0.0
 10
44.77721591689225
 20
-5.983858258830242
 30
0.0
  0
SPLINE
  5
B6
330
1F
100
AcDbEntity
  8
0
  6
Continuous
 62
     1
370
    25
100
AcDbSpline
210
0.0
220
0.0
230
1.0
 70
     8
 71
     3
 72
    25
 73
    21
 74
     0
 42
0.000000001
 43
0.00000001
 40
0.0
 40
0.0
 40
0.0
 40
0.0
 40
0.0582030257849615
 40
0.1163086911125052
 40
0.1744602260415072
 40
0.2327021009565816
 40
0.2908263689868374
 40
0.3489448806301593
 40
0.4071818798192325
 40
0.4653432984139618
 40
0.5234473515978393
 40
0.5816373059837676
 40
0.639852774949062
 40
0.6979609771312061
 40
0.7561035463867224
 40
0.8143481234337728
 40
0.872479069835241
 40
0.9305927479193705
 40
0.9888226986449266
 40
1.0
 40
1.0
 40
1.0
 40
1.0
 10
46.49212511128275
 20
-5.850994190130125
 30
0.0
 10
46.05715904488887
 20
-5.759558588695477
 30
0.0
 10
45.18795451164792
 20
-5.576840336843076
 30
0.0
 10
43.88540155636844
 20
-5.096877520755943
 30
0.0
 10
42.58205557746066
 20
-4.48247088306789
 30
0.0
 10
41.27725892689482
 20
-3.737191089257986
 30
0.0
 10
39.97435682261252
 20
-2.883957734441798
 30
0.0
 10
38.67155453752476
 20
-1.947391738773446
 30
0.0
 10
37.36683567958746
 20
-0.956717849733779
 30
0.0
 10
36.06333328243533
 20
0.0627407525788171
 30
0.0
 10
34.76081874159519
 20
1.080933432371917
 30
0.0
 10
33.45685936144756
 20
2.067037961111366
 30
0.0
 10
32.15248736102264
 20
2.993398210881601
 30
0.0
 10
30.84987891618988
 20
3.834966965707354
 30
0.0
 10
29.54667429134536
 20
4.566173967861602
 30
0.0
 10
28.24183896636131
 20
5.164061624356568
 30
0.0
 10
26.93880915516918
 20
5.618712618298341
 30
0.0
 10
25.63615202953207
 20
5.896395791412221
 30
0.0
 10
24.68270208798003
 20
6.01682507270282
 30
0.0
 10
24.16420241716022
 20
5.990791377189329
 30
0.0
 10
24.08070354781258
 20
5.986598926812492
 30
0.0
  0
LINE
  5
B7
330
1F
100
AcDbEntity
  8
0
  6
Continuous
 62
     1
370
    25
100
AcDbLine
 10
46.49212511128275
 20
-6.000000000000005
 30
0.0
 11
46.49212511128275
 21
-5.850994190131567
 31
0.0
  0
SPLINE
  5
B8
330
1F
100
AcDbEntity
  8
0
  6
Continuous
 62
     1
370
    25
100
AcDbSpline
210
0.0
220
0.0
230
1.0
 70
     8
 71
     3
 72
    20
 73
    16
 74
     0
 42
0.000000001
 43
0.00000001
 40
0.0
 40
0.0
 40
0.0
 40
0.0
 40
0.0655718940551052
 40
0.1399073672787162
 40
0.2141989020817321
 40
0.2886275778330881
 40
0.3630236331076483
 40
0.4373098634022204
 40
0.5116694355703446
 40
0.5931318195915821
 40
0.6744877048465955
 40
0.755798684966342
 40
0.8371508791773283
 40
0.9186112898235735
 40
1.0
 40
1.0
 40
1.0
 40
1.0
 10
28.39723249052505
 20
5.069234336563071
 30
0.0
 10
28.78060037308386
 20
5.220857942985397
 30
0.0
 10
29.59857264490726
 20
5.544369409255144
 30
0.0
 10
30.84989473466203
 20
5.849759454291271
 30
0.0
 10
32.15248320859846
 20
6.013487897589667
 30
0.0
 10
33.45686012346357
 20
6.000523785453321
 30
0.0
 10
34.76081984611765
 20
5.816285288675846
 30
0.0
 10
36.06332811044591
 20
5.464220366884438
 30
0.0
 10
37.40779060250423
 20
4.939341999168057
 30
0.0
 10
38.79466196868048
 20
4.240406783732829
 30
0.0
 10
40.22096990906878
 20
3.374182067697823
 30
0.0
 10
41.64650985530695
 20
2.391902268192002
 30
0.0
 10
43.07276740742795
 20
1.327590241806883
 30
0.0
 10
44.50064548985158
 20
0.2164850838037515
 30
0.0
 10
45.45222744534312
 20
-0.524706043421729
 30
0.0
 10
45.9278089381591
 20
-0.8951384383548378
 30
0.0
  0
SPLINE
  5
B9
330
1F
100
AcDbEntity
  8
0
  6
Continuous
 62
     1
370
    25
100
AcDbSpline
210
0.0
220
0.0
230
1.0
 70
     8
 71
     3
 72
    12
 73
     8
 74
     0
 42
0.000000001
 43
0.00000001
 40
0.0
 40
0.0
 40
0.0
 40
0.0
 40
0.5
 40
0.5
 40
0.75
 40
0.75
 40
1.0
 40
1.0
 40
1.0
 40
1.0
 10
46.49212511128275
 20
-4.474290814540878
 30
0.0
 10
45.95411976305738
 20
-4.293659540168531
 30
0.0
 10
45.42949870434686
 20
-4.056661343508567
 30
0.0
 10
44.6669846941488
 20
-3.598331267398974
 30
0.0
 10
44.4169248318604
 20
-3.428239411921621
 30
0.0
 10
43.92694855827229
 20
-3.045337324845851
 30
0.0
 10
43.69249113541839
 20
-2.837852523808265
 30
0.0
 10
43.46717099712161
 20
-2.618095673474129
 30
0.0
  0
LINE
  5
BA
330
1F
100
AcDbEntity
  8
0
  6
Continuous
 62
     1
370
    25
100
AcDbLine
 10
46.49212511128275
 20
-5.850994190131567
 30
0.0
 11
46.49212511128275
 21
-4.47429081454088
 31
0.0
  0
SPLINE
  5
BB
330
1F
100
AcDbEntity
  8
0
  6
Continuous
 62
     1
370
    25
100
AcDbSpline
210
0.0
220
0.0
230
1.0
 70
    24
 71
     3
 72
    20
 73
    16
 74
     0
 42
0.000000001
 43
0.00000001
 40
0.0
 40
0.0
 40
0.0
 40
0.0
 40
0.2499999999999998
 40
0.2499999999999998
 40
0.3749999999999998
 40
0.3749999999999998
 40
0.4999999999999997
 40
0.4999999999999997
 40
0.6249999999999998
 40
0.6249999999999998
 40
0.7499999999999999
 40
0.7499999999999999
 40
0.875
 40
0.875
 40
1.0
 40
1.0
 40
1.0
 40
1.0
 10
45.9278089381591
 20
-0.8951384383548466
 30
0.0
 10
45.92958808490696
 20
-0.8938926663904172
 30
0.0
 10
45.89103265262725
 20
-0.9208894707116101
 30
0.0
 10
45.74712466128899
 20
-1.021654931055263
 30
0.0
 10
45.6848880136787
 20
-1.065233500864879
 30
0.0
 10
45.52325064833119
 20
-1.178413202537576
 30
0.0
 10
45.42589121423043
 20
-1.246585012210772
 30
0.0
 10
45.19743848108006
 20
-1.406549338087266
 30
0.0
 10
45.06494965989447
 20
-1.499319009409943
 30
0.0
 10
44.77966706027435
 20
-1.699076036184011
 30
0.0
 10
44.62257870510533
 20
-1.809070486638301
 30
0.0
 10
44.30015126185097
 20
-2.034836612930699
 30
0.0
 10
44.132999462657
 20
-2.151877562751634
 30
0.0
 10
43.79760854000993
 20
-2.386720815036238
 30
0.0
 10
43.63163572382042
 20
-2.50293623207001
 30
0.0
 10
43.46717099712159
 20
-2.618095673474129
 30
0.0
  0
SPLINE
  5
BC
330
1F
100
AcDbEntity
  8
0
  6
Continuous
 62
     1
370
    25
100
AcDbSpline
210
0.0
220
0.0
230
1.0
 70
     8
 71
     3
 72
    30
 73
    26
 74
     0
 42
0.000000001
 43
0.00000001
 40
0.0
 40
0.0
 40
0.0
 40
0.0
 40
0.0169088829832492
 40
0.0627108175885086
 40
0.1086061296507707
 40
0.1544418782909547
 40
0.2002324184988828
 40
0.2460906555752889
 40
0.2919690001366004
 40
0.3377628100797972
 40
0.3835837039658319
 40
0.4294849879731026
 40
0.4752967221407277
 40
0.5210948475231459
 40
0.566984604844656
 40
0.6128288648971701
 40
0.6586188635406309
 40
0.7044675183559989
 40
0.7503539598094547
 40
0.7949946882091581
 40
0.8396631618997098
 40
0.8844114257986767
 40
0.9290609067627178
 40
0.9737150719229539
 40
1.0
 40
1.0
 40
1.0
 40
1.0
 10
40.45506333135593
 20
-5.062198659497386
 30
0.0
 10
40.29481125598458
 20
-5.13330163357552
 30
0.0
 10
39.70047639207029
 20
-5.397004779539192
 30
0.0
 10
38.67158578482736
 20
-5.699772086180498
 30
0.0
 10
37.36682731185414
 20
-5.954049479063722
 30
0.0
 10
36.06333551963409
 20
-6.028152122478176
 30
0.0
 10
34.76081814560735
 20
-5.93130956045009
 30
0.0
 10
33.45685950563057
 20
-5.663403022355438
 30
0.0
 10
32.15248738103442
 20
-5.233268550631601
 30
0.0
 10
30.84987869268484
 20
-4.651925971010066
 30
0.0
 10
29.54667516673532
 20
-3.936863427801326
 30
0.0
 10
28.24183568497802
 20
-3.110077831973124
 30
0.0
 10
26.93882137547018
 20
-2.19238114127862
 30
0.0
 10
25.63610639573465
 20
-1.211402698799139
 30
0.0
 10
24.3315005726197
 20
-0.1973568442434348
 30
0.0
 10
23.02782676862425
 20
0.8233768611642913
 30
0.0
 10
21.72532575354485
 20
1.821115550409034
 30
0.0
 10
20.42157255164192
 20
2.765727380658323
 30
0.0
 10
19.12795847327295
 20
3.622858228635161
 30
0.0
 10
17.84721445507832
 20
4.373077913861783
 30
0.0
 10
16.57681548796654
 20
4.996392965648775
 30
0.0
 10
15.30483798228657
 20
5.484353040077319
 30
0.0
 10
14.03481771720576
 20
5.816185154247618
 30
0.0
 10
12.93963839497534
 20
5.988676211770743
 30
0.0
 10
12.26678625092859
 20
5.982403463116615
 30
0.0
 10
12.01747561830465
 20
5.980079233419068
 30
0.0
  0
SPLINE
  5
BD
330
1F
100
AcDbEntity
  8
0
  6
Continuous
 62
     1
370
    25
100
AcDbSpline
210
0.0
220
0.0
230
1.0
 70
     8
 71
     3
 72
    21
 73
    17
 74
     0
 42
0.000000001
 43
0.00000001
 40
0.0
 40
0.0
 40
0.0
 40
0.0
 40
0.0092223160662974
 40
0.0862864557227683
 40
0.1633277027875747
 40
0.2405230923811343
 40
0.3176419468258812
 40
0.3946695231541976
 40
0.471795770434524
 40
0.548985582100868
 40
0.6240798650453563
 40
0.6992208209003469
 40
0.7744959992176879
 40
0.8496050056572093
 40
0.9247218918148054
 40
1.0
 40
1.0
 40
1.0
 40
1.0
 10
28.397232490525
 20
-5.069234336563071
 30
0.0
 10
28.34523813654179
 20
-5.093277252956462
 30
0.0
 10
27.85876505423208
 20
-5.318229209266646
 30
0.0
 10
26.93885237131674
 20
-5.607293366603105
 30
0.0
 10
25.63609807255424
 20
-5.908293703987463
 30
0.0
 10
24.33150280274473
 20
-6.024989995205424
 30
0.0
 10
23.0278261705108
 20
-5.972577815448433
 30
0.0
 10
21.72532591998378
 20
-5.747223664275252
 30
0.0
 10
20.421572484427
 20
-5.357055597663586
 30
0.0
 10
19.12795857399813
 20
-4.818021471438911
 30
0.0
 10
17.84721412789508
 20
-4.148183653389478
 30
0.0
 10
16.57681670164288
 20
-3.370840856781706
 30
0.0
 10
15.30483345056446
 20
-2.503021552004643
 30
0.0
 10
14.03483458733118
 20
-1.565057414876864
 30
0.0
 10
12.76462233795219
 20
-0.5836765145811792
 30
0.0
 10
11.91659387969865
 20
0.0783372654652833
 30
0.0
 10
11.49212511128319
 20
0.4096989917793889
 30
0.0
  0
SPLINE
  5
BE
330
1F
100
AcDbEntity
  8
0
  6
Continuous
 62
     1
370
    25
100
AcDbSpline
210
0.0
220
0.0
230
1.0
 70
     8
 71
     3
 72
    24
 73
    20
 74
     0
 42
0.000000001
 43
0.00000001
 40
0.0
 40
0.0
 40
0.0
 40
0.0
 40
0.059967790423628
 40
0.1198071487041559
 40
0.1796402298704805
 40
0.2396056863127465
 40
0.2994642189137204
 40
0.3592855710995251
 40
0.420776256246115
 40
0.4822163049477809
 40
0.5435777507313647
 40
0.6050119101775034
 40
0.6665070387934942
 40
0.7278793749126686
 40
0.789269947650327
 40
0.850780522742062
 40
0.9121833700720167
 40
0.9735499232342648
 40
1.0
 40
1.0
 40
1.0
 40
1.0
 10
11.49212511128341
 20
5.575717982263383
 30
0.0
 10
11.91659387970365
 20
5.438720223329325
 30
0.0
 10
12.76462233796676
 20
5.165018111565653
 30
0.0
 10
14.03483458727397
 20
4.571941259617495
 30
0.0
 10
15.30483345077988
 20
3.864492512478625
 30
0.0
 10
16.57681670083779
 20
3.050355277356481
 30
0.0
 10
17.84721413089317
 20
2.152198430409208
 30
0.0
 10
19.12795856268452
 20
1.186296340328412
 30
0.0
 10
20.4215725279497
 20
0.1804068663150662
 30
0.0
 10
21.72532575793974
 20
-0.8400907185227177
 30
0.0
 10
23.02782677468549
 20
-1.837194530170964
 30
0.0
 10
24.33150054392195
 20
-2.780790243541749
 30
0.0
 10
25.63610650447801
 20
-3.64360103940859
 30
0.0
 10
26.93882097006853
 20
-4.403339784340779
 30
0.0
 10
28.24183719992154
 20
-5.035436572005485
 30
0.0
 10
29.5466695047782
 20
-5.524641816192359
 30
0.0
 10
30.84989977556436
 20
-5.845742159037917
 30
0.0
 10
31.90477361670956
 20
-6.000312457206221
 30
0.0
 10
32.52621489256774
 20
-5.983786599698481
 30
0.0
 10
32.71339093730237
 20
-5.978809066399176
 30
0.0
  0
SPLINE
  5
BF
330
1F
100
AcDbEntity
  8
0
  6
Continuous
 62
     1
370
    25
100
AcDbSpline
210
0.0
220
0.0
230
1.0
 70
     8
 71
     3
 72
    15
 73
    11
 74
     0
 42
0.000000001
 43
0.00000001
 40
0.0
 40
0.0
 40
0.0
 40
0.0
 40
0.1260467310824721
 40
0.2518826145804979
 40
0.3778178350673129
 40
0.5039486993334137
 40
0.6298248695662707
 40
0.7556885735442194
 40
0.8818088787489001
 40
0.9999999999999999
 40
0.9999999999999999
 40
0.9999999999999999
 40
0.9999999999999999
 10
46.49212511128275
 20
1.328859280377895
 30
0.0
 10
46.05715904079441
 20
1.656231914650419
 30
0.0
 10
45.18795449937142
 20
2.310429563050481
 30
0.0
 10
43.8854016053948
 20
3.216516185601286
 30
0.0
 10
42.58205539331882
 20
4.032471610153094
 30
0.0
 10
41.27725961494379
 20
4.73049505591689
 30
0.0
 10
39.97435426073108
 20
5.295071622778175
 30
0.0
 10
38.67156410640442
 20
5.703277573473567
 30
0.0
 10
37.39360874954718
 20
5.956162227183809
 30
0.0
 10
36.5510013511762
 20
5.982343846429223
 30
0.0
 10
36.14337116116558
 20
5.99500979079243
 30
0.0
  0
SPLINE
  5
C0
330
1F
100
AcDbEntity
  8
0
  6
Continuous
 62
     1
370
    25
100
AcDbSpline
210
0.0
220
0.0
230
1.0
 70
     8
 71
     3
 72
    11
 73
     7
 74
     0
 42
0.000000001
 43
0.00000001
 40
0.0
 40
0.0
 40
0.0
 40
0.0
 40
0.2126168491922588
 40
0.4748719131344684
 40
0.7371544903678988
 40
1.0
 40
1.0
 40
1.0
 40
1.0
 10
16.33407541341458
 20
-5.066180707403884
 30
0.0
 10
15.99072660393526
 20
-5.204650172525755
 30
0.0
 10
15.22386966550676
 20
-5.513916630301499
 30
0.0
 10
14.03482403815813
 20
-5.816242030669976
 30
0.0
 10
12.76462498196578
 20
-6.007033824412672
 30
0.0
 10
11.91659476166614
 20
-5.993013541390707
 30
0.0
 10
11.49212511128319
 20
-5.985995885073576
 30
0.0
  0
LINE
  5
C1
330
1F
100
AcDbEntity
  8
0
  6
Continuous
 62
     1
370
    25
100
AcDbLine
 10
46.49212511128275
 20
-0.5000000000000182
 30
0.0
 11
46.49212511128275
 21
1.32885928037801
 31
0.0
  0
LINE
  5
C2
330
1F
100
AcDbEntity
  8
0
  6
Continuous
 62
     1
370
    25
100
AcDbLine
 10
46.49212511128275
 20
-0.500000000000019
 30
0.0
 11
45.9278089381591
 21
-0.89513843835485
 31
0.0
  0
SPLINE
  5
C3
330
1F
100
AcDbEntity
  8
0
  6
Continuous
 62
     1
370
    25
100
AcDbSpline
210
0.0
220
0.0
230
1.0
 70
     8
 71
     3
 72
    15
 73
    11
 74
     0
 42
0.000000001
 43
0.00000001
 40
0.0
 40
0.0
 40
0.0
 40
0.0
 40
0.1389533232693644
 40
0.2776090522306462
 40
0.4162502362858552
 40
0.555198151410874
 40
0.6938983098155052
 40
0.832512316267366
 40
0.9749943885743398
 40
1.0
 40
1.0
 40
1.0
 40
1.0
 10
11.49212511128341
 20
-2.216160865610676
 30
0.0
 10
11.91659389834391
 20
-2.517957011355855
 30
0.0
 10
12.76462239384759
 20
-3.120902950437636
 30
0.0
 10
14.03483436431879
 20
-3.924925901639968
 30
0.0
 10
15.30483428760457
 20
-4.626322279312525
 30
0.0
 10
16.57681357132855
 20
-5.197758034376156
 30
0.0
 10
17.84722578357669
 20
-5.632696169029977
 30
0.0
 10
19.12791458936899
 20
-5.900740233520836
 30
0.0
 10
20.06316678734193
 20
-6.017894281864092
 30
0.0
 10
20.57449305347636
 20
-5.991447658797557
 30
0.0
 10
20.65083314988071
 20
-5.987499225305707
 30
0.0
  0
SPLINE
  5
C4
330
1F
100
AcDbEntity
  8
0
  6
Continuous
 62
     1
370
    25
100
AcDbSpline
210
0.0
220
0.0
230
1.0
 70
     8
 71
     3
 72
    11
 73
     7
 74
     0
 42
0.000000001
 43
0.00000001
 40
0.0
 40
0.0
 40
0.0
 40
0.0
 40
0.2177280587887492
 40
0.4783308277724119
 40
0.7392802561541587
 40
1.0
 40
1.0
 40
1.0
 40
1.0
 10
40.45506333135593
 20
5.062198659497391
 30
0.0
 10
40.85213471987081
 20
5.221171633788668
 30
0.0
 10
41.7244682491811
 20
5.570422322051903
 30
0.0
 10
43.0727662423257
 20
5.881310859073636
 30
0.0
 10
44.50064578098924
 20
6.040624521833448
 30
0.0
 10
45.45222754236052
 20
5.968765308702013
 30
0.0
 10
45.92780893815912
 20
5.932851521501227
 30
0.0
  0
LINE
  5
C5
330
1F
100
AcDbEntity
  8
0
  6
Continuous
 62
     1
370
    25
100
AcDbLine
 10
46.49212511128275
 20
5.979130371550703
 30
0.0
 11
46.49212511128275
 21
6.000000000000005
 31
0.0
  0
ELLIPSE
  5
C6
330
1F
100
AcDbEntity
  8
0
  6
Continuous
 62
     1
370
    25
100
AcDbEllipse
 10
47.20619911465381
 20
0.0000000000000004
 30
0.0
 11
8.568888040452663
 21
-1.627025617018337E-30
 31
0.0
210
0.0
220
0.0
230
1.0
 40
0.7002075382097122
 41
1.654226413405511
 42
1.72054511795522
  0
SPLINE
  5
C7
330
1F
100
AcDbEntity
  8
0
  6
Continuous
 62
     1
370
    25
100
AcDbSpline
210
0.0
220
0.0
230
1.0
 70
     8
 71
     3
 72
    16
 73
    12
 74
     0
 42
0.000000001
 43
0.00000001
 40
0.0
 40
0.0
 40
0.0
 40
0.0
 40
0.1754577918473634
 40
0.3198278486007779
 40
0.4688681885509416
 40
0.5645942346927049
 40
0.6628995733861874
 40
0.7587150341116067
 40
0.8576640209034555
 40
0.9484226419933888
 40
1.0
 40
1.0
 40
1.0
 40
1.0
 10
45.92780893815912
 20
5.932851521501229
 30
0.0
 10
45.921331178361
 20
5.698316869407819
 30
0.0
 10
45.90952339280657
 20
5.270802580007539
 30
0.0
 10
45.79235562384068
 20
4.658028416038285
 30
0.0
 10
45.6238715595724
 20
4.17719429653611
 30
0.0
 10
45.41276417444514
 20
3.796505499716206
 30
0.0
 10
45.19316961187523
 20
3.51506122618323
 30
0.0
 10
44.93353560981581
 20
3.28199628807611
 30
0.0
 10
44.65100738732014
 20
3.116713521607432
 30
0.0
 10
44.39730417098512
 20
3.020215385947247
 30
0.0
 10
44.24238514037958
 20
3.000075039966299
 30
0.0
 10
44.18624814427853
 20
2.99277691449142
 30
0.0
  0
SPLINE
  5
C8
330
1F
100
AcDbEntity
  8
0
  6
Continuous
 62
     1
370
    25
100
AcDbSpline
210
0.0
220
0.0
230
1.0
 70
     8
 71
     3
 72
     9
 73
     5
 74
     0
 42
0.000000001
 43
0.00000001
 40
0.0
 40
0.0
 40
0.0
 40
0.0
 40
0.7270676259677641
 40
1.0
 40
1.0
 40
1.0
 40
1.0
 10
46.49212511128275
 20
1.446523558810442
 30
0.0
 10
46.29426501384698
 20
1.569068496859603
 30
0.0
 10
46.02213063408772
 20
1.737615319290387
 30
0.0
 10
45.75525383242558
 20
1.889209675051407
 30
0.0
 10
45.68241451337382
 20
1.930584682459149
 30
0.0
  0
LINE
  5
C9
330
1F
100
AcDbEntity
  8
0
  6
Continuous
 62
     1
370
    25
100
AcDbLine
 10
46.49212511128275
 20
1.333601880034234
 30
0.0
 11
46.49212511128275
 21
1.446523558810442
 31
0.0
  0
LINE
  5
CA
330
1F
100
AcDbEntity
  8
0
  6
Continuous
 62
     1
370
    25
100
AcDbLine
 10
46.49212511128275
 20
-0.4999999999999974
 30
0.0
 11
46.49212511128275
 21
-4.474290814540876
 31
0.0
  0
LINE
  5
CB
330
1F
100
AcDbEntity
  8
0
  6
Continuous
 62
     1
370
    25
100
AcDbLine
 10
46.49212511128275
 20
1.446523558810442
 30
0.0
 11
46.49212511128275
 21
5.979130371550703
 31
0.0
  0
LINE
  5
CC
330
1F
100
AcDbEntity
  8
중심선
100
AcDbLine
 10
-36.50787488871725
 20
-0.0000000000000043
 30
0.0
 11
49.49212511128276
 21
0.0000000000000062
 31
0.0
  0
CIRCLE
  5
CD
330
1F
100
AcDbEntity
  8
해칭선
100
AcDbCircle
 10
-0.0081114955177448
 20
-0.0000000000000043
 30
0.0
 40
3.000000000000001
  0
INSERT
  5
CE
330
1F
100
AcDbEntity
  8
0
  6
Continuous
 62
     7
100
AcDbBlockReference
 66
     1
  2
블럭10
 10
-7.448147820842448
 20
-52.04717430164393
 30
0.0
  0
ATTRIB
  5
CF
330
CE
100
AcDbEntity
  8
FORMAT
 62
     2
100
AcDbText
 10
-23.567408860278
 20
-49.97180738881174
 30
0.0
 40
4.233333333333333
  1
SEME7112035E [ 4 FLUTE ]
 41
0.75
  7
SLDTEXTSTYLE0
 11
-23.567408860278
 21
-52.08847405547841
 31
0.0
100
AcDbAttribute
  2
AUTOATTR0
 70
     0
 74
     1
  0
SEQEND
  5
D0
330
CE
100
AcDbEntity
  8
0
  6
Continuous
 62
     7
  0
HATCH
  5
D1
330
1F
100
AcDbEntity
  8
중심선
100
AcDbHatch
 10
0.0
 20
0.0
 30
0.0
210
0.0
220
0.0
230
1.0
  2
SOLID
 70
     1
 71
     0
 91
        1
 92
        0
 93
        4
 72
     1
 10
-1.733238516461594
 20
-35.8
 11
-5.179513760298876
 21
-35.8
 72
     1
 10
-5.179513760298876
 20
-35.8
 11
-7.307743619502899
 21
-38.33632558057262
 72
     1
 10
-7.307743619502899
 20
-38.33632558057262
 11
-3.861435290552468
 21
-38.33628615127013
 72
     1
 10
-3.861435290552468
 20
-38.33628615127013
 11
-1.733238516461594
 21
-35.8
 97
        0
 75
     0
 76
     1
 98
        1
 10
0.0
 20
0.0
  0
HATCH
  5
D2
330
1F
100
AcDbEntity
  8
중심선
100
AcDbHatch
 10
0.0
 20
0.0
 30
0.0
210
0.0
220
0.0
230
1.0
  2
SOLID
 70
     1
 71
     0
 91
        1
 92
        0
 93
        4
 72
     1
 10
3.279525474574357
 20
-35.79999999999997
 11
-0.1667497692629247
 21
-35.8
 72
     1
 10
-0.166749769262925
 20
-35.8
 11
-4.697887777620313
 21
-41.20000000000002
 72
     1
 10
-4.697887777620313
 20
-41.20000000000002
 11
-1.251612533783031
 21
-41.20000000000002
 72
     1
 10
-1.251612533783031
 20
-41.20000000000002
 11
3.279525474574357
 21
-35.79999999999997
 97
        0
 75
     0
 76
     1
 98
        1
 10
0.0
 20
0.0
  0
HATCH
  5
D3
330
1F
100
AcDbEntity
  8
중심선
100
AcDbHatch
 10
0.0
 20
0.0
 30
0.0
210
0.0
220
0.0
230
1.0
  2
SOLID
 70
     1
 71
     0
 91
        1
 92
        0
 93
        4
 72
     1
 10
8.292289465610281
 20
-35.79999999999997
 11
4.846014221773165
 21
-35.79999999999997
 72
     1
 10
4.846014221773165
 20
-35.79999999999997
 11
-2.202422680116111
 21
-44.20000000000002
 72
     1
 10
-2.202422680116112
 20
-44.20000000000002
 11
1.243852563721171
 21
-44.20000000000002
 72
     1
 10
1.243852563721171
 20
-44.20000000000002
 11
8.292289465610281
 21
-35.79999999999997
 97
        0
 75
     0
 76
     1
 98
        1
 10
0.0
 20
0.0
  0
HATCH
  5
D4
330
1F
100
AcDbEntity
  8
중심선
100
AcDbHatch
 10
0.0
 20
0.0
 30
0.0
210
0.0
220
0.0
230
1.0
  2
SOLID
 70
     1
 71
     0
 91
        1
 92
        0
 93
        6
 72
     3
 10
13.09217989662245
 20
-40.00000000005127
 11
3.960054785062284
 21
1.540850780301639E-10
 40
0.3939339440162633
 50
17.09539180608433
 51
320.0019657685081
 73
     0
 72
     1
 10
14.77517955232302
 20
-38.58789400463833
 11
17.08048142602411
 21
-36.65356729459038
 72
     3
 10
13.09217989656961
 20
-40.00000000000015
 11
6.600054785286829
 21
-1.249000902703301E-13
 40
0.6363583540795982
 50
39.99873849337387
 51
368.4976242363725
 73
     1
 72
     1
 10
19.51751238847022
 20
-39.03999999993002
 11
11.77224720340556
 21
-39.03999999993002
 72
     1
 10
11.77224720340556
 20
-39.03999999993002
 11
11.7722221589596
 21
-40.95999999992991
 72
     1
 10
11.7722221589596
 20
-40.95999999992991
 11
16.21360192843163
 21
-40.95999999992988
 97
        0
 75
     0
 76
     1
 98
        1
 10
0.0
 20
0.0
  0
DIMENSION
  5
D5
330
1F
100
AcDbEntity
  8
치수문자_일반주서
100
AcDbDimension
  2
_D
 10
61.4575327761134
 20
6.000000000000055
 30
0.0
 11
61.45753277611336
 21
16.54150000000006
 31
0.0
 70
   160
  1
%%c<>
 71
     2
 42
12.00000000000001
  3
SLDDIMSTYLE0
100
AcDbAlignedDimension
 13
46.49212511128278
 23
-6.000000000000003
 33
0.0
 14
46.49212511128278
 24
6.000000000000003
 34
0.0
 50
90.0000000000002
100
AcDbRotatedDimension
  0
DIMENSION
  5
E3
330
1F
100
AcDbEntity
  8
치수문자_일반주서
100
AcDbDimension
  2
_D_1
 10
46.49212511128275
 20
23.38913260158165
 30
0.0
 11
6.492125111282752
 21
23.38913260158165
 31
0.0
 70
   160
  1
<>
 71
     2
 42
80.0
  3
SLDDIMSTYLE1
100
AcDbAlignedDimension
 13
-33.50787488871725
 23
5.499999999999995
 33
0.0
 14
46.49212511128275
 24
6.000000000000005
 34
0.0
 50
-0.0000000000000051
100
AcDbRotatedDimension
  0
DIMENSION
  5
EE
330
1F
100
AcDbEntity
  8
치수문자_일반주서
100
AcDbDimension
  2
_D_2
 10
-46.09474419493455
 20
-6.00000000000005
 30
0.0
 11
-46.09474419493463
 21
16.54149999999996
 31
0.0
 70
   160
  1
%%c<>
 71
     2
 42
12.00000000000001
  3
SLDDIMSTYLE2
100
AcDbAlignedDimension
 13
-33.00787488871723
 23
6.000000000000005
 33
0.0
 14
-33.00787488871723
 24
-6.000000000000005
 34
0.0
 50
90.0000000000002
100
AcDbRotatedDimension
  0
DIMENSION
  5
FC
330
1F
100
AcDbEntity
  8
치수문자_일반주서
100
AcDbDimension
  2
_D_3
 10
46.49212511128276
 20
16.84591830258765
 30
0.0
 11
28.99212511128275
 21
16.84591830258765
 31
0.0
 70
   160
  1
<>
 71
     2
 42
35.0
  3
SLDDIMSTYLE1
100
AcDbAlignedDimension
 13
11.49212511128275
 23
6.0
 33
0.0
 14
46.49212511128275
 24
6.000000000000005
 34
0.0
 50
-0.0000000000000058
100
AcDbRotatedDimension
  0
INSERT
  5
10C
330
1F
100
AcDbEntity
  8
해칭선
100
AcDbBlockReference
  2
SW_DOWELSYMBOL_0
 10
-0.0081114955177448
 20
-0.0000000000000043
 30
0.0
  0
LINE
  5
131
330
1F
100
AcDbEntity
  8
0
  6
Continuous
 62
     4
370
    25
100
AcDbLine
 10
11.49212511128275
 20
6.0
 30
0.0
 11
11.49212511128275
 21
-5.999999999999996
 31
0.0
  0
ENDSEC
  0
SECTION
  2
OBJECTS
  0
DICTIONARY
  5
C
330
0
100
AcDbDictionary
281
     1
  3
ACAD_GROUP
350
D
  3
ACAD_IMAGE_VARS
350
130
  3
ACAD_LAYOUT
350
1A
  3
ACAD_MLINESTYLE
350
17
  3
ACAD_PLOTSETTINGS
350
19
  3
ACAD_PLOTSTYLENAME
350
E
  3
ACAD_SCALELIST
350
47
  3
APPDATA
350
12E
  3
DWGPROPS
350
142
  0
DICTIONARY
  5
D
102
{ACAD_REACTORS
330
C
102
}
330
C
100
AcDbDictionary
281
     1
  0
RASTERVARIABLES
  5
130
102
{ACAD_REACTORS
330
C
102
}
330
C
100
AcDbRasterVariables
 90
        0
 70
     1
 71
     1
 72
     1
  0
DICTIONARY
  5
1A
102
{ACAD_REACTORS
330
C
102
}
330
C
100
AcDbDictionary
281
     1
  3
Layout1
350
1E
  3
Layout2
350
26
  3
Model
350
22
  0
DICTIONARY
  5
17
102
{ACAD_REACTORS
330
C
102
}
330
C
100
AcDbDictionary
281
     1
  3
Standard
350
18
  0
DICTIONARY
  5
19
102
{ACAD_REACTORS
330
C
102
}
330
C
100
AcDbDictionary
281
     1
  0
ACDBDICTIONARYWDFLT
  5
E
102
{ACAD_REACTORS
330
C
102
}
330
C
100
AcDbDictionary
281
     1
  3
Normal
350
F
100
AcDbDictionaryWithDefault
340
F
  0
DICTIONARY
  5
47
102
{ACAD_REACTORS
330
C
102
}
330
C
100
AcDbDictionary
281
     1
  3
A0
350
48
  3
A1
350
49
  3
A2
350
4A
  3
A3
350
4B
  3
A4
350
4C
  3
A5
350
4D
  3
A6
350
4E
  3
A7
350
4F
  3
A8
350
50
  3
A9
350
51
  3
B0
350
52
  3
B1
350
53
  3
B2
350
54
  3
B3
350
55
  3
B4
350
56
  3
B5
350
57
  3
B6
350
58
  3
B7
350
59
  3
B8
350
5A
  3
B9
350
5B
  3
C0
350
5C
  3
C1
350
5D
  3
C2
350
5E
  3
C3
350
5F
  3
C4
350
60
  3
C5
350
61
  3
C6
350
62
  3
C7
350
63
  3
C8
350
64
  3
C9
350
65
  3
D0
350
66
  3
D1
350
67
  3
D2
350
68
  0
DICTIONARY
  5
12E
102
{ACAD_REACTORS
330
C
102
}
330
C
100
AcDbDictionary
281
     1
  0
XRECORD
  5
142
102
{ACAD_REACTORS
330
C
102
}
330
C
100
AcDbXrecord
280
     1
  1
DWGPROPS COOKIE
  2

  3

  4

  6

  7

  8
12014102
  9

300
=
301
=
302
=
303
=
304
=
305
=
306
=
307
=
308
=
309
=
 40
0.0
 41
2458260.120057905
 42
2458267.360314722
  1

 90
        0
  0
LAYOUT
  5
1E
102
{ACAD_REACTORS
330
1A
102
}
330
1A
100
AcDbPlotSettings
  1

  2
none_device
  4

  6

 40
0.0
 41
0.0
 42
0.0
 43
0.0
 44
0.0
 45
0.0
 46
0.0
 47
0.0
 48
0.0
 49
0.0
140
0.0
141
0.0
142
1.0
143
1.0
 70
   688
 72
     1
 73
     0
 74
     5
  7

 75
    16
147
1.0
148
0.0
149
0.0
100
AcDbLayout
  1
Layout1
 70
     1
 71
     1
 10
0.0
 20
0.0
 11
420.0
 21
297.0
 12
0.0
 22
0.0
 32
0.0
 14
1.000000000000000E+20
 24
1.000000000000000E+20
 34
1.000000000000000E+20
 15
-1.000000000000000E+20
 25
-1.000000000000000E+20
 35
-1.000000000000000E+20
146
0.0
 13
0.0
 23
0.0
 33
0.0
 16
1.0
 26
0.0
 36
0.0
 17
0.0
 27
1.0
 37
0.0
 76
     0
330
1B
  0
LAYOUT
  5
26
102
{ACAD_REACTORS
330
1A
102
}
330
1A
100
AcDbPlotSettings
  1

  2
none_device
  4

  6

 40
0.0
 41
0.0
 42
0.0
 43
0.0
 44
0.0
 45
0.0
 46
0.0
 47
0.0
 48
0.0
 49
0.0
140
0.0
141
0.0
142
1.0
143
1.0
 70
   688
 72
     1
 73
     0
 74
     5
  7

 75
    16
147
1.0
148
0.0
149
0.0
100
AcDbLayout
  1
Layout2
 70
     1
 71
     2
 10
0.0
 20
0.0
 11
0.0
 21
0.0
 12
0.0
 22
0.0
 32
0.0
 14
0.0
 24
0.0
 34
0.0
 15
0.0
 25
0.0
 35
0.0
146
0.0
 13
0.0
 23
0.0
 33
0.0
 16
1.0
 26
0.0
 36
0.0
 17
0.0
 27
1.0
 37
0.0
 76
     0
330
23
  0
LAYOUT
  5
22
102
{ACAD_REACTORS
330
1A
102
}
330
1A
100
AcDbPlotSettings
  1

  2
none_device
  4
ANSI_A_(11.00_x_8.50_Inches)
  6

 40
6.35
 41
19.05
 42
6.35000508
 43
19.05000254
 44
279.4
 45
215.9
 46
119.2247099169863
 47
116.370790722314
 48
0.0
 49
0.0
140
0.0
141
0.0
142
0.0948088374384318
143
1.0
 70
  1696
 72
     0
 73
     0
 74
     0
  7

 75
     0
147
0.0235690232323232
148
0.0
149
0.0
100
AcDbLayout
  1
Model
 70
     1
 71
     0
 10
0.0
 20
0.0
 11
420.0
 21
297.0
 12
0.0
 22
0.0
 32
0.0
 14
-50.46974419493463
 24
-49.97180738881174
 34
0.0
 15
62.00786610944678
 25
27.76413260158165
 35
0.0
146
0.0
 13
0.0
 23
0.0
 33
0.0
 16
1.0
 26
0.0
 36
0.0
 17
0.0
 27
1.0
 37
0.0
 76
     0
330
1F
331
29
  0
MLINESTYLE
  5
18
102
{ACAD_REACTORS
330
17
102
}
330
17
100
AcDbMlineStyle
  2
Standard
 70
     0
  3

 62
   256
 51
90.0
 52
90.0
 71
     2
 49
0.5
 62
   256
  6
BYLAYER
 49
-0.5
 62
   256
  6
BYLAYER
  0
ACDBPLACEHOLDER
  5
F
102
{ACAD_REACTORS
330
E
102
}
330
E
  0
SCALE
  5
48
102
{ACAD_REACTORS
330
47
102
}
330
47
100
AcDbScale
 70
     0
300
1:1
140
1.0
141
1.0
290
     1
  0
SCALE
  5
49
102
{ACAD_REACTORS
330
47
102
}
330
47
100
AcDbScale
 70
     0
300
1:2
140
1.0
141
2.0
290
     0
  0
SCALE
  5
4A
102
{ACAD_REACTORS
330
47
102
}
330
47
100
AcDbScale
 70
     0
300
1:4
140
1.0
141
4.0
290
     0
  0
SCALE
  5
4B
102
{ACAD_REACTORS
330
47
102
}
330
47
100
AcDbScale
 70
     0
300
1:5
140
1.0
141
5.0
290
     0
  0
SCALE
  5
4C
102
{ACAD_REACTORS
330
47
102
}
330
47
100
AcDbScale
 70
     0
300
1:8
140
1.0
141
8.0
290
     0
  0
SCALE
  5
4D
102
{ACAD_REACTORS
330
47
102
}
330
47
100
AcDbScale
 70
     0
300
1:10
140
1.0
141
10.0
290
     0
  0
SCALE
  5
4E
102
{ACAD_REACTORS
330
47
102
}
330
47
100
AcDbScale
 70
     0
300
1:16
140
1.0
141
16.0
290
     0
  0
SCALE
  5
4F
102
{ACAD_REACTORS
330
47
102
}
330
47
100
AcDbScale
 70
     0
300
1:20
140
1.0
141
20.0
290
     0
  0
SCALE
  5
50
102
{ACAD_REACTORS
330
47
102
}
330
47
100
AcDbScale
 70
     0
300
1:30
140
1.0
141
30.0
290
     0
  0
SCALE
  5
51
102
{ACAD_REACTORS
330
47
102
}
330
47
100
AcDbScale
 70
     0
300
1:40
140
1.0
141
40.0
290
     0
  0
SCALE
  5
52
102
{ACAD_REACTORS
330
47
102
}
330
47
100
AcDbScale
 70
     0
300
1:50
140
1.0
141
50.0
290
     0
  0
SCALE
  5
53
102
{ACAD_REACTORS
330
47
102
}
330
47
100
AcDbScale
 70
     0
300
1:100
140
1.0
141
100.0
290
     0
  0
SCALE
  5
54
102
{ACAD_REACTORS
330
47
102
}
330
47
100
AcDbScale
 70
     0
300
2:1
140
2.0
141
1.0
290
     0
  0
SCALE
  5
55
102
{ACAD_REACTORS
330
47
102
}
330
47
100
AcDbScale
 70
     0
300
4:1
140
4.0
141
1.0
290
     0
  0
SCALE
  5
56
102
{ACAD_REACTORS
330
47
102
}
330
47
100
AcDbScale
 70
     0
300
8:1
140
8.0
141
1.0
290
     0
  0
SCALE
  5
57
102
{ACAD_REACTORS
330
47
102
}
330
47
100
AcDbScale
 70
     0
300
10:1
140
10.0
141
1.0
290
     0
  0
SCALE
  5
58
102
{ACAD_REACTORS
330
47
102
}
330
47
100
AcDbScale
 70
     0
300
100:1
140
100.0
141
1.0
290
     0
  0
SCALE
  5
59
102
{ACAD_REACTORS
330
47
102
}
330
47
100
AcDbScale
 70
     0
300
1/128" = 1'-0"
140
0.0078125
141
12.0
290
     0
  0
SCALE
  5
5A
102
{ACAD_REACTORS
330
47
102
}
330
47
100
AcDbScale
 70
     0
300
1/64" = 1'-0"
140
0.015625
141
12.0
290
     0
  0
SCALE
  5
5B
102
{ACAD_REACTORS
330
47
102
}
330
47
100
AcDbScale
 70
     0
300
1/32" = 1'-0"
140
0.03125
141
12.0
290
     0
  0
SCALE
  5
5C
102
{ACAD_REACTORS
330
47
102
}
330
47
100
AcDbScale
 70
     0
300
1/16" = 1'-0"
140
0.0625
141
12.0
290
     0
  0
SCALE
  5
5D
102
{ACAD_REACTORS
330
47
102
}
330
47
100
AcDbScale
 70
     0
300
3/32" = 1'-0"
140
0.09375
141
12.0
290
     0
  0
SCALE
  5
5E
102
{ACAD_REACTORS
330
47
102
}
330
47
100
AcDbScale
 70
     0
300
1/8" = 1'-0"
140
0.125
141
12.0
290
     0
  0
SCALE
  5
5F
102
{ACAD_REACTORS
330
47
102
}
330
47
100
AcDbScale
 70
     0
300
3/16" = 1'-0"
140
0.1875
141
12.0
290
     0
  0
SCALE
  5
60
102
{ACAD_REACTORS
330
47
102
}
330
47
100
AcDbScale
 70
     0
300
1/4" = 1'-0"
140
0.25
141
12.0
290
     0
  0
SCALE
  5
61
102
{ACAD_REACTORS
330
47
102
}
330
47
100
AcDbScale
 70
     0
300
3/8" = 1'-0"
140
0.375
141
12.0
290
     0
  0
SCALE
  5
62
102
{ACAD_REACTORS
330
47
102
}
330
47
100
AcDbScale
 70
     0
300
1/2" = 1'-0"
140
0.5
141
12.0
290
     0
  0
SCALE
  5
63
102
{ACAD_REACTORS
330
47
102
}
330
47
100
AcDbScale
 70
     0
300
3/4" = 1'-0"
140
0.75
141
12.0
290
     0
  0
SCALE
  5
64
102
{ACAD_REACTORS
330
47
102
}
330
47
100
AcDbScale
 70
     0
300
1" = 1'-0"
140
1.0
141
12.0
290
     0
  0
SCALE
  5
65
102
{ACAD_REACTORS
330
47
102
}
330
47
100
AcDbScale
 70
     0
300
1-1/2" = 1'-0"
140
1.5
141
12.0
290
     0
  0
SCALE
  5
66
102
{ACAD_REACTORS
330
47
102
}
330
47
100
AcDbScale
 70
     0
300
3" = 1'-0"
140
3.0
141
12.0
290
     0
  0
SCALE
  5
67
102
{ACAD_REACTORS
330
47
102
}
330
47
100
AcDbScale
 70
     0
300
6" = 1'-0"
140
6.0
141
12.0
290
     0
  0
SCALE
  5
68
102
{ACAD_REACTORS
330
47
102
}
330
47
100
AcDbScale
 70
     0
300
1'-0" = 1'-0"
140
12.0
141
12.0
290
     0
  0
ENDSEC
  0
EOF
