  0
SECTION
  2
HEADER
  9
$ACADVER
  1
AC1015
  9
$ACADMAINTVER
 70
     6
  9
$DWGCODEPAGE
  3
ANSI_949
  9
$INSBASE
 10
0.0
 20
0.0
 30
0.0
  9
$EXTMIN
 10
-54.64634275440483
 20
-49.97180738881174
 30
0.0
  9
$EXTMAX
 10
50.05435279809839
 20
26.76413260158165
 30
0.0
  9
$LIMMIN
 10
0.0
 20
0.0
  9
$LIMMAX
 10
420.0
 20
297.0
  9
$ORTHOMODE
 70
     0
  9
$REGENMODE
 70
     1
  9
$FILLMODE
 70
     1
  9
$QTEXTMODE
 70
     0
  9
$MIRRTEXT
 70
     1
  9
$LTSCALE
 40
1.0
  9
$ATTMODE
 70
     1
  9
$TEXTSIZE
 40
3.5
  9
$TRACEWID
 40
1.0
  9
$TEXTSTYLE
  7
Standard
  9
$CLAYER
  8
0
  9
$CELTYPE
  6
ByLayer
  9
$CECOLOR
 62
   256
  9
$CELTSCALE
 40
1.0
  9
$DISPSILH
 70
     0
  9
$DIMSCALE
 40
1.0
  9
$DIMASZ
 40
3.302
  9
$DIMEXO
 40
1.0
  9
$DIMDLI
 40
3.75
  9
$DIMRND
 40
0.0
  9
$DIMDLE
 40
0.0
  9
$DIMEXE
 40
1.0
  9
$DIMTP
 40
0.0
  9
$DIMTM
 40
0.0
  9
$DIMTXT
 40
3.5
  9
$DIMCEN
 40
2.5
  9
$DIMTSZ
 40
0.0
  9
$DIMTOL
 70
     0
  9
$DIMLIM
 70
     0
  9
$DIMTIH
 70
     1
  9
$DIMTOH
 70
     1
  9
$DIMSE1
 70
     0
  9
$DIMSE2
 70
     0
  9
$DIMTAD
 70
     1
  9
$DIMZIN
 70
     0
  9
$DIMBLK
  1

  9
$DIMASO
 70
     1
  9
$DIMSHO
 70
     1
  9
$DIMPOST
  1

  9
$DIMAPOST
  1

  9
$DIMALT
 70
     0
  9
$DIMALTD
 70
     3
  9
$DIMALTF
 40
0.0393700787401575
  9
$DIMLFAC
 40
1.0
  9
$DIMTOFL
 70
     1
  9
$DIMTVP
 40
0.0
  9
$DIMTIX
 70
     0
  9
$DIMSOXD
 70
     0
  9
$DIMSAH
 70
     0
  9
$DIMBLK1
  1

  9
$DIMBLK2
  1

  9
$DIMSTYLE
  2
ISO-25
  9
$DIMCLRD
 70
     0
  9
$DIMCLRE
 70
     0
  9
$DIMCLRT
 70
     0
  9
$DIMTFAC
 40
1.0
  9
$DIMGAP
 40
1.524
  9
$DIMJUST
 70
     0
  9
$DIMSD1
 70
     0
  9
$DIMSD2
 70
     0
  9
$DIMTOLJ
 70
     0
  9
$DIMTZIN
 70
     0
  9
$DIMALTZ
 70
     0
  9
$DIMALTTZ
 70
     0
  9
$DIMUPT
 70
     0
  9
$DIMDEC
 70
     2
  9
$DIMTDEC
 70
     2
  9
$DIMALTU
 70
     2
  9
$DIMALTTD
 70
     3
  9
$DIMTXSTY
  7
Standard
  9
$DIMAUNIT
 70
     0
  9
$DIMADEC
 70
     2
  9
$DIMALTRND
 40
0.0
  9
$DIMAZIN
 70
     0
  9
$DIMDSEP
 70
    44
  9
$DIMATFIT
 70
     3
  9
$DIMFRAC
 70
     0
  9
$DIMLDRBLK
  1

  9
$DIMLUNIT
 70
     2
  9
$DIMLWD
 70
    -2
  9
$DIMLWE
 70
    -2
  9
$DIMTMOVE
 70
     0
  9
$LUNITS
 70
     2
  9
$LUPREC
 70
     2
  9
$SKETCHINC
 40
1.0
  9
$FILLETRAD
 40
10.0
  9
$AUNITS
 70
     0
  9
$AUPREC
 70
     2
  9
$MENU
  1
.
  9
$ELEVATION
 40
0.0
  9
$PELEVATION
 40
0.0
  9
$THICKNESS
 40
0.0
  9
$LIMCHECK
 70
     0
  9
$CHAMFERA
 40
0.0
  9
$CHAMFERB
 40
0.0
  9
$CHAMFERC
 40
0.0
  9
$CHAMFERD
 40
0.0
  9
$SKPOLY
 70
     0
  9
$TDCREATE
 40
2458260.494680174
  9
$TDUCREATE
 40
2458260.119680174
  9
$TDUPDATE
 40
2458266.772889803
  9
$TDUUPDATE
 40
2458266.397889803
  9
$TDINDWG
 40
0.0010574074
  9
$TDUSRTIMER
 40
2458266.396832419
  9
$USRTIMER
 70
     1
  9
$ANGBASE
 50
0.0
  9
$ANGDIR
 70
     0
  9
$PDMODE
 70
     0
  9
$PDSIZE
 40
-1.0
  9
$PLINEWID
 40
0.0
  9
$SPLFRAME
 70
     0
  9
$SPLINETYPE
 70
     6
  9
$SPLINESEGS
 70
     8
  9
$HANDSEED
  5
13E
  9
$SURFTAB1
 70
     6
  9
$SURFTAB2
 70
     6
  9
$SURFTYPE
 70
     6
  9
$SURFU
 70
     6
  9
$SURFV
 70
     6
  9
$UCSBASE
  2

  9
$UCSNAME
  2

  9
$UCSORG
 10
0.0
 20
0.0
 30
0.0
  9
$UCSXDIR
 10
1.0
 20
0.0
 30
0.0
  9
$UCSYDIR
 10
0.0
 20
1.0
 30
0.0
  9
$UCSORTHOREF
  2

  9
$UCSORTHOVIEW
 70
     0
  9
$UCSORGTOP
 10
0.0
 20
0.0
 30
0.0
  9
$UCSORGBOTTOM
 10
0.0
 20
0.0
 30
0.0
  9
$UCSORGLEFT
 10
0.0
 20
0.0
 30
0.0
  9
$UCSORGRIGHT
 10
0.0
 20
0.0
 30
0.0
  9
$UCSORGFRONT
 10
0.0
 20
0.0
 30
0.0
  9
$UCSORGBACK
 10
0.0
 20
0.0
 30
0.0
  9
$PUCSBASE
  2

  9
$PUCSNAME
  2

  9
$PUCSORG
 10
0.0
 20
0.0
 30
0.0
  9
$PUCSXDIR
 10
1.0
 20
0.0
 30
0.0
  9
$PUCSYDIR
 10
0.0
 20
1.0
 30
0.0
  9
$PUCSORTHOREF
  2

  9
$PUCSORTHOVIEW
 70
     0
  9
$PUCSORGTOP
 10
0.0
 20
0.0
 30
0.0
  9
$PUCSORGBOTTOM
 10
0.0
 20
0.0
 30
0.0
  9
$PUCSORGLEFT
 10
0.0
 20
0.0
 30
0.0
  9
$PUCSORGRIGHT
 10
0.0
 20
0.0
 30
0.0
  9
$PUCSORGFRONT
 10
0.0
 20
0.0
 30
0.0
  9
$PUCSORGBACK
 10
0.0
 20
0.0
 30
0.0
  9
$USERI1
 70
     0
  9
$USERI2
 70
     0
  9
$USERI3
 70
     0
  9
$USERI4
 70
     0
  9
$USERI5
 70
     0
  9
$USERR1
 40
0.0
  9
$USERR2
 40
0.0
  9
$USERR3
 40
0.0
  9
$USERR4
 40
0.0
  9
$USERR5
 40
0.0
  9
$WORLDVIEW
 70
     1
  9
$SHADEDGE
 70
     3
  9
$SHADEDIF
 70
    70
  9
$TILEMODE
 70
     1
  9
$MAXACTVP
 70
    64
  9
$PINSBASE
 10
0.0
 20
0.0
 30
0.0
  9
$PLIMCHECK
 70
     0
  9
$PEXTMIN
 10
1.000000000000000E+20
 20
1.000000000000000E+20
 30
1.000000000000000E+20
  9
$PEXTMAX
 10
-1.000000000000000E+20
 20
-1.000000000000000E+20
 30
-1.000000000000000E+20
  9
$PLIMMIN
 10
0.0
 20
0.0
  9
$PLIMMAX
 10
0.0
 20
0.0
  9
$UNITMODE
 70
     0
  9
$VISRETAIN
 70
     1
  9
$PLINEGEN
 70
     0
  9
$PSLTSCALE
 70
     1
  9
$TREEDEPTH
 70
  3020
  9
$CMLSTYLE
  2
Standard
  9
$CMLJUST
 70
     0
  9
$CMLSCALE
 40
20.0
  9
$PROXYGRAPHICS
 70
     1
  9
$MEASUREMENT
 70
     1
  9
$CELWEIGHT
370
    -1
  9
$ENDCAPS
280
     0
  9
$JOINSTYLE
280
     0
  9
$LWDISPLAY
290
     1
  9
$INSUNITS
 70
     4
  9
$HYPERLINKBASE
  1

  9
$STYLESHEET
  1

  9
$XEDIT
290
     1
  9
$CEPSNTYPE
380
     0
  9
$PSTYLEMODE
290
     1
  9
$FINGERPRINTGUID
  2
{F4906758-A6F5-4960-8F5E-69FC7256BF31}
  9
$VERSIONGUID
  2
{FAEB1C32-E019-11D5-929B-00C0DF256EC4}
  9
$EXTNAMES
290
     1
  9
$PSVPSCALE
 40
0.0
  9
$OLESTARTUP
290
     0
  0
ENDSEC
  0
SECTION
  2
CLASSES
  0
CLASS
  1
ACDBDICTIONARYWDFLT
  2
AcDbDictionaryWithDefault
  3
ObjectDBX Classes
 90
        0
280
     0
281
     0
  0
CLASS
  1
VISUALSTYLE
  2
AcDbVisualStyle
  3
ObjectDBX Classes
 90
     4095
280
     0
281
     0
  0
CLASS
  1
MATERIAL
  2
AcDbMaterial
  3
ObjectDBX Classes
 90
     1153
280
     0
281
     0
  0
CLASS
  1
SCALE
  2
AcDbScale
  3
ObjectDBX Classes
 90
     1153
280
     0
281
     0
  0
CLASS
  1
TABLESTYLE
  2
AcDbTableStyle
  3
ObjectDBX Classes
 90
     4095
280
     0
281
     0
  0
CLASS
  1
MLEADERSTYLE
  2
AcDbMLeaderStyle
  3
ACDB_MLEADERSTYLE_CLASS
 90
     4095
280
     0
281
     0
  0
CLASS
  1
SUN
  2
AcDbSun
  3
SCENEOE
 90
     1153
280
     0
281
     0
  0
CLASS
  1
ACDBPLACEHOLDER
  2
AcDbPlaceHolder
  3
ObjectDBX Classes
 90
        0
280
     0
281
     0
  0
CLASS
  1
LAYOUT
  2
AcDbLayout
  3
ObjectDBX Classes
 90
        0
280
     0
281
     0
  0
CLASS
  1
RASTERVARIABLES
  2
AcDbRasterVariables
  3
ISM
 90
        0
280
     0
281
     0
  0
ENDSEC
  0
SECTION
  2
TABLES
  0
TABLE
  2
VPORT
  5
8
330
0
100
AcDbSymbolTable
 70
     1
  0
VPORT
  5
29
330
8
100
AcDbSymbolTableRecord
100
AcDbViewportTableRecord
  2
*Active
 70
     0
 10
0.0
 20
0.0
 11
1.0
 21
1.0
 12
-2.295994978153217
 22
-11.60383739361504
 13
0.0
 23
0.0
 14
10.0
 24
10.0
 15
10.0
 25
10.0
 16
0.0
 26
0.0
 36
1.0
 17
0.0
 27
0.0
 37
0.0
 40
78.27065879020125
 41
1.728553137003841
 42
50.0
 43
0.0
 44
0.0
 50
0.0
 51
0.0
 71
    16
 72
  2000
 73
     1
 74
     3
 75
     0
 76
     0
 77
     0
 78
     0
281
     0
 65
     1
110
0.0
120
0.0
130
0.0
111
1.0
121
0.0
131
0.0
112
0.0
122
1.0
132
0.0
 79
     0
146
0.0
  0
ENDTAB
  0
TABLE
  2
LTYPE
  5
5
330
0
100
AcDbSymbolTable
 70
     6
  0
LTYPE
  5
14
330
5
100
AcDbSymbolTableRecord
100
AcDbLinetypeTableRecord
  2
ByBlock
 70
     0
  3

 72
    65
 73
     0
 40
0.0
  0
LTYPE
  5
15
330
5
100
AcDbSymbolTableRecord
100
AcDbLinetypeTableRecord
  2
ByLayer
 70
     0
  3

 72
    65
 73
     0
 40
0.0
  0
LTYPE
  5
16
330
5
100
AcDbSymbolTableRecord
100
AcDbLinetypeTableRecord
  2
Continuous
 70
     0
  3
Solid line
 72
    65
 73
     0
 40
0.0
  0
LTYPE
  5
6E
330
5
100
AcDbSymbolTableRecord
100
AcDbLinetypeTableRecord
  2
HIDDEN
 70
     0
  3
Hidden __ __ __ __ __ __ __ __ __ __ __ __ __ __
 72
    65
 73
     2
 40
1.905
 49
1.27
 74
     0
 49
-0.635
 74
     0
  0
LTYPE
  5
6F
330
5
100
AcDbSymbolTableRecord
100
AcDbLinetypeTableRecord
  2
PHANTOM
 70
     0
  3
Phantom ______  __  __  ______  __  __  ______
 72
    65
 73
     6
 40
12.7
 49
6.35
 74
     0
 49
-1.27
 74
     0
 49
1.27
 74
     0
 49
-1.27
 74
     0
 49
1.27
 74
     0
 49
-1.27
 74
     0
  0
LTYPE
  5
70
330
5
100
AcDbSymbolTableRecord
100
AcDbLinetypeTableRecord
  2
CENTER
 70
     0
  3
Center ____ _ ____ _ ____ _ ____ _ ____ _ ____
 72
    65
 73
     4
 40
10.16
 49
6.35
 74
     0
 49
-1.27
 74
     0
 49
1.27
 74
     0
 49
-1.27
 74
     0
  0
LTYPE
  5
71
330
5
100
AcDbSymbolTableRecord
100
AcDbLinetypeTableRecord
  2
CENTERX2
 70
     0
  3
Center (2x) ________  __  ________  __  _____
 72
    65
 73
     4
 40
20.32
 49
12.7
 74
     0
 49
-2.54
 74
     0
 49
2.54
 74
     0
 49
-2.54
 74
     0
  0
LTYPE
  5
72
330
5
100
AcDbSymbolTableRecord
100
AcDbLinetypeTableRecord
  2
DOT2
 70
     0
  3
Dot (.5x) ........................................
 72
    65
 73
     2
 40
0.635
 49
0.0
 74
     0
 49
-0.635
 74
     0
  0
ENDTAB
  0
TABLE
  2
LAYER
  5
2
330
0
100
AcDbSymbolTable
 70
    17
  0
LAYER
  5
10
330
2
100
AcDbSymbolTableRecord
100
AcDbLayerTableRecord
  2
0
 70
     0
 62
     7
  6
Continuous
370
    -3
390
F
  0
LAYER
  5
73
330
2
100
AcDbSymbolTableRecord
100
AcDbLayerTableRecord
  2
FORMAT
 70
     0
 62
     2
  6
Continuous
370
    -3
390
F
  0
LAYER
  5
74
330
2
100
AcDbSymbolTableRecord
100
AcDbLayerTableRecord
  2
외형선
 70
     0
 62
   100
  6
Continuous
370
    35
390
F
  0
LAYER
  5
75
330
2
100
AcDbSymbolTableRecord
100
AcDbLayerTableRecord
  2
숨은선
 70
     0
 62
     2
  6
HIDDEN
370
    25
390
F
  0
LAYER
  5
76
330
2
100
AcDbSymbolTableRecord
100
AcDbLayerTableRecord
  2
중심선
 70
     0
 62
     1
  6
CENTERX2
370
    -3
390
F
  0
LAYER
  5
77
330
2
100
AcDbSymbolTableRecord
100
AcDbLayerTableRecord
  2
파단선
 70
     0
 62
     4
  6
Continuous
370
    -3
390
F
  0
LAYER
  5
78
330
2
100
AcDbSymbolTableRecord
100
AcDbLayerTableRecord
  2
해칭선
 70
     0
 62
   100
  6
Continuous
370
    -3
390
F
  0
LAYER
  5
79
330
2
100
AcDbSymbolTableRecord
100
AcDbLayerTableRecord
  2
가는실선
 70
     0
 62
     4
  6
Continuous
370
    -3
390
F
  0
LAYER
  5
7A
330
2
100
AcDbSymbolTableRecord
100
AcDbLayerTableRecord
  2
치수_보조선
 70
     0
 62
     4
  6
Continuous
370
    -3
390
F
  0
LAYER
  5
7B
330
2
100
AcDbSymbolTableRecord
100
AcDbLayerTableRecord
  2
치수문자_일반주서
 70
     0
 62
     7
  6
Continuous
370
    25
390
F
  0
LAYER
  5
7C
330
2
100
AcDbSymbolTableRecord
100
AcDbLayerTableRecord
  2
개별주서
 70
     0
 62
   100
  6
Continuous
370
    35
390
F
  0
LAYER
  5
7D
330
2
100
AcDbSymbolTableRecord
100
AcDbLayerTableRecord
  2
중간선
 70
     0
 62
     2
  6
Continuous
370
    25
390
F
  0
LAYER
  5
7E
330
2
100
AcDbSymbolTableRecord
100
AcDbLayerTableRecord
  2
윤곽선
 70
     0
 62
     3
  6
Continuous
370
    50
390
F
  0
LAYER
  5
7F
330
2
100
AcDbSymbolTableRecord
100
AcDbLayerTableRecord
  2
중심마크
 70
     0
 62
   100
  6
Continuous
370
    35
390
F
  0
LAYER
  5
80
330
2
100
AcDbSymbolTableRecord
100
AcDbLayerTableRecord
  2
가상선
 70
     0
 62
     4
  6
PHANTOM
370
    -3
390
F
  0
LAYER
  5
81
330
2
100
AcDbSymbolTableRecord
100
AcDbLayerTableRecord
  2
특수지정선
 70
     0
 62
     5
  6
CENTERX2
370
    70
390
F
  0
LAYER
  5
12E
330
2
100
AcDbSymbolTableRecord
100
AcDbLayerTableRecord
  2
Defpoints
 70
     0
 62
     7
  6
Continuous
290
     0
370
    -3
390
F
  0
ENDTAB
  0
TABLE
  2
STYLE
  5
3
330
0
100
AcDbSymbolTable
 70
     2
  0
STYLE
  5
11
330
3
100
AcDbSymbolTableRecord
100
AcDbTextStyleTableRecord
  2
Standard
 70
     0
 40
0.0
 41
1.0
 50
0.0
 71
     0
 42
3.5
  3
txt
  4

  0
STYLE
  5
97
330
3
100
AcDbSymbolTableRecord
100
AcDbTextStyleTableRecord
  2
SLDTEXTSTYLE0
 70
     0
 40
0.0
 41
0.75
 50
0.0
 71
     0
 42
3.5
  3
TXT
  4

  0
ENDTAB
  0
TABLE
  2
VIEW
  5
6
330
0
100
AcDbSymbolTable
 70
     0
  0
ENDTAB
  0
TABLE
  2
UCS
  5
7
330
0
100
AcDbSymbolTable
 70
     0
  0
ENDTAB
  0
TABLE
  2
APPID
  5
9
330
0
100
AcDbSymbolTable
 70
     1
  0
APPID
  5
12
330
9
100
AcDbSymbolTableRecord
100
AcDbRegAppTableRecord
  2
ACAD
 70
     0
  0
ENDTAB
  0
TABLE
  2
DIMSTYLE
  5
A
330
0
100
AcDbSymbolTable
 70
     4
100
AcDbDimStyleTable
  0
DIMSTYLE
105
27
330
A
100
AcDbSymbolTableRecord
100
AcDbDimStyleTableRecord
  2
ISO-25
 70
     0
 41
2.5
 42
0.625
 43
3.75
 44
1.25
 73
     0
 74
     0
 77
     1
 78
     8
140
2.5
141
2.5
143
0.03937007874016
147
0.625
171
     3
172
     1
178
     0
271
     2
272
     2
274
     3
278
    44
283
     0
284
     8
340
11
  0
DIMSTYLE
105
D3
102
{ACAD_REACTORS
330
D2
102
}
330
A
100
AcDbSymbolTableRecord
100
AcDbDimStyleTableRecord
  2
SLDDIMSTYLE0
 70
     0
 41
3.302
 44
0.0
 45
0.000000001
 73
     0
 74
     0
 77
     1
 78
    12
 79
     3
140
3.5
147
0.875
172
     1
173
     1
178
     0
271
     1
272
     1
276
     2
284
    12
289
     0
340
97
  0
DIMSTYLE
105
E1
102
{ACAD_REACTORS
330
E0
330
F9
102
}
330
A
100
AcDbSymbolTableRecord
100
AcDbDimStyleTableRecord
  2
SLDDIMSTYLE1
 70
     0
 41
3.302
 44
0.0
 45
0.000000001
 73
     0
 74
     0
 77
     1
 78
    12
 79
     3
140
3.5
147
0.875
173
     1
178
     0
271
     2
272
     2
276
     2
284
    12
340
97
  0
DIMSTYLE
105
EC
102
{ACAD_REACTORS
330
EB
102
}
330
A
100
AcDbSymbolTableRecord
100
AcDbDimStyleTableRecord
  2
SLDDIMSTYLE2
 70
     0
 41
3.302
 44
0.0
 45
0.000000001
 73
     0
 74
     0
 77
     1
 78
    12
 79
     3
140
3.5
147
0.875
172
     1
173
     1
178
     0
271
     2
272
     2
276
     2
284
    12
289
     0
340
97
  0
ENDTAB
  0
TABLE
  2
BLOCK_RECORD
  5
1
330
0
100
AcDbSymbolTable
 70
     7
  0
BLOCK_RECORD
  5
1F
330
1
100
AcDbSymbolTableRecord
100
AcDbBlockTableRecord
  2
*Model_Space
340
22
  0
BLOCK_RECORD
  5
1B
330
1
100
AcDbSymbolTableRecord
100
AcDbBlockTableRecord
  2
*Paper_Space
340
1E
  0
BLOCK_RECORD
  5
23
330
1
100
AcDbSymbolTableRecord
100
AcDbBlockTableRecord
  2
*Paper_Space0
340
26
  0
BLOCK_RECORD
  5
82
330
1
100
AcDbSymbolTableRecord
100
AcDbBlockTableRecord
  2
블럭10
340
0
102
{BLKREFS
331
CB
102
}
  0
BLOCK_RECORD
  5
D4
330
1
100
AcDbSymbolTableRecord
100
AcDbBlockTableRecord
  2
_D
340
0
  0
BLOCK_RECORD
  5
E2
330
1
100
AcDbSymbolTableRecord
100
AcDbBlockTableRecord
  2
_D_1
340
0
  0
BLOCK_RECORD
  5
ED
330
1
100
AcDbSymbolTableRecord
100
AcDbBlockTableRecord
  2
_D_2
340
0
  0
BLOCK_RECORD
  5
FA
330
1
100
AcDbSymbolTableRecord
100
AcDbBlockTableRecord
  2
_D_3
340
0
  0
BLOCK_RECORD
  5
103
330
1
100
AcDbSymbolTableRecord
100
AcDbBlockTableRecord
  2
SW_DOWELSYMBOL_0
340
0
102
{BLKREFS
331
109
102
}
  0
ENDTAB
  0
ENDSEC
  0
SECTION
  2
BLOCKS
  0
BLOCK
  5
20
330
1F
100
AcDbEntity
  8
0
100
AcDbBlockBegin
  2
*Model_Space
 70
     0
 10
0.0
 20
0.0
 30
0.0
  3
*Model_Space
  1

  0
ENDBLK
  5
21
330
1F
100
AcDbEntity
  8
0
100
AcDbBlockEnd
  0
BLOCK
  5
1C
330
1B
100
AcDbEntity
 67
     1
  8
0
100
AcDbBlockBegin
  2
*Paper_Space
 70
     0
 10
0.0
 20
0.0
 30
0.0
  3
*Paper_Space
  1

  0
ENDBLK
  5
1D
330
1B
100
AcDbEntity
 67
     1
  8
0
100
AcDbBlockEnd
  0
BLOCK
  5
24
330
23
100
AcDbEntity
  8
0
100
AcDbBlockBegin
  2
*Paper_Space0
 70
     0
 10
0.0
 20
0.0
 30
0.0
  3
*Paper_Space0
  1

  0
ENDBLK
  5
25
330
23
100
AcDbEntity
  8
0
100
AcDbBlockEnd
  0
BLOCK
  5
83
330
82
100
AcDbEntity
  8
0
100
AcDbBlockBegin
  2
블럭10
 70
     2
 10
0.0
 20
0.0
 30
0.0
  3
블럭10
  1

  0
ELLIPSE
  5
85
330
82
100
AcDbEntity
  8
중심선
100
AcDbEllipse
 10
20.54032771741204
 20
12.0471743016438
 30
0.0
 11
6.600054785286829
 21
-1.261213355974178E-13
 31
0.0
210
0.0
220
0.0
230
1.0
 40
0.636358354079598
 41
0.9219305317359503
 42
6.513795318482858
  0
ELLIPSE
  5
86
330
82
100
AcDbEntity
  8
중심선
100
AcDbEllipse
 10
20.54032771746488
 20
12.04717430159265
 30
0.0
 11
3.960054785062283
 21
1.540847449632565E-10
 31
0.0
210
0.0
220
0.0
230
1.0
 40
0.3939339440162632
 41
1.131841032648279
 42
5.62031148352944
  0
LINE
  5
87
330
82
100
AcDbEntity
  8
중심선
100
AcDbLine
 10
2.268634060543552
 20
16.24717430164393
 30
0.0
 11
5.714909304380834
 21
16.24717430164393
 31
0.0
  0
LINE
  5
88
330
82
100
AcDbEntity
  8
중심선
100
AcDbLine
 10
5.245725140726316
 20
7.84717430164391
 30
0.0
 11
8.692000384563599
 21
7.84717430164391
 31
0.0
  0
LINE
  5
89
330
82
100
AcDbEntity
  8
중심선
100
AcDbLine
 10
15.74043728645272
 20
16.24717430164393
 30
0.0
 11
8.692000384563599
 21
7.84717430164391
 31
0.0
  0
LINE
  5
8A
330
82
100
AcDbEntity
  8
중심선
100
AcDbLine
 10
0.1404042013395286
 20
13.71084872107135
 30
0.0
 11
3.58671253028996
 21
13.71088815037384
 31
0.0
  0
LINE
  5
8B
330
82
100
AcDbEntity
  8
중심선
100
AcDbLine
 10
2.750260043222114
 20
10.84717430164391
 30
0.0
 11
6.196535287059397
 21
10.84717430164391
 31
0.0
  0
LINE
  5
8C
330
82
100
AcDbEntity
  8
중심선
100
AcDbLine
 10
12.29416204261559
 20
16.24717430164393
 30
0.0
 11
5.245725140726316
 21
7.84717430164391
 31
0.0
  0
LINE
  5
8D
330
82
100
AcDbEntity
  8
중심선
100
AcDbLine
 10
10.72767329541681
 20
16.24717430164393
 30
0.0
 11
6.196535287059397
 21
10.84717430164391
 31
0.0
  0
LINE
  5
8E
330
82
100
AcDbEntity
  8
중심선
100
AcDbLine
 10
7.28139805157953
 20
16.24717430164393
 30
0.0
 11
2.750260043222114
 21
10.84717430164391
 31
0.0
  0
LINE
  5
8F
330
82
100
AcDbEntity
  8
중심선
100
AcDbLine
 10
5.714909304380834
 20
16.24717430164393
 30
0.0
 11
3.58671253028996
 21
13.71088815037384
 31
0.0
  0
LINE
  5
90
330
82
100
AcDbEntity
  8
중심선
100
AcDbLine
 10
2.268634060543552
 20
16.24717430164393
 30
0.0
 11
0.1404042013395286
 21
13.71084872107135
 31
0.0
  0
LINE
  5
91
330
82
100
AcDbEntity
  8
중심선
100
AcDbLine
 10
7.28139805157953
 20
16.24717430164393
 30
0.0
 11
10.72767329541681
 21
16.24717430164393
 31
0.0
  0
LINE
  5
92
330
82
100
AcDbEntity
  8
중심선
100
AcDbLine
 10
12.29416204261559
 20
16.24717430164393
 30
0.0
 11
15.74043728645272
 21
16.24717430164393
 31
0.0
  0
LINE
  5
93
330
82
100
AcDbEntity
  8
중심선
100
AcDbLine
 10
19.22036997980202
 20
11.08717430171403
 30
0.0
 11
23.66174974927406
 21
11.08717430171406
 31
0.0
  0
LINE
  5
94
330
82
100
AcDbEntity
  8
중심선
100
AcDbLine
 10
19.22039502424796
 20
13.00717430171391
 30
0.0
 11
19.22036997980202
 21
11.08717430171403
 31
0.0
  0
LINE
  5
95
330
82
100
AcDbEntity
  8
중심선
100
AcDbLine
 10
19.22039502424796
 20
13.00717430171391
 30
0.0
 11
26.96566020931264
 21
13.00717430171391
 31
0.0
  0
LINE
  5
96
330
82
100
AcDbEntity
  8
중심선
100
AcDbLine
 10
22.22332737316547
 20
13.45928029700563
 30
0.0
 11
24.52862924686651
 21
15.39360700705356
 31
0.0
  0
ATTDEF
  5
98
330
82
100
AcDbEntity
  8
FORMAT
 62
     2
100
AcDbText
 10
-12.95993919485777
 20
2.075366912832191
 30
0.0
 40
4.233333333333333
  1
SEME71100E [ 4 FLUTE ]
 41
0.75
  7
SLDTEXTSTYLE0
 11
-12.95993919485777
 21
-0.0412997538344756
 31
0.0
100
AcDbAttributeDefinition
  3

  2
AUTOATTR0
 70
     0
 74
     1
  0
ENDBLK
  5
84
330
82
100
AcDbEntity
  8
0
100
AcDbBlockEnd
  0
BLOCK
  5
D5
330
D4
100
AcDbEntity
  8
0
100
AcDbBlockBegin
  2
_D
 70
     0
 10
0.0
 20
0.0
 30
0.0
  3
_D
  1

  0
LINE
  5
D7
330
D4
100
AcDbEntity
  8
치수문자_일반주서
 62
     0
370
    -2
100
AcDbLine
 10
35.06250000000003
 20
-4.999999999999996
 30
0.0
 11
49.50401946476503
 21
-4.999999999999943
 31
0.0
  0
LINE
  5
D8
330
D4
100
AcDbEntity
  8
치수문자_일반주서
 62
     0
370
    -2
100
AcDbLine
 10
35.06250000000003
 20
5.000000000000012
 30
0.0
 11
49.50401946476499
 21
5.000000000000066
 31
0.0
  0
LINE
  5
D9
330
D4
100
AcDbEntity
  8
치수문자_일반주서
 62
     0
370
    -2
100
AcDbLine
 10
49.50401946476503
 20
-4.999999999999943
 30
0.0
 11
49.50401946476494
 21
19.04150000000007
 31
0.0
  0
LINE
  5
DA
330
D4
100
AcDbEntity
  8
치수문자_일반주서
 62
     0
370
    -2
100
AcDbLine
 10
49.50401946476503
 20
-4.999999999999943
 30
0.0
 11
49.50401946476499
 21
5.000000000000066
 31
0.0
  0
LINE
  5
DB
330
D4
100
AcDbEntity
  8
치수문자_일반주서
 62
     0
370
    -2
100
AcDbLine
 10
49.50401946476504
 20
-8.301999999999943
 30
0.0
 11
49.50401946476506
 21
-11.60399999999994
 31
0.0
  0
LINE
  5
DC
330
D4
100
AcDbEntity
  8
치수문자_일반주서
 62
     0
370
    -2
100
AcDbLine
 10
49.50401946476498
 20
8.302000000000065
 30
0.0
 11
49.50401946476497
 21
11.60400000000006
 31
0.0
  0
SOLID
  5
DD
330
D4
100
AcDbEntity
  8
치수문자_일반주서
 62
     0
100
AcDbTrace
 10
50.05435279809838
 20
-8.301999999999941
 30
0.0
 11
48.95368613143171
 21
-8.301999999999945
 31
0.0
 12
49.50401946476503
 22
-4.999999999999943
 32
0.0
 13
49.50401946476503
 23
-4.999999999999943
 33
0.0
  0
SOLID
  5
DE
330
D4
100
AcDbEntity
  8
치수문자_일반주서
 62
     0
100
AcDbTrace
 10
48.95368613143165
 20
8.302000000000064
 30
0.0
 11
50.05435279809831
 21
8.302000000000067
 31
0.0
 12
49.50401946476499
 22
5.000000000000066
 32
0.0
 13
49.50401946476499
 23
5.000000000000066
 33
0.0
  0
MTEXT
  5
DF
330
D4
100
AcDbEntity
  8
치수문자_일반주서
 62
     0
100
AcDbMText
 10
45.12901946476496
 20
15.32275000000005
 30
0.0
 40
3.5
 41
0.0
 71
     2
 72
     1
  1
\A1;%%c10
  7
SLDTEXTSTYLE0
 11
-3.552713678800498E-15
 21
1.0
 31
0.0
 73
     1
 44
1.0
  0
POINT
  5
139
330
D4
100
AcDbEntity
  8
Defpoints
 62
     0
100
AcDbPoint
 10
35.00000000000003
 20
-4.999999999999996
 30
0.0
  0
POINT
  5
13A
330
D4
100
AcDbEntity
  8
Defpoints
 62
     0
100
AcDbPoint
 10
35.00000000000003
 20
5.000000000000012
 30
0.0
  0
POINT
  5
13B
330
D4
100
AcDbEntity
  8
Defpoints
 62
     0
100
AcDbPoint
 10
49.50401946476499
 20
5.000000000000067
 30
0.0
  0
ENDBLK
  5
D6
330
D4
100
AcDbEntity
  8
0
100
AcDbBlockEnd
  0
BLOCK
  5
E3
330
E2
100
AcDbEntity
  8
0
100
AcDbBlockBegin
  2
_D_1
 70
     0
 10
0.0
 20
0.0
 30
0.0
  3
_D_1
  1

  0
LINE
  5
E5
330
E2
100
AcDbEntity
  8
치수문자_일반주서
 62
     0
370
    -2
100
AcDbLine
 10
-39.99999999999999
 20
4.562500000000004
 30
0.0
 11
-40.0
 21
22.38913260158165
 31
0.0
  0
LINE
  5
E6
330
E2
100
AcDbEntity
  8
치수문자_일반주서
 62
     0
370
    -2
100
AcDbLine
 10
35.0
 20
5.062500000000014
 30
0.0
 11
34.99999999999999
 21
22.38913260158165
 31
0.0
  0
LINE
  5
E7
330
E2
100
AcDbEntity
  8
치수문자_일반주서
 62
     0
370
    -2
100
AcDbLine
 10
-36.698
 20
22.38913260158165
 30
0.0
 11
31.69799999999999
 21
22.38913260158165
 31
0.0
  0
SOLID
  5
E8
330
E2
100
AcDbEntity
  8
치수문자_일반주서
 62
     0
100
AcDbTrace
 10
-36.698
 20
22.93946593491498
 30
0.0
 11
-36.698
 21
21.83879926824832
 31
0.0
 12
-40.0
 22
22.38913260158165
 32
0.0
 13
-40.0
 23
22.38913260158165
 33
0.0
  0
SOLID
  5
E9
330
E2
100
AcDbEntity
  8
치수문자_일반주서
 62
     0
100
AcDbTrace
 10
31.69799999999999
 20
21.83879926824832
 30
0.0
 11
31.69799999999999
 21
22.93946593491498
 31
0.0
 12
34.99999999999999
 22
22.38913260158165
 32
0.0
 13
34.99999999999999
 23
22.38913260158165
 33
0.0
  0
MTEXT
  5
EA
330
E2
100
AcDbEntity
  8
치수문자_일반주서
 62
     0
100
AcDbMText
 10
-2.499999999999992
 20
26.76413260158165
 30
0.0
 40
3.5
 41
0.0
 71
     2
 72
     1
  1
\A1;75
  7
SLDTEXTSTYLE0
 73
     1
 44
1.0
  0
POINT
  5
130
330
E2
100
AcDbEntity
  8
Defpoints
 62
     0
100
AcDbPoint
 10
-39.99999999999999
 20
4.500000000000004
 30
0.0
  0
POINT
  5
131
330
E2
100
AcDbEntity
  8
Defpoints
 62
     0
100
AcDbPoint
 10
35.0
 20
5.000000000000014
 30
0.0
  0
POINT
  5
132
330
E2
100
AcDbEntity
  8
Defpoints
 62
     0
100
AcDbPoint
 10
35.0
 20
22.38913260158165
 30
0.0
  0
ENDBLK
  5
E4
330
E2
100
AcDbEntity
  8
0
100
AcDbBlockEnd
  0
BLOCK
  5
EE
330
ED
100
AcDbEntity
  8
0
100
AcDbBlockBegin
  2
_D_2
 70
     0
 10
0.0
 20
0.0
 30
0.0
  3
_D_2
  1

  0
LINE
  5
F0
330
ED
100
AcDbEntity
  8
치수문자_일반주서
 62
     0
370
    -2
100
AcDbLine
 10
-39.56249999999998
 20
5.000000000000012
 30
0.0
 11
-50.27134275440478
 21
4.999999999999972
 31
0.0
  0
LINE
  5
F1
330
ED
100
AcDbEntity
  8
치수문자_일반주서
 62
     0
370
    -2
100
AcDbLine
 10
-39.56249999999998
 20
-4.999999999999996
 30
0.0
 11
-50.27134275440475
 21
-5.000000000000036
 31
0.0
  0
LINE
  5
F2
330
ED
100
AcDbEntity
  8
치수문자_일반주서
 62
     0
370
    -2
100
AcDbLine
 10
-50.27134275440478
 20
4.999999999999972
 30
0.0
 11
-50.27134275440483
 21
19.04149999999997
 31
0.0
  0
LINE
  5
F3
330
ED
100
AcDbEntity
  8
치수문자_일반주서
 62
     0
370
    -2
100
AcDbLine
 10
-50.27134275440478
 20
4.999999999999972
 30
0.0
 11
-50.27134275440475
 21
-5.000000000000036
 31
0.0
  0
LINE
  5
F4
330
ED
100
AcDbEntity
  8
치수문자_일반주서
 62
     0
370
    -2
100
AcDbLine
 10
-50.2713427544048
 20
8.301999999999971
 30
0.0
 11
-50.27134275440481
 21
11.60399999999997
 31
0.0
  0
LINE
  5
F5
330
ED
100
AcDbEntity
  8
치수문자_일반주서
 62
     0
370
    -2
100
AcDbLine
 10
-50.27134275440473
 20
-8.302000000000035
 30
0.0
 11
-50.27134275440472
 21
-11.60400000000003
 31
0.0
  0
SOLID
  5
F6
330
ED
100
AcDbEntity
  8
치수문자_일반주서
 62
     0
100
AcDbTrace
 10
-50.82167608773813
 20
8.30199999999997
 30
0.0
 11
-49.72100942107146
 21
8.301999999999973
 31
0.0
 12
-50.27134275440478
 22
4.999999999999972
 32
0.0
 13
-50.27134275440478
 23
4.999999999999972
 33
0.0
  0
SOLID
  5
F7
330
ED
100
AcDbEntity
  8
치수문자_일반주서
 62
     0
100
AcDbTrace
 10
-49.7210094210714
 20
-8.302000000000033
 30
0.0
 11
-50.82167608773807
 21
-8.302000000000037
 31
0.0
 12
-50.27134275440475
 22
-5.000000000000036
 32
0.0
 13
-50.27134275440475
 23
-5.000000000000036
 33
0.0
  0
MTEXT
  5
F8
330
ED
100
AcDbEntity
  8
치수문자_일반주서
 62
     0
100
AcDbMText
 10
-54.64634275440482
 20
15.32274999999996
 30
0.0
 40
3.5
 41
0.0
 71
     2
 72
     1
  1
\A1;%%c10
  7
SLDTEXTSTYLE0
 11
-3.552713678800498E-15
 21
1.0
 31
0.0
 73
     1
 44
1.0
  0
POINT
  5
136
330
ED
100
AcDbEntity
  8
Defpoints
 62
     0
100
AcDbPoint
 10
-39.49999999999998
 20
5.000000000000012
 30
0.0
  0
POINT
  5
137
330
ED
100
AcDbEntity
  8
Defpoints
 62
     0
100
AcDbPoint
 10
-39.49999999999998
 20
-4.999999999999996
 30
0.0
  0
POINT
  5
138
330
ED
100
AcDbEntity
  8
Defpoints
 62
     0
100
AcDbPoint
 10
-50.27134275440476
 20
-5.000000000000036
 30
0.0
  0
ENDBLK
  5
EF
330
ED
100
AcDbEntity
  8
0
100
AcDbBlockEnd
  0
BLOCK
  5
FB
330
FA
100
AcDbEntity
  8
0
100
AcDbBlockBegin
  2
_D_3
 70
     0
 10
0.0
 20
0.0
 30
0.0
  3
_D_3
  1

  0
LINE
  5
FD
330
FA
100
AcDbEntity
  8
치수문자_일반주서
 62
     0
370
    -2
100
AcDbLine
 10
10.0
 20
4.346883834921261
 30
0.0
 11
10.0
 21
15.13030213750891
 31
0.0
  0
LINE
  5
FE
330
FA
100
AcDbEntity
  8
치수문자_일반주서
 62
     0
370
    -2
100
AcDbLine
 10
35.0
 20
5.062500000000014
 30
0.0
 11
35.0
 21
15.13030213750891
 31
0.0
  0
LINE
  5
FF
330
FA
100
AcDbEntity
  8
치수문자_일반주서
 62
     0
370
    -2
100
AcDbLine
 10
13.302
 20
15.13030213750891
 30
0.0
 11
31.698
 21
15.13030213750891
 31
0.0
  0
SOLID
  5
100
330
FA
100
AcDbEntity
  8
치수문자_일반주서
 62
     0
100
AcDbTrace
 10
13.302
 20
15.68063547084225
 30
0.0
 11
13.302
 21
14.57996880417558
 31
0.0
 12
10.0
 22
15.13030213750891
 32
0.0
 13
10.0
 23
15.13030213750891
 33
0.0
  0
SOLID
  5
101
330
FA
100
AcDbEntity
  8
치수문자_일반주서
 62
     0
100
AcDbTrace
 10
31.698
 20
14.57996880417558
 30
0.0
 11
31.698
 21
15.68063547084225
 31
0.0
 12
35.0
 22
15.13030213750891
 32
0.0
 13
35.0
 23
15.13030213750891
 33
0.0
  0
MTEXT
  5
102
330
FA
100
AcDbEntity
  8
치수문자_일반주서
 62
     0
100
AcDbMText
 10
22.5
 20
19.50530213750891
 30
0.0
 40
3.5
 41
0.0
 71
     2
 72
     1
  1
\A1;25
  7
SLDTEXTSTYLE0
 73
     1
 44
1.0
  0
POINT
  5
133
330
FA
100
AcDbEntity
  8
Defpoints
 62
     0
100
AcDbPoint
 10
10.0
 20
4.284383834921261
 30
0.0
  0
POINT
  5
134
330
FA
100
AcDbEntity
  8
Defpoints
 62
     0
100
AcDbPoint
 10
35.0
 20
5.000000000000014
 30
0.0
  0
POINT
  5
135
330
FA
100
AcDbEntity
  8
Defpoints
 62
     0
100
AcDbPoint
 10
35.0
 20
15.13030213750891
 30
0.0
  0
ENDBLK
  5
FC
330
FA
100
AcDbEntity
  8
0
100
AcDbBlockEnd
  0
BLOCK
  5
104
330
103
100
AcDbEntity
  8
0
100
AcDbBlockBegin
  2
SW_DOWELSYMBOL_0
 70
     0
 10
0.0
 20
0.0
 30
0.0
  3
SW_DOWELSYMBOL_0
  1

  0
CIRCLE
  5
106
330
103
100
AcDbEntity
  8
해칭선
 62
     0
100
AcDbCircle
 10
0.0
 20
0.0
 30
0.0
 40
3.000000000000001
  0
HATCH
  5
107
330
103
100
AcDbEntity
  8
0
  6
Continuous
 62
     0
370
    18
100
AcDbHatch
 10
0.0
 20
0.0
 30
0.0
210
0.0
220
0.0
230
1.0
  2
SOLID
 70
     1
 71
     0
 91
        1
 92
        0
 93
        3
 72
     2
 10
0.0
 20
0.0
 40
3.000000000000001
 50
0.0
 51
90.0
 73
     1
 72
     1
 10
0.0
 20
3.000000000000001
 11
0.0
 21
0.0
 72
     1
 10
0.0
 20
0.0
 11
3.000000000000001
 21
0.0
 97
        0
 75
     0
 76
     1
 98
        1
 10
0.0
 20
0.0
  0
HATCH
  5
108
330
103
100
AcDbEntity
  8
0
  6
Continuous
 62
     0
370
    18
100
AcDbHatch
 10
0.0
 20
0.0
 30
0.0
210
0.0
220
0.0
230
1.0
  2
SOLID
 70
     1
 71
     0
 91
        1
 92
        0
 93
        3
 72
     2
 10
0.0
 20
0.0
 40
3.000000000000001
 50
180.0
 51
270.0000000000008
 73
     1
 72
     1
 10
0.0
 20
-3.000000000000001
 11
0.0
 21
0.0
 72
     1
 10
0.0
 20
0.0
 11
-3.000000000000001
 21
0.0
 97
        0
 75
     0
 76
     1
 98
        1
 10
0.0
 20
0.0
  0
ENDBLK
  5
105
330
103
100
AcDbEntity
  8
0
100
AcDbBlockEnd
  0
ENDSEC
  0
SECTION
  2
ENTITIES
  0
LINE
  5
99
330
1F
100
AcDbEntity
  8
0
  6
Continuous
 62
     4
370
    25
100
AcDbLine
 10
8.500226935799914
 20
5.000000000000009
 30
0.0
 11
-39.49999999999999
 21
5.000000000000005
 31
0.0
  0
LINE
  5
9A
330
1F
100
AcDbEntity
  8
0
  6
Continuous
 62
     4
370
    25
100
AcDbLine
 10
-39.49999999999999
 20
-4.999999999999995
 30
0.0
 11
8.500226935799917
 21
-4.999999999999991
 31
0.0
  0
LINE
  5
9B
330
1F
100
AcDbEntity
  8
0
  6
Continuous
 62
     4
370
    25
100
AcDbLine
 10
-39.49999999999999
 20
5.000000000000002
 30
0.0
 11
-39.99999999999999
 21
4.500000000000004
 31
0.0
  0
LINE
  5
9C
330
1F
100
AcDbEntity
  8
0
  6
Continuous
 62
     4
370
    25
100
AcDbLine
 10
-39.99999999999999
 20
-4.499999999999993
 30
0.0
 11
-39.49999999999999
 21
-4.999999999999991
 31
0.0
  0
LINE
  5
9D
330
1F
100
AcDbEntity
  8
0
  6
Continuous
 62
     1
370
    25
100
AcDbLine
 10
33.57086798259542
 20
-4.999999999999995
 30
0.0
 11
35.0
 21
-4.999999999999995
 31
0.0
  0
LINE
  5
9E
330
1F
100
AcDbEntity
  8
0
  6
Continuous
 62
     1
370
    25
100
AcDbLine
 10
16.32439793936524
 20
5.000000000000011
 30
0.0
 11
13.46542666692249
 21
5.000000000000011
 31
0.0
  0
LINE
  5
9F
330
1F
100
AcDbEntity
  8
0
  6
Continuous
 62
     1
370
    25
100
AcDbLine
 10
23.51838665545069
 20
-4.999999999999995
 30
0.0
 11
26.37580257930167
 21
-4.999999999999995
 31
0.0
  0
LINE
  5
A0
330
1F
100
AcDbEntity
  8
0
  6
Continuous
 62
     1
370
    25
100
AcDbLine
 10
26.37580257930166
 20
5.000000000000011
 30
0.0
 11
23.51838665545072
 21
5.000000000000011
 31
0.0
  0
LINE
  5
A1
330
1F
100
AcDbEntity
  8
0
  6
Continuous
 62
     1
370
    25
100
AcDbLine
 10
13.4654266669225
 20
-4.999999999999995
 30
0.0
 11
16.32439793936521
 21
-4.999999999999995
 31
0.0
  0
LINE
  5
A2
330
1F
100
AcDbEntity
  8
0
  6
Continuous
 62
     1
370
    25
100
AcDbLine
 10
35.0
 20
5.000000000000011
 30
0.0
 11
33.57086798259542
 21
5.000000000000011
 31
0.0
  0
SPLINE
  5
A3
330
1F
100
AcDbEntity
  8
0
  6
Continuous
 62
     4
370
    25
100
AcDbSpline
210
0.0
220
0.0
230
1.0
 70
     8
 71
     3
 72
    12
 73
     8
 74
     0
 42
0.000000001
 43
0.00000001
 40
0.0
 40
0.0
 40
0.0
 40
0.0
 40
0.2500000000000002
 40
0.2500000000000002
 40
0.5000000000000003
 40
0.5000000000000003
 40
1.0
 40
1.0
 40
1.0
 40
1.0
 10
8.887793729407745
 20
-1.988162846418699
 30
0.0
 10
8.825706298270246
 20
-1.943571257929327
 30
0.0
 10
8.770597736790444
 20
-1.892892746126698
 30
0.0
 10
8.673751147772892
 20
-1.779395890343523
 30
0.0
 10
8.63198384905413
 20
-1.715980950116578
 30
0.0
 10
8.533171992091635
 20
-1.51640045146082
 30
0.0
 10
8.500226935799917
 20
-1.366446336435113
 30
0.0
 10
8.500226935799903
 20
-1.213605822357619
 30
0.0
  0
SPLINE
  5
A4
330
1F
100
AcDbEntity
  8
0
  6
Continuous
 62
     4
370
    25
100
AcDbSpline
210
0.0
220
0.0
230
1.0
 70
     8
 71
     3
 72
     8
 73
     4
 74
     0
 42
0.000000001
 43
0.00000001
 40
0.0
 40
0.0
 40
0.0
 40
0.0
 40
1.0
 40
1.0
 40
1.0
 40
1.0
 10
9.99999999999807
 20
-2.750665854749693
 30
0.0
 10
9.630374610178336
 20
-2.509307422432913
 30
0.0
 10
9.256848222882084
 20
-2.253220134208811
 30
0.0
 10
8.887793729407745
 20
-1.988162846418697
 30
0.0
  0
SPLINE
  5
A5
330
1F
100
AcDbEntity
  8
0
  6
Continuous
 62
     4
370
    25
100
AcDbSpline
210
0.0
220
0.0
230
1.0
 70
     8
 71
     3
 72
    18
 73
    14
 74
     0
 42
0.000000001
 43
0.00000001
 40
0.0
 40
0.0
 40
0.0
 40
0.0
 40
0.1249999999999998
 40
0.1249999999999998
 40
0.2499999999999999
 40
0.2499999999999999
 40
0.3750000000000001
 40
0.3750000000000001
 40
0.5000000000000002
 40
0.5000000000000002
 40
0.7500000000000001
 40
0.7500000000000001
 40
1.0
 40
1.0
 40
1.0
 40
1.0
 10
8.500226935799914
 20
-4.67909568714448
 30
0.0
 10
8.500226935799914
 20
-4.647677521861703
 30
0.0
 10
8.510378117435003
 20
-4.614633186661492
 30
0.0
 10
8.552281765963123
 20
-4.545864907713843
 30
0.0
 10
8.584448739676256
 20
-4.510104702577061
 30
0.0
 10
8.668212206326153
 20
-4.441267771021465
 30
0.0
 10
8.721080027983168
 20
-4.407169811669276
 30
0.0
 10
8.843002765338047
 20
-4.345450370264484
 30
0.0
 10
8.91203373342707
 20
-4.317627767077283
 30
0.0
 10
9.140986757377075
 20
-4.247178910903793
 30
0.0
 10
9.316500865479348
 20
-4.220522079868132
 30
0.0
 10
9.668769806954202
 20
-4.219081205052357
 30
0.0
 10
9.845703967877583
 20
-4.244401131928425
 30
0.0
 10
9.999999999999986
 20
-4.290476048062048
 30
0.0
  0
LINE
  5
A6
330
1F
100
AcDbEntity
  8
0
  6
Continuous
 62
     4
370
    25
100
AcDbLine
 10
8.500226935799914
 20
-4.67909568714448
 30
0.0
 11
8.500226935799914
 21
-4.999999999999991
 31
0.0
  0
SPLINE
  5
A7
330
1F
100
AcDbEntity
  8
0
  6
Continuous
 62
     4
370
    25
100
AcDbSpline
210
0.0
220
0.0
230
1.0
 70
     8
 71
     3
 72
    12
 73
     8
 74
     0
 42
0.000000001
 43
0.00000001
 40
0.0
 40
0.0
 40
0.0
 40
0.0
 40
0.2500000000000002
 40
0.2500000000000002
 40
0.5000000000000003
 40
0.5000000000000003
 40
1.0
 40
1.0
 40
1.0
 40
1.0
 10
8.887793729407745
 20
-4.587723672597177
 30
0.0
 10
8.825706298270283
 20
-4.607048144998785
 30
0.0
 10
8.77059773679051
 20
-4.628247986421954
 30
0.0
 10
8.673751147772997
 20
-4.67305816758001
 30
0.0
 10
8.631983849054247
 20
-4.696847418173156
 30
0.0
 10
8.533171992091752
 20
-4.766591532097345
 30
0.0
 10
8.500226935799903
 20
-4.812239293808342
 30
0.0
 10
8.500226935799903
 20
-4.850480482172727
 30
0.0
  0
LINE
  5
A8
330
1F
100
AcDbEntity
  8
0
  6
Continuous
 62
     4
370
    25
100
AcDbLine
 10
9.795559952468333
 20
-4.251178729677487
 30
0.0
 11
8.887793729407745
 21
-4.587723672597173
 31
0.0
  0
SPLINE
  5
A9
330
1F
100
AcDbEntity
  8
0
  6
Continuous
 62
     4
370
    25
100
AcDbSpline
210
0.0
220
0.0
230
1.0
 70
     8
 71
     3
 72
     9
 73
     5
 74
     0
 42
0.000000001
 43
0.00000001
 40
0.0
 40
0.0
 40
0.0
 40
0.0
 40
0.6696557159250993
 40
1.0
 40
1.0
 40
1.0
 40
1.0
 10
9.795559952468333
 20
4.251178729677505
 30
0.0
 10
9.843713488208119
 20
4.256863871098959
 30
0.0
 10
9.915621387438488
 20
4.265353519266304
 30
0.0
 10
9.979047534768604
 20
4.284237750285656
 30
0.0
 10
10.0
 20
4.290476048062049
 30
0.0
  0
LINE
  5
AA
330
1F
100
AcDbEntity
  8
0
  6
Continuous
 62
     4
370
    25
100
AcDbLine
 10
8.500226935799914
 20
5.000000000000009
 30
0.0
 11
8.500226935799914
 21
4.850480482172745
 31
0.0
  0
SPLINE
  5
AB
330
1F
100
AcDbEntity
  8
0
  6
Continuous
 62
     4
370
    25
100
AcDbSpline
210
0.0
220
0.0
230
1.0
 70
     8
 71
     3
 72
    12
 73
     8
 74
     0
 42
0.000000001
 43
0.00000001
 40
0.0
 40
0.0
 40
0.0
 40
0.0
 40
0.2500000000000002
 40
0.2500000000000002
 40
0.5000000000000003
 40
0.5000000000000003
 40
1.0
 40
1.0
 40
1.0
 40
1.0
 10
8.887793729407745
 20
4.587723672597194
 30
0.0
 10
8.825706298270283
 20
4.607048144998803
 30
0.0
 10
8.77059773679051
 20
4.628247986421972
 30
0.0
 10
8.673751147772997
 20
4.673058167580028
 30
0.0
 10
8.631983849054247
 20
4.696847418173172
 30
0.0
 10
8.533171992091752
 20
4.766591532097361
 30
0.0
 10
8.500226935799903
 20
4.812239293808358
 30
0.0
 10
8.500226935799903
 20
4.850480482172745
 30
0.0
  0
SPLINE
  5
AC
330
1F
100
AcDbEntity
  8
0
  6
Continuous
 62
     4
370
    25
100
AcDbSpline
210
0.0
220
0.0
230
1.0
 70
     8
 71
     3
 72
     8
 73
     4
 74
     0
 42
0.000000001
 43
0.00000001
 40
0.0
 40
0.0
 40
0.0
 40
0.0
 40
1.0
 40
1.0
 40
1.0
 40
1.0
 10
9.99999999999807
 20
4.175384695510404
 30
0.0
 10
9.630374610178336
 20
4.334387146049523
 30
0.0
 10
9.25684822288208
 20
4.472856891298988
 30
0.0
 10
8.887793729407745
 20
4.587723672597189
 30
0.0
  0
SPLINE
  5
AD
330
1F
100
AcDbEntity
  8
0
  6
Continuous
 62
     4
370
    25
100
AcDbSpline
210
0.0
220
0.0
230
1.0
 70
     8
 71
     3
 72
    18
 73
    14
 74
     0
 42
0.000000001
 43
0.00000001
 40
0.0
 40
0.0
 40
0.0
 40
0.0
 40
0.125
 40
0.125
 40
0.25
 40
0.25
 40
0.375
 40
0.375
 40
0.5
 40
0.5
 40
0.75
 40
0.75
 40
1.0
 40
1.0
 40
1.0
 40
1.0
 10
8.500226935799914
 20
1.762402777615182
 30
0.0
 10
8.500226935799914
 20
1.845816514554227
 30
0.0
 10
8.510378117435003
 20
1.926787627377465
 30
0.0
 10
8.552281765963123
 20
2.083857540540688
 30
0.0
 10
8.584448739676256
 20
2.159841799498283
 30
0.0
 10
8.668212206326153
 20
2.298064753907884
 30
0.0
 10
8.721080027983168
 20
2.362398243164443
 30
0.0
 10
8.843002765338047
 20
2.47409221488685
 30
0.0
 10
8.91203373342707
 20
2.521942093146816
 30
0.0
 10
9.140986757377075
 20
2.640052485020866
 30
0.0
 10
9.316500865479348
 20
2.680894473346182
 30
0.0
 10
9.668769806954202
 20
2.683161491421358
 30
0.0
 10
9.845703967877585
 20
2.644448958789174
 30
0.0
 10
9.999999999999986
 20
2.56745307279522
 30
0.0
  0
LINE
  5
AE
330
1F
100
AcDbEntity
  8
0
  6
Continuous
 62
     4
370
    25
100
AcDbLine
 10
-39.49999999999999
 20
5.000000000000002
 30
0.0
 11
-39.49999999999999
 21
-4.999999999999991
 31
0.0
  0
LINE
  5
AF
330
1F
100
AcDbEntity
  8
0
  6
Continuous
 62
     4
370
    25
100
AcDbLine
 10
8.500226935799914
 20
1.762402777615182
 30
0.0
 11
8.500226935799914
 21
-1.213605822357545
 31
0.0
  0
LINE
  5
B0
330
1F
100
AcDbEntity
  8
0
  6
Continuous
 62
     4
370
    25
100
AcDbLine
 10
-39.99999999999999
 20
4.500000000000004
 30
0.0
 11
-39.99999999999999
 21
-4.499999999999995
 31
0.0
  0
SPLINE
  5
B1
330
1F
100
AcDbEntity
  8
0
  6
Continuous
 62
     4
370
    25
100
AcDbSpline
210
0.0
220
0.0
230
1.0
 70
    24
 71
     3
 72
     8
 73
     4
 74
     0
 42
0.000000001
 43
0.00000001
 40
0.0
 40
0.0
 40
0.0
 40
0.0
 40
1.0
 40
1.0
 40
1.0
 40
1.0
 10
10.0
 20
2.567453072795257
 30
0.0
 10
10.0
 20
2.378552934032818
 30
0.0
 10
10.0
 20
2.161076852321163
 30
0.0
 10
10.0
 20
1.912253399428201
 30
0.0
  0
LINE
  5
B2
330
1F
100
AcDbEntity
  8
0
  6
Continuous
 62
     4
370
    25
100
AcDbLine
 10
10.0
 20
4.290476048062049
 30
0.0
 11
10.0
 21
4.227521482243065
 31
0.0
  0
SPLINE
  5
B3
330
1F
100
AcDbEntity
  8
0
  6
Continuous
 62
     1
370
    25
100
AcDbSpline
210
0.0
220
0.0
230
1.0
 70
     8
 71
     3
 72
    28
 73
    24
 74
     0
 42
0.000000001
 43
0.00000001
 40
0.0
 40
0.0
 40
0.0
 40
0.0
 40
0.0543499500280496
 40
0.108679244047246
 40
0.1630096198778137
 40
0.2173628069169913
 40
0.2642740816613253
 40
0.3111053124421813
 40
0.3579095710295354
 40
0.4047876128032117
 40
0.4516694859476959
 40
0.4984745184148436
 40
0.5453034076106118
 40
0.592214712302993
 40
0.6390453487035154
 40
0.6858497917283366
 40
0.732728792880649
 40
0.779609720146678
 40
0.8322748668308138
 40
0.8849367821866845
 40
0.9376283500107905
 40
0.9903713075845128
 40
0.9999999999999999
 40
0.9999999999999999
 40
0.9999999999999999
 40
0.9999999999999999
 10
9.999999999996561
 20
4.284383834903048
 30
0.0
 10
10.42706565482897
 20
4.439820984708988
 30
0.0
 10
11.28103465575308
 20
4.75063620954452
 30
0.0
 10
12.56164907550002
 20
4.981331836086264
 30
0.0
 10
13.84236571615718
 20
5.025347027470473
 30
0.0
 10
15.06481296495953
 20
4.872418380919012
 30
0.0
 10
16.22916405779464
 20
4.56395383544326
 30
0.0
 10
17.33310163227626
 20
4.13503467194966
 30
0.0
 10
18.43648532884009
 20
3.583117854974609
 30
0.0
 10
19.54120809485008
 20
2.925390403746364
 30
0.0
 10
20.64599482810646
 20
2.180951373350834
 30
0.0
 10
21.7494054856669
 20
1.370877587448328
 30
0.0
 10
22.85327353242049
 20
0.5201442958633375
 30
0.0
 10
23.95857164596601
 20
-0.3446289652322697
 30
0.0
 10
25.06247202394335
 20
-1.200549324138266
 30
0.0
 10
26.16585991352748
 20
-2.020912442311667
 30
0.0
 10
27.27062781926204
 20
-2.780344763555942
 30
0.0
 10
28.42133915568069
 20
-3.485842342200689
 30
0.0
 10
29.61699363806438
 20
-4.100665923209862
 30
0.0
 10
30.85836193808127
 20
-4.589332524416285
 30
0.0
 10
32.1004637015688
 20
-4.888917279211607
 30
0.0
 10
33.00509825478198
 20
-5.018982578323175
 30
0.0
 10
33.49520691620091
 20
-4.990375944277006
 30
0.0
 10
33.57086798259542
 20
-4.985959763523081
 30
0.0
  0
SPLINE
  5
B4
330
1F
100
AcDbEntity
  8
0
  6
Continuous
 62
     1
370
    25
100
AcDbSpline
210
0.0
220
0.0
230
1.0
 70
     8
 71
     3
 72
    24
 73
    20
 74
     0
 42
0.000000001
 43
0.00000001
 40
0.0
 40
0.0
 40
0.0
 40
0.0
 40
0.0591639378957944
 40
0.1182328032948429
 40
0.1773337425943317
 40
0.236537249187507
 40
0.295637453478244
 40
0.3547065668420876
 40
0.413871717305239
 40
0.4730344369545287
 40
0.5321030619881928
 40
0.5912047438555175
 40
0.650408231551007
 40
0.7095077083930005
 40
0.7685770773207377
 40
0.8277434215111548
 40
0.8869049303955414
 40
0.9459733226635344
 40
1.0
 40
1.0
 40
1.0
 40
1.0
 10
35.0
 20
-4.875828491775099
 30
0.0
 10
34.63155126372667
 20
-4.798144045507317
 30
0.0
 10
33.89524586369117
 20
-4.642899986688498
 30
0.0
 10
32.79184507668737
 20
-4.23298534851576
 30
0.0
 10
31.68795706170015
 20
-3.707624121639693
 30
0.0
 10
30.58265811423612
 20
-3.070421708774646
 30
0.0
 10
29.47878018191152
 20
-2.341767073787534
 30
0.0
 10
28.3753745549439
 20
-1.543167488051215
 30
0.0
 10
27.2706037151587
 20
-0.6996904521173967
 30
0.0
 10
26.16586636179591
 20
0.16459119653198
 30
0.0
 10
25.06247029152698
 20
1.024879217728617
 30
0.0
 10
23.95857212908242
 20
1.854573372458409
 30
0.0
 10
22.85327333627088
 20
2.627944511418749
 30
0.0
 10
21.74940578704653
 20
3.324610415133899
 30
0.0
 10
20.64599381821247
 20
3.922238117768318
 30
0.0
 10
19.54121183972288
 20
4.403725055920395
 30
0.0
 10
18.43647137236882
 20
4.751124235405713
 30
0.0
 10
17.364733722538
 20
4.964461304739772
 30
0.0
 10
16.66071494602579
 20
4.984566068990401
 30
0.0
 10
16.32439793936524
 20
4.994170321544408
 30
0.0
  0
LINE
  5
B5
330
1F
100
AcDbEntity
  8
0
  6
Continuous
 62
     1
370
    25
100
AcDbLine
 10
35.0
 20
-4.999999999999996
 30
0.0
 11
35.0
 21
-4.875828491776298
 31
0.0
  0
SPLINE
  5
B6
330
1F
100
AcDbEntity
  8
0
  6
Continuous
 62
     1
370
    25
100
AcDbSpline
210
0.0
220
0.0
230
1.0
 70
     8
 71
     3
 72
    25
 73
    21
 74
     0
 42
0.000000001
 43
0.00000001
 40
0.0
 40
0.0
 40
0.0
 40
0.0
 40
0.0248398530578005
 40
0.0800690414355639
 40
0.1353880237978121
 40
0.1907047333669028
 40
0.2459334651595249
 40
0.301193104849514
 40
0.3565479322432196
 40
0.4118055102506736
 40
0.4670349375788059
 40
0.5223550360673048
 40
0.5776706135800787
 40
0.6328991277385031
 40
0.6881594687907971
 40
0.7435142608461336
 40
0.807650428164012
 40
0.8717596785047665
 40
0.9358676523199136
 40
1.0
 40
1.0
 40
1.0
 40
1.0
 10
29.97471601374317
 20
-4.214646877099443
 30
0.0
 10
29.80934361826057
 20
-4.287015833673212
 30
0.0
 10
29.2762805137654
 20
-4.520290683128655
 30
0.0
 10
28.37539967326773
 20
-4.77758387268466
 30
0.0
 10
27.2705969804097
 20
-4.977096857564762
 30
0.0
 10
26.16586816181515
 20
-5.021853535251051
 30
0.0
 10
25.06246981404943
 20
-4.919349029986833
 30
0.0
 10
23.95857223941645
 20
-4.670067343030799
 30
0.0
 10
22.85327337359936
 20
-4.282881842384335
 30
0.0
 10
21.74940552816484
 20
-3.767860708089667
 30
0.0
 10
20.64599481670074
 20
-3.140719927125779
 30
0.0
 10
19.54120809790823
 20
-2.421060675917802
 30
0.0
 10
18.43648532802217
 20
-1.629522840921171
 30
0.0
 10
17.33310163249533
 20
-0.7887685850181473
 30
0.0
 10
16.2291640577361
 20
0.0753566875664454
 30
0.0
 10
15.06481296497816
 20
0.9817709387755678
 30
0.0
 10
13.84236571615232
 20
1.903428850611533
 30
0.0
 10
12.56164907550221
 20
2.789547083245645
 30
0.0
 10
11.28103465575392
 20
3.576320509493258
 30
0.0
 10
10.42706565483031
 20
3.975671332770037
 30
0.0
 10
9.99999999999815
 20
4.175384695510373
 30
0.0
  0
SPLINE
  5
B7
330
1F
100
AcDbEntity
  8
0
  6
Continuous
 62
     1
370
    25
100
AcDbSpline
210
0.0
220
0.0
230
1.0
 70
     8
 71
     3
 72
    20
 73
    16
 74
     0
 42
0.000000001
 43
0.00000001
 40
0.0
 40
0.0
 40
0.0
 40
0.0
 40
0.0494157919711605
 40
0.1246467234486213
 40
0.1999160004590627
 40
0.275317746015119
 40
0.3505898313526612
 40
0.4258198154043231
 40
0.5011696386502922
 40
0.5765225577883349
 40
0.6611726014396365
 40
0.7458174512939794
 40
0.830509962322524
 40
0.9152850734162378
 40
1.0
 40
1.0
 40
1.0
 40
1.0
 10
19.92163746129808
 20
4.216556278924048
 30
0.0
 10
20.16326474305906
 20
4.317514443206644
 30
0.0
 10
20.77274701109354
 20
4.57217199054612
 30
0.0
 10
21.74939633708097
 20
4.831148597783478
 30
0.0
 10
22.85327598970384
 20
4.998702367247116
 30
0.0
 10
23.95857098661288
 20
5.012798678720415
 30
0.0
 10
25.06247220665364
 20
4.879425755241891
 30
0.0
 10
26.16585984103806
 20
4.600556476183204
 30
0.0
 10
27.27062792641876
 20
4.185526672228411
 30
0.0
 10
28.42133878057405
 20
3.623816811342236
 30
0.0
 10
29.61699521628494
 20
2.91451409645394
 30
0.0
 10
30.85835607352705
 20
2.068676288896436
 30
0.0
 10
32.10048560407994
 20
1.145438783006517
 30
0.0
 10
33.34368924244714
 20
0.1777063092124486
 30
0.0
 10
34.17224298091526
 20
-0.4672575192071685
 30
0.0
 10
34.58637274386093
 20
-0.7896249227575843
 30
0.0
  0
SPLINE
  5
B8
330
1F
100
AcDbEntity
  8
0
  6
Continuous
 62
     1
370
    25
100
AcDbSpline
210
0.0
220
0.0
230
1.0
 70
     8
 71
     3
 72
    12
 73
     8
 74
     0
 42
0.000000001
 43
0.00000001
 40
0.0
 40
0.0
 40
0.0
 40
0.0
 40
0.5000000000000012
 40
0.5000000000000012
 40
0.7500000000000006
 40
0.7500000000000006
 40
1.0
 40
1.0
 40
1.0
 40
1.0
 10
35.0
 20
-3.778128546404876
 30
0.0
 10
34.55378953184172
 20
-3.632729568000986
 30
0.0
 10
34.11815014623613
 20
-3.441061892835209
 30
0.0
 10
33.4844573976958
 20
-3.067044896151943
 30
0.0
 10
33.27655066386696
 20
-2.92782291071452
 30
0.0
 10
32.86916954604999
 20
-2.612471287683513
 30
0.0
 10
32.67458140690454
 20
-2.441053542505844
 30
0.0
 10
32.48777445796741
 20
-2.25907926221429
 30
0.0
  0
LINE
  5
B9
330
1F
100
AcDbEntity
  8
0
  6
Continuous
 62
     1
370
    25
100
AcDbLine
 10
35.0
 20
-4.875828491776298
 30
0.0
 11
35.0
 21
-3.778128546404877
 31
0.0
  0
SPLINE
  5
BA
330
1F
100
AcDbEntity
  8
0
  6
Continuous
 62
     1
370
    25
100
AcDbSpline
210
0.0
220
0.0
230
1.0
 70
    24
 71
     3
 72
    19
 73
    15
 74
     0
 42
0.000000001
 43
0.00000001
 40
0.0
 40
0.0
 40
0.0
 40
0.0
 40
0.129760383226852
 40
0.2476458884358371
 40
0.3693464652472531
 40
0.4469781856734803
 40
0.5266969143884359
 40
0.6044024156340561
 40
0.6846532623812205
 40
0.7582066897592986
 40
0.833577591490569
 40
0.9139310880045223
 40
0.9959533903619242
 40
1.0
 40
1.0
 40
1.0
 40
1.0
 10
34.58341484837049
 20
-0.7916960634772267
 30
0.0
 10
34.57936383467909
 20
-0.7945326138013348
 30
0.0
 10
34.57163253133577
 20
-0.7999461306825131
 30
0.0
 10
34.47930482010041
 20
-0.8645946900751751
 30
0.0
 10
34.34145532127439
 20
-0.9611179482915579
 30
0.0
 10
34.16759071086456
 20
-1.082859259128435
 30
0.0
 10
33.98681688716
 20
-1.20943845319734
 30
0.0
 10
33.77248648523359
 20
-1.359514216293764
 30
0.0
 10
33.53911785711617
 20
-1.522920688883202
 30
0.0
 10
33.29243443970521
 20
-1.695650277305696
 30
0.0
 10
33.0373760484543
 20
-1.874244085543257
 30
0.0
 10
32.77062280898232
 20
-2.061026714663334
 30
0.0
 10
32.58603779655521
 20
-2.190274531805443
 30
0.0
 10
32.49218694280687
 20
-2.255989607067384
 30
0.0
 10
32.48777445796751
 20
-2.259079262214133
 30
0.0
  0
SPLINE
  5
BB
330
1F
100
AcDbEntity
  8
0
  6
Continuous
 62
     1
370
    25
100
AcDbSpline
210
0.0
220
0.0
230
1.0
 70
     8
 71
     3
 72
    19
 73
    15
 74
     0
 42
0.000000001
 43
0.00000001
 40
0.0
 40
0.0
 40
0.0
 40
0.0
 40
0.0947641306147811
 40
0.1894922455806072
 40
0.2842222467839372
 40
0.3789920214249812
 40
0.4607861383447512
 40
0.5424406912611315
 40
0.6240482156803986
 40
0.7057843878629521
 40
0.7875272403924694
 40
0.8691361141422478
 40
0.9507865842899228
 40
1.0
 40
1.0
 40
1.0
 40
1.0
 10
9.999999999996561
 20
2.577606477959963
 30
0.0
 10
10.42706565483844
 20
2.28172449030191
 30
0.0
 10
11.28103465578148
 20
1.690072966624734
 30
0.0
 10
12.56164907538648
 20
0.7072294992076036
 30
0.0
 10
13.84236571658306
 20
-0.2963573947917943
 30
0.0
 10
15.06481296346089
 20
-1.245022947026389
 30
0.0
 10
16.22916406253908
 20
-2.102304233876333
 30
0.0
 10
17.33310161452079
 20
-2.854972372728617
 30
0.0
 10
18.43648539513313
 20
-3.522944540603871
 30
0.0
 10
19.54120784698626
 20
-4.085200928029321
 30
0.0
 10
20.64599575254481
 20
-4.527981679002348
 30
0.0
 10
21.74940204119027
 20
-4.830217778039971
 30
0.0
 10
22.70652097472354
 20
-4.988726882946814
 30
0.0
 10
23.29651147796575
 20
-4.983950691478969
 30
0.0
 10
23.51838665545069
 20
-4.98215452980551
 30
0.0
  0
SPLINE
  5
BC
330
1F
100
AcDbEntity
  8
0
  6
Continuous
 62
     1
370
    25
100
AcDbSpline
210
0.0
220
0.0
230
1.0
 70
     8
 71
     3
 72
    16
 73
    12
 74
     0
 42
0.000000001
 43
0.00000001
 40
0.0
 40
0.0
 40
0.0
 40
0.0
 40
0.0383387833368489
 40
0.1497077908385269
 40
0.2609015102965895
 40
0.3721593080801708
 40
0.4836072677483305
 40
0.6127351123867455
 40
0.7418087640263337
 40
0.8708798455871781
 40
1.0
 40
1.0
 40
1.0
 40
1.0
 10
19.92163746129803
 20
-4.21655627892403
 30
0.0
 10
19.79482296146715
 20
-4.273142007169324
 30
0.0
 10
19.29962940122375
 20
-4.49410166293519
 30
0.0
 10
18.43646846845357
 20
-4.74799341945878
 30
0.0
 10
17.33310614804694
 20
-4.964018881328489
 30
0.0
 10
16.22916285113482
 20
-5.023925823723493
 30
0.0
 10
15.06481334611046
 20
-4.93232798264315
 30
0.0
 10
13.84236560784361
 20
-4.660319762574856
 30
0.0
 10
12.56164910437841
 20
-4.187164147097415
 30
0.0
 10
11.28103464853173
 20
-3.554547306880083
 30
0.0
 10
10.42706565242262
 20
-3.018660289731628
 30
0.0
 10
9.999999999998154
 20
-2.750665854749751
 30
0.0
  0
SPLINE
  5
BD
330
1F
100
AcDbEntity
  8
0
  6
Continuous
 62
     1
370
    25
100
AcDbSpline
210
0.0
220
0.0
230
1.0
 70
     8
 71
     3
 72
    15
 73
    11
 74
     0
 42
0.000000001
 43
0.00000001
 40
0.0
 40
0.0
 40
0.0
 40
0.0
 40
0.1281234452551915
 40
0.2560410046909913
 40
0.3840280222929198
 40
0.5122371561958414
 40
0.6402225820873984
 40
0.7681406785074657
 40
0.8962667496579728
 40
1.0
 40
1.0
 40
1.0
 40
1.0
 10
35.0
 20
1.107382733648253
 30
0.0
 10
34.63155125826447
 20
1.384646089875936
 30
0.0
 10
33.89524584731337
 20
1.938727258635763
 30
0.0
 10
32.79184514209062
 20
2.704524718556847
 30
0.0
 10
31.68795681609625
 20
3.392231217994528
 30
0.0
 10
30.58265903223872
 20
3.977326806944316
 30
0.0
 10
29.47877676341021
 20
4.446617356812471
 30
0.0
 10
28.37538731496514
 20
4.779303135946436
 30
0.0
 10
27.34069289667769
 20
4.972999848879496
 30
0.0
 10
26.67405473755953
 20
4.983735598792759
 30
0.0
 10
26.37580257930166
 20
4.988538745054869
 30
0.0
  0
LINE
  5
BE
330
1F
100
AcDbEntity
  8
0
  6
Continuous
 62
     1
370
    25
100
AcDbLine
 10
35.0
 20
-0.5000000000000074
 30
0.0
 11
35.0
 21
1.107382733648348
 31
0.0
  0
LINE
  5
BF
330
1F
100
AcDbEntity
  8
0
  6
Continuous
 62
     1
370
    25
100
AcDbLine
 10
35.0
 20
-0.5000000000000054
 30
0.0
 11
34.58637274386092
 21
-0.7896249227575889
 31
0.0
  0
SPLINE
  5
C0
330
1F
100
AcDbEntity
  8
0
  6
Continuous
 62
     1
370
    25
100
AcDbSpline
210
0.0
220
0.0
230
1.0
 70
     8
 71
     3
 72
    10
 73
     6
 74
     0
 42
0.000000001
 43
0.00000001
 40
0.0
 40
0.0
 40
0.0
 40
0.0
 40
0.3696661334323887
 40
0.7391917731399272
 40
1.0
 40
1.0
 40
1.0
 40
1.0
 10
9.999999999996565
 20
-4.284383834903032
 30
0.0
 10
10.42706590200901
 20
-4.438440817974302
 30
0.0
 10
11.28103539719924
 20
-4.746496233880739
 30
0.0
 10
12.43606570538219
 20
-4.973232666962324
 30
0.0
 10
13.16416628526363
 20
-4.977469957916993
 30
0.0
 10
13.4654266669225
 20
-4.979223188068809
 30
0.0
  0
SPLINE
  5
C1
330
1F
100
AcDbEntity
  8
0
  6
Continuous
 62
     1
370
    25
100
AcDbSpline
210
0.0
220
0.0
230
1.0
 70
     8
 71
     3
 72
    11
 73
     7
 74
     0
 42
0.000000001
 43
0.00000001
 40
0.0
 40
0.0
 40
0.0
 40
0.0
 40
0.191616413829676
 40
0.4609662812204866
 40
0.7305788438169236
 40
1.0
 40
1.0
 40
1.0
 40
1.0
 10
29.97471601374317
 20
4.214646877099463
 30
0.0
 10
30.26918802479636
 20
4.336220717255551
 30
0.0
 10
30.97759115762696
 20
4.628687525658822
 30
0.0
 10
32.10048772084831
 20
4.893633858558681
 30
0.0
 10
33.34368871347856
 20
5.037549768810031
 30
0.0
 10
34.17224280463412
 20
4.970679048978255
 30
0.0
 10
34.58637274386093
 20
4.937255561682018
 30
0.0
  0
SPLINE
  5
C2
330
1F
100
AcDbEntity
  8
0
  6
Continuous
 62
     1
370
    25
100
AcDbSpline
210
0.0
220
0.0
230
1.0
 70
     8
 71
     3
 72
    15
 73
    11
 74
     0
 42
0.000000001
 43
0.00000001
 40
0.0
 40
0.0
 40
0.0
 40
0.0
 40
0.17410668662706
 40
0.3166767641919565
 40
0.4638607682383982
 40
0.5577481412707527
 40
0.6541595305769916
 40
0.7481361337239815
 40
0.8451910636333779
 40
1.0
 40
1.0
 40
1.0
 40
1.0
 10
34.58637274386093
 20
4.937255561682016
 30
0.0
 10
34.58212829909774
 20
4.740343301524462
 30
0.0
 10
34.57440822206084
 20
4.382186250899577
 30
0.0
 10
34.47950298923192
 20
3.868524339256166
 30
0.0
 10
34.34142695309703
 20
3.466192663768302
 30
0.0
 10
34.16758779296044
 20
3.148054265145842
 30
0.0
 10
33.98685448255714
 20
2.912452215884019
 30
0.0
 10
33.77234165770204
 20
2.719080598386237
 30
0.0
 10
33.48493322973641
 20
2.538681699905713
 30
0.0
 10
33.25255566612911
 20
2.497083593960796
 30
0.0
 10
33.10972404844049
 20
2.471515184202719
 30
0.0
  0
SPLINE
  5
C3
330
1F
100
AcDbEntity
  8
0
  6
Continuous
 62
     1
370
    25
100
AcDbSpline
210
0.0
220
0.0
230
1.0
 70
     8
 71
     3
 72
     9
 73
     5
 74
     0
 42
0.000000001
 43
0.00000001
 40
0.0
 40
0.0
 40
0.0
 40
0.0
 40
0.7910389430424827
 40
1.0
 40
1.0
 40
1.0
 40
1.0
 10
35.0
 20
1.193141214989707
 30
0.0
 10
34.83602632609544
 20
1.295480066907174
 30
0.0
 10
34.62873732301058
 20
1.424852777084819
 30
0.0
 10
34.42520090030958
 20
1.541533928186178
 30
0.0
 10
34.38266971429262
 20
1.565915744847338
 30
0.0
  0
LINE
  5
C4
330
1F
100
AcDbEntity
  8
0
  6
Continuous
 62
     1
370
    25
100
AcDbLine
 10
35.0
 20
1.111493719113982
 30
0.0
 11
35.0
 21
1.193141214989707
 31
0.0
  0
ELLIPSE
  5
C5
330
1F
100
AcDbEntity
  8
0
  6
Continuous
 62
     1
370
    25
100
AcDbEllipse
 10
35.71407400337105
 20
0.0000000000000084
 30
0.0
 11
7.140740033710557
 21
0.0
 31
0.0
210
0.0
220
0.0
230
1.0
 40
0.7002075382097117
 41
1.670963747956456
 42
1.729385239465863
  0
LINE
  5
C6
330
1F
100
AcDbEntity
  8
0
  6
Continuous
 62
     1
370
    25
100
AcDbLine
 10
35.0
 20
4.974937185533113
 30
0.0
 11
35.0
 21
5.000000000000014
 31
0.0
  0
LINE
  5
C7
330
1F
100
AcDbEntity
  8
0
  6
Continuous
 62
     1
370
    25
100
AcDbLine
 10
35.0
 20
-0.49999999999999
 30
0.0
 11
35.0
 21
-3.778128546404874
 31
0.0
  0
LINE
  5
C8
330
1F
100
AcDbEntity
  8
0
  6
Continuous
 62
     1
370
    25
100
AcDbLine
 10
35.0
 20
1.193141214989707
 30
0.0
 11
35.0
 21
4.974937185533113
 31
0.0
  0
LINE
  5
C9
330
1F
100
AcDbEntity
  8
중심선
100
AcDbLine
 10
-43.0
 20
0.0000000000000037
 30
0.0
 11
38.00000000000001
 21
0.0000000000000136
 31
0.0
  0
CIRCLE
  5
CA
330
1F
100
AcDbEntity
  8
해칭선
100
AcDbCircle
 10
-0.0076479529173366
 20
-0.0000000000000043
 30
0.0
 40
3.000000000000001
  0
INSERT
  5
CB
330
1F
100
AcDbEntity
  8
0
  6
Continuous
 62
     7
100
AcDbBlockReference
 66
     1
  2
블럭10
 10
-14.94814782084245
 20
-52.04717430164393
 30
0.0
  0
ATTRIB
  5
CC
330
CB
100
AcDbEntity
  8
FORMAT
 62
     2
100
AcDbText
 10
-27.90808701570022
 20
-49.97180738881174
 30
0.0
 40
4.233333333333333
  1
SEME71100E [ 4 FLUTE ]
 41
0.75
  7
SLDTEXTSTYLE0
 11
-27.90808701570022
 21
-52.08847405547841
 31
0.0
100
AcDbAttribute
  2
AUTOATTR0
 70
     0
 74
     1
  0
SEQEND
  5
CD
330
CB
100
AcDbEntity
  8
0
  6
Continuous
 62
     7
  0
HATCH
  5
CE
330
1F
100
AcDbEntity
  8
중심선
100
AcDbHatch
 10
0.0
 20
0.0
 30
0.0
210
0.0
220
0.0
230
1.0
  2
SOLID
 70
     1
 71
     0
 91
        1
 92
        0
 93
        4
 72
     1
 10
-9.2332385164616
 20
-35.8
 11
-12.67951376029888
 21
-35.8
 72
     1
 10
-12.67951376029888
 20
-35.8
 11
-14.80774361950291
 21
-38.33632558057259
 72
     1
 10
-14.80774361950291
 20
-38.33632558057259
 11
-11.36143529055247
 21
-38.3362861512701
 72
     1
 10
-11.36143529055247
 20
-38.3362861512701
 11
-9.2332385164616
 21
-35.8
 97
        0
 75
     0
 76
     1
 98
        1
 10
0.0
 20
0.0
  0
HATCH
  5
CF
330
1F
100
AcDbEntity
  8
중심선
100
AcDbHatch
 10
0.0
 20
0.0
 30
0.0
210
0.0
220
0.0
230
1.0
  2
SOLID
 70
     1
 71
     0
 91
        1
 92
        0
 93
        4
 72
     1
 10
-4.220474525425594
 20
-35.79999999999997
 11
-7.666749769262903
 21
-35.80000000000003
 72
     1
 10
-7.666749769262903
 20
-35.80000000000003
 11
-12.19788777762032
 21
-41.20000000000002
 72
     1
 10
-12.19788777762032
 20
-41.20000000000002
 11
-8.751612533783037
 21
-41.20000000000002
 72
     1
 10
-8.751612533783037
 20
-41.20000000000002
 11
-4.220474525425594
 21
-35.79999999999997
 97
        0
 75
     0
 76
     1
 98
        1
 10
0.0
 20
0.0
  0
HATCH
  5
D0
330
1F
100
AcDbEntity
  8
중심선
100
AcDbHatch
 10
0.0
 20
0.0
 30
0.0
210
0.0
220
0.0
230
1.0
  2
SOLID
 70
     1
 71
     0
 91
        1
 92
        0
 93
        4
 72
     1
 10
0.7922894656102464
 20
-35.8
 11
-2.653985778226897
 21
-35.8
 72
     1
 10
-2.653985778226897
 20
-35.8
 11
-9.702422680116118
 21
-44.20000000000002
 72
     1
 10
-9.702422680116118
 20
-44.20000000000002
 11
-6.256147436278836
 21
-44.20000000000002
 72
     1
 10
-6.256147436278836
 20
-44.20000000000002
 11
0.7922894656102466
 21
-35.8
 97
        0
 75
     0
 76
     1
 98
        1
 10
0.0
 20
0.0
  0
HATCH
  5
D1
330
1F
100
AcDbEntity
  8
중심선
100
AcDbHatch
 10
0.0
 20
0.0
 30
0.0
210
0.0
220
0.0
230
1.0
  2
SOLID
 70
     1
 71
     0
 91
        1
 92
        0
 93
        6
 72
     3
 10
5.592179896622445
 20
-40.00000000005127
 11
3.960054785062284
 21
1.540850780301639E-10
 40
0.3939339440162633
 50
17.09539180608433
 51
320.0019657685079
 73
     0
 72
     1
 10
7.275179552323041
 20
-38.5878940046383
 11
9.580481426024107
 21
-36.65356729459035
 72
     3
 10
5.592179896569599
 20
-40.00000000000015
 11
6.600054785286829
 21
-1.249000902703301E-13
 40
0.6363583540795982
 50
39.99873849337411
 51
368.4976242363725
 73
     1
 72
     1
 10
12.01751238847021
 20
-39.03999999993002
 11
4.272247203405549
 21
-39.03999999993002
 72
     1
 10
4.272247203405549
 20
-39.03999999993002
 11
4.272222158959588
 21
-40.95999999992991
 72
     1
 10
4.272222158959588
 20
-40.95999999992991
 11
8.713601928431626
 21
-40.95999999992988
 97
        0
 75
     0
 76
     1
 98
        1
 10
0.0
 20
0.0
  0
DIMENSION
  5
D2
330
1F
100
AcDbEntity
  8
치수문자_일반주서
100
AcDbDimension
  2
_D
 10
49.50401946476499
 20
5.000000000000066
 30
0.0
 11
49.50401946476496
 21
15.32275000000007
 31
0.0
 70
   160
  1
%%c<>
 71
     2
 42
10.00000000000001
 52
-270.0
  3
SLDDIMSTYLE0
100
AcDbAlignedDimension
 13
35.00000000000003
 23
-4.999999999999996
 33
0.0
 14
35.00000000000003
 24
5.000000000000012
 34
0.0
 50
90.0000000000002
100
AcDbRotatedDimension
  0
DIMENSION
  5
E0
330
1F
100
AcDbEntity
  8
치수문자_일반주서
100
AcDbDimension
  2
_D_1
 10
34.99999999999999
 20
22.38913260158165
 30
0.0
 11
-2.499999999999992
 21
22.38913260158165
 31
0.0
 70
   160
  1
<>
 71
     2
 42
75.0
  3
SLDDIMSTYLE1
100
AcDbAlignedDimension
 13
-39.99999999999999
 23
4.500000000000004
 33
0.0
 14
35.0
 24
5.000000000000014
 34
0.0
 50
-0.0000000000000054
100
AcDbRotatedDimension
  0
DIMENSION
  5
EB
330
1F
100
AcDbEntity
  8
치수문자_일반주서
100
AcDbDimension
  2
_D_2
 10
-50.27134275440475
 20
-5.000000000000036
 30
0.0
 11
-50.27134275440482
 21
15.32274999999997
 31
0.0
 70
   160
  1
%%c<>
 71
     2
 42
10.00000000000001
 52
-270.0
  3
SLDDIMSTYLE2
100
AcDbAlignedDimension
 13
-39.49999999999998
 23
5.000000000000012
 33
0.0
 14
-39.49999999999998
 24
-4.999999999999996
 34
0.0
 50
90.0000000000002
100
AcDbRotatedDimension
  0
DIMENSION
  5
F9
330
1F
100
AcDbEntity
  8
치수문자_일반주서
100
AcDbDimension
  2
_D_3
 10
35.0
 20
15.13030213750891
 30
0.0
 11
22.5
 21
15.13030213750891
 31
0.0
 70
   160
  1
<>
 71
     2
 42
25.0
  3
SLDDIMSTYLE1
100
AcDbAlignedDimension
 13
10.0
 23
4.284383834921261
 33
0.0
 14
35.0
 24
5.000000000000014
 34
0.0
 50
-0.0000000000000041
100
AcDbRotatedDimension
  0
INSERT
  5
109
330
1F
100
AcDbEntity
  8
해칭선
100
AcDbBlockReference
  2
SW_DOWELSYMBOL_0
 10
-0.0076479529173366
 20
-0.0000000000000043
 30
0.0
  0
LINE
  5
12F
330
1F
100
AcDbEntity
  8
0
  6
Continuous
 62
     4
370
    25
100
AcDbLine
 10
10.0
 20
4.290476048062049
 30
0.0
 11
10.0
 21
-4.290476048062049
 31
0.0
  0
ENDSEC
  0
SECTION
  2
OBJECTS
  0
DICTIONARY
  5
C
330
0
100
AcDbDictionary
281
     1
  3
ACAD_GROUP
350
D
  3
ACAD_IMAGE_VARS
350
12D
  3
ACAD_LAYOUT
350
1A
  3
ACAD_MLINESTYLE
350
17
  3
ACAD_PLOTSETTINGS
350
19
  3
ACAD_PLOTSTYLENAME
350
E
  3
ACAD_SCALELIST
350
47
  3
APPDATA
350
12B
  3
DWGPROPS
350
13D
  0
DICTIONARY
  5
D
102
{ACAD_REACTORS
330
C
102
}
330
C
100
AcDbDictionary
281
     1
  0
RASTERVARIABLES
  5
12D
102
{ACAD_REACTORS
330
C
102
}
330
C
100
AcDbRasterVariables
 90
        0
 70
     1
 71
     1
 72
     1
  0
DICTIONARY
  5
1A
102
{ACAD_REACTORS
330
C
102
}
330
C
100
AcDbDictionary
281
     1
  3
Layout1
350
1E
  3
Layout2
350
26
  3
Model
350
22
  0
DICTIONARY
  5
17
102
{ACAD_REACTORS
330
C
102
}
330
C
100
AcDbDictionary
281
     1
  3
Standard
350
18
  0
DICTIONARY
  5
19
102
{ACAD_REACTORS
330
C
102
}
330
C
100
AcDbDictionary
281
     1
  0
ACDBDICTIONARYWDFLT
  5
E
102
{ACAD_REACTORS
330
C
102
}
330
C
100
AcDbDictionary
281
     1
  3
Normal
350
F
100
AcDbDictionaryWithDefault
340
F
  0
DICTIONARY
  5
47
102
{ACAD_REACTORS
330
C
102
}
330
C
100
AcDbDictionary
281
     1
  3
A0
350
48
  3
A1
350
49
  3
A2
350
4A
  3
A3
350
4B
  3
A4
350
4C
  3
A5
350
4D
  3
A6
350
4E
  3
A7
350
4F
  3
A8
350
50
  3
A9
350
51
  3
B0
350
52
  3
B1
350
53
  3
B2
350
54
  3
B3
350
55
  3
B4
350
56
  3
B5
350
57
  3
B6
350
58
  3
B7
350
59
  3
B8
350
5A
  3
B9
350
5B
  3
C0
350
5C
  3
C1
350
5D
  3
C2
350
5E
  3
C3
350
5F
  3
C4
350
60
  3
C5
350
61
  3
C6
350
62
  3
C7
350
63
  3
C8
350
64
  3
C9
350
65
  3
D0
350
66
  3
D1
350
67
  3
D2
350
68
  0
DICTIONARY
  5
12B
102
{ACAD_REACTORS
330
C
102
}
330
C
100
AcDbDictionary
281
     1
  0
XRECORD
  5
13D
102
{ACAD_REACTORS
330
C
102
}
330
C
100
AcDbXrecord
280
     1
  1
DWGPROPS COOKIE
  2

  3

  4

  6

  7

  8
12014102
  9

300
=
301
=
302
=
303
=
304
=
305
=
306
=
307
=
308
=
309
=
 40
0.0
 41
2458260.119680174
 42
2458266.397889803
  1

 90
        0
  0
LAYOUT
  5
1E
102
{ACAD_REACTORS
330
1A
102
}
330
1A
100
AcDbPlotSettings
  1

  2
none_device
  4

  6

 40
0.0
 41
0.0
 42
0.0
 43
0.0
 44
0.0
 45
0.0
 46
0.0
 47
0.0
 48
0.0
 49
0.0
140
0.0
141
0.0
142
1.0
143
1.0
 70
   688
 72
     1
 73
     0
 74
     5
  7

 75
    16
147
1.0
148
0.0
149
0.0
100
AcDbLayout
  1
Layout1
 70
     1
 71
     1
 10
0.0
 20
0.0
 11
420.0
 21
297.0
 12
0.0
 22
0.0
 32
0.0
 14
1.000000000000000E+20
 24
1.000000000000000E+20
 34
1.000000000000000E+20
 15
-1.000000000000000E+20
 25
-1.000000000000000E+20
 35
-1.000000000000000E+20
146
0.0
 13
0.0
 23
0.0
 33
0.0
 16
1.0
 26
0.0
 36
0.0
 17
0.0
 27
1.0
 37
0.0
 76
     0
330
1B
  0
LAYOUT
  5
26
102
{ACAD_REACTORS
330
1A
102
}
330
1A
100
AcDbPlotSettings
  1

  2
none_device
  4

  6

 40
0.0
 41
0.0
 42
0.0
 43
0.0
 44
0.0
 45
0.0
 46
0.0
 47
0.0
 48
0.0
 49
0.0
140
0.0
141
0.0
142
1.0
143
1.0
 70
   688
 72
     1
 73
     0
 74
     5
  7

 75
    16
147
1.0
148
0.0
149
0.0
100
AcDbLayout
  1
Layout2
 70
     1
 71
     2
 10
0.0
 20
0.0
 11
0.0
 21
0.0
 12
0.0
 22
0.0
 32
0.0
 14
0.0
 24
0.0
 34
0.0
 15
0.0
 25
0.0
 35
0.0
146
0.0
 13
0.0
 23
0.0
 33
0.0
 16
1.0
 26
0.0
 36
0.0
 17
0.0
 27
1.0
 37
0.0
 76
     0
330
23
  0
LAYOUT
  5
22
102
{ACAD_REACTORS
330
1A
102
}
330
1A
100
AcDbPlotSettings
  1

  2
none_device
  4
ANSI_A_(11.00_x_8.50_Inches)
  6

 40
6.35
 41
19.05
 42
6.35000508
 43
19.05000254
 44
279.4
 45
215.9
 46
137.464916828954
 47
118.8843007246156
 48
0.0
 49
0.0
140
0.0
141
0.0
142
0.0991237154092918
143
1.0
 70
  1696
 72
     0
 73
     0
 74
     0
  7

 75
     0
147
0.0235690232323232
148
0.0
149
0.0
100
AcDbLayout
  1
Model
 70
     1
 71
     0
 10
0.0
 20
0.0
 11
420.0
 21
297.0
 12
0.0
 22
0.0
 32
0.0
 14
-54.64634275440483
 24
-49.97180738881174
 34
0.0
 15
50.05435279809839
 25
26.76413260158165
 35
0.0
146
0.0
 13
0.0
 23
0.0
 33
0.0
 16
1.0
 26
0.0
 36
0.0
 17
0.0
 27
1.0
 37
0.0
 76
     0
330
1F
331
29
  0
MLINESTYLE
  5
18
102
{ACAD_REACTORS
330
17
102
}
330
17
100
AcDbMlineStyle
  2
Standard
 70
     0
  3

 62
   256
 51
90.0
 52
90.0
 71
     2
 49
0.5
 62
   256
  6
BYLAYER
 49
-0.5
 62
   256
  6
BYLAYER
  0
ACDBPLACEHOLDER
  5
F
102
{ACAD_REACTORS
330
E
102
}
330
E
  0
SCALE
  5
48
102
{ACAD_REACTORS
330
47
102
}
330
47
100
AcDbScale
 70
     0
300
1:1
140
1.0
141
1.0
290
     1
  0
SCALE
  5
49
102
{ACAD_REACTORS
330
47
102
}
330
47
100
AcDbScale
 70
     0
300
1:2
140
1.0
141
2.0
290
     0
  0
SCALE
  5
4A
102
{ACAD_REACTORS
330
47
102
}
330
47
100
AcDbScale
 70
     0
300
1:4
140
1.0
141
4.0
290
     0
  0
SCALE
  5
4B
102
{ACAD_REACTORS
330
47
102
}
330
47
100
AcDbScale
 70
     0
300
1:5
140
1.0
141
5.0
290
     0
  0
SCALE
  5
4C
102
{ACAD_REACTORS
330
47
102
}
330
47
100
AcDbScale
 70
     0
300
1:8
140
1.0
141
8.0
290
     0
  0
SCALE
  5
4D
102
{ACAD_REACTORS
330
47
102
}
330
47
100
AcDbScale
 70
     0
300
1:10
140
1.0
141
10.0
290
     0
  0
SCALE
  5
4E
102
{ACAD_REACTORS
330
47
102
}
330
47
100
AcDbScale
 70
     0
300
1:16
140
1.0
141
16.0
290
     0
  0
SCALE
  5
4F
102
{ACAD_REACTORS
330
47
102
}
330
47
100
AcDbScale
 70
     0
300
1:20
140
1.0
141
20.0
290
     0
  0
SCALE
  5
50
102
{ACAD_REACTORS
330
47
102
}
330
47
100
AcDbScale
 70
     0
300
1:30
140
1.0
141
30.0
290
     0
  0
SCALE
  5
51
102
{ACAD_REACTORS
330
47
102
}
330
47
100
AcDbScale
 70
     0
300
1:40
140
1.0
141
40.0
290
     0
  0
SCALE
  5
52
102
{ACAD_REACTORS
330
47
102
}
330
47
100
AcDbScale
 70
     0
300
1:50
140
1.0
141
50.0
290
     0
  0
SCALE
  5
53
102
{ACAD_REACTORS
330
47
102
}
330
47
100
AcDbScale
 70
     0
300
1:100
140
1.0
141
100.0
290
     0
  0
SCALE
  5
54
102
{ACAD_REACTORS
330
47
102
}
330
47
100
AcDbScale
 70
     0
300
2:1
140
2.0
141
1.0
290
     0
  0
SCALE
  5
55
102
{ACAD_REACTORS
330
47
102
}
330
47
100
AcDbScale
 70
     0
300
4:1
140
4.0
141
1.0
290
     0
  0
SCALE
  5
56
102
{ACAD_REACTORS
330
47
102
}
330
47
100
AcDbScale
 70
     0
300
8:1
140
8.0
141
1.0
290
     0
  0
SCALE
  5
57
102
{ACAD_REACTORS
330
47
102
}
330
47
100
AcDbScale
 70
     0
300
10:1
140
10.0
141
1.0
290
     0
  0
SCALE
  5
58
102
{ACAD_REACTORS
330
47
102
}
330
47
100
AcDbScale
 70
     0
300
100:1
140
100.0
141
1.0
290
     0
  0
SCALE
  5
59
102
{ACAD_REACTORS
330
47
102
}
330
47
100
AcDbScale
 70
     0
300
1/128" = 1'-0"
140
0.0078125
141
12.0
290
     0
  0
SCALE
  5
5A
102
{ACAD_REACTORS
330
47
102
}
330
47
100
AcDbScale
 70
     0
300
1/64" = 1'-0"
140
0.015625
141
12.0
290
     0
  0
SCALE
  5
5B
102
{ACAD_REACTORS
330
47
102
}
330
47
100
AcDbScale
 70
     0
300
1/32" = 1'-0"
140
0.03125
141
12.0
290
     0
  0
SCALE
  5
5C
102
{ACAD_REACTORS
330
47
102
}
330
47
100
AcDbScale
 70
     0
300
1/16" = 1'-0"
140
0.0625
141
12.0
290
     0
  0
SCALE
  5
5D
102
{ACAD_REACTORS
330
47
102
}
330
47
100
AcDbScale
 70
     0
300
3/32" = 1'-0"
140
0.09375
141
12.0
290
     0
  0
SCALE
  5
5E
102
{ACAD_REACTORS
330
47
102
}
330
47
100
AcDbScale
 70
     0
300
1/8" = 1'-0"
140
0.125
141
12.0
290
     0
  0
SCALE
  5
5F
102
{ACAD_REACTORS
330
47
102
}
330
47
100
AcDbScale
 70
     0
300
3/16" = 1'-0"
140
0.1875
141
12.0
290
     0
  0
SCALE
  5
60
102
{ACAD_REACTORS
330
47
102
}
330
47
100
AcDbScale
 70
     0
300
1/4" = 1'-0"
140
0.25
141
12.0
290
     0
  0
SCALE
  5
61
102
{ACAD_REACTORS
330
47
102
}
330
47
100
AcDbScale
 70
     0
300
3/8" = 1'-0"
140
0.375
141
12.0
290
     0
  0
SCALE
  5
62
102
{ACAD_REACTORS
330
47
102
}
330
47
100
AcDbScale
 70
     0
300
1/2" = 1'-0"
140
0.5
141
12.0
290
     0
  0
SCALE
  5
63
102
{ACAD_REACTORS
330
47
102
}
330
47
100
AcDbScale
 70
     0
300
3/4" = 1'-0"
140
0.75
141
12.0
290
     0
  0
SCALE
  5
64
102
{ACAD_REACTORS
330
47
102
}
330
47
100
AcDbScale
 70
     0
300
1" = 1'-0"
140
1.0
141
12.0
290
     0
  0
SCALE
  5
65
102
{ACAD_REACTORS
330
47
102
}
330
47
100
AcDbScale
 70
     0
300
1-1/2" = 1'-0"
140
1.5
141
12.0
290
     0
  0
SCALE
  5
66
102
{ACAD_REACTORS
330
47
102
}
330
47
100
AcDbScale
 70
     0
300
3" = 1'-0"
140
3.0
141
12.0
290
     0
  0
SCALE
  5
67
102
{ACAD_REACTORS
330
47
102
}
330
47
100
AcDbScale
 70
     0
300
6" = 1'-0"
140
6.0
141
12.0
290
     0
  0
SCALE
  5
68
102
{ACAD_REACTORS
330
47
102
}
330
47
100
AcDbScale
 70
     0
300
1'-0" = 1'-0"
140
12.0
141
12.0
290
     0
  0
ENDSEC
  0
EOF
