  0
SECTION
  2
HEADER
  9
$ACADVER
  1
AC1015
  9
$ACADMAINTVER
 70
     6
  9
$DWGCODEPAGE
  3
ANSI_949
  9
$INSBASE
 10
0.0
 20
0.0
 30
0.0
  9
$EXTMIN
 10
-44.78246512717801
 20
-49.97180738881174
 30
0.0
  9
$EXTMAX
 10
58.8688425023554
 20
26.76413260158164
 30
0.0
  9
$LIMMIN
 10
0.0
 20
0.0
  9
$LIMMAX
 10
420.0
 20
297.0
  9
$ORTHOMODE
 70
     0
  9
$REGENMODE
 70
     1
  9
$FILLMODE
 70
     1
  9
$QTEXTMODE
 70
     0
  9
$MIRRTEXT
 70
     1
  9
$LTSCALE
 40
1.0
  9
$ATTMODE
 70
     1
  9
$TEXTSIZE
 40
3.5
  9
$TRACEWID
 40
1.0
  9
$TEXTSTYLE
  7
Standard
  9
$CLAYER
  8
0
  9
$CELTYPE
  6
ByLayer
  9
$CECOLOR
 62
   256
  9
$CELTSCALE
 40
1.0
  9
$DISPSILH
 70
     0
  9
$DIMSCALE
 40
1.0
  9
$DIMASZ
 40
3.302
  9
$DIMEXO
 40
1.0
  9
$DIMDLI
 40
3.75
  9
$DIMRND
 40
0.0
  9
$DIMDLE
 40
0.0
  9
$DIMEXE
 40
1.0
  9
$DIMTP
 40
0.0
  9
$DIMTM
 40
0.0
  9
$DIMTXT
 40
3.5
  9
$DIMCEN
 40
2.5
  9
$DIMTSZ
 40
0.0
  9
$DIMTOL
 70
     0
  9
$DIMLIM
 70
     0
  9
$DIMTIH
 70
     1
  9
$DIMTOH
 70
     1
  9
$DIMSE1
 70
     0
  9
$DIMSE2
 70
     0
  9
$DIMTAD
 70
     1
  9
$DIMZIN
 70
     0
  9
$DIMBLK
  1

  9
$DIMASO
 70
     1
  9
$DIMSHO
 70
     1
  9
$DIMPOST
  1

  9
$DIMAPOST
  1

  9
$DIMALT
 70
     0
  9
$DIMALTD
 70
     3
  9
$DIMALTF
 40
0.0393700787401575
  9
$DIMLFAC
 40
1.0
  9
$DIMTOFL
 70
     1
  9
$DIMTVP
 40
0.0
  9
$DIMTIX
 70
     0
  9
$DIMSOXD
 70
     0
  9
$DIMSAH
 70
     0
  9
$DIMBLK1
  1

  9
$DIMBLK2
  1

  9
$DIMSTYLE
  2
ISO-25
  9
$DIMCLRD
 70
     0
  9
$DIMCLRE
 70
     0
  9
$DIMCLRT
 70
     0
  9
$DIMTFAC
 40
1.0
  9
$DIMGAP
 40
1.524
  9
$DIMJUST
 70
     0
  9
$DIMSD1
 70
     0
  9
$DIMSD2
 70
     0
  9
$DIMTOLJ
 70
     0
  9
$DIMTZIN
 70
     0
  9
$DIMALTZ
 70
     0
  9
$DIMALTTZ
 70
     0
  9
$DIMUPT
 70
     0
  9
$DIMDEC
 70
     2
  9
$DIMTDEC
 70
     2
  9
$DIMALTU
 70
     2
  9
$DIMALTTD
 70
     3
  9
$DIMTXSTY
  7
Standard
  9
$DIMAUNIT
 70
     0
  9
$DIMADEC
 70
     2
  9
$DIMALTRND
 40
0.0
  9
$DIMAZIN
 70
     0
  9
$DIMDSEP
 70
    44
  9
$DIMATFIT
 70
     3
  9
$DIMFRAC
 70
     0
  9
$DIMLDRBLK
  1

  9
$DIMLUNIT
 70
     2
  9
$DIMLWD
 70
    -2
  9
$DIMLWE
 70
    -2
  9
$DIMTMOVE
 70
     0
  9
$LUNITS
 70
     2
  9
$LUPREC
 70
     2
  9
$SKETCHINC
 40
1.0
  9
$FILLETRAD
 40
10.0
  9
$AUNITS
 70
     0
  9
$AUPREC
 70
     2
  9
$MENU
  1
.
  9
$ELEVATION
 40
0.0
  9
$PELEVATION
 40
0.0
  9
$THICKNESS
 40
0.0
  9
$LIMCHECK
 70
     0
  9
$CHAMFERA
 40
0.0
  9
$CHAMFERB
 40
0.0
  9
$CHAMFERC
 40
0.0
  9
$CHAMFERD
 40
0.0
  9
$SKPOLY
 70
     0
  9
$TDCREATE
 40
2458260.494490775
  9
$TDUCREATE
 40
2458260.119490775
  9
$TDUPDATE
 40
2458267.73073838
  9
$TDUUPDATE
 40
2458267.35573838
  9
$TDINDWG
 40
0.0201675116
  9
$TDUSRTIMER
 40
2458267.335570891
  9
$USRTIMER
 70
     1
  9
$ANGBASE
 50
0.0
  9
$ANGDIR
 70
     0
  9
$PDMODE
 70
     0
  9
$PDSIZE
 40
-1.0
  9
$PLINEWID
 40
0.0
  9
$SPLFRAME
 70
     0
  9
$SPLINETYPE
 70
     6
  9
$SPLINESEGS
 70
     8
  9
$HANDSEED
  5
148
  9
$SURFTAB1
 70
     6
  9
$SURFTAB2
 70
     6
  9
$SURFTYPE
 70
     6
  9
$SURFU
 70
     6
  9
$SURFV
 70
     6
  9
$UCSBASE
  2

  9
$UCSNAME
  2

  9
$UCSORG
 10
0.0
 20
0.0
 30
0.0
  9
$UCSXDIR
 10
1.0
 20
0.0
 30
0.0
  9
$UCSYDIR
 10
0.0
 20
1.0
 30
0.0
  9
$UCSORTHOREF
  2

  9
$UCSORTHOVIEW
 70
     0
  9
$UCSORGTOP
 10
0.0
 20
0.0
 30
0.0
  9
$UCSORGBOTTOM
 10
0.0
 20
0.0
 30
0.0
  9
$UCSORGLEFT
 10
0.0
 20
0.0
 30
0.0
  9
$UCSORGRIGHT
 10
0.0
 20
0.0
 30
0.0
  9
$UCSORGFRONT
 10
0.0
 20
0.0
 30
0.0
  9
$UCSORGBACK
 10
0.0
 20
0.0
 30
0.0
  9
$PUCSBASE
  2

  9
$PUCSNAME
  2

  9
$PUCSORG
 10
0.0
 20
0.0
 30
0.0
  9
$PUCSXDIR
 10
1.0
 20
0.0
 30
0.0
  9
$PUCSYDIR
 10
0.0
 20
1.0
 30
0.0
  9
$PUCSORTHOREF
  2

  9
$PUCSORTHOVIEW
 70
     0
  9
$PUCSORGTOP
 10
0.0
 20
0.0
 30
0.0
  9
$PUCSORGBOTTOM
 10
0.0
 20
0.0
 30
0.0
  9
$PUCSORGLEFT
 10
0.0
 20
0.0
 30
0.0
  9
$PUCSORGRIGHT
 10
0.0
 20
0.0
 30
0.0
  9
$PUCSORGFRONT
 10
0.0
 20
0.0
 30
0.0
  9
$PUCSORGBACK
 10
0.0
 20
0.0
 30
0.0
  9
$USERI1
 70
     0
  9
$USERI2
 70
     0
  9
$USERI3
 70
     0
  9
$USERI4
 70
     0
  9
$USERI5
 70
     0
  9
$USERR1
 40
0.0
  9
$USERR2
 40
0.0
  9
$USERR3
 40
0.0
  9
$USERR4
 40
0.0
  9
$USERR5
 40
0.0
  9
$WORLDVIEW
 70
     1
  9
$SHADEDGE
 70
     3
  9
$SHADEDIF
 70
    70
  9
$TILEMODE
 70
     1
  9
$MAXACTVP
 70
    64
  9
$PINSBASE
 10
0.0
 20
0.0
 30
0.0
  9
$PLIMCHECK
 70
     0
  9
$PEXTMIN
 10
1.000000000000000E+20
 20
1.000000000000000E+20
 30
1.000000000000000E+20
  9
$PEXTMAX
 10
-1.000000000000000E+20
 20
-1.000000000000000E+20
 30
-1.000000000000000E+20
  9
$PLIMMIN
 10
0.0
 20
0.0
  9
$PLIMMAX
 10
0.0
 20
0.0
  9
$UNITMODE
 70
     0
  9
$VISRETAIN
 70
     1
  9
$PLINEGEN
 70
     0
  9
$PSLTSCALE
 70
     1
  9
$TREEDEPTH
 70
  3020
  9
$CMLSTYLE
  2
Standard
  9
$CMLJUST
 70
     0
  9
$CMLSCALE
 40
20.0
  9
$PROXYGRAPHICS
 70
     1
  9
$MEASUREMENT
 70
     1
  9
$CELWEIGHT
370
    -1
  9
$ENDCAPS
280
     0
  9
$JOINSTYLE
280
     0
  9
$LWDISPLAY
290
     1
  9
$INSUNITS
 70
     4
  9
$HYPERLINKBASE
  1

  9
$STYLESHEET
  1

  9
$XEDIT
290
     1
  9
$CEPSNTYPE
380
     0
  9
$PSTYLEMODE
290
     1
  9
$FINGERPRINTGUID
  2
{2BBB6C0F-F602-464A-BA8A-DFF5B073EC98}
  9
$VERSIONGUID
  2
{FAEB1C32-E019-11D5-929B-00C0DF256EC4}
  9
$EXTNAMES
290
     1
  9
$PSVPSCALE
 40
0.0
  9
$OLESTARTUP
290
     0
  0
ENDSEC
  0
SECTION
  2
CLASSES
  0
CLASS
  1
ACDBDICTIONARYWDFLT
  2
AcDbDictionaryWithDefault
  3
ObjectDBX Classes
 90
        0
280
     0
281
     0
  0
CLASS
  1
VISUALSTYLE
  2
AcDbVisualStyle
  3
ObjectDBX Classes
 90
     4095
280
     0
281
     0
  0
CLASS
  1
MATERIAL
  2
AcDbMaterial
  3
ObjectDBX Classes
 90
     1153
280
     0
281
     0
  0
CLASS
  1
SCALE
  2
AcDbScale
  3
ObjectDBX Classes
 90
     1153
280
     0
281
     0
  0
CLASS
  1
TABLESTYLE
  2
AcDbTableStyle
  3
ObjectDBX Classes
 90
     4095
280
     0
281
     0
  0
CLASS
  1
MLEADERSTYLE
  2
AcDbMLeaderStyle
  3
ACDB_MLEADERSTYLE_CLASS
 90
     4095
280
     0
281
     0
  0
CLASS
  1
SUN
  2
AcDbSun
  3
SCENEOE
 90
     1153
280
     0
281
     0
  0
CLASS
  1
ACDBPLACEHOLDER
  2
AcDbPlaceHolder
  3
ObjectDBX Classes
 90
        0
280
     0
281
     0
  0
CLASS
  1
LAYOUT
  2
AcDbLayout
  3
ObjectDBX Classes
 90
        0
280
     0
281
     0
  0
CLASS
  1
RASTERVARIABLES
  2
AcDbRasterVariables
  3
ISM
 90
        0
280
     0
281
     0
  0
ENDSEC
  0
SECTION
  2
TABLES
  0
TABLE
  2
VPORT
  5
8
330
0
100
AcDbSymbolTable
 70
     1
  0
VPORT
  5
29
330
8
100
AcDbSymbolTableRecord
100
AcDbViewportTableRecord
  2
*Active
 70
     0
 10
0.0
 20
0.0
 11
1.0
 21
1.0
 12
7.043188687588696
 22
-11.60383739361505
 13
0.0
 23
0.0
 14
10.0
 24
10.0
 15
10.0
 25
10.0
 16
0.0
 26
0.0
 36
1.0
 17
0.0
 27
0.0
 37
0.0
 40
78.27065879020124
 41
1.731266149870801
 42
50.0
 43
0.0
 44
0.0
 50
0.0
 51
0.0
 71
    16
 72
  2000
 73
     1
 74
     3
 75
     0
 76
     0
 77
     0
 78
     0
281
     0
 65
     1
110
0.0
120
0.0
130
0.0
111
1.0
121
0.0
131
0.0
112
0.0
122
1.0
132
0.0
 79
     0
146
0.0
  0
ENDTAB
  0
TABLE
  2
LTYPE
  5
5
330
0
100
AcDbSymbolTable
 70
     6
  0
LTYPE
  5
14
330
5
100
AcDbSymbolTableRecord
100
AcDbLinetypeTableRecord
  2
ByBlock
 70
     0
  3

 72
    65
 73
     0
 40
0.0
  0
LTYPE
  5
15
330
5
100
AcDbSymbolTableRecord
100
AcDbLinetypeTableRecord
  2
ByLayer
 70
     0
  3

 72
    65
 73
     0
 40
0.0
  0
LTYPE
  5
16
330
5
100
AcDbSymbolTableRecord
100
AcDbLinetypeTableRecord
  2
Continuous
 70
     0
  3
Solid line
 72
    65
 73
     0
 40
0.0
  0
LTYPE
  5
6E
330
5
100
AcDbSymbolTableRecord
100
AcDbLinetypeTableRecord
  2
HIDDEN
 70
     0
  3
Hidden __ __ __ __ __ __ __ __ __ __ __ __ __ __
 72
    65
 73
     2
 40
1.905
 49
1.27
 74
     0
 49
-0.635
 74
     0
  0
LTYPE
  5
6F
330
5
100
AcDbSymbolTableRecord
100
AcDbLinetypeTableRecord
  2
PHANTOM
 70
     0
  3
Phantom ______  __  __  ______  __  __  ______
 72
    65
 73
     6
 40
12.7
 49
6.35
 74
     0
 49
-1.27
 74
     0
 49
1.27
 74
     0
 49
-1.27
 74
     0
 49
1.27
 74
     0
 49
-1.27
 74
     0
  0
LTYPE
  5
70
330
5
100
AcDbSymbolTableRecord
100
AcDbLinetypeTableRecord
  2
CENTER
 70
     0
  3
Center ____ _ ____ _ ____ _ ____ _ ____ _ ____
 72
    65
 73
     4
 40
10.16
 49
6.35
 74
     0
 49
-1.27
 74
     0
 49
1.27
 74
     0
 49
-1.27
 74
     0
  0
LTYPE
  5
71
330
5
100
AcDbSymbolTableRecord
100
AcDbLinetypeTableRecord
  2
CENTERX2
 70
     0
  3
Center (2x) ________  __  ________  __  _____
 72
    65
 73
     4
 40
20.32
 49
12.7
 74
     0
 49
-2.54
 74
     0
 49
2.54
 74
     0
 49
-2.54
 74
     0
  0
LTYPE
  5
72
330
5
100
AcDbSymbolTableRecord
100
AcDbLinetypeTableRecord
  2
DOT2
 70
     0
  3
Dot (.5x) ........................................
 72
    65
 73
     2
 40
0.635
 49
0.0
 74
     0
 49
-0.635
 74
     0
  0
ENDTAB
  0
TABLE
  2
LAYER
  5
2
330
0
100
AcDbSymbolTable
 70
    17
  0
LAYER
  5
10
330
2
100
AcDbSymbolTableRecord
100
AcDbLayerTableRecord
  2
0
 70
     0
 62
     7
  6
Continuous
370
    -3
390
F
  0
LAYER
  5
73
330
2
100
AcDbSymbolTableRecord
100
AcDbLayerTableRecord
  2
FORMAT
 70
     0
 62
     2
  6
Continuous
370
    -3
390
F
  0
LAYER
  5
74
330
2
100
AcDbSymbolTableRecord
100
AcDbLayerTableRecord
  2
외형선
 70
     0
 62
   100
  6
Continuous
370
    35
390
F
  0
LAYER
  5
75
330
2
100
AcDbSymbolTableRecord
100
AcDbLayerTableRecord
  2
숨은선
 70
     0
 62
     2
  6
HIDDEN
370
    25
390
F
  0
LAYER
  5
76
330
2
100
AcDbSymbolTableRecord
100
AcDbLayerTableRecord
  2
중심선
 70
     0
 62
     1
  6
CENTERX2
370
    -3
390
F
  0
LAYER
  5
77
330
2
100
AcDbSymbolTableRecord
100
AcDbLayerTableRecord
  2
파단선
 70
     0
 62
     4
  6
Continuous
370
    -3
390
F
  0
LAYER
  5
78
330
2
100
AcDbSymbolTableRecord
100
AcDbLayerTableRecord
  2
해칭선
 70
     0
 62
   100
  6
Continuous
370
    -3
390
F
  0
LAYER
  5
79
330
2
100
AcDbSymbolTableRecord
100
AcDbLayerTableRecord
  2
가는실선
 70
     0
 62
     4
  6
Continuous
370
    -3
390
F
  0
LAYER
  5
7A
330
2
100
AcDbSymbolTableRecord
100
AcDbLayerTableRecord
  2
치수_보조선
 70
     0
 62
     4
  6
Continuous
370
    -3
390
F
  0
LAYER
  5
7B
330
2
100
AcDbSymbolTableRecord
100
AcDbLayerTableRecord
  2
치수문자_일반주서
 70
     0
 62
     7
  6
Continuous
370
    25
390
F
  0
LAYER
  5
7C
330
2
100
AcDbSymbolTableRecord
100
AcDbLayerTableRecord
  2
개별주서
 70
     0
 62
   100
  6
Continuous
370
    35
390
F
  0
LAYER
  5
7D
330
2
100
AcDbSymbolTableRecord
100
AcDbLayerTableRecord
  2
중간선
 70
     0
 62
     2
  6
Continuous
370
    25
390
F
  0
LAYER
  5
7E
330
2
100
AcDbSymbolTableRecord
100
AcDbLayerTableRecord
  2
윤곽선
 70
     0
 62
     3
  6
Continuous
370
    50
390
F
  0
LAYER
  5
7F
330
2
100
AcDbSymbolTableRecord
100
AcDbLayerTableRecord
  2
중심마크
 70
     0
 62
   100
  6
Continuous
370
    35
390
F
  0
LAYER
  5
80
330
2
100
AcDbSymbolTableRecord
100
AcDbLayerTableRecord
  2
가상선
 70
     0
 62
     4
  6
PHANTOM
370
    -3
390
F
  0
LAYER
  5
81
330
2
100
AcDbSymbolTableRecord
100
AcDbLayerTableRecord
  2
특수지정선
 70
     0
 62
     5
  6
CENTERX2
370
    70
390
F
  0
LAYER
  5
133
330
2
100
AcDbSymbolTableRecord
100
AcDbLayerTableRecord
  2
Defpoints
 70
     0
 62
     7
  6
Continuous
290
     0
370
    -3
390
F
  0
ENDTAB
  0
TABLE
  2
STYLE
  5
3
330
0
100
AcDbSymbolTable
 70
     2
  0
STYLE
  5
11
330
3
100
AcDbSymbolTableRecord
100
AcDbTextStyleTableRecord
  2
Standard
 70
     0
 40
0.0
 41
1.0
 50
0.0
 71
     0
 42
3.5
  3
txt
  4

  0
STYLE
  5
97
330
3
100
AcDbSymbolTableRecord
100
AcDbTextStyleTableRecord
  2
SLDTEXTSTYLE0
 70
     0
 40
0.0
 41
0.75
 50
0.0
 71
     0
 42
3.5
  3
TXT
  4

  0
ENDTAB
  0
TABLE
  2
VIEW
  5
6
330
0
100
AcDbSymbolTable
 70
     0
  0
ENDTAB
  0
TABLE
  2
UCS
  5
7
330
0
100
AcDbSymbolTable
 70
     0
  0
ENDTAB
  0
TABLE
  2
APPID
  5
9
330
0
100
AcDbSymbolTable
 70
     1
  0
APPID
  5
12
330
9
100
AcDbSymbolTableRecord
100
AcDbRegAppTableRecord
  2
ACAD
 70
     0
  0
ENDTAB
  0
TABLE
  2
DIMSTYLE
  5
A
330
0
100
AcDbSymbolTable
 70
     4
100
AcDbDimStyleTable
  0
DIMSTYLE
105
27
330
A
100
AcDbSymbolTableRecord
100
AcDbDimStyleTableRecord
  2
ISO-25
 70
     0
 41
2.5
 42
0.625
 43
3.75
 44
1.25
 73
     0
 74
     0
 77
     1
 78
     8
140
2.5
141
2.5
143
0.03937007874016
147
0.625
171
     3
172
     1
178
     0
271
     2
272
     2
274
     3
278
    44
283
     0
284
     8
340
11
  0
DIMSTYLE
105
D7
102
{ACAD_REACTORS
330
D6
102
}
330
A
100
AcDbSymbolTableRecord
100
AcDbDimStyleTableRecord
  2
SLDDIMSTYLE0
 70
     0
 41
3.302
 44
0.0
 45
0.000000001
 73
     0
 74
     0
 77
     1
 78
    12
 79
     3
140
3.5
147
0.875
172
     1
173
     1
178
     0
271
     1
272
     1
276
     2
284
    12
289
     0
340
97
  0
DIMSTYLE
105
E5
102
{ACAD_REACTORS
330
E4
330
FD
102
}
330
A
100
AcDbSymbolTableRecord
100
AcDbDimStyleTableRecord
  2
SLDDIMSTYLE1
 70
     0
 41
3.302
 44
0.0
 45
0.000000001
 73
     0
 74
     0
 77
     1
 78
    12
 79
     3
140
3.5
147
0.875
173
     1
178
     0
271
     2
272
     2
276
     2
284
    12
340
97
  0
DIMSTYLE
105
F0
102
{ACAD_REACTORS
330
EF
102
}
330
A
100
AcDbSymbolTableRecord
100
AcDbDimStyleTableRecord
  2
SLDDIMSTYLE2
 70
     0
 41
3.302
 44
0.0
 45
0.000000001
 73
     0
 74
     0
 77
     1
 78
    12
 79
     3
140
3.5
147
0.875
172
     1
173
     1
178
     0
271
     2
272
     2
276
     2
284
    12
289
     0
340
97
  0
ENDTAB
  0
TABLE
  2
BLOCK_RECORD
  5
1
330
0
100
AcDbSymbolTable
 70
     7
  0
BLOCK_RECORD
  5
1F
330
1
100
AcDbSymbolTableRecord
100
AcDbBlockTableRecord
  2
*Model_Space
340
22
  0
BLOCK_RECORD
  5
1B
330
1
100
AcDbSymbolTableRecord
100
AcDbBlockTableRecord
  2
*Paper_Space
340
1E
  0
BLOCK_RECORD
  5
23
330
1
100
AcDbSymbolTableRecord
100
AcDbBlockTableRecord
  2
*Paper_Space0
340
26
  0
BLOCK_RECORD
  5
82
330
1
100
AcDbSymbolTableRecord
100
AcDbBlockTableRecord
  2
블럭10
340
0
102
{BLKREFS
331
CF
102
}
  0
BLOCK_RECORD
  5
D8
330
1
100
AcDbSymbolTableRecord
100
AcDbBlockTableRecord
  2
_D
340
0
  0
BLOCK_RECORD
  5
E6
330
1
100
AcDbSymbolTableRecord
100
AcDbBlockTableRecord
  2
_D_1
340
0
  0
BLOCK_RECORD
  5
F1
330
1
100
AcDbSymbolTableRecord
100
AcDbBlockTableRecord
  2
_D_2
340
0
  0
BLOCK_RECORD
  5
FE
330
1
100
AcDbSymbolTableRecord
100
AcDbBlockTableRecord
  2
_D_3
340
0
  0
BLOCK_RECORD
  5
107
330
1
100
AcDbSymbolTableRecord
100
AcDbBlockTableRecord
  2
SW_DOWELSYMBOL_0
340
0
102
{BLKREFS
331
10D
102
}
  0
ENDTAB
  0
ENDSEC
  0
SECTION
  2
BLOCKS
  0
BLOCK
  5
20
330
1F
100
AcDbEntity
  8
0
100
AcDbBlockBegin
  2
*Model_Space
 70
     0
 10
0.0
 20
0.0
 30
0.0
  3
*Model_Space
  1

  0
ENDBLK
  5
21
330
1F
100
AcDbEntity
  8
0
100
AcDbBlockEnd
  0
BLOCK
  5
1C
330
1B
100
AcDbEntity
 67
     1
  8
0
100
AcDbBlockBegin
  2
*Paper_Space
 70
     0
 10
0.0
 20
0.0
 30
0.0
  3
*Paper_Space
  1

  0
ENDBLK
  5
1D
330
1B
100
AcDbEntity
 67
     1
  8
0
100
AcDbBlockEnd
  0
BLOCK
  5
24
330
23
100
AcDbEntity
  8
0
100
AcDbBlockBegin
  2
*Paper_Space0
 70
     0
 10
0.0
 20
0.0
 30
0.0
  3
*Paper_Space0
  1

  0
ENDBLK
  5
25
330
23
100
AcDbEntity
  8
0
100
AcDbBlockEnd
  0
BLOCK
  5
83
330
82
100
AcDbEntity
  8
0
100
AcDbBlockBegin
  2
블럭10
 70
     2
 10
0.0
 20
0.0
 30
0.0
  3
블럭10
  1

  0
ELLIPSE
  5
85
330
82
100
AcDbEntity
  8
중심선
100
AcDbEllipse
 10
20.54032771741204
 20
12.0471743016438
 30
0.0
 11
6.600054785286829
 21
-1.261213355974178E-13
 31
0.0
210
0.0
220
0.0
230
1.0
 40
0.636358354079598
 41
0.9219305317359503
 42
6.513795318482858
  0
ELLIPSE
  5
86
330
82
100
AcDbEntity
  8
중심선
100
AcDbEllipse
 10
20.54032771746488
 20
12.04717430159265
 30
0.0
 11
3.960054785062283
 21
1.540847449632565E-10
 31
0.0
210
0.0
220
0.0
230
1.0
 40
0.3939339440162632
 41
1.131841032648279
 42
5.62031148352944
  0
LINE
  5
87
330
82
100
AcDbEntity
  8
중심선
100
AcDbLine
 10
2.268634060543552
 20
16.24717430164393
 30
0.0
 11
5.714909304380834
 21
16.24717430164393
 31
0.0
  0
LINE
  5
88
330
82
100
AcDbEntity
  8
중심선
100
AcDbLine
 10
5.245725140726316
 20
7.84717430164391
 30
0.0
 11
8.692000384563599
 21
7.84717430164391
 31
0.0
  0
LINE
  5
89
330
82
100
AcDbEntity
  8
중심선
100
AcDbLine
 10
15.74043728645272
 20
16.24717430164393
 30
0.0
 11
8.692000384563599
 21
7.84717430164391
 31
0.0
  0
LINE
  5
8A
330
82
100
AcDbEntity
  8
중심선
100
AcDbLine
 10
0.1404042013395286
 20
13.71084872107135
 30
0.0
 11
3.58671253028996
 21
13.71088815037384
 31
0.0
  0
LINE
  5
8B
330
82
100
AcDbEntity
  8
중심선
100
AcDbLine
 10
2.750260043222114
 20
10.84717430164391
 30
0.0
 11
6.196535287059397
 21
10.84717430164391
 31
0.0
  0
LINE
  5
8C
330
82
100
AcDbEntity
  8
중심선
100
AcDbLine
 10
12.29416204261559
 20
16.24717430164393
 30
0.0
 11
5.245725140726316
 21
7.84717430164391
 31
0.0
  0
LINE
  5
8D
330
82
100
AcDbEntity
  8
중심선
100
AcDbLine
 10
10.72767329541681
 20
16.24717430164393
 30
0.0
 11
6.196535287059397
 21
10.84717430164391
 31
0.0
  0
LINE
  5
8E
330
82
100
AcDbEntity
  8
중심선
100
AcDbLine
 10
7.28139805157953
 20
16.24717430164393
 30
0.0
 11
2.750260043222114
 21
10.84717430164391
 31
0.0
  0
LINE
  5
8F
330
82
100
AcDbEntity
  8
중심선
100
AcDbLine
 10
5.714909304380834
 20
16.24717430164393
 30
0.0
 11
3.58671253028996
 21
13.71088815037384
 31
0.0
  0
LINE
  5
90
330
82
100
AcDbEntity
  8
중심선
100
AcDbLine
 10
2.268634060543552
 20
16.24717430164393
 30
0.0
 11
0.1404042013395286
 21
13.71084872107135
 31
0.0
  0
LINE
  5
91
330
82
100
AcDbEntity
  8
중심선
100
AcDbLine
 10
7.28139805157953
 20
16.24717430164393
 30
0.0
 11
10.72767329541681
 21
16.24717430164393
 31
0.0
  0
LINE
  5
92
330
82
100
AcDbEntity
  8
중심선
100
AcDbLine
 10
12.29416204261559
 20
16.24717430164393
 30
0.0
 11
15.74043728645272
 21
16.24717430164393
 31
0.0
  0
LINE
  5
93
330
82
100
AcDbEntity
  8
중심선
100
AcDbLine
 10
19.22036997980202
 20
11.08717430171403
 30
0.0
 11
23.66174974927406
 21
11.08717430171406
 31
0.0
  0
LINE
  5
94
330
82
100
AcDbEntity
  8
중심선
100
AcDbLine
 10
19.22039502424796
 20
13.00717430171391
 30
0.0
 11
19.22036997980202
 21
11.08717430171403
 31
0.0
  0
LINE
  5
95
330
82
100
AcDbEntity
  8
중심선
100
AcDbLine
 10
19.22039502424796
 20
13.00717430171391
 30
0.0
 11
26.96566020931264
 21
13.00717430171391
 31
0.0
  0
LINE
  5
96
330
82
100
AcDbEntity
  8
중심선
100
AcDbLine
 10
22.22332737316547
 20
13.45928029700563
 30
0.0
 11
24.52862924686651
 21
15.39360700705356
 31
0.0
  0
ATTDEF
  5
98
330
82
100
AcDbEntity
  8
FORMAT
 62
     2
100
AcDbText
 10
-16.11926103943555
 20
2.075366912832191
 30
0.0
 40
4.233333333333333
  1
SEME7110035E [ 4 FLUTE ]
 41
0.75
  7
SLDTEXTSTYLE0
 11
-16.11926103943555
 21
-0.0412997538344756
 31
0.0
100
AcDbAttributeDefinition
  3

  2
AUTOATTR0
 70
     0
 74
     1
  0
ENDBLK
  5
84
330
82
100
AcDbEntity
  8
0
100
AcDbBlockEnd
  0
BLOCK
  5
D9
330
D8
100
AcDbEntity
  8
0
100
AcDbBlockBegin
  2
_D
 70
     0
 10
0.0
 20
0.0
 30
0.0
  3
_D
  1

  0
LINE
  5
DB
330
D8
100
AcDbEntity
  8
치수문자_일반주서
 62
     0
370
    -2
100
AcDbLine
 10
45.06250000000003
 20
-5.000000000000008
 30
0.0
 11
58.31850916902205
 21
-4.999999999999957
 31
0.0
  0
LINE
  5
DC
330
D8
100
AcDbEntity
  8
치수문자_일반주서
 62
     0
370
    -2
100
AcDbLine
 10
45.06250000000003
 20
5.000000000000001
 30
0.0
 11
58.31850916902201
 21
5.00000000000005
 31
0.0
  0
LINE
  5
DD
330
D8
100
AcDbEntity
  8
치수문자_일반주서
 62
     0
370
    -2
100
AcDbLine
 10
58.31850916902205
 20
-4.999999999999957
 30
0.0
 11
58.31850916902197
 21
19.04150000000005
 31
0.0
  0
LINE
  5
DE
330
D8
100
AcDbEntity
  8
치수문자_일반주서
 62
     0
370
    -2
100
AcDbLine
 10
58.31850916902205
 20
-4.999999999999957
 30
0.0
 11
58.31850916902201
 21
5.00000000000005
 31
0.0
  0
LINE
  5
DF
330
D8
100
AcDbEntity
  8
치수문자_일반주서
 62
     0
370
    -2
100
AcDbLine
 10
58.31850916902206
 20
-8.301999999999957
 30
0.0
 11
58.31850916902208
 21
-11.60399999999996
 31
0.0
  0
LINE
  5
E0
330
D8
100
AcDbEntity
  8
치수문자_일반주서
 62
     0
370
    -2
100
AcDbLine
 10
58.318509169022
 20
8.30200000000005
 30
0.0
 11
58.31850916902199
 21
11.60400000000005
 31
0.0
  0
SOLID
  5
E1
330
D8
100
AcDbEntity
  8
치수문자_일반주서
 62
     0
100
AcDbTrace
 10
58.8688425023554
 20
-8.301999999999955
 30
0.0
 11
57.76817583568873
 21
-8.301999999999959
 31
0.0
 12
58.31850916902205
 22
-4.999999999999957
 32
0.0
 13
58.31850916902205
 23
-4.999999999999957
 33
0.0
  0
SOLID
  5
E2
330
D8
100
AcDbEntity
  8
치수문자_일반주서
 62
     0
100
AcDbTrace
 10
57.76817583568867
 20
8.302000000000048
 30
0.0
 11
58.86884250235534
 21
8.302000000000051
 31
0.0
 12
58.31850916902201
 22
5.00000000000005
 32
0.0
 13
58.31850916902201
 23
5.00000000000005
 33
0.0
  0
MTEXT
  5
E3
330
D8
100
AcDbEntity
  8
치수문자_일반주서
 62
     0
100
AcDbMText
 10
53.94350916902198
 20
15.32275000000003
 30
0.0
 40
3.5
 41
0.0
 71
     2
 72
     1
  1
\A1;%%c10
  7
SLDTEXTSTYLE0
 11
-3.552713678800498E-15
 21
1.0
 31
0.0
 73
     1
 44
1.0
  0
POINT
  5
143
330
D8
100
AcDbEntity
  8
Defpoints
 62
     0
100
AcDbPoint
 10
45.00000000000003
 20
-5.000000000000008
 30
0.0
  0
POINT
  5
144
330
D8
100
AcDbEntity
  8
Defpoints
 62
     0
100
AcDbPoint
 10
45.00000000000003
 20
5.000000000000001
 30
0.0
  0
POINT
  5
145
330
D8
100
AcDbEntity
  8
Defpoints
 62
     0
100
AcDbPoint
 10
58.31850916902198
 20
5.000000000000051
 30
0.0
  0
ENDBLK
  5
DA
330
D8
100
AcDbEntity
  8
0
100
AcDbBlockEnd
  0
BLOCK
  5
E7
330
E6
100
AcDbEntity
  8
0
100
AcDbBlockBegin
  2
_D_1
 70
     0
 10
0.0
 20
0.0
 30
0.0
  3
_D_1
  1

  0
LINE
  5
E9
330
E6
100
AcDbEntity
  8
치수문자_일반주서
 62
     0
370
    -2
100
AcDbLine
 10
-29.99999999999999
 20
4.562499999999992
 30
0.0
 11
-30.0
 21
22.38913260158164
 31
0.0
  0
LINE
  5
EA
330
E6
100
AcDbEntity
  8
치수문자_일반주서
 62
     0
370
    -2
100
AcDbLine
 10
45.0
 20
5.062499999999999
 30
0.0
 11
44.99999999999999
 21
22.38913260158164
 31
0.0
  0
LINE
  5
EB
330
E6
100
AcDbEntity
  8
치수문자_일반주서
 62
     0
370
    -2
100
AcDbLine
 10
-26.698
 20
22.38913260158164
 30
0.0
 11
41.69799999999999
 21
22.38913260158164
 31
0.0
  0
SOLID
  5
EC
330
E6
100
AcDbEntity
  8
치수문자_일반주서
 62
     0
100
AcDbTrace
 10
-26.698
 20
22.93946593491497
 30
0.0
 11
-26.698
 21
21.83879926824831
 31
0.0
 12
-30.0
 22
22.38913260158164
 32
0.0
 13
-30.0
 23
22.38913260158164
 33
0.0
  0
SOLID
  5
ED
330
E6
100
AcDbEntity
  8
치수문자_일반주서
 62
     0
100
AcDbTrace
 10
41.69799999999999
 20
21.83879926824831
 30
0.0
 11
41.69799999999999
 21
22.93946593491497
 31
0.0
 12
44.99999999999999
 22
22.38913260158164
 32
0.0
 13
44.99999999999999
 23
22.38913260158164
 33
0.0
  0
MTEXT
  5
EE
330
E6
100
AcDbEntity
  8
치수문자_일반주서
 62
     0
100
AcDbMText
 10
7.500000000000005
 20
26.76413260158164
 30
0.0
 40
3.5
 41
0.0
 71
     2
 72
     1
  1
\A1;75
  7
SLDTEXTSTYLE0
 73
     1
 44
1.0
  0
POINT
  5
13A
330
E6
100
AcDbEntity
  8
Defpoints
 62
     0
100
AcDbPoint
 10
-29.99999999999999
 20
4.499999999999992
 30
0.0
  0
POINT
  5
13B
330
E6
100
AcDbEntity
  8
Defpoints
 62
     0
100
AcDbPoint
 10
45.0
 20
4.999999999999999
 30
0.0
  0
POINT
  5
13C
330
E6
100
AcDbEntity
  8
Defpoints
 62
     0
100
AcDbPoint
 10
45.0
 20
22.38913260158164
 30
0.0
  0
ENDBLK
  5
E8
330
E6
100
AcDbEntity
  8
0
100
AcDbBlockEnd
  0
BLOCK
  5
F2
330
F1
100
AcDbEntity
  8
0
100
AcDbBlockBegin
  2
_D_2
 70
     0
 10
0.0
 20
0.0
 30
0.0
  3
_D_2
  1

  0
LINE
  5
F4
330
F1
100
AcDbEntity
  8
치수문자_일반주서
 62
     0
370
    -2
100
AcDbLine
 10
-29.56249999999998
 20
5.000000000000001
 30
0.0
 11
-40.40746512717796
 21
4.999999999999959
 31
0.0
  0
LINE
  5
F5
330
F1
100
AcDbEntity
  8
치수문자_일반주서
 62
     0
370
    -2
100
AcDbLine
 10
-29.56249999999998
 20
-5.000000000000008
 30
0.0
 11
-40.40746512717792
 21
-5.00000000000005
 31
0.0
  0
LINE
  5
F6
330
F1
100
AcDbEntity
  8
치수문자_일반주서
 62
     0
370
    -2
100
AcDbLine
 10
-40.40746512717796
 20
4.999999999999959
 30
0.0
 11
-40.40746512717801
 21
19.04149999999996
 31
0.0
  0
LINE
  5
F7
330
F1
100
AcDbEntity
  8
치수문자_일반주서
 62
     0
370
    -2
100
AcDbLine
 10
-40.40746512717796
 20
4.999999999999959
 30
0.0
 11
-40.40746512717792
 21
-5.00000000000005
 31
0.0
  0
LINE
  5
F8
330
F1
100
AcDbEntity
  8
치수문자_일반주서
 62
     0
370
    -2
100
AcDbLine
 10
-40.40746512717797
 20
8.301999999999959
 30
0.0
 11
-40.40746512717799
 21
11.60399999999996
 31
0.0
  0
LINE
  5
F9
330
F1
100
AcDbEntity
  8
치수문자_일반주서
 62
     0
370
    -2
100
AcDbLine
 10
-40.40746512717791
 20
-8.30200000000005
 30
0.0
 11
-40.40746512717789
 21
-11.60400000000005
 31
0.0
  0
SOLID
  5
FA
330
F1
100
AcDbEntity
  8
치수문자_일반주서
 62
     0
100
AcDbTrace
 10
-40.95779846051131
 20
8.301999999999957
 30
0.0
 11
-39.85713179384464
 21
8.30199999999996
 31
0.0
 12
-40.40746512717796
 22
4.999999999999959
 32
0.0
 13
-40.40746512717796
 23
4.999999999999959
 33
0.0
  0
SOLID
  5
FB
330
F1
100
AcDbEntity
  8
치수문자_일반주서
 62
     0
100
AcDbTrace
 10
-39.85713179384457
 20
-8.302000000000048
 30
0.0
 11
-40.95779846051124
 21
-8.302000000000051
 31
0.0
 12
-40.40746512717792
 22
-5.00000000000005
 32
0.0
 13
-40.40746512717792
 23
-5.00000000000005
 33
0.0
  0
MTEXT
  5
FC
330
F1
100
AcDbEntity
  8
치수문자_일반주서
 62
     0
100
AcDbMText
 10
-44.78246512717799
 20
15.32274999999995
 30
0.0
 40
3.5
 41
0.0
 71
     2
 72
     1
  1
\A1;%%c10
  7
SLDTEXTSTYLE0
 11
-3.552713678800498E-15
 21
1.0
 31
0.0
 73
     1
 44
1.0
  0
POINT
  5
140
330
F1
100
AcDbEntity
  8
Defpoints
 62
     0
100
AcDbPoint
 10
-29.49999999999998
 20
5.000000000000001
 30
0.0
  0
POINT
  5
141
330
F1
100
AcDbEntity
  8
Defpoints
 62
     0
100
AcDbPoint
 10
-29.49999999999998
 20
-5.000000000000008
 30
0.0
  0
POINT
  5
142
330
F1
100
AcDbEntity
  8
Defpoints
 62
     0
100
AcDbPoint
 10
-40.40746512717791
 20
-5.000000000000049
 30
0.0
  0
ENDBLK
  5
F3
330
F1
100
AcDbEntity
  8
0
100
AcDbBlockEnd
  0
BLOCK
  5
FF
330
FE
100
AcDbEntity
  8
0
100
AcDbBlockBegin
  2
_D_3
 70
     0
 10
0.0
 20
0.0
 30
0.0
  3
_D_3
  1

  0
LINE
  5
101
330
FE
100
AcDbEntity
  8
치수문자_일반주서
 62
     0
370
    -2
100
AcDbLine
 10
10.0
 20
4.368398370931059
 30
0.0
 11
10.0
 21
15.15181667351872
 31
0.0
  0
LINE
  5
102
330
FE
100
AcDbEntity
  8
치수문자_일반주서
 62
     0
370
    -2
100
AcDbLine
 10
45.0
 20
5.062499999999999
 30
0.0
 11
45.0
 21
15.15181667351872
 31
0.0
  0
LINE
  5
103
330
FE
100
AcDbEntity
  8
치수문자_일반주서
 62
     0
370
    -2
100
AcDbLine
 10
13.302
 20
15.15181667351872
 30
0.0
 11
41.698
 21
15.15181667351872
 31
0.0
  0
SOLID
  5
104
330
FE
100
AcDbEntity
  8
치수문자_일반주서
 62
     0
100
AcDbTrace
 10
13.302
 20
15.70215000685205
 30
0.0
 11
13.302
 21
14.60148334018538
 31
0.0
 12
10.0
 22
15.15181667351872
 32
0.0
 13
10.0
 23
15.15181667351872
 33
0.0
  0
SOLID
  5
105
330
FE
100
AcDbEntity
  8
치수문자_일반주서
 62
     0
100
AcDbTrace
 10
41.698
 20
14.60148334018538
 30
0.0
 11
41.698
 21
15.70215000685205
 31
0.0
 12
45.0
 22
15.15181667351872
 32
0.0
 13
45.0
 23
15.15181667351872
 33
0.0
  0
MTEXT
  5
106
330
FE
100
AcDbEntity
  8
치수문자_일반주서
 62
     0
100
AcDbMText
 10
27.5
 20
19.52681667351872
 30
0.0
 40
3.5
 41
0.0
 71
     2
 72
     1
  1
\A1;35
  7
SLDTEXTSTYLE0
 73
     1
 44
1.0
  0
POINT
  5
13D
330
FE
100
AcDbEntity
  8
Defpoints
 62
     0
100
AcDbPoint
 10
10.0
 20
4.305898370931059
 30
0.0
  0
POINT
  5
13E
330
FE
100
AcDbEntity
  8
Defpoints
 62
     0
100
AcDbPoint
 10
45.0
 20
4.999999999999999
 30
0.0
  0
POINT
  5
13F
330
FE
100
AcDbEntity
  8
Defpoints
 62
     0
100
AcDbPoint
 10
45.0
 20
15.15181667351872
 30
0.0
  0
ENDBLK
  5
100
330
FE
100
AcDbEntity
  8
0
100
AcDbBlockEnd
  0
BLOCK
  5
108
330
107
100
AcDbEntity
  8
0
100
AcDbBlockBegin
  2
SW_DOWELSYMBOL_0
 70
     0
 10
0.0
 20
0.0
 30
0.0
  3
SW_DOWELSYMBOL_0
  1

  0
CIRCLE
  5
10A
330
107
100
AcDbEntity
  8
해칭선
 62
     0
100
AcDbCircle
 10
0.0
 20
0.0
 30
0.0
 40
3.000000000000001
  0
HATCH
  5
10B
330
107
100
AcDbEntity
  8
0
  6
Continuous
 62
     0
370
    18
100
AcDbHatch
 10
0.0
 20
0.0
 30
0.0
210
0.0
220
0.0
230
1.0
  2
SOLID
 70
     1
 71
     0
 91
        1
 92
        0
 93
        3
 72
     2
 10
0.0
 20
0.0
 40
3.000000000000001
 50
0.0
 51
90.0
 73
     1
 72
     1
 10
0.0
 20
3.000000000000001
 11
0.0
 21
0.0
 72
     1
 10
0.0
 20
0.0
 11
3.000000000000001
 21
0.0
 97
        0
 75
     0
 76
     1
 98
        1
 10
0.0
 20
0.0
  0
HATCH
  5
10C
330
107
100
AcDbEntity
  8
0
  6
Continuous
 62
     0
370
    18
100
AcDbHatch
 10
0.0
 20
0.0
 30
0.0
210
0.0
220
0.0
230
1.0
  2
SOLID
 70
     1
 71
     0
 91
        1
 92
        0
 93
        3
 72
     2
 10
0.0
 20
0.0
 40
3.000000000000001
 50
180.0
 51
270.0000000000008
 73
     1
 72
     1
 10
0.0
 20
-3.000000000000001
 11
0.0
 21
0.0
 72
     1
 10
0.0
 20
0.0
 11
-3.000000000000001
 21
0.0
 97
        0
 75
     0
 76
     1
 98
        1
 10
0.0
 20
0.0
  0
ENDBLK
  5
109
330
107
100
AcDbEntity
  8
0
100
AcDbBlockEnd
  0
ENDSEC
  0
SECTION
  2
ENTITIES
  0
LINE
  5
99
330
1F
100
AcDbEntity
  8
0
  6
Continuous
 62
     4
370
    25
100
AcDbLine
 10
8.499871780752189
 20
4.999999999999997
 30
0.0
 11
-29.49999999999999
 21
4.999999999999994
 31
0.0
  0
LINE
  5
9A
330
1F
100
AcDbEntity
  8
0
  6
Continuous
 62
     4
370
    25
100
AcDbLine
 10
-28.00787488871724
 20
-5.000000000000003
 30
0.0
 11
8.49987178075219
 21
-4.999999999999999
 31
0.0
  0
LINE
  5
9B
330
1F
100
AcDbEntity
  8
0
  6
Continuous
 62
     4
370
    25
100
AcDbLine
 10
-29.49999999999999
 20
4.999999999999992
 30
0.0
 11
-29.99999999999999
 21
4.499999999999992
 31
0.0
  0
LINE
  5
9C
330
1F
100
AcDbEntity
  8
0
  6
Continuous
 62
     4
370
    25
100
AcDbLine
 10
-29.99999999999999
 20
-4.500000000000004
 30
0.0
 11
-29.49999999999999
 21
-5.000000000000003
 31
0.0
  0
LINE
  5
9D
330
1F
100
AcDbEntity
  8
0
  6
Continuous
 62
     1
370
    25
100
AcDbLine
 10
43.57087108084515
 20
-5.000000000000006
 30
0.0
 11
45.0
 21
-5.000000000000006
 31
0.0
  0
LINE
  5
9E
330
1F
100
AcDbEntity
  8
0
  6
Continuous
 62
     1
370
    25
100
AcDbLine
 10
26.32363271001886
 20
4.999999999999999
 30
0.0
 11
23.46540723348746
 21
4.999999999999999
 31
0.0
  0
LINE
  5
9F
330
1F
100
AcDbEntity
  8
0
  6
Continuous
 62
     1
370
    25
100
AcDbLine
 10
33.51873948924235
 20
-5.000000000000006
 30
0.0
 11
36.37650908237218
 21
-5.000000000000006
 31
0.0
  0
LINE
  5
A0
330
1F
100
AcDbEntity
  8
0
  6
Continuous
 62
     1
370
    25
100
AcDbLine
 10
16.27150124121234
 20
4.999999999999999
 30
0.0
 11
13.41363087046837
 21
4.999999999999999
 31
0.0
  0
LINE
  5
A1
330
1F
100
AcDbEntity
  8
0
  6
Continuous
 62
     1
370
    25
100
AcDbLine
 10
13.41363087046842
 20
-5.000000000000006
 30
0.0
 11
16.27150124121234
 21
-5.000000000000006
 31
0.0
  0
LINE
  5
A2
330
1F
100
AcDbEntity
  8
0
  6
Continuous
 62
     1
370
    25
100
AcDbLine
 10
36.37650908237218
 20
4.999999999999999
 30
0.0
 11
33.51873948924241
 21
4.999999999999999
 31
0.0
  0
LINE
  5
A3
330
1F
100
AcDbEntity
  8
0
  6
Continuous
 62
     1
370
    25
100
AcDbLine
 10
23.46540723348745
 20
-5.000000000000006
 30
0.0
 11
26.32363271001881
 21
-5.000000000000006
 31
0.0
  0
LINE
  5
A4
330
1F
100
AcDbEntity
  8
0
  6
Continuous
 62
     1
370
    25
100
AcDbLine
 10
45.0
 20
4.999999999999999
 30
0.0
 11
43.57087108084512
 21
4.999999999999999
 31
0.0
  0
SPLINE
  5
A5
330
1F
100
AcDbEntity
  8
0
  6
Continuous
 62
     4
370
    25
100
AcDbSpline
210
0.0
220
0.0
230
1.0
 70
     8
 71
     3
 72
    12
 73
     8
 74
     0
 42
0.000000001
 43
0.00000001
 40
0.0
 40
0.0
 40
0.0
 40
0.0
 40
0.25
 40
0.25
 40
0.5
 40
0.5
 40
1.0
 40
1.0
 40
1.0
 40
1.0
 10
8.888833807408588
 20
4.57123797148892
 30
0.0
 10
8.826538201690656
 20
4.590922216196324
 30
0.0
 10
8.77123737113624
 20
4.612547327616834
 30
0.0
 10
8.67403855985991
 20
4.658331090825181
 30
0.0
 10
8.632118484891473
 20
4.682670522115333
 30
0.0
 10
8.532940512036118
 20
4.754149302179541
 30
0.0
 10
8.499871780752185
 20
4.801100243158078
 30
0.0
 10
8.499871780752175
 20
4.840637727510302
 30
0.0
  0
SPLINE
  5
A6
330
1F
100
AcDbEntity
  8
0
  6
Continuous
 62
     4
370
    25
100
AcDbSpline
210
0.0
220
0.0
230
1.0
 70
     8
 71
     3
 72
     8
 73
     4
 74
     0
 42
0.000000001
 43
0.00000001
 40
0.0
 40
0.0
 40
0.0
 40
0.0
 40
1.0
 40
1.0
 40
1.0
 40
1.0
 10
10.00000000000003
 20
4.152116669462047
 30
0.0
 10
9.62804538038705
 20
4.313707820923107
 30
0.0
 10
9.260698094065507
 20
4.453735821342999
 30
0.0
 10
8.888833807408588
 20
4.571237971488918
 30
0.0
  0
SPLINE
  5
A7
330
1F
100
AcDbEntity
  8
0
  6
Continuous
 62
     4
370
    25
100
AcDbSpline
210
0.0
220
0.0
230
1.0
 70
     8
 71
     3
 72
    18
 73
    14
 74
     0
 42
0.000000001
 43
0.00000001
 40
0.0
 40
0.0
 40
0.0
 40
0.0
 40
0.1249999999999999
 40
0.1249999999999999
 40
0.2499999999999999
 40
0.2499999999999999
 40
0.3749999999999998
 40
0.3749999999999998
 40
0.4999999999999997
 40
0.4999999999999997
 40
0.7499999999999998
 40
0.7499999999999998
 40
1.0
 40
1.0
 40
1.0
 40
1.0
 10
8.499871780752189
 20
1.723497280614643
 30
0.0
 10
8.499871780752189
 20
1.807188266637299
 30
0.0
 10
8.510023949987051
 20
1.888449764053396
 30
0.0
 10
8.55193582263134
 20
2.046121415998225
 30
0.0
 10
8.584110109947922
 20
2.122416997254409
 30
0.0
 10
8.667895999565836
 20
2.261235214129385
 30
0.0
 10
8.720779726011926
 20
2.325861927786152
 30
0.0
 10
8.842740313922494
 20
2.438079913122851
 30
0.0
 10
8.91179532471436
 20
2.486163904983151
 30
0.0
 10
9.140819100551107
 20
2.604850057181079
 30
0.0
 10
9.316386942135189
 20
2.645889880716911
 30
0.0
 10
9.668742618844016
 20
2.648083925107692
 30
0.0
 10
9.84570667118553
 20
2.609098844178281
 30
0.0
 10
9.999999999999986
 20
2.531646318309157
 30
0.0
  0
SPLINE
  5
A8
330
1F
100
AcDbEntity
  8
0
  6
Continuous
 62
     4
370
    25
100
AcDbSpline
210
0.0
220
0.0
230
1.0
 70
     8
 71
     3
 72
    12
 73
     8
 74
     0
 42
0.000000001
 43
0.00000001
 40
0.0
 40
0.0
 40
0.0
 40
0.0
 40
0.2500000000000002
 40
0.2500000000000002
 40
0.5000000000000003
 40
0.5000000000000003
 40
1.0
 40
1.0
 40
1.0
 40
1.0
 10
8.888833807408588
 20
-2.025779703720473
 30
0.0
 10
8.826538201690688
 20
-1.981361563543994
 30
0.0
 10
8.771237371136298
 20
-1.930838352674068
 30
0.0
 10
8.674038559860005
 20
-1.817603103516837
 30
0.0
 10
8.63211848489158
 20
-1.754302843771349
 30
0.0
 10
8.532940512036227
 20
-1.554989118287809
 30
0.0
 10
8.499871780752178
 20
-1.405117976725423
 30
0.0
 10
8.499871780752175
 20
-1.252288461579352
 30
0.0
  0
SPLINE
  5
A9
330
1F
100
AcDbEntity
  8
0
  6
Continuous
 62
     4
370
    25
100
AcDbSpline
210
0.0
220
0.0
230
1.0
 70
     8
 71
     3
 72
     8
 73
     4
 74
     0
 42
0.000000001
 43
0.00000001
 40
0.0
 40
0.0
 40
0.0
 40
0.0
 40
1.0
 40
1.0
 40
1.0
 40
1.0
 10
10.00000000000004
 20
-2.785664581955853
 30
0.0
 10
9.62804538038705
 20
-2.544808120641349
 30
0.0
 10
9.260698094065507
 20
-2.2909271378132
 30
0.0
 10
8.888833807408588
 20
-2.025779703720472
 30
0.0
  0
SPLINE
  5
AA
330
1F
100
AcDbEntity
  8
0
  6
Continuous
 62
     4
370
    25
100
AcDbSpline
210
0.0
220
0.0
230
1.0
 70
     8
 71
     3
 72
    18
 73
    14
 74
     0
 42
0.000000001
 43
0.00000001
 40
0.0
 40
0.0
 40
0.0
 40
0.0
 40
0.1249999999999999
 40
0.1249999999999999
 40
0.2499999999999999
 40
0.2499999999999999
 40
0.3749999999999998
 40
0.3749999999999998
 40
0.4999999999999998
 40
0.4999999999999998
 40
0.7499999999999999
 40
0.7499999999999999
 40
1.0
 40
1.0
 40
1.0
 40
1.0
 10
8.499871780752189
 20
-4.693565502228982
 30
0.0
 10
8.499871780752189
 20
-4.662833815038614
 30
0.0
 10
8.510023949987053
 20
-4.630454724459396
 30
0.0
 10
8.551935822631346
 20
-4.562974974467322
 30
0.0
 10
8.584110109947922
 20
-4.527837199707183
 30
0.0
 10
8.667895999565836
 20
-4.460132164372244
 30
0.0
 10
8.72077972601193
 20
-4.426560602244095
 30
0.0
 10
8.842740313922494
 20
-4.365757529878588
 30
0.0
 10
8.91179532471436
 20
-4.338328065292602
 30
0.0
 10
9.140819100551107
 20
-4.268859524251132
 30
0.0
 10
9.316386942135193
 20
-4.242554467675866
 30
0.0
 10
9.66874261884402
 20
-4.2411853529011
 30
0.0
 10
9.84570667118553
 20
-4.266224355920937
 30
0.0
 10
9.999999999999986
 20
-4.311701162997243
 30
0.0
  0
LINE
  5
AB
330
1F
100
AcDbEntity
  8
0
  6
Continuous
 62
     4
370
    25
100
AcDbLine
 10
8.499871780752189
 20
-4.693565502228982
 30
0.0
 11
8.499871780752189
 21
-5.000000000000003
 31
0.0
  0
SPLINE
  5
AC
330
1F
100
AcDbEntity
  8
0
  6
Continuous
 62
     4
370
    25
100
AcDbSpline
210
0.0
220
0.0
230
1.0
 70
     8
 71
     3
 72
    12
 73
     8
 74
     0
 42
0.000000001
 43
0.00000001
 40
0.0
 40
0.0
 40
0.0
 40
0.0
 40
0.2499999999999998
 40
0.2499999999999998
 40
0.4999999999999996
 40
0.4999999999999996
 40
1.0
 40
1.0
 40
1.0
 40
1.0
 10
8.888833807408588
 20
-4.57123797148894
 30
0.0
 10
8.826538201690688
 20
-4.590922216196336
 30
0.0
 10
8.771237371136298
 20
-4.61254732761683
 30
0.0
 10
8.674038559860005
 20
-4.65833109082515
 30
0.0
 10
8.63211848489158
 20
-4.68267052211529
 30
0.0
 10
8.532940512036227
 20
-4.754149302179457
 30
0.0
 10
8.499871780752178
 20
-4.80110024315799
 30
0.0
 10
8.499871780752175
 20
-4.84063772751021
 30
0.0
  0
LINE
  5
AD
330
1F
100
AcDbEntity
  8
0
  6
Continuous
 62
     4
370
    25
100
AcDbLine
 10
9.713123033851353
 20
-4.260323928084063
 30
0.0
 11
8.888833807408588
 21
-4.571237971488938
 31
0.0
  0
SPLINE
  5
AE
330
1F
100
AcDbEntity
  8
0
  6
Continuous
 62
     4
370
    25
100
AcDbSpline
210
0.0
220
0.0
230
1.0
 70
     8
 71
     3
 72
     9
 73
     5
 74
     0
 42
0.000000001
 43
0.00000001
 40
0.0
 40
0.0
 40
0.0
 40
0.0
 40
0.761620805421996
 40
1.0
 40
1.0
 40
1.0
 40
1.0
 10
9.713123033851284
 20
4.260323928084064
 30
0.0
 10
9.789671943820908
 20
4.26887813457606
 30
0.0
 10
9.890179846736205
 20
4.280109716527468
 30
0.0
 10
9.978860400919139
 20
4.305620034052254
 30
0.0
 10
9.999999999999996
 20
4.311701162997242
 30
0.0
  0
LINE
  5
AF
330
1F
100
AcDbEntity
  8
0
  6
Continuous
 62
     4
370
    25
100
AcDbLine
 10
8.499871780752189
 20
4.999999999999997
 30
0.0
 11
8.499871780752189
 21
4.84063772751032
 31
0.0
  0
LINE
  5
B0
330
1F
100
AcDbEntity
  8
0
  6
Continuous
 62
     4
370
    25
100
AcDbLine
 10
-29.49999999999999
 20
4.999999999999992
 30
0.0
 11
-29.49999999999999
 21
-5.000000000000003
 31
0.0
  0
LINE
  5
B1
330
1F
100
AcDbEntity
  8
0
  6
Continuous
 62
     4
370
    25
100
AcDbLine
 10
8.499871780752189
 20
1.723497280614643
 30
0.0
 11
8.499871780752189
 21
-1.252288461579349
 31
0.0
  0
LINE
  5
B2
330
1F
100
AcDbEntity
  8
0
  6
Continuous
 62
     4
370
    25
100
AcDbLine
 10
-29.99999999999999
 20
4.499999999999992
 30
0.0
 11
-29.99999999999999
 21
-4.500000000000006
 31
0.0
  0
SPLINE
  5
B3
330
1F
100
AcDbEntity
  8
0
  6
Continuous
 62
     4
370
    25
100
AcDbSpline
210
0.0
220
0.0
230
1.0
 70
    24
 71
     3
 72
     8
 73
     4
 74
     0
 42
0.000000001
 43
0.00000001
 40
0.0
 40
0.0
 40
0.0
 40
0.0
 40
1.0
 40
1.0
 40
1.0
 40
1.0
 10
10.0
 20
2.531646318309189
 30
0.0
 10
10.0
 20
2.346514395763732
 30
0.0
 10
10.0
 20
2.133090784041126
 30
0.0
 10
10.0
 20
1.888694273754073
 30
0.0
  0
LINE
  5
B4
330
1F
100
AcDbEntity
  8
0
  6
Continuous
 62
     4
370
    25
100
AcDbLine
 10
9.999999999999996
 20
4.311701162997242
 30
0.0
 11
9.999999999999996
 21
4.20425345619555
 31
0.0
  0
SPLINE
  5
B5
330
1F
100
AcDbEntity
  8
0
  6
Continuous
 62
     1
370
    25
100
AcDbSpline
210
0.0
220
0.0
230
1.0
 70
     8
 71
     3
 72
    29
 73
    25
 74
     0
 42
0.000000001
 43
0.00000001
 40
0.0
 40
0.0
 40
0.0
 40
0.0
 40
0.0016327440430892
 40
0.0497251661088794
 40
0.0978139912572373
 40
0.1459762397538289
 40
0.1941282649593717
 40
0.2422140271029933
 40
0.2903109489155494
 40
0.3384878940759454
 40
0.3866213850073051
 40
0.4347032935512282
 40
0.4828111111335492
 40
0.5309949040318054
 40
0.5791126361887264
 40
0.6271934999489576
 40
0.6753150053663208
 40
0.7278605593556579
 40
0.7803614767417444
 40
0.8328281976881345
 40
0.8852926904547116
 40
0.9377869457091017
 40
0.9903314330978031
 40
1.0
 40
1.0
 40
1.0
 40
1.0
 10
19.86891036383487
 20
4.228572187302381
 30
0.0
 10
19.8818140360658
 20
4.234643632769999
 30
0.0
 10
20.27479494927987
 20
4.41954930471297
 30
0.0
 10
21.04715263387603
 20
4.662535371315832
 30
0.0
 10
22.18713654587716
 20
4.929281303044641
 30
0.0
 10
23.32845513510554
 20
5.024700744200871
 30
0.0
 10
24.46960407765399
 20
4.965102071337363
 30
0.0
 10
25.60946440590284
 20
4.74702175781375
 30
0.0
 10
26.74956958318933
 20
4.378647446326843
 30
0.0
 10
27.89117074793019
 20
3.872083702630361
 30
0.0
 10
29.03197456394152
 20
3.242485007298847
 30
0.0
 10
30.17174263910128
 20
2.50995101397536
 30
0.0
 10
31.31206167565302
 20
1.697741512221503
 30
0.0
 10
32.45378824039916
 20
0.8329046508709523
 30
0.0
 10
33.5942988656723
 20
-0.0593777971851114
 30
0.0
 10
34.73403328765947
 20
-0.9497849516494639
 30
0.0
 10
35.90910943217763
 20
-1.835943333682091
 30
0.0
 10
37.11997958437772
 20
-2.68411627380556
 30
0.0
 10
38.36448808352762
 20
-3.456214953571253
 30
0.0
 10
39.60812431031785
 20
-4.096686343264565
 30
0.0
 10
40.85170183919625
 20
-4.587296720508191
 30
0.0
 10
42.09604243250521
 20
-4.888218432945771
 30
0.0
 10
43.00289273598501
 20
-5.01894782127261
 30
0.0
 10
43.49447413076069
 20
-4.990278562319884
 30
0.0
 10
43.57087108084515
 20
-4.985823056134242
 30
0.0
  0
SPLINE
  5
B6
330
1F
100
AcDbEntity
  8
0
  6
Continuous
 62
     1
370
    25
100
AcDbSpline
210
0.0
220
0.0
230
1.0
 70
     8
 71
     3
 72
    24
 73
    20
 74
     0
 42
0.000000001
 43
0.00000001
 40
0.0
 40
0.0
 40
0.0
 40
0.0
 40
0.0611147105682499
 40
0.1221405628482379
 40
0.1831757788711356
 40
0.2443116910431669
 40
0.3054019801122352
 40
0.3664220288771597
 40
0.4274701628151176
 40
0.4886173187202573
 40
0.5496867049148891
 40
0.6107045141475482
 40
0.671769111824091
 40
0.7329175449685793
 40
0.7939695603915137
 40
0.8549886955240631
 40
0.9160732921319319
 40
0.9772130350423074
 40
0.9999999999999999
 40
0.9999999999999999
 40
0.9999999999999999
 40
0.9999999999999999
 10
45.0
 20
-4.875828491775109
 30
0.0
 10
44.61940213928816
 20
-4.795097134229279
 30
0.0
 10
43.85875979157932
 20
-4.633751799227846
 30
0.0
 10
42.71886368673736
 20
-4.203254791023793
 30
0.0
 10
41.57880603954214
 20
-3.650478337820914
 30
0.0
 10
40.43726031918902
 20
-2.979856370998239
 30
0.0
 10
39.29637334519555
 20
-2.215192225590993
 30
0.0
 10
38.15658782869997
 20
-1.379849664386815
 30
0.0
 10
37.01632825075519
 20
-0.5007006817068268
 30
0.0
 10
35.87461958327651
 20
0.3931226734300915
 30
0.0
 10
34.73403996843992
 20
1.275526192922448
 30
0.0
 10
33.59429704131617
 20
2.117532363207217
 30
0.0
 10
32.4537888551281
 20
2.892370161692337
 30
0.0
 10
31.31206104428439
 20
3.574939947707008
 30
0.0
 10
30.17174454643754
 20
4.144425604628617
 30
0.0
 10
29.03196756544811
 20
4.585191518655421
 30
0.0
 10
27.89119687640288
 20
4.870251225665072
 30
0.0
 10
26.98777702135141
 20
5.004097795842673
 30
0.0
 10
26.46544989940466
 20
4.986282158064578
 30
0.0
 10
26.32363271001886
 20
4.981445029049743
 30
0.0
  0
LINE
  5
B7
330
1F
100
AcDbEntity
  8
0
  6
Continuous
 62
     1
370
    25
100
AcDbLine
 10
45.0
 20
-5.00000000000001
 30
0.0
 11
45.0
 21
-4.875828491776313
 31
0.0
  0
SPLINE
  5
B8
330
1F
100
AcDbEntity
  8
0
  6
Continuous
 62
     1
370
    25
100
AcDbSpline
210
0.0
220
0.0
230
1.0
 70
     8
 71
     3
 72
    29
 73
    25
 74
     0
 42
0.000000001
 43
0.00000001
 40
0.0
 40
0.0
 40
0.0
 40
0.0
 40
0.0286029450383236
 40
0.076683071541587
 40
0.124785327471156
 40
0.1729656067521493
 40
0.2210846081811082
 40
0.2691629700677119
 40
0.3172781984325692
 40
0.3654594841013103
 40
0.4135647984074698
 40
0.4616442050234001
 40
0.5097751913426928
 40
0.5579496296298938
 40
0.6060440487332465
 40
0.6541273087483545
 40
0.7022768283774047
 40
0.750436570765538
 40
0.7985228936259998
 40
0.8466128132167294
 40
0.8947806994359437
 40
0.9429208384638512
 40
0.9965015740849961
 40
1.0
 40
1.0
 40
1.0
 40
1.0
 10
39.97405568404285
 20
-4.214123302764444
 30
0.0
 10
39.74802894544405
 20
-4.310019586762603
 30
0.0
 10
39.14206251285955
 20
-4.567112749601268
 30
0.0
 10
38.1566033320389
 20
-4.829729307486791
 30
0.0
 10
37.0163240875093
 20
-5.002532679921132
 30
0.0
 10
35.87462070043314
 20
-5.010867727940218
 30
0.0
 10
34.73403966059033
 20
-4.862090187150236
 30
0.0
 10
33.59429715725683
 20
-4.558742043510044
 30
0.0
 10
32.45378869910719
 20
-4.110969248868484
 30
0.0
 10
31.31206155263613
 20
-3.533654616967632
 30
0.0
 10
30.17174267294838
 20
-2.843615464375714
 30
0.0
 10
29.03197455140149
 20
-2.063487823925213
 30
0.0
 10
27.89117076423821
 20
-1.218150142205886
 30
0.0
 10
26.74956953050355
 20
-0.3349909667937992
 30
0.0
 10
25.60946459995301
 20
0.5598981233787447
 30
0.0
 10
24.4696033537626
 20
1.436936627366409
 30
0.0
 10
23.32845784096623
 20
2.267917235522213
 30
0.0
 10
22.18712645208619
 20
3.026849340041889
 30
0.0
 10
21.04719024128019
 20
3.690901853582665
 30
0.0
 10
19.9071844485546
 20
4.236586718640294
 30
0.0
 10
18.76567657438922
 20
4.652492953367638
 30
0.0
 10
17.58134898214547
 20
4.912433241706152
 30
0.0
 10
16.75008559659892
 20
5.028241689269488
 30
0.0
 10
16.29914004265437
 20
4.995980216138781
 30
0.0
 10
16.27150124121233
 20
4.994002885522507
 30
0.0
  0
SPLINE
  5
B9
330
1F
100
AcDbEntity
  8
0
  6
Continuous
 62
     1
370
    25
100
AcDbSpline
210
0.0
220
0.0
230
1.0
 70
     8
 71
     3
 72
    15
 73
    11
 74
     0
 42
0.000000001
 43
0.00000001
 40
0.0
 40
0.0
 40
0.0
 40
0.0
 40
0.1323581168396953
 40
0.2645237903937957
 40
0.3967097433105335
 40
0.5291137771532611
 40
0.6614190035577076
 40
0.7935721082504369
 40
0.9257860379160614
 40
1.0
 40
1.0
 40
1.0
 40
1.0
 10
45.0
 20
1.107382733648241
 30
0.0
 10
44.6194021397163
 20
1.393692101990513
 30
0.0
 10
43.85875979286311
 20
1.965894556569688
 30
0.0
 10
42.71886368161059
 20
2.753341809263516
 30
0.0
 10
41.57880605878525
 20
3.456168990904232
 30
0.0
 10
40.43726024723892
 20
4.047556647897726
 30
0.0
 10
39.29637361335531
 20
4.513379333780366
 30
0.0
 10
38.15658682897796
 20
4.828785938002333
 30
0.0
 10
37.18362040295787
 20
4.991053274073532
 30
0.0
 10
36.58994456295092
 20
4.983238331177777
 30
0.0
 10
36.37650908237218
 20
4.980428740521988
 30
0.0
  0
SPLINE
  5
BA
330
1F
100
AcDbEntity
  8
0
  6
Continuous
 62
     1
370
    25
100
AcDbSpline
210
0.0
220
0.0
230
1.0
 70
     8
 71
     3
 72
    15
 73
    11
 74
     0
 42
0.000000001
 43
0.00000001
 40
0.0
 40
0.0
 40
0.0
 40
0.0
 40
0.1117808096952745
 40
0.2274167279151644
 40
0.3561213325872947
 40
0.4848187076091656
 40
0.6135672640772388
 40
0.7424241315003781
 40
0.871262468514669
 40
0.9999999999999999
 40
0.9999999999999999
 40
0.9999999999999999
 40
0.9999999999999999
 10
19.86891036383487
 20
-4.228572187302385
 30
0.0
 10
19.50110928789568
 20
-4.370377110220753
 30
0.0
 10
18.75282237315793
 20
-4.65887753941133
 30
0.0
 10
17.58133648941909
 20
-4.9225314280737
 30
0.0
 10
16.35444110651479
 20
-5.033117681845868
 30
0.0
 10
15.08442100388026
 20
-4.946324819590371
 30
0.0
 10
13.81377744954412
 20
-4.66654039325337
 30
0.0
 10
12.54213237608901
 20
-4.201120049985607
 30
0.0
 10
11.27063121066532
 20
-3.578516219505897
 30
0.0
 10
10.42343321638771
 20
-3.049879498281005
 30
0.0
 10
10.00000000000012
 20
-2.785664581955908
 30
0.0
  0
SPLINE
  5
BB
330
1F
100
AcDbEntity
  8
0
  6
Continuous
 62
     1
370
    25
100
AcDbSpline
210
0.0
220
0.0
230
1.0
 70
     8
 71
     3
 72
    19
 73
    15
 74
     0
 42
0.000000001
 43
0.00000001
 40
0.0
 40
0.0
 40
0.0
 40
0.0
 40
0.0943479550836936
 40
0.1887697875783398
 40
0.2832052004652883
 40
0.3775612354349684
 40
0.4718797610262124
 40
0.5662035850157555
 40
0.6509497526049086
 40
0.7357447665034424
 40
0.8204025275170171
 40
0.9050539568266917
 40
0.9898346342798486
 40
1.0
 40
1.0
 40
1.0
 40
1.0
 10
9.999999999998629
 20
2.541503338450373
 30
0.0
 10
10.42343321009289
 20
2.246825882501557
 30
0.0
 10
11.27063119177891
 20
1.657240228904304
 30
0.0
 10
12.54213245170225
 20
0.681339073347768
 30
0.0
 10
13.81377716605253
 20
-0.3140455632195197
 30
0.0
 10
15.08442206107041
 20
-1.299328907828012
 30
0.0
 10
16.35443716247189
 20
-2.232805827850329
 30
0.0
 10
17.58135057821063
 20
-3.049953895094768
 30
0.0
 10
18.76567658793912
 20
-3.731363153658629
 30
0.0
 10
19.90718285449273
 20
-4.268174336991391
 30
0.0
 10
21.04719659148404
 20
-4.674571923644967
 30
0.0
 10
22.18710262763157
 20
-4.916862579168852
 30
0.0
 10
22.99357278782982
 20
-5.019676925279698
 30
0.0
 10
23.41977593855984
 20
-4.994341669031366
 30
0.0
 10
23.46540723348745
 20
-4.991629158464624
 30
0.0
  0
SPLINE
  5
BC
330
1F
100
AcDbEntity
  8
0
  6
Continuous
 62
     1
370
    25
100
AcDbSpline
210
0.0
220
0.0
230
1.0
 70
     8
 71
     3
 72
    11
 73
     7
 74
     0
 42
0.000000001
 43
0.00000001
 40
0.0
 40
0.0
 40
0.0
 40
0.0
 40
0.1902879096968747
 40
0.460084058598025
 40
0.7301383773945763
 40
1.0
 40
1.0
 40
1.0
 40
1.0
 10
39.97405568404284
 20
4.214123302764442
 30
0.0
 10
40.26652839492417
 20
4.335084872267292
 30
0.0
 10
40.97367806126817
 20
4.62754953762576
 30
0.0
 10
42.09606553279279
 20
4.892886452349138
 30
0.0
 10
43.34148204637829
 20
5.037643799007109
 30
0.0
 10
44.17150792354344
 20
4.970710344599163
 30
0.0
 10
44.58637274386092
 20
4.937255561682008
 30
0.0
  0
SPLINE
  5
BD
330
1F
100
AcDbEntity
  8
0
  6
Continuous
 62
     1
370
    25
100
AcDbSpline
210
0.0
220
0.0
230
1.0
 70
     8
 71
     3
 72
    15
 73
    11
 74
     0
 42
0.000000001
 43
0.00000001
 40
0.0
 40
0.0
 40
0.0
 40
0.0
 40
0.1740085503660927
 40
0.3164982674657567
 40
0.4635993103800884
 40
0.5574337632407963
 40
0.6537908096987239
 40
0.7477144423789884
 40
0.8447146667046157
 40
1.0
 40
1.0
 40
1.0
 40
1.0
 10
44.58637274386092
 20
4.937255561682004
 30
0.0
 10
44.58212829695941
 20
4.740343309846836
 30
0.0
 10
44.57440821603321
 20
4.382186274359253
 30
0.0
 10
44.47950300859343
 20
3.868524263900701
 30
0.0
 10
44.34142688895227
 20
3.466192913421151
 30
0.0
 10
44.16758793982504
 20
3.148053693545424
 30
0.0
 10
43.9868539155307
 20
2.912454422763838
 30
0.0
 10
43.77234374322428
 20
2.719072481485644
 30
0.0
 10
43.48445441150946
 20
2.538426949539613
 30
0.0
 10
43.2515504584531
 20
2.496759241517428
 30
0.0
 10
43.10819477722738
 20
2.471112177179327
 30
0.0
  0
SPLINE
  5
BE
330
1F
100
AcDbEntity
  8
0
  6
Continuous
 62
     1
370
    25
100
AcDbSpline
210
0.0
220
0.0
230
1.0
 70
     8
 71
     3
 72
     9
 73
     5
 74
     0
 42
0.000000001
 43
0.00000001
 40
0.0
 40
0.0
 40
0.0
 40
0.0
 40
0.7874314132986031
 40
1.0
 40
1.0
 40
1.0
 40
1.0
 10
45.0
 20
1.193141214989694
 30
0.0
 10
44.83602989567065
 20
1.295467994287851
 30
0.0
 10
44.62779575418206
 20
1.425418079552423
 30
0.0
 10
44.42333138510844
 20
1.542618460769488
 30
0.0
 10
44.37986868314367
 20
1.567531580165664
 30
0.0
  0
LINE
  5
BF
330
1F
100
AcDbEntity
  8
0
  6
Continuous
 62
     1
370
    25
100
AcDbLine
 10
45.0
 20
1.111450401845119
 30
0.0
 11
45.0
 21
1.193141214989694
 31
0.0
  0
SPLINE
  5
C0
330
1F
100
AcDbEntity
  8
0
  6
Continuous
 62
     1
370
    25
100
AcDbSpline
210
0.0
220
0.0
230
1.0
 70
     8
 71
     3
 72
    10
 73
     6
 74
     0
 42
0.000000001
 43
0.00000001
 40
0.0
 40
0.0
 40
0.0
 40
0.0
 40
0.3722153604608802
 40
0.7447221772349708
 40
1.0
 40
1.0
 40
1.0
 40
1.0
 10
9.999999999998629
 20
-4.305898370914661
 30
0.0
 10
10.42343112514328
 20
-4.456312521846719
 30
0.0
 10
11.27062493529748
 20
-4.757258602713376
 30
0.0
 10
12.40868311349634
 20
-4.975716546179359
 30
0.0
 10
13.12311815325581
 20
-4.977872563853203
 30
0.0
 10
13.41363087046842
 20
-4.978749271346439
 30
0.0
  0
SPLINE
  5
C1
330
1F
100
AcDbEntity
  8
0
  6
Continuous
 62
     1
370
    25
100
AcDbSpline
210
0.0
220
0.0
230
1.0
 70
     8
 71
     3
 72
    20
 73
    16
 74
     0
 42
0.000000001
 43
0.00000001
 40
0.0
 40
0.0
 40
0.0
 40
0.0
 40
0.0171360782489575
 40
0.0948876101214267
 40
0.1727619327895568
 40
0.2505294885309466
 40
0.3282374578170705
 40
0.4060111118766607
 40
0.4909348835436556
 40
0.5757865138320821
 40
0.6605828760642009
 40
0.7453756371270615
 40
0.830216500122957
 40
0.9151385479571639
 40
1.0
 40
1.0
 40
1.0
 40
1.0
 10
29.92033997308215
 20
4.219242919359005
 30
0.0
 10
30.00408108277439
 20
4.257598831384712
 30
0.0
 10
30.46778074918413
 20
4.469987032072843
 30
0.0
 10
31.31205653175907
 20
4.724212987909777
 30
0.0
 10
32.45378961799912
 20
4.958898796683294
 30
0.0
 10
33.59429849540516
 20
5.025707114431703
 30
0.0
 10
34.7340333931982
 20
4.936123329751822
 30
0.0
 10
35.90910937566264
 20
4.681895240143449
 30
0.0
 10
37.1199797052065
 20
4.255866659923451
 30
0.0
 10
38.36448766232429
 20
3.656910900398054
 30
0.0
 10
39.60812587333098
 20
2.920277552551104
 30
0.0
 10
40.85169600678594
 20
2.073476984619619
 30
0.0
 10
42.09606422141894
 20
1.148862517902782
 30
0.0
 10
43.3414823740794
 20
0.1794440711521189
 30
0.0
 10
44.17150803275113
 20
-0.4666787919474135
 30
0.0
 10
44.58637274386092
 20
-0.789624922757589
 30
0.0
  0
SPLINE
  5
C2
330
1F
100
AcDbEntity
  8
0
  6
Continuous
 62
     1
370
    25
100
AcDbSpline
210
0.0
220
0.0
230
1.0
 70
     8
 71
     3
 72
    12
 73
     8
 74
     0
 42
0.000000001
 43
0.00000001
 40
0.0
 40
0.0
 40
0.0
 40
0.0
 40
0.5000000000000024
 40
0.5000000000000024
 40
0.7500000000000012
 40
0.7500000000000012
 40
1.0
 40
1.0
 40
1.0
 40
1.0
 10
45.0
 20
-3.77812854640489
 30
0.0
 10
44.55378953184172
 20
-3.632729568001006
 30
0.0
 10
44.11815014623615
 20
-3.441061892835223
 30
0.0
 10
43.48445739769579
 20
-3.067044896151958
 30
0.0
 10
43.27655066386697
 20
-2.927822910714537
 30
0.0
 10
42.86916954605
 20
-2.612471287683532
 30
0.0
 10
42.67458140690454
 20
-2.441053542505866
 30
0.0
 10
42.4877744579674
 20
-2.259079262214312
 30
0.0
  0
LINE
  5
C3
330
1F
100
AcDbEntity
  8
0
  6
Continuous
 62
     1
370
    25
100
AcDbLine
 10
45.0
 20
-4.875828491776313
 30
0.0
 11
45.0
 21
-3.77812854640489
 31
0.0
  0
SPLINE
  5
C4
330
1F
100
AcDbEntity
  8
0
  6
Continuous
 62
     1
370
    25
100
AcDbSpline
210
0.0
220
0.0
230
1.0
 70
    24
 71
     3
 72
    17
 73
    13
 74
     0
 42
0.000000001
 43
0.00000001
 40
0.0
 40
0.0
 40
0.0
 40
0.0
 40
0.1266783838840618
 40
0.2471611769400455
 40
0.367346222914095
 40
0.4464047675336617
 40
0.5254036210522766
 40
0.6047309974085425
 40
0.6840649531941823
 40
0.8332242351003221
 40
0.9959349569580982
 40
1.0
 40
1.0
 40
1.0
 40
1.0
 10
44.58265328304475
 20
-0.79222931725916
 30
0.0
 10
44.57868703240531
 20
-0.7950065158553269
 30
0.0
 10
44.57094851265138
 20
-0.8004250857216192
 30
0.0
 10
44.4781649701406
 20
-0.8653928216094584
 30
0.0
 10
44.33991401282422
 20
-0.9621971840870843
 30
0.0
 10
44.16651355927938
 20
-1.083613488788165
 30
0.0
 10
43.98503395696751
 20
-1.210686874358242
 30
0.0
 10
43.77094234771903
 20
-1.360595433021462
 30
0.0
 10
43.46246645271185
 20
-1.576592580061499
 30
0.0
 10
43.02872482713946
 20
-1.880301735922577
 30
0.0
 10
42.67321174167611
 20
-2.129234678296315
 30
0.0
 10
42.49218681441167
 20
-2.255989696970667
 30
0.0
 10
42.4877744579675
 20
-2.259079262214143
 30
0.0
  0
SPLINE
  5
C5
330
1F
100
AcDbEntity
  8
0
  6
Continuous
 62
     1
370
    25
100
AcDbSpline
210
0.0
220
0.0
230
1.0
 70
     8
 71
     3
 72
    24
 73
    20
 74
     0
 42
0.000000001
 43
0.00000001
 40
0.0
 40
0.0
 40
0.0
 40
0.0
 40
0.0445952256691771
 40
0.1018676788781012
 40
0.1591918368408479
 40
0.2164207776615154
 40
0.2736364399602115
 40
0.3309309464906459
 40
0.3882376173778911
 40
0.4454569242448918
 40
0.5026805109653035
 40
0.5599968724327798
 40
0.617280216714503
 40
0.6810374842968567
 40
0.7447911704786282
 40
0.8085702107584064
 40
0.872402905766093
 40
0.9362264212402396
 40
1.0
 40
1.0
 40
1.0
 40
1.0
 10
29.92033997308211
 20
-4.219242919359007
 30
0.0
 10
29.62434393258438
 20
-4.339432537320548
 30
0.0
 10
28.94820810974331
 20
-4.613978460640099
 30
0.0
 10
27.89116991627703
 20
-4.874035153824159
 30
0.0
 10
26.74956975742231
 20
-5.016070920935142
 30
0.0
 10
25.60946453905944
 20
-4.99508606656773
 30
0.0
 10
24.46960337067017
 20
-4.816825540613322
 30
0.0
 10
23.32845783430902
 20
-4.48581259276316
 30
0.0
 10
22.18712646178654
 20
-4.012971659846914
 30
0.0
 10
21.04719020918145
 20
-3.412499828654557
 30
0.0
 10
19.90718456736146
 20
-2.703774109904626
 30
0.0
 10
18.76567613059495
 20
-1.910255093071703
 30
0.0
 10
17.58135071623074
 20
-1.023237224871636
 30
0.0
 10
16.35443712383455
 20
-0.0653745404553255
 30
0.0
 10
15.08442207142761
 20
0.9283875327052704
 30
0.0
 10
13.81377716327607
 20
1.886761192776158
 30
0.0
 10
12.54213245244399
 20
2.767533712821355
 30
0.0
 10
11.27063119159514
 20
3.551393705912147
 30
0.0
 10
10.42343321003264
 20
3.951927932967305
 30
0.0
 10
10.00000000000012
 20
4.152116669462011
 30
0.0
  0
SPLINE
  5
C6
330
1F
100
AcDbEntity
  8
0
  6
Continuous
 62
     1
370
    25
100
AcDbSpline
210
0.0
220
0.0
230
1.0
 70
     8
 71
     3
 72
    27
 73
    23
 74
     0
 42
0.000000001
 43
0.00000001
 40
0.0
 40
0.0
 40
0.0
 40
0.0
 40
0.0540161972255897
 40
0.1080746908294845
 40
0.1621409594948351
 40
0.2161617826258259
 40
0.2701611308453403
 40
0.3241635125098004
 40
0.3726824835733264
 40
0.4212294201807681
 40
0.4696977766123367
 40
0.518162508009676
 40
0.5667012366993063
 40
0.6152296621832928
 40
0.6636913066326486
 40
0.7121641979851203
 40
0.760717738221124
 40
0.8092274845500852
 40
0.8576852452764822
 40
0.9061691175700227
 40
0.9547295590720698
 40
1.0
 40
1.0
 40
1.0
 40
1.0
 10
9.999999999998629
 20
4.305898370914673
 30
0.0
 10
10.42343321003124
 20
4.457719963734884
 30
0.0
 10
11.27063119159391
 20
4.761482030449036
 30
0.0
 10
12.54213245244296
 20
4.984427696806282
 30
0.0
 10
13.81377716327548
 20
5.023690936549728
 30
0.0
 10
15.08442207142655
 20
4.862225659827192
 30
0.0
 10
16.35443712383642
 20
4.51061057043959
 30
0.0
 10
17.58135071622311
 20
3.999411779148922
 30
0.0
 10
18.76567613061996
 20
3.368137713730945
 30
0.0
 10
19.90718456726778
 20
2.653805514161215
 30
0.0
 10
21.04719020953051
 20
1.854572085019969
 30
0.0
 10
22.18712646048306
 20
0.9965456115261232
 30
0.0
 10
23.32845783918156
 20
0.1077469130835103
 30
0.0
 10
24.46960335250136
 20
-0.7846460940407035
 30
0.0
 10
25.60946460676938
 20
-1.652757001495742
 30
0.0
 10
26.74956950447068
 20
-2.468513435579253
 30
0.0
 10
27.89117086168924
 20
-3.205188335078209
 30
0.0
 10
29.03197418821847
 20
-3.840732896155727
 30
0.0
 10
30.17174402710345
 20
-4.355639684831127
 30
0.0
 10
31.31205649226014
 20
-4.728905235660627
 30
0.0
 10
32.42851975878624
 20
-4.960165685930921
 30
0.0
 10
33.16392814227129
 20
-4.983719449951728
 30
0.0
 10
33.51873948924235
 20
-4.995083398100996
 30
0.0
  0
LINE
  5
C7
330
1F
100
AcDbEntity
  8
0
  6
Continuous
 62
     1
370
    25
100
AcDbLine
 10
45.0
 20
-0.5000000000000183
 30
0.0
 11
45.0
 21
1.107382733648336
 31
0.0
  0
LINE
  5
C8
330
1F
100
AcDbEntity
  8
0
  6
Continuous
 62
     1
370
    25
100
AcDbLine
 10
45.0
 20
-0.5000000000000185
 30
0.0
 11
44.58637274386092
 21
-0.7896249227576019
 31
0.0
  0
LINE
  5
C9
330
1F
100
AcDbEntity
  8
0
  6
Continuous
 62
     1
370
    25
100
AcDbLine
 10
45.0
 20
4.974937185533103
 30
0.0
 11
45.0
 21
5.000000000000003
 31
0.0
  0
ELLIPSE
  5
CA
330
1F
100
AcDbEntity
  8
0
  6
Continuous
 62
     1
370
    25
100
AcDbEllipse
 10
45.71407400337105
 20
-0.0000000000000031
 30
0.0
 11
7.14074003371055
 21
0.0
 31
0.0
210
0.0
220
0.0
230
1.0
 40
0.7002075382097124
 41
1.670963747956456
 42
1.729385239465865
  0
LINE
  5
CB
330
1F
100
AcDbEntity
  8
0
  6
Continuous
 62
     1
370
    25
100
AcDbLine
 10
45.0
 20
-0.5000000000000009
 30
0.0
 11
45.0
 21
-3.778128546404887
 31
0.0
  0
LINE
  5
CC
330
1F
100
AcDbEntity
  8
0
  6
Continuous
 62
     1
370
    25
100
AcDbLine
 10
45.0
 20
1.193141214989694
 30
0.0
 11
45.0
 21
4.974937185533103
 31
0.0
  0
LINE
  5
CD
330
1F
100
AcDbEntity
  8
중심선
100
AcDbLine
 10
-32.99999999999999
 20
-0.0000000000000079
 30
0.0
 11
48.00000000000001
 21
0.000000000000002
 31
0.0
  0
CIRCLE
  5
CE
330
1F
100
AcDbEntity
  8
해칭선
100
AcDbCircle
 10
-0.0080031079650583
 20
-0.0000000000000043
 30
0.0
 40
3.000000000000001
  0
INSERT
  5
CF
330
1F
100
AcDbEntity
  8
0
  6
Continuous
 62
     7
100
AcDbBlockReference
 66
     1
  2
블럭10
 10
-4.948147820842446
 20
-52.04717430164393
 30
0.0
  0
ATTRIB
  5
D0
330
CF
100
AcDbEntity
  8
FORMAT
 62
     2
100
AcDbText
 10
-21.067408860278
 20
-49.97180738881174
 30
0.0
 40
4.233333333333333
  1
SEME7110035E [ 4 FLUTE ]
 41
0.75
  7
SLDTEXTSTYLE0
 11
-21.067408860278
 21
-52.08847405547841
 31
0.0
100
AcDbAttribute
  2
AUTOATTR0
 70
     0
 74
     1
  0
SEQEND
  5
D1
330
CF
100
AcDbEntity
  8
0
  6
Continuous
 62
     7
  0
HATCH
  5
D2
330
1F
100
AcDbEntity
  8
중심선
100
AcDbHatch
 10
0.0
 20
0.0
 30
0.0
210
0.0
220
0.0
230
1.0
  2
SOLID
 70
     1
 71
     0
 91
        1
 92
        0
 93
        4
 72
     1
 10
0.7667614835384085
 20
-35.8
 11
-2.679513760298874
 21
-35.8
 72
     1
 10
-2.679513760298874
 20
-35.8
 11
-4.807743619502896
 21
-38.33632558057262
 72
     1
 10
-4.807743619502896
 20
-38.33632558057262
 11
-1.361435290552465
 21
-38.33628615127013
 72
     1
 10
-1.361435290552465
 20
-38.33628615127013
 11
0.7667614835384085
 21
-35.8
 97
        0
 75
     0
 76
     1
 98
        1
 10
0.0
 20
0.0
  0
HATCH
  5
D3
330
1F
100
AcDbEntity
  8
중심선
100
AcDbHatch
 10
0.0
 20
0.0
 30
0.0
210
0.0
220
0.0
230
1.0
  2
SOLID
 70
     1
 71
     0
 91
        1
 92
        0
 93
        4
 72
     1
 10
5.779525474574387
 20
-35.8
 11
2.333250230737077
 21
-35.8
 72
     1
 10
2.333250230737077
 20
-35.8
 11
-2.197887777620311
 21
-41.20000000000002
 72
     1
 10
-2.197887777620311
 20
-41.20000000000002
 11
1.248387466216971
 21
-41.20000000000002
 72
     1
 10
1.248387466216971
 20
-41.20000000000002
 11
5.779525474574388
 21
-35.8
 97
        0
 75
     0
 76
     1
 98
        1
 10
0.0
 20
0.0
  0
HATCH
  5
D4
330
1F
100
AcDbEntity
  8
중심선
100
AcDbHatch
 10
0.0
 20
0.0
 30
0.0
210
0.0
220
0.0
230
1.0
  2
SOLID
 70
     1
 71
     0
 91
        1
 92
        0
 93
        4
 72
     1
 10
10.79228946561031
 20
-35.79999999999997
 11
7.346014221773167
 21
-35.79999999999997
 72
     1
 10
7.346014221773167
 20
-35.79999999999997
 11
0.2975773198838905
 21
-44.20000000000002
 72
     1
 10
0.2975773198838905
 20
-44.20000000000002
 11
3.743852563721173
 21
-44.20000000000002
 72
     1
 10
3.743852563721173
 20
-44.20000000000002
 11
10.79228946561031
 21
-35.79999999999997
 97
        0
 75
     0
 76
     1
 98
        1
 10
0.0
 20
0.0
  0
HATCH
  5
D5
330
1F
100
AcDbEntity
  8
중심선
100
AcDbHatch
 10
0.0
 20
0.0
 30
0.0
210
0.0
220
0.0
230
1.0
  2
SOLID
 70
     1
 71
     0
 91
        1
 92
        0
 93
        6
 72
     3
 10
15.59217989662245
 20
-40.00000000005127
 11
3.960054785062284
 21
1.540850780301639E-10
 40
0.3939339440162633
 50
17.09539180608434
 51
320.0019657685081
 73
     0
 72
     1
 10
17.27517955232302
 20
-38.58789400463833
 11
19.58048142602409
 21
-36.6535672945904
 72
     3
 10
15.59217989656961
 20
-40.00000000000015
 11
6.600054785286829
 21
-1.249000902703301E-13
 40
0.6363583540795982
 50
39.99873849337391
 51
368.4976242363725
 73
     1
 72
     1
 10
22.01751238847022
 20
-39.03999999993002
 11
14.27224720340553
 21
-39.03999999993002
 72
     1
 10
14.27224720340553
 20
-39.03999999993002
 11
14.2722221589596
 21
-40.95999999992991
 72
     1
 10
14.2722221589596
 20
-40.95999999992991
 11
18.71360192843163
 21
-40.95999999992988
 97
        0
 75
     0
 76
     1
 98
        1
 10
0.0
 20
0.0
  0
DIMENSION
  5
D6
330
1F
100
AcDbEntity
  8
치수문자_일반주서
100
AcDbDimension
  2
_D
 10
58.31850916902201
 20
5.00000000000005
 30
0.0
 11
58.31850916902198
 21
15.32275000000005
 31
0.0
 70
   160
  1
%%c<>
 71
     2
 42
10.00000000000001
 52
-270.0
  3
SLDDIMSTYLE0
100
AcDbAlignedDimension
 13
45.00000000000003
 23
-5.000000000000008
 33
0.0
 14
45.00000000000003
 24
5.000000000000001
 34
0.0
 50
90.0000000000002
100
AcDbRotatedDimension
  0
DIMENSION
  5
E4
330
1F
100
AcDbEntity
  8
치수문자_일반주서
100
AcDbDimension
  2
_D_1
 10
44.99999999999999
 20
22.38913260158164
 30
0.0
 11
7.500000000000005
 21
22.38913260158164
 31
0.0
 70
   160
  1
<>
 71
     2
 42
75.0
  3
SLDDIMSTYLE1
100
AcDbAlignedDimension
 13
-29.99999999999999
 23
4.499999999999992
 33
0.0
 14
45.0
 24
4.999999999999999
 34
0.0
 50
-0.0000000000000054
100
AcDbRotatedDimension
  0
DIMENSION
  5
EF
330
1F
100
AcDbEntity
  8
치수문자_일반주서
100
AcDbDimension
  2
_D_2
 10
-40.40746512717792
 20
-5.00000000000005
 30
0.0
 11
-40.40746512717799
 21
15.32274999999996
 31
0.0
 70
   160
  1
%%c<>
 71
     2
 42
10.00000000000001
 52
-270.0
  3
SLDDIMSTYLE2
100
AcDbAlignedDimension
 13
-29.49999999999998
 23
5.000000000000001
 33
0.0
 14
-29.49999999999998
 24
-5.000000000000008
 34
0.0
 50
90.0000000000002
100
AcDbRotatedDimension
  0
DIMENSION
  5
FD
330
1F
100
AcDbEntity
  8
치수문자_일반주서
100
AcDbDimension
  2
_D_3
 10
45.0
 20
15.15181667351872
 30
0.0
 11
27.5
 21
15.15181667351872
 31
0.0
 70
   160
  1
<>
 71
     2
 42
35.0
  3
SLDDIMSTYLE1
100
AcDbAlignedDimension
 13
10.0
 23
4.305898370931059
 33
0.0
 14
45.0
 24
4.999999999999999
 34
0.0
 50
0.0000000000000174
100
AcDbRotatedDimension
  0
INSERT
  5
10D
330
1F
100
AcDbEntity
  8
해칭선
100
AcDbBlockReference
  2
SW_DOWELSYMBOL_0
 10
-0.0080031079650583
 20
-0.0000000000000043
 30
0.0
  0
LINE
  5
132
330
1F
100
AcDbEntity
  8
0
  6
Continuous
 62
     4
370
    25
100
AcDbLine
 10
10.0
 20
4.311701162997242
 30
0.0
 11
10.0
 21
-4.311701162997242
 31
0.0
  0
ENDSEC
  0
SECTION
  2
OBJECTS
  0
DICTIONARY
  5
C
330
0
100
AcDbDictionary
281
     1
  3
ACAD_GROUP
350
D
  3
ACAD_IMAGE_VARS
350
131
  3
ACAD_LAYOUT
350
1A
  3
ACAD_MLINESTYLE
350
17
  3
ACAD_PLOTSETTINGS
350
19
  3
ACAD_PLOTSTYLENAME
350
E
  3
ACAD_SCALELIST
350
47
  3
APPDATA
350
12F
  3
DWGPROPS
350
147
  0
DICTIONARY
  5
D
102
{ACAD_REACTORS
330
C
102
}
330
C
100
AcDbDictionary
281
     1
  0
RASTERVARIABLES
  5
131
102
{ACAD_REACTORS
330
C
102
}
330
C
100
AcDbRasterVariables
 90
        0
 70
     1
 71
     1
 72
     1
  0
DICTIONARY
  5
1A
102
{ACAD_REACTORS
330
C
102
}
330
C
100
AcDbDictionary
281
     1
  3
Layout1
350
1E
  3
Layout2
350
26
  3
Model
350
22
  0
DICTIONARY
  5
17
102
{ACAD_REACTORS
330
C
102
}
330
C
100
AcDbDictionary
281
     1
  3
Standard
350
18
  0
DICTIONARY
  5
19
102
{ACAD_REACTORS
330
C
102
}
330
C
100
AcDbDictionary
281
     1
  0
ACDBDICTIONARYWDFLT
  5
E
102
{ACAD_REACTORS
330
C
102
}
330
C
100
AcDbDictionary
281
     1
  3
Normal
350
F
100
AcDbDictionaryWithDefault
340
F
  0
DICTIONARY
  5
47
102
{ACAD_REACTORS
330
C
102
}
330
C
100
AcDbDictionary
281
     1
  3
A0
350
48
  3
A1
350
49
  3
A2
350
4A
  3
A3
350
4B
  3
A4
350
4C
  3
A5
350
4D
  3
A6
350
4E
  3
A7
350
4F
  3
A8
350
50
  3
A9
350
51
  3
B0
350
52
  3
B1
350
53
  3
B2
350
54
  3
B3
350
55
  3
B4
350
56
  3
B5
350
57
  3
B6
350
58
  3
B7
350
59
  3
B8
350
5A
  3
B9
350
5B
  3
C0
350
5C
  3
C1
350
5D
  3
C2
350
5E
  3
C3
350
5F
  3
C4
350
60
  3
C5
350
61
  3
C6
350
62
  3
C7
350
63
  3
C8
350
64
  3
C9
350
65
  3
D0
350
66
  3
D1
350
67
  3
D2
350
68
  0
DICTIONARY
  5
12F
102
{ACAD_REACTORS
330
C
102
}
330
C
100
AcDbDictionary
281
     1
  0
XRECORD
  5
147
102
{ACAD_REACTORS
330
C
102
}
330
C
100
AcDbXrecord
280
     1
  1
DWGPROPS COOKIE
  2

  3

  4

  6

  7

  8
12014102
  9

300
=
301
=
302
=
303
=
304
=
305
=
306
=
307
=
308
=
309
=
 40
0.0
 41
2458260.119490775
 42
2458267.35573838
  1

 90
        0
  0
LAYOUT
  5
1E
102
{ACAD_REACTORS
330
1A
102
}
330
1A
100
AcDbPlotSettings
  1

  2
none_device
  4

  6

 40
0.0
 41
0.0
 42
0.0
 43
0.0
 44
0.0
 45
0.0
 46
0.0
 47
0.0
 48
0.0
 49
0.0
140
0.0
141
0.0
142
1.0
143
1.0
 70
   688
 72
     1
 73
     0
 74
     5
  7

 75
    16
147
1.0
148
0.0
149
0.0
100
AcDbLayout
  1
Layout1
 70
     1
 71
     1
 10
0.0
 20
0.0
 11
420.0
 21
297.0
 12
0.0
 22
0.0
 32
0.0
 14
1.000000000000000E+20
 24
1.000000000000000E+20
 34
1.000000000000000E+20
 15
-1.000000000000000E+20
 25
-1.000000000000000E+20
 35
-1.000000000000000E+20
146
0.0
 13
0.0
 23
0.0
 33
0.0
 16
1.0
 26
0.0
 36
0.0
 17
0.0
 27
1.0
 37
0.0
 76
     0
330
1B
  0
LAYOUT
  5
26
102
{ACAD_REACTORS
330
1A
102
}
330
1A
100
AcDbPlotSettings
  1

  2
none_device
  4

  6

 40
0.0
 41
0.0
 42
0.0
 43
0.0
 44
0.0
 45
0.0
 46
0.0
 47
0.0
 48
0.0
 49
0.0
140
0.0
141
0.0
142
1.0
143
1.0
 70
   688
 72
     1
 73
     0
 74
     5
  7

 75
    16
147
1.0
148
0.0
149
0.0
100
AcDbLayout
  1
Layout2
 70
     1
 71
     2
 10
0.0
 20
0.0
 11
0.0
 21
0.0
 12
0.0
 22
0.0
 32
0.0
 14
0.0
 24
0.0
 34
0.0
 15
0.0
 25
0.0
 35
0.0
146
0.0
 13
0.0
 23
0.0
 33
0.0
 16
1.0
 26
0.0
 36
0.0
 17
0.0
 27
1.0
 37
0.0
 76
     0
330
23
  0
LAYOUT
  5
22
102
{ACAD_REACTORS
330
1A
102
}
330
1A
100
AcDbPlotSettings
  1

  2
none_device
  4
ANSI_A_(11.00_x_8.50_Inches)
  6

 40
6.35
 41
19.05
 42
6.35000508
 43
19.05000254
 44
279.4
 45
215.9
 46
112.2874931149939
 47
118.8843007246156
 48
0.0
 49
0.0
140
0.0
141
0.0
142
0.0991237154092918
143
1.0
 70
  1696
 72
     0
 73
     0
 74
     0
  7

 75
     0
147
0.0235690232323232
148
0.0
149
0.0
100
AcDbLayout
  1
Model
 70
     1
 71
     0
 10
0.0
 20
0.0
 11
420.0
 21
297.0
 12
0.0
 22
0.0
 32
0.0
 14
-44.78246512717801
 24
-49.97180738881174
 34
0.0
 15
58.8688425023554
 25
26.76413260158164
 35
0.0
146
0.0
 13
0.0
 23
0.0
 33
0.0
 16
1.0
 26
0.0
 36
0.0
 17
0.0
 27
1.0
 37
0.0
 76
     0
330
1F
331
29
  0
MLINESTYLE
  5
18
102
{ACAD_REACTORS
330
17
102
}
330
17
100
AcDbMlineStyle
  2
Standard
 70
     0
  3

 62
   256
 51
90.0
 52
90.0
 71
     2
 49
0.5
 62
   256
  6
BYLAYER
 49
-0.5
 62
   256
  6
BYLAYER
  0
ACDBPLACEHOLDER
  5
F
102
{ACAD_REACTORS
330
E
102
}
330
E
  0
SCALE
  5
48
102
{ACAD_REACTORS
330
47
102
}
330
47
100
AcDbScale
 70
     0
300
1:1
140
1.0
141
1.0
290
     1
  0
SCALE
  5
49
102
{ACAD_REACTORS
330
47
102
}
330
47
100
AcDbScale
 70
     0
300
1:2
140
1.0
141
2.0
290
     0
  0
SCALE
  5
4A
102
{ACAD_REACTORS
330
47
102
}
330
47
100
AcDbScale
 70
     0
300
1:4
140
1.0
141
4.0
290
     0
  0
SCALE
  5
4B
102
{ACAD_REACTORS
330
47
102
}
330
47
100
AcDbScale
 70
     0
300
1:5
140
1.0
141
5.0
290
     0
  0
SCALE
  5
4C
102
{ACAD_REACTORS
330
47
102
}
330
47
100
AcDbScale
 70
     0
300
1:8
140
1.0
141
8.0
290
     0
  0
SCALE
  5
4D
102
{ACAD_REACTORS
330
47
102
}
330
47
100
AcDbScale
 70
     0
300
1:10
140
1.0
141
10.0
290
     0
  0
SCALE
  5
4E
102
{ACAD_REACTORS
330
47
102
}
330
47
100
AcDbScale
 70
     0
300
1:16
140
1.0
141
16.0
290
     0
  0
SCALE
  5
4F
102
{ACAD_REACTORS
330
47
102
}
330
47
100
AcDbScale
 70
     0
300
1:20
140
1.0
141
20.0
290
     0
  0
SCALE
  5
50
102
{ACAD_REACTORS
330
47
102
}
330
47
100
AcDbScale
 70
     0
300
1:30
140
1.0
141
30.0
290
     0
  0
SCALE
  5
51
102
{ACAD_REACTORS
330
47
102
}
330
47
100
AcDbScale
 70
     0
300
1:40
140
1.0
141
40.0
290
     0
  0
SCALE
  5
52
102
{ACAD_REACTORS
330
47
102
}
330
47
100
AcDbScale
 70
     0
300
1:50
140
1.0
141
50.0
290
     0
  0
SCALE
  5
53
102
{ACAD_REACTORS
330
47
102
}
330
47
100
AcDbScale
 70
     0
300
1:100
140
1.0
141
100.0
290
     0
  0
SCALE
  5
54
102
{ACAD_REACTORS
330
47
102
}
330
47
100
AcDbScale
 70
     0
300
2:1
140
2.0
141
1.0
290
     0
  0
SCALE
  5
55
102
{ACAD_REACTORS
330
47
102
}
330
47
100
AcDbScale
 70
     0
300
4:1
140
4.0
141
1.0
290
     0
  0
SCALE
  5
56
102
{ACAD_REACTORS
330
47
102
}
330
47
100
AcDbScale
 70
     0
300
8:1
140
8.0
141
1.0
290
     0
  0
SCALE
  5
57
102
{ACAD_REACTORS
330
47
102
}
330
47
100
AcDbScale
 70
     0
300
10:1
140
10.0
141
1.0
290
     0
  0
SCALE
  5
58
102
{ACAD_REACTORS
330
47
102
}
330
47
100
AcDbScale
 70
     0
300
100:1
140
100.0
141
1.0
290
     0
  0
SCALE
  5
59
102
{ACAD_REACTORS
330
47
102
}
330
47
100
AcDbScale
 70
     0
300
1/128" = 1'-0"
140
0.0078125
141
12.0
290
     0
  0
SCALE
  5
5A
102
{ACAD_REACTORS
330
47
102
}
330
47
100
AcDbScale
 70
     0
300
1/64" = 1'-0"
140
0.015625
141
12.0
290
     0
  0
SCALE
  5
5B
102
{ACAD_REACTORS
330
47
102
}
330
47
100
AcDbScale
 70
     0
300
1/32" = 1'-0"
140
0.03125
141
12.0
290
     0
  0
SCALE
  5
5C
102
{ACAD_REACTORS
330
47
102
}
330
47
100
AcDbScale
 70
     0
300
1/16" = 1'-0"
140
0.0625
141
12.0
290
     0
  0
SCALE
  5
5D
102
{ACAD_REACTORS
330
47
102
}
330
47
100
AcDbScale
 70
     0
300
3/32" = 1'-0"
140
0.09375
141
12.0
290
     0
  0
SCALE
  5
5E
102
{ACAD_REACTORS
330
47
102
}
330
47
100
AcDbScale
 70
     0
300
1/8" = 1'-0"
140
0.125
141
12.0
290
     0
  0
SCALE
  5
5F
102
{ACAD_REACTORS
330
47
102
}
330
47
100
AcDbScale
 70
     0
300
3/16" = 1'-0"
140
0.1875
141
12.0
290
     0
  0
SCALE
  5
60
102
{ACAD_REACTORS
330
47
102
}
330
47
100
AcDbScale
 70
     0
300
1/4" = 1'-0"
140
0.25
141
12.0
290
     0
  0
SCALE
  5
61
102
{ACAD_REACTORS
330
47
102
}
330
47
100
AcDbScale
 70
     0
300
3/8" = 1'-0"
140
0.375
141
12.0
290
     0
  0
SCALE
  5
62
102
{ACAD_REACTORS
330
47
102
}
330
47
100
AcDbScale
 70
     0
300
1/2" = 1'-0"
140
0.5
141
12.0
290
     0
  0
SCALE
  5
63
102
{ACAD_REACTORS
330
47
102
}
330
47
100
AcDbScale
 70
     0
300
3/4" = 1'-0"
140
0.75
141
12.0
290
     0
  0
SCALE
  5
64
102
{ACAD_REACTORS
330
47
102
}
330
47
100
AcDbScale
 70
     0
300
1" = 1'-0"
140
1.0
141
12.0
290
     0
  0
SCALE
  5
65
102
{ACAD_REACTORS
330
47
102
}
330
47
100
AcDbScale
 70
     0
300
1-1/2" = 1'-0"
140
1.5
141
12.0
290
     0
  0
SCALE
  5
66
102
{ACAD_REACTORS
330
47
102
}
330
47
100
AcDbScale
 70
     0
300
3" = 1'-0"
140
3.0
141
12.0
290
     0
  0
SCALE
  5
67
102
{ACAD_REACTORS
330
47
102
}
330
47
100
AcDbScale
 70
     0
300
6" = 1'-0"
140
6.0
141
12.0
290
     0
  0
SCALE
  5
68
102
{ACAD_REACTORS
330
47
102
}
330
47
100
AcDbScale
 70
     0
300
1'-0" = 1'-0"
140
12.0
141
12.0
290
     0
  0
ENDSEC
  0
EOF
