  0
SECTION
  2
HEADER
  9
$ACADVER
  1
AC1015
  9
$ACADMAINTVER
 70
     6
  9
$DWGCODEPAGE
  3
ANSI_949
  9
$INSBASE
 10
0.0
 20
0.0
 30
0.0
  9
$EXTMIN
 10
-45.79336225194206
 20
-49.97180738881174
 30
0.0
  9
$EXTMAX
 10
44.59255746392065
 20
26.76413260158164
 30
0.0
  9
$LIMMIN
 10
0.0
 20
0.0
  9
$LIMMAX
 10
420.0
 20
297.0
  9
$ORTHOMODE
 70
     0
  9
$REGENMODE
 70
     1
  9
$FILLMODE
 70
     1
  9
$QTEXTMODE
 70
     0
  9
$MIRRTEXT
 70
     1
  9
$LTSCALE
 40
1.0
  9
$ATTMODE
 70
     1
  9
$TEXTSIZE
 40
3.5
  9
$TRACEWID
 40
1.0
  9
$TEXTSTYLE
  7
Standard
  9
$CLAYER
  8
0
  9
$CELTYPE
  6
ByLayer
  9
$CECOLOR
 62
   256
  9
$CELTSCALE
 40
1.0
  9
$DISPSILH
 70
     0
  9
$DIMSCALE
 40
1.0
  9
$DIMASZ
 40
3.302
  9
$DIMEXO
 40
1.0
  9
$DIMDLI
 40
3.75
  9
$DIMRND
 40
0.0
  9
$DIMDLE
 40
0.0
  9
$DIMEXE
 40
1.0
  9
$DIMTP
 40
0.0
  9
$DIMTM
 40
0.0
  9
$DIMTXT
 40
3.5
  9
$DIMCEN
 40
2.5
  9
$DIMTSZ
 40
0.0
  9
$DIMTOL
 70
     0
  9
$DIMLIM
 70
     0
  9
$DIMTIH
 70
     1
  9
$DIMTOH
 70
     1
  9
$DIMSE1
 70
     0
  9
$DIMSE2
 70
     0
  9
$DIMTAD
 70
     1
  9
$DIMZIN
 70
     0
  9
$DIMBLK
  1

  9
$DIMASO
 70
     1
  9
$DIMSHO
 70
     1
  9
$DIMPOST
  1

  9
$DIMAPOST
  1

  9
$DIMALT
 70
     0
  9
$DIMALTD
 70
     3
  9
$DIMALTF
 40
0.0393700787401575
  9
$DIMLFAC
 40
1.0
  9
$DIMTOFL
 70
     1
  9
$DIMTVP
 40
0.0
  9
$DIMTIX
 70
     0
  9
$DIMSOXD
 70
     0
  9
$DIMSAH
 70
     0
  9
$DIMBLK1
  1

  9
$DIMBLK2
  1

  9
$DIMSTYLE
  2
ISO-25
  9
$DIMCLRD
 70
     0
  9
$DIMCLRE
 70
     0
  9
$DIMCLRT
 70
     0
  9
$DIMTFAC
 40
1.0
  9
$DIMGAP
 40
1.524
  9
$DIMJUST
 70
     0
  9
$DIMSD1
 70
     0
  9
$DIMSD2
 70
     0
  9
$DIMTOLJ
 70
     0
  9
$DIMTZIN
 70
     0
  9
$DIMALTZ
 70
     0
  9
$DIMALTTZ
 70
     0
  9
$DIMUPT
 70
     0
  9
$DIMDEC
 70
     2
  9
$DIMTDEC
 70
     2
  9
$DIMALTU
 70
     2
  9
$DIMALTTD
 70
     3
  9
$DIMTXSTY
  7
Standard
  9
$DIMAUNIT
 70
     0
  9
$DIMADEC
 70
     2
  9
$DIMALTRND
 40
0.0
  9
$DIMAZIN
 70
     0
  9
$DIMDSEP
 70
    44
  9
$DIMATFIT
 70
     3
  9
$DIMFRAC
 70
     0
  9
$DIMLDRBLK
  1

  9
$DIMLUNIT
 70
     2
  9
$DIMLWD
 70
    -2
  9
$DIMLWE
 70
    -2
  9
$DIMTMOVE
 70
     0
  9
$LUNITS
 70
     2
  9
$LUPREC
 70
     2
  9
$SKETCHINC
 40
1.0
  9
$FILLETRAD
 40
10.0
  9
$AUNITS
 70
     0
  9
$AUPREC
 70
     2
  9
$MENU
  1
.
  9
$ELEVATION
 40
0.0
  9
$PELEVATION
 40
0.0
  9
$THICKNESS
 40
0.0
  9
$LIMCHECK
 70
     0
  9
$CHAMFERA
 40
0.0
  9
$CHAMFERB
 40
0.0
  9
$CHAMFERC
 40
0.0
  9
$CHAMFERD
 40
0.0
  9
$SKPOLY
 70
     0
  9
$TDCREATE
 40
2458260.494112512
  9
$TDUCREATE
 40
2458260.119112512
  9
$TDUPDATE
 40
2458267.69702272
  9
$TDUUPDATE
 40
2458267.32202272
  9
$TDINDWG
 40
0.0010682755
  9
$TDUSRTIMER
 40
2458267.320954468
  9
$USRTIMER
 70
     1
  9
$ANGBASE
 50
0.0
  9
$ANGDIR
 70
     0
  9
$PDMODE
 70
     0
  9
$PDSIZE
 40
-1.0
  9
$PLINEWID
 40
0.0
  9
$SPLFRAME
 70
     0
  9
$SPLINETYPE
 70
     6
  9
$SPLINESEGS
 70
     8
  9
$HANDSEED
  5
13B
  9
$SURFTAB1
 70
     6
  9
$SURFTAB2
 70
     6
  9
$SURFTYPE
 70
     6
  9
$SURFU
 70
     6
  9
$SURFV
 70
     6
  9
$UCSBASE
  2

  9
$UCSNAME
  2

  9
$UCSORG
 10
0.0
 20
0.0
 30
0.0
  9
$UCSXDIR
 10
1.0
 20
0.0
 30
0.0
  9
$UCSYDIR
 10
0.0
 20
1.0
 30
0.0
  9
$UCSORTHOREF
  2

  9
$UCSORTHOVIEW
 70
     0
  9
$UCSORGTOP
 10
0.0
 20
0.0
 30
0.0
  9
$UCSORGBOTTOM
 10
0.0
 20
0.0
 30
0.0
  9
$UCSORGLEFT
 10
0.0
 20
0.0
 30
0.0
  9
$UCSORGRIGHT
 10
0.0
 20
0.0
 30
0.0
  9
$UCSORGFRONT
 10
0.0
 20
0.0
 30
0.0
  9
$UCSORGBACK
 10
0.0
 20
0.0
 30
0.0
  9
$PUCSBASE
  2

  9
$PUCSNAME
  2

  9
$PUCSORG
 10
0.0
 20
0.0
 30
0.0
  9
$PUCSXDIR
 10
1.0
 20
0.0
 30
0.0
  9
$PUCSYDIR
 10
0.0
 20
1.0
 30
0.0
  9
$PUCSORTHOREF
  2

  9
$PUCSORTHOVIEW
 70
     0
  9
$PUCSORGTOP
 10
0.0
 20
0.0
 30
0.0
  9
$PUCSORGBOTTOM
 10
0.0
 20
0.0
 30
0.0
  9
$PUCSORGLEFT
 10
0.0
 20
0.0
 30
0.0
  9
$PUCSORGRIGHT
 10
0.0
 20
0.0
 30
0.0
  9
$PUCSORGFRONT
 10
0.0
 20
0.0
 30
0.0
  9
$PUCSORGBACK
 10
0.0
 20
0.0
 30
0.0
  9
$USERI1
 70
     0
  9
$USERI2
 70
     0
  9
$USERI3
 70
     0
  9
$USERI4
 70
     0
  9
$USERI5
 70
     0
  9
$USERR1
 40
0.0
  9
$USERR2
 40
0.0
  9
$USERR3
 40
0.0
  9
$USERR4
 40
0.0
  9
$USERR5
 40
0.0
  9
$WORLDVIEW
 70
     1
  9
$SHADEDGE
 70
     3
  9
$SHADEDIF
 70
    70
  9
$TILEMODE
 70
     1
  9
$MAXACTVP
 70
    64
  9
$PINSBASE
 10
0.0
 20
0.0
 30
0.0
  9
$PLIMCHECK
 70
     0
  9
$PEXTMIN
 10
1.000000000000000E+20
 20
1.000000000000000E+20
 30
1.000000000000000E+20
  9
$PEXTMAX
 10
-1.000000000000000E+20
 20
-1.000000000000000E+20
 30
-1.000000000000000E+20
  9
$PLIMMIN
 10
0.0
 20
0.0
  9
$PLIMMAX
 10
0.0
 20
0.0
  9
$UNITMODE
 70
     0
  9
$VISRETAIN
 70
     1
  9
$PLINEGEN
 70
     0
  9
$PSLTSCALE
 70
     1
  9
$TREEDEPTH
 70
  3020
  9
$CMLSTYLE
  2
Standard
  9
$CMLJUST
 70
     0
  9
$CMLSCALE
 40
20.0
  9
$PROXYGRAPHICS
 70
     1
  9
$MEASUREMENT
 70
     1
  9
$CELWEIGHT
370
    -1
  9
$ENDCAPS
280
     0
  9
$JOINSTYLE
280
     0
  9
$LWDISPLAY
290
     1
  9
$INSUNITS
 70
     4
  9
$HYPERLINKBASE
  1

  9
$STYLESHEET
  1

  9
$XEDIT
290
     1
  9
$CEPSNTYPE
380
     0
  9
$PSTYLEMODE
290
     1
  9
$FINGERPRINTGUID
  2
{1189E1C2-30D2-42BA-9016-84CFE0AEC515}
  9
$VERSIONGUID
  2
{FAEB1C32-E019-11D5-929B-00C0DF256EC4}
  9
$EXTNAMES
290
     1
  9
$PSVPSCALE
 40
0.0
  9
$OLESTARTUP
290
     0
  0
ENDSEC
  0
SECTION
  2
CLASSES
  0
CLASS
  1
ACDBDICTIONARYWDFLT
  2
AcDbDictionaryWithDefault
  3
ObjectDBX Classes
 90
        0
280
     0
281
     0
  0
CLASS
  1
VISUALSTYLE
  2
AcDbVisualStyle
  3
ObjectDBX Classes
 90
     4095
280
     0
281
     0
  0
CLASS
  1
MATERIAL
  2
AcDbMaterial
  3
ObjectDBX Classes
 90
     1153
280
     0
281
     0
  0
CLASS
  1
SCALE
  2
AcDbScale
  3
ObjectDBX Classes
 90
     1153
280
     0
281
     0
  0
CLASS
  1
TABLESTYLE
  2
AcDbTableStyle
  3
ObjectDBX Classes
 90
     4095
280
     0
281
     0
  0
CLASS
  1
MLEADERSTYLE
  2
AcDbMLeaderStyle
  3
ACDB_MLEADERSTYLE_CLASS
 90
     4095
280
     0
281
     0
  0
CLASS
  1
SUN
  2
AcDbSun
  3
SCENEOE
 90
     1153
280
     0
281
     0
  0
CLASS
  1
ACDBPLACEHOLDER
  2
AcDbPlaceHolder
  3
ObjectDBX Classes
 90
        0
280
     0
281
     0
  0
CLASS
  1
LAYOUT
  2
AcDbLayout
  3
ObjectDBX Classes
 90
        0
280
     0
281
     0
  0
CLASS
  1
RASTERVARIABLES
  2
AcDbRasterVariables
  3
ISM
 90
        0
280
     0
281
     0
  0
ENDSEC
  0
SECTION
  2
TABLES
  0
TABLE
  2
VPORT
  5
8
330
0
100
AcDbSymbolTable
 70
     1
  0
VPORT
  5
29
330
8
100
AcDbSymbolTableRecord
100
AcDbViewportTableRecord
  2
*Active
 70
     0
 10
0.0
 20
0.0
 11
1.0
 21
1.0
 12
-0.6004023940107146
 22
-11.60383739361505
 13
0.0
 23
0.0
 14
10.0
 24
10.0
 15
10.0
 25
10.0
 16
0.0
 26
0.0
 36
1.0
 17
0.0
 27
0.0
 37
0.0
 40
78.27065879020124
 41
1.739018087855297
 42
50.0
 43
0.0
 44
0.0
 50
0.0
 51
0.0
 71
    16
 72
  2000
 73
     1
 74
     3
 75
     0
 76
     0
 77
     0
 78
     0
281
     0
 65
     1
110
0.0
120
0.0
130
0.0
111
1.0
121
0.0
131
0.0
112
0.0
122
1.0
132
0.0
 79
     0
146
0.0
  0
ENDTAB
  0
TABLE
  2
LTYPE
  5
5
330
0
100
AcDbSymbolTable
 70
     6
  0
LTYPE
  5
14
330
5
100
AcDbSymbolTableRecord
100
AcDbLinetypeTableRecord
  2
ByBlock
 70
     0
  3

 72
    65
 73
     0
 40
0.0
  0
LTYPE
  5
15
330
5
100
AcDbSymbolTableRecord
100
AcDbLinetypeTableRecord
  2
ByLayer
 70
     0
  3

 72
    65
 73
     0
 40
0.0
  0
LTYPE
  5
16
330
5
100
AcDbSymbolTableRecord
100
AcDbLinetypeTableRecord
  2
Continuous
 70
     0
  3
Solid line
 72
    65
 73
     0
 40
0.0
  0
LTYPE
  5
6E
330
5
100
AcDbSymbolTableRecord
100
AcDbLinetypeTableRecord
  2
HIDDEN
 70
     0
  3
Hidden __ __ __ __ __ __ __ __ __ __ __ __ __ __
 72
    65
 73
     2
 40
1.905
 49
1.27
 74
     0
 49
-0.635
 74
     0
  0
LTYPE
  5
6F
330
5
100
AcDbSymbolTableRecord
100
AcDbLinetypeTableRecord
  2
PHANTOM
 70
     0
  3
Phantom ______  __  __  ______  __  __  ______
 72
    65
 73
     6
 40
12.7
 49
6.35
 74
     0
 49
-1.27
 74
     0
 49
1.27
 74
     0
 49
-1.27
 74
     0
 49
1.27
 74
     0
 49
-1.27
 74
     0
  0
LTYPE
  5
70
330
5
100
AcDbSymbolTableRecord
100
AcDbLinetypeTableRecord
  2
CENTER
 70
     0
  3
Center ____ _ ____ _ ____ _ ____ _ ____ _ ____
 72
    65
 73
     4
 40
10.16
 49
6.35
 74
     0
 49
-1.27
 74
     0
 49
1.27
 74
     0
 49
-1.27
 74
     0
  0
LTYPE
  5
71
330
5
100
AcDbSymbolTableRecord
100
AcDbLinetypeTableRecord
  2
CENTERX2
 70
     0
  3
Center (2x) ________  __  ________  __  _____
 72
    65
 73
     4
 40
20.32
 49
12.7
 74
     0
 49
-2.54
 74
     0
 49
2.54
 74
     0
 49
-2.54
 74
     0
  0
LTYPE
  5
72
330
5
100
AcDbSymbolTableRecord
100
AcDbLinetypeTableRecord
  2
DOT2
 70
     0
  3
Dot (.5x) ........................................
 72
    65
 73
     2
 40
0.635
 49
0.0
 74
     0
 49
-0.635
 74
     0
  0
ENDTAB
  0
TABLE
  2
LAYER
  5
2
330
0
100
AcDbSymbolTable
 70
    17
  0
LAYER
  5
10
330
2
100
AcDbSymbolTableRecord
100
AcDbLayerTableRecord
  2
0
 70
     0
 62
     7
  6
Continuous
370
    -3
390
F
  0
LAYER
  5
73
330
2
100
AcDbSymbolTableRecord
100
AcDbLayerTableRecord
  2
FORMAT
 70
     0
 62
     2
  6
Continuous
370
    -3
390
F
  0
LAYER
  5
74
330
2
100
AcDbSymbolTableRecord
100
AcDbLayerTableRecord
  2
외형선
 70
     0
 62
   100
  6
Continuous
370
    35
390
F
  0
LAYER
  5
75
330
2
100
AcDbSymbolTableRecord
100
AcDbLayerTableRecord
  2
숨은선
 70
     0
 62
     2
  6
HIDDEN
370
    25
390
F
  0
LAYER
  5
76
330
2
100
AcDbSymbolTableRecord
100
AcDbLayerTableRecord
  2
중심선
 70
     0
 62
     1
  6
CENTERX2
370
    -3
390
F
  0
LAYER
  5
77
330
2
100
AcDbSymbolTableRecord
100
AcDbLayerTableRecord
  2
파단선
 70
     0
 62
     4
  6
Continuous
370
    -3
390
F
  0
LAYER
  5
78
330
2
100
AcDbSymbolTableRecord
100
AcDbLayerTableRecord
  2
해칭선
 70
     0
 62
   100
  6
Continuous
370
    -3
390
F
  0
LAYER
  5
79
330
2
100
AcDbSymbolTableRecord
100
AcDbLayerTableRecord
  2
가는실선
 70
     0
 62
     4
  6
Continuous
370
    -3
390
F
  0
LAYER
  5
7A
330
2
100
AcDbSymbolTableRecord
100
AcDbLayerTableRecord
  2
치수_보조선
 70
     0
 62
     4
  6
Continuous
370
    -3
390
F
  0
LAYER
  5
7B
330
2
100
AcDbSymbolTableRecord
100
AcDbLayerTableRecord
  2
치수문자_일반주서
 70
     0
 62
     7
  6
Continuous
370
    25
390
F
  0
LAYER
  5
7C
330
2
100
AcDbSymbolTableRecord
100
AcDbLayerTableRecord
  2
개별주서
 70
     0
 62
   100
  6
Continuous
370
    35
390
F
  0
LAYER
  5
7D
330
2
100
AcDbSymbolTableRecord
100
AcDbLayerTableRecord
  2
중간선
 70
     0
 62
     2
  6
Continuous
370
    25
390
F
  0
LAYER
  5
7E
330
2
100
AcDbSymbolTableRecord
100
AcDbLayerTableRecord
  2
윤곽선
 70
     0
 62
     3
  6
Continuous
370
    50
390
F
  0
LAYER
  5
7F
330
2
100
AcDbSymbolTableRecord
100
AcDbLayerTableRecord
  2
중심마크
 70
     0
 62
   100
  6
Continuous
370
    35
390
F
  0
LAYER
  5
80
330
2
100
AcDbSymbolTableRecord
100
AcDbLayerTableRecord
  2
가상선
 70
     0
 62
     4
  6
PHANTOM
370
    -3
390
F
  0
LAYER
  5
81
330
2
100
AcDbSymbolTableRecord
100
AcDbLayerTableRecord
  2
특수지정선
 70
     0
 62
     5
  6
CENTERX2
370
    70
390
F
  0
LAYER
  5
12C
330
2
100
AcDbSymbolTableRecord
100
AcDbLayerTableRecord
  2
Defpoints
 70
     0
 62
     7
  6
Continuous
290
     0
370
    -3
390
F
  0
ENDTAB
  0
TABLE
  2
STYLE
  5
3
330
0
100
AcDbSymbolTable
 70
     2
  0
STYLE
  5
11
330
3
100
AcDbSymbolTableRecord
100
AcDbTextStyleTableRecord
  2
Standard
 70
     0
 40
0.0
 41
1.0
 50
0.0
 71
     0
 42
3.5
  3
txt
  4

  0
STYLE
  5
97
330
3
100
AcDbSymbolTableRecord
100
AcDbTextStyleTableRecord
  2
SLDTEXTSTYLE0
 70
     0
 40
0.0
 41
0.75
 50
0.0
 71
     0
 42
3.5
  3
TXT
  4

  0
ENDTAB
  0
TABLE
  2
VIEW
  5
6
330
0
100
AcDbSymbolTable
 70
     0
  0
ENDTAB
  0
TABLE
  2
UCS
  5
7
330
0
100
AcDbSymbolTable
 70
     0
  0
ENDTAB
  0
TABLE
  2
APPID
  5
9
330
0
100
AcDbSymbolTable
 70
     1
  0
APPID
  5
12
330
9
100
AcDbSymbolTableRecord
100
AcDbRegAppTableRecord
  2
ACAD
 70
     0
  0
ENDTAB
  0
TABLE
  2
DIMSTYLE
  5
A
330
0
100
AcDbSymbolTable
 70
     4
100
AcDbDimStyleTable
  0
DIMSTYLE
105
27
330
A
100
AcDbSymbolTableRecord
100
AcDbDimStyleTableRecord
  2
ISO-25
 70
     0
 41
2.5
 42
0.625
 43
3.75
 44
1.25
 73
     0
 74
     0
 77
     1
 78
     8
140
2.5
141
2.5
143
0.03937007874016
147
0.625
171
     3
172
     1
178
     0
271
     2
272
     2
274
     3
278
    44
283
     0
284
     8
340
11
  0
DIMSTYLE
105
D0
102
{ACAD_REACTORS
330
CF
102
}
330
A
100
AcDbSymbolTableRecord
100
AcDbDimStyleTableRecord
  2
SLDDIMSTYLE0
 70
     0
 41
3.302
 44
0.0
 45
0.000000001
 73
     0
 74
     0
 77
     1
 78
    12
 79
     3
140
3.5
147
0.875
172
     1
173
     1
178
     0
271
     1
272
     1
276
     2
284
    12
289
     0
340
97
  0
DIMSTYLE
105
DE
102
{ACAD_REACTORS
330
DD
330
F6
102
}
330
A
100
AcDbSymbolTableRecord
100
AcDbDimStyleTableRecord
  2
SLDDIMSTYLE1
 70
     0
 41
3.302
 44
0.0
 45
0.000000001
 73
     0
 74
     0
 77
     1
 78
    12
 79
     3
140
3.5
147
0.875
173
     1
178
     0
271
     2
272
     2
276
     2
284
    12
340
97
  0
DIMSTYLE
105
E9
102
{ACAD_REACTORS
330
E8
102
}
330
A
100
AcDbSymbolTableRecord
100
AcDbDimStyleTableRecord
  2
SLDDIMSTYLE2
 70
     0
 41
3.302
 44
0.0
 45
0.000000001
 73
     0
 74
     0
 77
     1
 78
    12
 79
     3
140
3.5
147
0.875
172
     1
173
     1
178
     0
271
     2
272
     2
276
     2
284
    12
289
     0
340
97
  0
ENDTAB
  0
TABLE
  2
BLOCK_RECORD
  5
1
330
0
100
AcDbSymbolTable
 70
     7
  0
BLOCK_RECORD
  5
1F
330
1
100
AcDbSymbolTableRecord
100
AcDbBlockTableRecord
  2
*Model_Space
340
22
  0
BLOCK_RECORD
  5
1B
330
1
100
AcDbSymbolTableRecord
100
AcDbBlockTableRecord
  2
*Paper_Space
340
1E
  0
BLOCK_RECORD
  5
23
330
1
100
AcDbSymbolTableRecord
100
AcDbBlockTableRecord
  2
*Paper_Space0
340
26
  0
BLOCK_RECORD
  5
82
330
1
100
AcDbSymbolTableRecord
100
AcDbBlockTableRecord
  2
블럭10
340
0
102
{BLKREFS
331
C8
102
}
  0
BLOCK_RECORD
  5
D1
330
1
100
AcDbSymbolTableRecord
100
AcDbBlockTableRecord
  2
_D
340
0
  0
BLOCK_RECORD
  5
DF
330
1
100
AcDbSymbolTableRecord
100
AcDbBlockTableRecord
  2
_D_1
340
0
  0
BLOCK_RECORD
  5
EA
330
1
100
AcDbSymbolTableRecord
100
AcDbBlockTableRecord
  2
_D_2
340
0
  0
BLOCK_RECORD
  5
F7
330
1
100
AcDbSymbolTableRecord
100
AcDbBlockTableRecord
  2
_D_3
340
0
  0
BLOCK_RECORD
  5
100
330
1
100
AcDbSymbolTableRecord
100
AcDbBlockTableRecord
  2
SW_DOWELSYMBOL_0
340
0
102
{BLKREFS
331
106
102
}
  0
ENDTAB
  0
ENDSEC
  0
SECTION
  2
BLOCKS
  0
BLOCK
  5
20
330
1F
100
AcDbEntity
  8
0
100
AcDbBlockBegin
  2
*Model_Space
 70
     0
 10
0.0
 20
0.0
 30
0.0
  3
*Model_Space
  1

  0
ENDBLK
  5
21
330
1F
100
AcDbEntity
  8
0
100
AcDbBlockEnd
  0
BLOCK
  5
1C
330
1B
100
AcDbEntity
 67
     1
  8
0
100
AcDbBlockBegin
  2
*Paper_Space
 70
     0
 10
0.0
 20
0.0
 30
0.0
  3
*Paper_Space
  1

  0
ENDBLK
  5
1D
330
1B
100
AcDbEntity
 67
     1
  8
0
100
AcDbBlockEnd
  0
BLOCK
  5
24
330
23
100
AcDbEntity
  8
0
100
AcDbBlockBegin
  2
*Paper_Space0
 70
     0
 10
0.0
 20
0.0
 30
0.0
  3
*Paper_Space0
  1

  0
ENDBLK
  5
25
330
23
100
AcDbEntity
  8
0
100
AcDbBlockEnd
  0
BLOCK
  5
83
330
82
100
AcDbEntity
  8
0
100
AcDbBlockBegin
  2
블럭10
 70
     2
 10
0.0
 20
0.0
 30
0.0
  3
블럭10
  1

  0
ELLIPSE
  5
85
330
82
100
AcDbEntity
  8
중심선
100
AcDbEllipse
 10
20.54032771741204
 20
12.0471743016438
 30
0.0
 11
6.600054785286829
 21
-1.261213355974178E-13
 31
0.0
210
0.0
220
0.0
230
1.0
 40
0.636358354079598
 41
0.9219305317359503
 42
6.513795318482858
  0
ELLIPSE
  5
86
330
82
100
AcDbEntity
  8
중심선
100
AcDbEllipse
 10
20.54032771746488
 20
12.04717430159265
 30
0.0
 11
3.960054785062283
 21
1.540847449632565E-10
 31
0.0
210
0.0
220
0.0
230
1.0
 40
0.3939339440162632
 41
1.131841032648279
 42
5.62031148352944
  0
LINE
  5
87
330
82
100
AcDbEntity
  8
중심선
100
AcDbLine
 10
2.268634060543552
 20
16.24717430164393
 30
0.0
 11
5.714909304380834
 21
16.24717430164393
 31
0.0
  0
LINE
  5
88
330
82
100
AcDbEntity
  8
중심선
100
AcDbLine
 10
5.245725140726316
 20
7.84717430164391
 30
0.0
 11
8.692000384563599
 21
7.84717430164391
 31
0.0
  0
LINE
  5
89
330
82
100
AcDbEntity
  8
중심선
100
AcDbLine
 10
15.74043728645272
 20
16.24717430164393
 30
0.0
 11
8.692000384563599
 21
7.84717430164391
 31
0.0
  0
LINE
  5
8A
330
82
100
AcDbEntity
  8
중심선
100
AcDbLine
 10
0.1404042013395286
 20
13.71084872107135
 30
0.0
 11
3.58671253028996
 21
13.71088815037384
 31
0.0
  0
LINE
  5
8B
330
82
100
AcDbEntity
  8
중심선
100
AcDbLine
 10
2.750260043222114
 20
10.84717430164391
 30
0.0
 11
6.196535287059397
 21
10.84717430164391
 31
0.0
  0
LINE
  5
8C
330
82
100
AcDbEntity
  8
중심선
100
AcDbLine
 10
12.29416204261559
 20
16.24717430164393
 30
0.0
 11
5.245725140726316
 21
7.84717430164391
 31
0.0
  0
LINE
  5
8D
330
82
100
AcDbEntity
  8
중심선
100
AcDbLine
 10
10.72767329541681
 20
16.24717430164393
 30
0.0
 11
6.196535287059397
 21
10.84717430164391
 31
0.0
  0
LINE
  5
8E
330
82
100
AcDbEntity
  8
중심선
100
AcDbLine
 10
7.28139805157953
 20
16.24717430164393
 30
0.0
 11
2.750260043222114
 21
10.84717430164391
 31
0.0
  0
LINE
  5
8F
330
82
100
AcDbEntity
  8
중심선
100
AcDbLine
 10
5.714909304380834
 20
16.24717430164393
 30
0.0
 11
3.58671253028996
 21
13.71088815037384
 31
0.0
  0
LINE
  5
90
330
82
100
AcDbEntity
  8
중심선
100
AcDbLine
 10
2.268634060543552
 20
16.24717430164393
 30
0.0
 11
0.1404042013395286
 21
13.71084872107135
 31
0.0
  0
LINE
  5
91
330
82
100
AcDbEntity
  8
중심선
100
AcDbLine
 10
7.28139805157953
 20
16.24717430164393
 30
0.0
 11
10.72767329541681
 21
16.24717430164393
 31
0.0
  0
LINE
  5
92
330
82
100
AcDbEntity
  8
중심선
100
AcDbLine
 10
12.29416204261559
 20
16.24717430164393
 30
0.0
 11
15.74043728645272
 21
16.24717430164393
 31
0.0
  0
LINE
  5
93
330
82
100
AcDbEntity
  8
중심선
100
AcDbLine
 10
19.22036997980202
 20
11.08717430171403
 30
0.0
 11
23.66174974927406
 21
11.08717430171406
 31
0.0
  0
LINE
  5
94
330
82
100
AcDbEntity
  8
중심선
100
AcDbLine
 10
19.22039502424796
 20
13.00717430171391
 30
0.0
 11
19.22036997980202
 21
11.08717430171403
 31
0.0
  0
LINE
  5
95
330
82
100
AcDbEntity
  8
중심선
100
AcDbLine
 10
19.22039502424796
 20
13.00717430171391
 30
0.0
 11
26.96566020931264
 21
13.00717430171391
 31
0.0
  0
LINE
  5
96
330
82
100
AcDbEntity
  8
중심선
100
AcDbLine
 10
22.22332737316547
 20
13.45928029700563
 30
0.0
 11
24.52862924686651
 21
15.39360700705356
 31
0.0
  0
ATTDEF
  5
98
330
82
100
AcDbEntity
  8
FORMAT
 62
     2
100
AcDbText
 10
-16.11926103943555
 20
2.075366912832191
 30
0.0
 40
4.233333333333333
  1
SEME7110022E [ 4 FLUTE ]
 41
0.75
  7
SLDTEXTSTYLE0
 11
-16.11926103943555
 21
-0.0412997538344756
 31
0.0
100
AcDbAttributeDefinition
  3

  2
AUTOATTR0
 70
     0
 74
     1
  0
ENDBLK
  5
84
330
82
100
AcDbEntity
  8
0
100
AcDbBlockEnd
  0
BLOCK
  5
D2
330
D1
100
AcDbEntity
  8
0
100
AcDbBlockBegin
  2
_D
 70
     0
 10
0.0
 20
0.0
 30
0.0
  3
_D
  1

  0
LINE
  5
D4
330
D1
100
AcDbEntity
  8
치수문자_일반주서
 62
     0
370
    -2
100
AcDbLine
 10
32.0625
 20
-5.000000000000013
 30
0.0
 11
44.0422241305873
 21
-4.999999999999966
 31
0.0
  0
LINE
  5
D5
330
D1
100
AcDbEntity
  8
치수문자_일반주서
 62
     0
370
    -2
100
AcDbLine
 10
32.0625
 20
4.999999999999996
 30
0.0
 11
44.04222413058726
 21
5.000000000000039
 31
0.0
  0
LINE
  5
D6
330
D1
100
AcDbEntity
  8
치수문자_일반주서
 62
     0
370
    -2
100
AcDbLine
 10
44.0422241305873
 20
-4.999999999999966
 30
0.0
 11
44.04222413058721
 21
19.04150000000004
 31
0.0
  0
LINE
  5
D7
330
D1
100
AcDbEntity
  8
치수문자_일반주서
 62
     0
370
    -2
100
AcDbLine
 10
44.0422241305873
 20
-4.999999999999966
 30
0.0
 11
44.04222413058726
 21
5.000000000000039
 31
0.0
  0
LINE
  5
D8
330
D1
100
AcDbEntity
  8
치수문자_일반주서
 62
     0
370
    -2
100
AcDbLine
 10
44.04222413058731
 20
-8.301999999999966
 30
0.0
 11
44.04222413058733
 21
-11.60399999999997
 31
0.0
  0
LINE
  5
D9
330
D1
100
AcDbEntity
  8
치수문자_일반주서
 62
     0
370
    -2
100
AcDbLine
 10
44.04222413058725
 20
8.302000000000039
 30
0.0
 11
44.04222413058724
 21
11.60400000000004
 31
0.0
  0
SOLID
  5
DA
330
D1
100
AcDbEntity
  8
치수문자_일반주서
 62
     0
100
AcDbTrace
 10
44.59255746392065
 20
-8.301999999999964
 30
0.0
 11
43.49189079725398
 21
-8.301999999999968
 31
0.0
 12
44.0422241305873
 22
-4.999999999999966
 32
0.0
 13
44.0422241305873
 23
-4.999999999999966
 33
0.0
  0
SOLID
  5
DB
330
D1
100
AcDbEntity
  8
치수문자_일반주서
 62
     0
100
AcDbTrace
 10
43.49189079725392
 20
8.302000000000037
 30
0.0
 11
44.59255746392058
 21
8.30200000000004
 31
0.0
 12
44.04222413058726
 22
5.000000000000039
 32
0.0
 13
44.04222413058726
 23
5.000000000000039
 33
0.0
  0
MTEXT
  5
DC
330
D1
100
AcDbEntity
  8
치수문자_일반주서
 62
     0
100
AcDbMText
 10
39.66722413058723
 20
15.32275000000003
 30
0.0
 40
3.5
 41
0.0
 71
     2
 72
     1
  1
\A1;%%c10
  7
SLDTEXTSTYLE0
 11
-3.552713678800498E-15
 21
1.0
 31
0.0
 73
     1
 44
1.0
  0
POINT
  5
136
330
D1
100
AcDbEntity
  8
Defpoints
 62
     0
100
AcDbPoint
 10
32.0
 20
-5.000000000000013
 30
0.0
  0
POINT
  5
137
330
D1
100
AcDbEntity
  8
Defpoints
 62
     0
100
AcDbPoint
 10
32.0
 20
4.999999999999996
 30
0.0
  0
POINT
  5
138
330
D1
100
AcDbEntity
  8
Defpoints
 62
     0
100
AcDbPoint
 10
44.04222413058726
 20
5.000000000000041
 30
0.0
  0
ENDBLK
  5
D3
330
D1
100
AcDbEntity
  8
0
100
AcDbBlockEnd
  0
BLOCK
  5
E0
330
DF
100
AcDbEntity
  8
0
100
AcDbBlockBegin
  2
_D_1
 70
     0
 10
0.0
 20
0.0
 30
0.0
  3
_D_1
  1

  0
LINE
  5
E2
330
DF
100
AcDbEntity
  8
치수문자_일반주서
 62
     0
370
    -2
100
AcDbLine
 10
-33.0
 20
4.562499999999987
 30
0.0
 11
-33.0
 21
22.38913260158164
 31
0.0
  0
LINE
  5
E3
330
DF
100
AcDbEntity
  8
치수문자_일반주서
 62
     0
370
    -2
100
AcDbLine
 10
32.0
 20
5.062499999999997
 30
0.0
 11
32.0
 21
22.38913260158164
 31
0.0
  0
LINE
  5
E4
330
DF
100
AcDbEntity
  8
치수문자_일반주서
 62
     0
370
    -2
100
AcDbLine
 10
-29.698
 20
22.38913260158164
 30
0.0
 11
28.698
 21
22.38913260158164
 31
0.0
  0
SOLID
  5
E5
330
DF
100
AcDbEntity
  8
치수문자_일반주서
 62
     0
100
AcDbTrace
 10
-29.698
 20
22.93946593491497
 30
0.0
 11
-29.698
 21
21.8387992682483
 31
0.0
 12
-33.0
 22
22.38913260158164
 32
0.0
 13
-33.0
 23
22.38913260158164
 33
0.0
  0
SOLID
  5
E6
330
DF
100
AcDbEntity
  8
치수문자_일반주서
 62
     0
100
AcDbTrace
 10
28.698
 20
21.8387992682483
 30
0.0
 11
28.698
 21
22.93946593491497
 31
0.0
 12
32.0
 22
22.38913260158164
 32
0.0
 13
32.0
 23
22.38913260158164
 33
0.0
  0
MTEXT
  5
E7
330
DF
100
AcDbEntity
  8
치수문자_일반주서
 62
     0
100
AcDbMText
 10
-0.5000000000000047
 20
26.76413260158164
 30
0.0
 40
3.5
 41
0.0
 71
     2
 72
     1
  1
\A1;65
  7
SLDTEXTSTYLE0
 73
     1
 44
1.0
  0
POINT
  5
12D
330
DF
100
AcDbEntity
  8
Defpoints
 62
     0
100
AcDbPoint
 10
-33.0
 20
4.499999999999987
 30
0.0
  0
POINT
  5
12E
330
DF
100
AcDbEntity
  8
Defpoints
 62
     0
100
AcDbPoint
 10
32.0
 20
4.999999999999997
 30
0.0
  0
POINT
  5
12F
330
DF
100
AcDbEntity
  8
Defpoints
 62
     0
100
AcDbPoint
 10
32.0
 20
22.38913260158164
 30
0.0
  0
ENDBLK
  5
E1
330
DF
100
AcDbEntity
  8
0
100
AcDbBlockEnd
  0
BLOCK
  5
EB
330
EA
100
AcDbEntity
  8
0
100
AcDbBlockBegin
  2
_D_2
 70
     0
 10
0.0
 20
0.0
 30
0.0
  3
_D_2
  1

  0
LINE
  5
ED
330
EA
100
AcDbEntity
  8
치수문자_일반주서
 62
     0
370
    -2
100
AcDbLine
 10
-32.56250000000001
 20
4.999999999999996
 30
0.0
 11
-41.41836225194201
 21
4.999999999999961
 31
0.0
  0
LINE
  5
EE
330
EA
100
AcDbEntity
  8
치수문자_일반주서
 62
     0
370
    -2
100
AcDbLine
 10
-32.56250000000001
 20
-5.000000000000013
 30
0.0
 11
-41.41836225194198
 21
-5.000000000000048
 31
0.0
  0
LINE
  5
EF
330
EA
100
AcDbEntity
  8
치수문자_일반주서
 62
     0
370
    -2
100
AcDbLine
 10
-41.41836225194201
 20
4.999999999999961
 30
0.0
 11
-41.41836225194206
 21
19.04149999999996
 31
0.0
  0
LINE
  5
F0
330
EA
100
AcDbEntity
  8
치수문자_일반주서
 62
     0
370
    -2
100
AcDbLine
 10
-41.41836225194201
 20
4.999999999999961
 30
0.0
 11
-41.41836225194198
 21
-5.000000000000048
 31
0.0
  0
LINE
  5
F1
330
EA
100
AcDbEntity
  8
치수문자_일반주서
 62
     0
370
    -2
100
AcDbLine
 10
-41.41836225194203
 20
8.30199999999996
 30
0.0
 11
-41.41836225194204
 21
11.60399999999996
 31
0.0
  0
LINE
  5
F2
330
EA
100
AcDbEntity
  8
치수문자_일반주서
 62
     0
370
    -2
100
AcDbLine
 10
-41.41836225194196
 20
-8.302000000000048
 30
0.0
 11
-41.41836225194195
 21
-11.60400000000005
 31
0.0
  0
SOLID
  5
F3
330
EA
100
AcDbEntity
  8
치수문자_일반주서
 62
     0
100
AcDbTrace
 10
-41.96869558527536
 20
8.301999999999959
 30
0.0
 11
-40.86802891860869
 21
8.301999999999962
 31
0.0
 12
-41.41836225194201
 22
4.999999999999961
 32
0.0
 13
-41.41836225194201
 23
4.999999999999961
 33
0.0
  0
SOLID
  5
F4
330
EA
100
AcDbEntity
  8
치수문자_일반주서
 62
     0
100
AcDbTrace
 10
-40.86802891860863
 20
-8.302000000000046
 30
0.0
 11
-41.9686955852753
 21
-8.30200000000005
 31
0.0
 12
-41.41836225194198
 22
-5.000000000000048
 32
0.0
 13
-41.41836225194198
 23
-5.000000000000048
 33
0.0
  0
MTEXT
  5
F5
330
EA
100
AcDbEntity
  8
치수문자_일반주서
 62
     0
100
AcDbMText
 10
-45.79336225194205
 20
15.32274999999995
 30
0.0
 40
3.5
 41
0.0
 71
     2
 72
     1
  1
\A1;%%c10
  7
SLDTEXTSTYLE0
 11
-3.552713678800498E-15
 21
1.0
 31
0.0
 73
     1
 44
1.0
  0
POINT
  5
133
330
EA
100
AcDbEntity
  8
Defpoints
 62
     0
100
AcDbPoint
 10
-32.50000000000001
 20
4.999999999999996
 30
0.0
  0
POINT
  5
134
330
EA
100
AcDbEntity
  8
Defpoints
 62
     0
100
AcDbPoint
 10
-32.50000000000001
 20
-5.000000000000013
 30
0.0
  0
POINT
  5
135
330
EA
100
AcDbEntity
  8
Defpoints
 62
     0
100
AcDbPoint
 10
-41.41836225194199
 20
-5.000000000000047
 30
0.0
  0
ENDBLK
  5
EC
330
EA
100
AcDbEntity
  8
0
100
AcDbBlockEnd
  0
BLOCK
  5
F8
330
F7
100
AcDbEntity
  8
0
100
AcDbBlockBegin
  2
_D_3
 70
     0
 10
0.0
 20
0.0
 30
0.0
  3
_D_3
  1

  0
LINE
  5
FA
330
F7
100
AcDbEntity
  8
치수문자_일반주서
 62
     0
370
    -2
100
AcDbLine
 10
10.0
 20
5.049238544114916
 30
0.0
 11
10.0
 21
15.83265684670257
 31
0.0
  0
LINE
  5
FB
330
F7
100
AcDbEntity
  8
치수문자_일반주서
 62
     0
370
    -2
100
AcDbLine
 10
32.0
 20
5.062499999999997
 30
0.0
 11
32.0
 21
15.83265684670257
 31
0.0
  0
LINE
  5
FC
330
F7
100
AcDbEntity
  8
치수문자_일반주서
 62
     0
370
    -2
100
AcDbLine
 10
13.302
 20
15.83265684670257
 30
0.0
 11
28.698
 21
15.83265684670257
 31
0.0
  0
SOLID
  5
FD
330
F7
100
AcDbEntity
  8
치수문자_일반주서
 62
     0
100
AcDbTrace
 10
13.302
 20
16.3829901800359
 30
0.0
 11
13.302
 21
15.28232351336924
 31
0.0
 12
10.0
 22
15.83265684670257
 32
0.0
 13
10.0
 23
15.83265684670257
 33
0.0
  0
SOLID
  5
FE
330
F7
100
AcDbEntity
  8
치수문자_일반주서
 62
     0
100
AcDbTrace
 10
28.698
 20
15.28232351336924
 30
0.0
 11
28.698
 21
16.3829901800359
 31
0.0
 12
32.0
 22
15.83265684670257
 32
0.0
 13
32.0
 23
15.83265684670257
 33
0.0
  0
MTEXT
  5
FF
330
F7
100
AcDbEntity
  8
치수문자_일반주서
 62
     0
100
AcDbMText
 10
21.0
 20
20.20765684670257
 30
0.0
 40
3.5
 41
0.0
 71
     2
 72
     1
  1
\A1;22
  7
SLDTEXTSTYLE0
 73
     1
 44
1.0
  0
POINT
  5
130
330
F7
100
AcDbEntity
  8
Defpoints
 62
     0
100
AcDbPoint
 10
10.0
 20
4.986738544114916
 30
0.0
  0
POINT
  5
131
330
F7
100
AcDbEntity
  8
Defpoints
 62
     0
100
AcDbPoint
 10
32.0
 20
4.999999999999997
 30
0.0
  0
POINT
  5
132
330
F7
100
AcDbEntity
  8
Defpoints
 62
     0
100
AcDbPoint
 10
32.0
 20
15.83265684670257
 30
0.0
  0
ENDBLK
  5
F9
330
F7
100
AcDbEntity
  8
0
100
AcDbBlockEnd
  0
BLOCK
  5
101
330
100
100
AcDbEntity
  8
0
100
AcDbBlockBegin
  2
SW_DOWELSYMBOL_0
 70
     0
 10
0.0
 20
0.0
 30
0.0
  3
SW_DOWELSYMBOL_0
  1

  0
CIRCLE
  5
103
330
100
100
AcDbEntity
  8
해칭선
 62
     0
100
AcDbCircle
 10
0.0
 20
0.0
 30
0.0
 40
3.000000000000001
  0
HATCH
  5
104
330
100
100
AcDbEntity
  8
0
  6
Continuous
 62
     0
370
    18
100
AcDbHatch
 10
0.0
 20
0.0
 30
0.0
210
0.0
220
0.0
230
1.0
  2
SOLID
 70
     1
 71
     0
 91
        1
 92
        0
 93
        3
 72
     2
 10
0.0
 20
0.0
 40
3.000000000000001
 50
0.0
 51
90.0
 73
     1
 72
     1
 10
0.0
 20
3.000000000000001
 11
0.0
 21
0.0
 72
     1
 10
0.0
 20
0.0
 11
3.000000000000001
 21
0.0
 97
        0
 75
     0
 76
     1
 98
        1
 10
0.0
 20
0.0
  0
HATCH
  5
105
330
100
100
AcDbEntity
  8
0
  6
Continuous
 62
     0
370
    18
100
AcDbHatch
 10
0.0
 20
0.0
 30
0.0
210
0.0
220
0.0
230
1.0
  2
SOLID
 70
     1
 71
     0
 91
        1
 92
        0
 93
        3
 72
     2
 10
0.0
 20
0.0
 40
3.000000000000001
 50
180.0
 51
270.0000000000008
 73
     1
 72
     1
 10
0.0
 20
-3.000000000000001
 11
0.0
 21
0.0
 72
     1
 10
0.0
 20
0.0
 11
-3.000000000000001
 21
0.0
 97
        0
 75
     0
 76
     1
 98
        1
 10
0.0
 20
0.0
  0
ENDBLK
  5
102
330
100
100
AcDbEntity
  8
0
100
AcDbBlockEnd
  0
ENDSEC
  0
SECTION
  2
ENTITIES
  0
LINE
  5
99
330
1F
100
AcDbEntity
  8
0
  6
Continuous
 62
     4
370
    25
100
AcDbLine
 10
8.645741243182005
 20
4.999999999999992
 30
0.0
 11
-32.50000000000001
 21
4.999999999999988
 31
0.0
  0
LINE
  5
9A
330
1F
100
AcDbEntity
  8
0
  6
Continuous
 62
     4
370
    25
100
AcDbLine
 10
-32.50000000000001
 20
-5.000000000000012
 30
0.0
 11
8.645741243181995
 21
-5.000000000000008
 31
0.0
  0
LINE
  5
9B
330
1F
100
AcDbEntity
  8
0
  6
Continuous
 62
     4
370
    25
100
AcDbLine
 10
-32.50000000000001
 20
4.999999999999985
 30
0.0
 11
-33.0
 21
4.499999999999987
 31
0.0
  0
LINE
  5
9C
330
1F
100
AcDbEntity
  8
0
  6
Continuous
 62
     4
370
    25
100
AcDbLine
 10
-33.0
 20
-4.50000000000001
 30
0.0
 11
-32.50000000000001
 21
-5.000000000000008
 31
0.0
  0
LINE
  5
9D
330
1F
100
AcDbEntity
  8
0
  6
Continuous
 62
     1
370
    25
100
AcDbLine
 10
30.57049589958226
 20
-5.000000000000012
 30
0.0
 11
32.0
 21
-5.000000000000012
 31
0.0
  0
LINE
  5
9E
330
1F
100
AcDbEntity
  8
0
  6
Continuous
 62
     1
370
    25
100
AcDbLine
 10
13.32441541292815
 20
4.999999999999994
 30
0.0
 11
10.4657764822583
 21
4.999999999999994
 31
0.0
  0
LINE
  5
9F
330
1F
100
AcDbEntity
  8
0
  6
Continuous
 62
     1
370
    25
100
AcDbLine
 10
20.51737777202117
 20
-5.000000000000012
 30
0.0
 11
23.37738484684937
 21
-5.000000000000012
 31
0.0
  0
LINE
  5
A0
330
1F
100
AcDbEntity
  8
0
  6
Continuous
 62
     1
370
    25
100
AcDbLine
 10
23.37738484684937
 20
4.999999999999994
 30
0.0
 11
20.51737777202121
 21
4.999999999999994
 31
0.0
  0
LINE
  5
A1
330
1F
100
AcDbEntity
  8
0
  6
Continuous
 62
     1
370
    25
100
AcDbLine
 10
10.4657764822583
 20
-5.000000000000012
 30
0.0
 11
13.32441541292811
 21
-5.000000000000012
 31
0.0
  0
LINE
  5
A2
330
1F
100
AcDbEntity
  8
0
  6
Continuous
 62
     1
370
    25
100
AcDbLine
 10
32.0
 20
4.999999999999994
 30
0.0
 11
30.57049589958226
 21
4.999999999999994
 31
0.0
  0
SPLINE
  5
A3
330
1F
100
AcDbEntity
  8
0
  6
Continuous
 62
     4
370
    25
100
AcDbSpline
210
0.0
220
0.0
230
1.0
 70
    24
 71
     3
 72
     8
 73
     4
 74
     0
 42
0.000000001
 43
0.00000001
 40
0.0
 40
0.0
 40
0.0
 40
0.0
 40
1.0
 40
1.0
 40
1.0
 40
1.0
 10
10.0
 20
0.3522118899928365
 30
0.0
 10
10.0
 20
0.2928211299879375
 30
0.0
 10
10.0
 20
0.1947535012471042
 30
0.0
 10
10.0
 20
0.0542796985883988
 30
0.0
  0
SPLINE
  5
A4
330
1F
100
AcDbEntity
  8
0
  6
Continuous
 62
     4
370
    25
100
AcDbSpline
210
0.0
220
0.0
230
1.0
 70
     8
 71
     3
 72
    12
 73
     8
 74
     0
 42
0.000000001
 43
0.00000001
 40
0.0
 40
0.0
 40
0.0
 40
0.0
 40
0.2500000000000004
 40
0.2500000000000004
 40
0.5000000000000009
 40
0.5000000000000009
 40
1.0
 40
1.0
 40
1.0
 40
1.0
 10
8.887257828100877
 20
-3.845989335038829
 30
0.0
 10
8.825254623838275
 20
-3.814930585985174
 30
0.0
 10
8.770223820109898
 20
-3.779297710319619
 30
0.0
 10
8.673519607258024
 20
-3.69831068845685
 30
0.0
 10
8.631814053236713
 20
-3.652503156529231
 30
0.0
 10
8.533150010523167
 20
-3.506039915986752
 30
0.0
 10
8.500254729777751
 20
-3.392967078310924
 30
0.0
 10
8.500254729777751
 20
-3.27398312178049
 30
0.0
  0
SPLINE
  5
A5
330
1F
100
AcDbEntity
  8
0
  6
Continuous
 62
     4
370
    25
100
AcDbSpline
210
0.0
220
0.0
230
1.0
 70
     8
 71
     3
 72
    18
 73
    14
 74
     0
 42
0.000000001
 43
0.00000001
 40
0.0
 40
0.0
 40
0.0
 40
0.0
 40
0.1249999999999999
 40
0.1249999999999999
 40
0.2499999999999999
 40
0.2499999999999999
 40
0.3749999999999999
 40
0.3749999999999999
 40
0.4999999999999999
 40
0.4999999999999999
 40
0.7499999999999999
 40
0.7499999999999999
 40
1.0
 40
1.0
 40
1.0
 40
1.0
 10
8.500254729777765
 20
-0.5416101004086143
 30
0.0
 10
8.500254729777765
 20
-0.4530004642872761
 30
0.0
 10
8.510404758061554
 20
-0.3658350842373562
 30
0.0
 10
8.552304714254282
 20
-0.1946401787501413
 30
0.0
 10
8.584469318987335
 20
-0.1106958230979371
 30
0.0
 10
8.668227673561315
 20
0.0437179753283994
 30
0.0
 10
8.721092536001713
 20
0.1165177168160371
 30
0.0
 10
8.843010993110584
 20
0.2440509600367868
 30
0.0
 10
8.912038613117767
 20
0.299310198460927
 30
0.0
 10
9.140988169739694
 20
0.4365156656713354
 30
0.0
 10
9.316499991523672
 20
0.4849998051977366
 30
0.0
 10
9.668767083245625
 20
0.4876836654219017
 30
0.0
 10
9.845701961823655
 20
0.441713385347782
 30
0.0
 10
9.999999999999986
 20
0.3522118899928049
 30
0.0
  0
SPLINE
  5
A6
330
1F
100
AcDbEntity
  8
0
  6
Continuous
 62
     4
370
    25
100
AcDbSpline
210
0.0
220
0.0
230
1.0
 70
     8
 71
     3
 72
     8
 73
     4
 74
     0
 42
0.000000001
 43
0.00000001
 40
0.0
 40
0.0
 40
0.0
 40
0.0
 40
1.0
 40
1.0
 40
1.0
 40
1.0
 10
9.999999999998021
 20
-4.340324171934634
 30
0.0
 10
9.629492602252999
 20
-4.196649139508936
 30
0.0
 10
9.255783807978977
 20
-4.03059198686807
 30
0.0
 10
8.887257828100877
 20
-3.845989335038829
 30
0.0
  0
SPLINE
  5
A7
330
1F
100
AcDbEntity
  8
0
  6
Continuous
 62
     4
370
    25
100
AcDbSpline
210
0.0
220
0.0
230
1.0
 70
     8
 71
     3
 72
    24
 73
    20
 74
     0
 42
0.000000001
 43
0.00000001
 40
0.0
 40
0.0
 40
0.0
 40
0.0
 40
0.0106400541703316
 40
0.08951610128772
 40
0.1607126083313569
 40
0.1966071751615226
 40
0.2319370934692661
 40
0.3068874327335944
 40
0.377244866161438
 40
0.4476019015544387
 40
0.5215450910890166
 40
0.592217351108622
 40
0.6628894951450897
 40
0.7371731821782437
 40
0.8080394379560377
 40
0.8437603613038126
 40
0.8789330356615017
 40
0.953448908462223
 40
0.9999999999999999
 40
0.9999999999999999
 40
0.9999999999999999
 40
0.9999999999999999
 10
8.645741243182005
 20
-4.999949232502951
 30
0.0
 10
8.648471708296503
 20
-4.999962821918655
 30
0.0
 10
8.67144345146993
 20
-5.00007715136596
 30
0.0
 10
8.720484845347123
 20
-4.998952766800385
 30
0.0
 10
8.784450738498503
 20
-4.996716387611757
 30
0.0
 10
8.838083543857103
 20
-4.994512099966557
 30
0.0
 10
8.89588116432198
 20
-4.992036617690255
 30
0.0
 10
8.972425351460924
 20
-4.988692195523535
 30
0.0
 10
9.070484530467269
 20
-4.984733457921172
 30
0.0
 10
9.173373550385621
 20
-4.981207122261307
 30
0.0
 10
9.280562208617024
 20
-4.9784340381767
 30
0.0
 10
9.390650338860542
 20
-4.97668171314623
 30
0.0
 10
9.502266496126413
 20
-4.976080443801158
 30
0.0
 10
9.613988704618011
 20
-4.976716408347076
 30
0.0
 10
9.706393793091442
 20
-4.978240102208994
 30
0.0
 10
9.777414628348696
 20
-4.979923526795725
 30
0.0
 10
9.849058498888686
 20
-4.98194446764168
 30
0.0
 10
9.924079447480866
 20
-4.984528554330039
 30
0.0
 10
9.978915251275044
 20
-4.986732007755509
 30
0.0
 10
10.0
 20
-4.987579250954086
 30
0.0
  0
SPLINE
  5
A8
330
1F
100
AcDbEntity
  8
0
  6
Continuous
 62
     4
370
    25
100
AcDbSpline
210
0.0
220
0.0
230
1.0
 70
     8
 71
     3
 72
    18
 73
    14
 74
     0
 42
0.000000001
 43
0.00000001
 40
0.0
 40
0.0
 40
0.0
 40
0.0
 40
0.125
 40
0.125
 40
0.25
 40
0.25
 40
0.375
 40
0.375
 40
0.5
 40
0.5
 40
0.7499999999999999
 40
0.7499999999999999
 40
1.0
 40
1.0
 40
1.0
 40
1.0
 10
8.500254729777762
 20
4.970579292108251
 30
0.0
 10
8.500254729777762
 20
4.980234479380497
 30
0.0
 10
8.510404758061554
 20
4.987335431253589
 30
0.0
 10
8.552304714254282
 20
4.996945588408227
 30
0.0
 10
8.584469318987335
 20
4.999370721146296
 30
0.0
 10
8.668227673561315
 20
5.000404974733479
 30
0.0
 10
8.721092536001713
 20
4.999049419341575
 30
0.0
 10
8.843010993110584
 20
4.99444797793074
 30
0.0
 10
8.912038613117767
 20
4.991243844820227
 30
0.0
 10
9.140988169739694
 20
4.981752796662823
 30
0.0
 10
9.316499991523672
 20
4.97642210899905
 30
0.0
 10
9.668767083245625
 20
4.97615981058256
 30
0.0
 10
9.845701961823655
 20
4.981258851968906
 30
0.0
 10
9.999999999999986
 20
4.98757925095407
 30
0.0
  0
LINE
  5
A9
330
1F
100
AcDbEntity
  8
0
  6
Continuous
 62
     4
370
    25
100
AcDbLine
 10
8.500254729777762
 20
4.970579292108249
 30
0.0
 11
8.500254729777765
 21
3.779025604345218
 31
0.0
  0
SPLINE
  5
AA
330
1F
100
AcDbEntity
  8
0
  6
Continuous
 62
     4
370
    25
100
AcDbSpline
210
0.0
220
0.0
230
1.0
 70
     8
 71
     3
 72
    12
 73
     8
 74
     0
 42
0.000000001
 43
0.00000001
 40
0.0
 40
0.0
 40
0.0
 40
0.0
 40
0.2500000000000002
 40
0.2500000000000002
 40
0.5000000000000004
 40
0.5000000000000004
 40
1.0
 40
1.0
 40
1.0
 40
1.0
 10
8.887257828100877
 20
3.195053369625612
 30
0.0
 10
8.825254623838271
 20
3.232439792887144
 30
0.0
 10
8.770223820109898
 20
3.274237047992092
 30
0.0
 10
8.673519607258024
 20
3.365444618667329
 30
0.0
 10
8.631814053236713
 20
3.415286333849576
 30
0.0
 10
8.533150010523167
 20
3.567565599964422
 30
0.0
 10
8.500254729777751
 20
3.67594308884297
 30
0.0
 10
8.500254729777751
 20
3.779025604345216
 30
0.0
  0
SPLINE
  5
AB
330
1F
100
AcDbEntity
  8
0
  6
Continuous
 62
     4
370
    25
100
AcDbSpline
210
0.0
220
0.0
230
1.0
 70
     8
 71
     3
 72
     8
 73
     4
 74
     0
 42
0.000000001
 43
0.00000001
 40
0.0
 40
0.0
 40
0.0
 40
0.0
 40
1.0
 40
1.0
 40
1.0
 40
1.0
 10
9.999999999998021
 20
2.482254234059898
 30
0.0
 10
9.629492602252999
 20
2.733475969361693
 30
0.0
 10
9.255783807978977
 20
2.972841172200458
 30
0.0
 10
8.887257828100877
 20
3.195053369625611
 30
0.0
  0
LINE
  5
AC
330
1F
100
AcDbEntity
  8
0
  6
Continuous
 62
     4
370
    25
100
AcDbLine
 10
-32.50000000000001
 20
4.999999999999985
 30
0.0
 11
-32.50000000000001
 21
-5.000000000000008
 31
0.0
  0
LINE
  5
AD
330
1F
100
AcDbEntity
  8
0
  6
Continuous
 62
     4
370
    25
100
AcDbLine
 10
8.500254729777765
 20
-0.5416101004086145
 30
0.0
 11
8.500254729777765
 21
-3.273983121780488
 31
0.0
  0
LINE
  5
AE
330
1F
100
AcDbEntity
  8
0
  6
Continuous
 62
     4
370
    25
100
AcDbLine
 10
-33.0
 20
4.499999999999987
 30
0.0
 11
-33.0
 21
-4.500000000000014
 31
0.0
  0
SPLINE
  5
AF
330
1F
100
AcDbEntity
  8
0
  6
Continuous
 62
     4
370
    25
100
AcDbSpline
210
0.0
220
0.0
230
1.0
 70
    24
 71
     3
 72
     8
 73
     4
 74
     0
 42
0.000000001
 43
0.00000001
 40
0.0
 40
0.0
 40
0.0
 40
0.0
 40
1.0
 40
1.0
 40
1.0
 40
1.0
 10
10.0
 20
4.987579250954086
 30
0.0
 10
10.0
 20
4.687785248418679
 30
0.0
 10
10.0
 20
4.401424761879865
 30
0.0
 10
10.0
 20
4.129793079256639
 30
0.0
  0
SPLINE
  5
B0
330
1F
100
AcDbEntity
  8
0
  6
Continuous
 62
     1
370
    25
100
AcDbSpline
210
0.0
220
0.0
230
1.0
 70
     8
 71
     3
 72
    26
 73
    22
 74
     0
 42
0.000000001
 43
0.00000001
 40
0.0
 40
0.0
 40
0.0
 40
0.0
 40
0.0531345757752245
 40
0.106276995763669
 40
0.1595241620380041
 40
0.2126919761751917
 40
0.2697656406852114
 40
0.3268783200700016
 40
0.3840642192410114
 40
0.4411786098976326
 40
0.4982524036028937
 40
0.5553540761988119
 40
0.6125367108638005
 40
0.6696641658598766
 40
0.7267399060487988
 40
0.7838323780230995
 40
0.8369924172820998
 40
0.8900788994568072
 40
0.9431170284002467
 40
0.996232010298602
 40
0.9999999999999999
 40
0.9999999999999999
 40
0.9999999999999999
 40
0.9999999999999999
 10
9.999999999996703
 20
4.986738544096109
 30
0.0
 10
10.36424146172423
 20
4.993430835201908
 30
0.0
 10
11.09277815784327
 20
5.006816405390874
 30
0.0
 10
12.18604489571785
 20
4.841877432650115
 30
0.0
 10
13.28100234005721
 20
4.546767082396773
 30
0.0
 10
14.40170810984157
 20
4.105260399027825
 30
0.0
 10
15.54894489351269
 20
3.523292647853872
 30
0.0
 10
16.72388671394018
 20
2.808807671986985
 30
0.0
 10
17.90006294370491
 20
2.000804744742879
 30
0.0
 10
19.07504271539506
 20
1.124682431946416
 30
0.0
 10
20.24922941189674
 20
0.210893145092566
 30
0.0
 10
21.42397831792932
 20
-0.7102217719659131
 30
0.0
 10
22.60010025434007
 20
-1.606494261776811
 30
0.0
 10
23.7753046758802
 20
-2.449567150362053
 30
0.0
 10
24.94954587193516
 20
-3.210140912037139
 30
0.0
 10
26.09654966080998
 20
-3.848017682862853
 30
0.0
 10
27.21732250167276
 20
-4.349099758285466
 30
0.0
 10
28.30937542435348
 20
-4.716401520379301
 30
0.0
 10
29.40060978158053
 20
-4.930830021435192
 30
0.0
 10
30.15450841272844
 20
-5.020594654585932
 30
0.0
 10
30.54465234273255
 20
-4.996786367342064
 30
0.0
 10
30.57049589958225
 20
-4.995209280586224
 30
0.0
  0
SPLINE
  5
B1
330
1F
100
AcDbEntity
  8
0
  6
Continuous
 62
     1
370
    25
100
AcDbSpline
210
0.0
220
0.0
230
1.0
 70
     8
 71
     3
 72
    23
 73
    19
 74
     0
 42
0.000000001
 43
0.00000001
 40
0.0
 40
0.0
 40
0.0
 40
0.0
 40
0.0629605379478113
 40
0.1258396924308973
 40
0.1887127027488951
 40
0.2516549004766951
 40
0.3146316193135582
 40
0.3775189147401357
 40
0.4403877801234212
 40
0.5033136093102167
 40
0.5663002188419582
 40
0.6291976487431831
 40
0.6920643700768455
 40
0.7549758089080223
 40
0.8179660142895755
 40
0.8808755681567023
 40
0.9437421471819473
 40
1.0
 40
1.0
 40
1.0
 40
1.0
 10
32.0
 20
-4.875828491775116
 30
0.0
 10
31.60791932869156
 20
-4.792189885837049
 30
0.0
 10
30.82426479374375
 20
-4.625020786117477
 30
0.0
 10
29.64984437385731
 20
-4.174622956243945
 30
0.0
 10
28.47554163585794
 20
-3.595601731886366
 30
0.0
 10
27.30008115014304
 20
-2.892692038834288
 30
0.0
 10
26.12410670653252
 20
-2.093828719685945
 30
0.0
 10
24.94953396995761
 20
-1.22360066803475
 30
0.0
 10
23.77530786923506
 20
-0.3124677262290317
 30
0.0
 10
22.60009939178896
 20
0.6091945884320833
 30
0.0
 10
21.42397856971257
 20
1.509613421000527
 30
0.0
 10
20.24922926655352
 20
2.360215699171997
 30
0.0
 10
19.07504304524032
 20
3.131294384466803
 30
0.0
 10
17.90006176810781
 20
3.796935412479538
 30
0.0
 10
16.72389108965951
 20
4.335293165920823
 30
0.0
 10
15.54892859588096
 20
4.72504155442632
 30
0.0
 10
14.41612022157078
 20
4.960035694863061
 30
0.0
 10
13.67460453587161
 20
4.985308082316861
 30
0.0
 10
13.32441541292815
 20
4.997243251549037
 30
0.0
  0
LINE
  5
B2
330
1F
100
AcDbEntity
  8
0
  6
Continuous
 62
     1
370
    25
100
AcDbLine
 10
32.0
 20
-5.000000000000013
 30
0.0
 11
32.0
 21
-4.875828491776315
 31
0.0
  0
SPLINE
  5
B3
330
1F
100
AcDbEntity
  8
0
  6
Continuous
 62
     1
370
    25
100
AcDbSpline
210
0.0
220
0.0
230
1.0
 70
     8
 71
     3
 72
    22
 73
    18
 74
     0
 42
0.000000001
 43
0.00000001
 40
0.0
 40
0.0
 40
0.0
 40
0.0
 40
0.049791129030919
 40
0.1190020660329882
 40
0.1881927197559534
 40
0.2574460652863718
 40
0.3267663029385849
 40
0.395988393488944
 40
0.4651766875670498
 40
0.5344141957174471
 40
0.6037383908006977
 40
0.6729738244441977
 40
0.7421619619040413
 40
0.8066151920329077
 40
0.8711646176070784
 40
0.9355870634176607
 40
1.0
 40
1.0
 40
1.0
 40
1.0
 10
26.96890581406419
 20
-4.218076545902618
 30
0.0
 10
26.68714492790871
 20
-4.333867882456126
 30
0.0
 10
26.01372923655198
 20
-4.610612124789573
 30
0.0
 10
24.9495354851563
 20
-4.873858406790922
 30
0.0
 10
23.77530746139163
 20
-5.01930733871704
 30
0.0
 10
22.60009950683993
 20
-4.990897536924752
 30
0.0
 10
21.42397851799019
 20
-4.796263746661715
 30
0.0
 10
20.24922935835323
 20
-4.439792082930265
 30
0.0
 10
19.07504272974985
 20
-3.934191162219417
 30
0.0
 10
17.90006293985182
 20
-3.296143251223331
 30
0.0
 10
16.72388671497188
 20
-2.548080045682095
 30
0.0
 10
15.54894489323596
 20
-1.713542049137057
 30
0.0
 10
14.40170810991017
 20
-0.8421034985324516
 30
0.0
 10
13.28100234003972
 20
0.0347925136841595
 30
0.0
 10
12.18604489572328
 20
0.8867600800674105
 30
0.0
 10
11.09277815784311
 20
1.719711373695358
 30
0.0
 10
10.36424146172509
 20
2.228085788163774
 30
0.0
 10
9.999999999998067
 20
2.482254234059869
 30
0.0
  0
SPLINE
  5
B4
330
1F
100
AcDbEntity
  8
0
  6
Continuous
 62
     1
370
    25
100
AcDbSpline
210
0.0
220
0.0
230
1.0
 70
     8
 71
     3
 72
    20
 73
    16
 74
     0
 42
0.000000001
 43
0.00000001
 40
0.0
 40
0.0
 40
0.0
 40
0.0
 40
0.0667413643477413
 40
0.1468584612730588
 40
0.2269186109062912
 40
0.3070178675974695
 40
0.3872306936686306
 40
0.4673661165699123
 40
0.5474289966291955
 40
0.6275153471668556
 40
0.7020854856013671
 40
0.7765524419834382
 40
0.8509515709673416
 40
0.925458505279591
 40
1.0
 40
1.0
 40
1.0
 40
1.0
 10
16.92124823642815
 20
4.220807563235971
 30
0.0
 10
17.24766014450678
 20
4.35112218790849
 30
0.0
 10
17.96590063943987
 20
4.637867978136406
 30
0.0
 10
19.07505115802369
 20
4.898249768146244
 30
0.0
 10
20.24922714922164
 20
5.024431528249285
 30
0.0
 10
21.42397892542964
 20
4.977575151525708
 30
0.0
 10
22.60010009120311
 20
4.764671216966998
 30
0.0
 10
23.77530472113406
 20
4.391139005245472
 30
0.0
 10
24.94954585383031
 20
3.870056385686063
 30
0.0
 10
26.09654968694871
 20
3.233754403284365
 30
0.0
 10
27.21732242084299
 20
2.514543177785141
 30
0.0
 10
28.30937572354789
 20
1.739064747226752
 30
0.0
 10
29.40060866587464
 20
0.9130695530330282
 30
0.0
 10
30.49313004677416
 20
0.0597679607581951
 30
0.0
 10
31.22190218380555
 20
-0.5064501978890912
 30
0.0
 10
31.58637274386093
 20
-0.7896249227575994
 30
0.0
  0
SPLINE
  5
B5
330
1F
100
AcDbEntity
  8
0
  6
Continuous
 62
     1
370
    25
100
AcDbSpline
210
0.0
220
0.0
230
1.0
 70
     8
 71
     3
 72
    12
 73
     8
 74
     0
 42
0.000000001
 43
0.00000001
 40
0.0
 40
0.0
 40
0.0
 40
0.0
 40
0.4999999999999987
 40
0.4999999999999987
 40
0.7499999999999993
 40
0.7499999999999993
 40
1.0
 40
1.0
 40
1.0
 40
1.0
 10
32.0
 20
-3.77812854640489
 30
0.0
 10
31.5537895318417
 20
-3.632729568001002
 30
0.0
 10
31.11815014623612
 20
-3.441061892835229
 30
0.0
 10
30.48445739769577
 20
-3.067044896151965
 30
0.0
 10
30.27655066386694
 20
-2.927822910714538
 30
0.0
 10
29.86916954604998
 20
-2.612471287683533
 30
0.0
 10
29.67458140690453
 20
-2.441053542505861
 30
0.0
 10
29.4877744579674
 20
-2.259079262214307
 30
0.0
  0
LINE
  5
B6
330
1F
100
AcDbEntity
  8
0
  6
Continuous
 62
     1
370
    25
100
AcDbLine
 10
32.0
 20
-4.875828491776315
 30
0.0
 11
32.0
 21
-3.778128546404893
 31
0.0
  0
SPLINE
  5
B7
330
1F
100
AcDbEntity
  8
0
  6
Continuous
 62
     1
370
    25
100
AcDbSpline
210
0.0
220
0.0
230
1.0
 70
    24
 71
     3
 72
    19
 73
    15
 74
     0
 42
0.000000001
 43
0.00000001
 40
0.0
 40
0.0
 40
0.0
 40
0.0
 40
0.1292195738629063
 40
0.2471783388774217
 40
0.3689545463660294
 40
0.4466345109316144
 40
0.5264027807547191
 40
0.6041565719906988
 40
0.6844572905301216
 40
0.7580564275972436
 40
0.8334741684848138
 40
0.9138776005826026
 40
0.9959508756012284
 40
1.0
 40
1.0
 40
1.0
 40
1.0
 10
31.58328549295607
 20
-0.7917866391135284
 30
0.0
 10
31.57924344152848
 20
-0.7946169139929528
 30
0.0
 10
31.5715115822779
 20
-0.8000308201245798
 30
0.0
 10
31.47929553538598
 20
-0.8646011913022233
 30
0.0
 10
31.34145684945538
 20
-0.9611168782477267
 30
0.0
 10
31.16759037030061
 20
-1.082859497593887
 30
0.0
 10
30.98681697676707
 20
-1.209438390453818
 30
0.0
 10
30.77248646054706
 20
-1.359514233579452
 30
0.0
 10
30.53911786319541
 20
-1.522920684626517
 30
0.0
 10
30.29243443809629
 20
-1.695650278432314
 30
0.0
 10
30.03737604892358
 20
-1.874244085214647
 30
0.0
 10
29.77062280884251
 20
-2.061026714761311
 30
0.0
 10
29.5860377965563
 20
-2.190274531804562
 30
0.0
 10
29.49218694280692
 20
-2.255989607067363
 30
0.0
 10
29.48777445796752
 20
-2.259079262214152
 30
0.0
  0
SPLINE
  5
B8
330
1F
100
AcDbEntity
  8
0
  6
Continuous
 62
     1
370
    25
100
AcDbSpline
210
0.0
220
0.0
230
1.0
 70
     8
 71
     3
 72
    17
 73
    13
 74
     0
 42
0.000000001
 43
0.00000001
 40
0.0
 40
0.0
 40
0.0
 40
0.0
 40
0.1039210912380745
 40
0.2078575242603984
 40
0.3119988210305564
 40
0.4159849201621876
 40
0.5276101173205806
 40
0.6393116201293251
 40
0.7511563268683379
 40
0.8628611765982439
 40
0.9744866264378766
 40
1.0
 40
1.0
 40
1.0
 40
1.0
 10
9.999999999996703
 20
0.3639212728405845
 30
0.0
 10
10.36424146107868
 20
0.0789002324614791
 30
0.0
 10
11.09277815590651
 20
-0.4911839257158191
 30
0.0
 10
12.18604490347257
 20
-1.335740255858592
 30
0.0
 10
13.28100231093149
 20
-2.139054633710397
 30
0.0
 10
14.40170822175964
 20
-2.899827999700783
 30
0.0
 10
15.54894444136212
 20
-3.587540587641167
 30
0.0
 10
16.72388839961597
 20
-4.169865318539495
 30
0.0
 10
17.90005664823742
 20
-4.615286776238112
 30
0.0
 10
19.07506616932427
 20
-4.892054550047186
 30
0.0
 10
19.94716277677279
 20
-5.014057890100401
 30
0.0
 10
20.4279347244875
 20
-4.98970007856989
 30
0.0
 10
20.51737777202117
 20
-4.985168539438091
 30
0.0
  0
SPLINE
  5
B9
330
1F
100
AcDbEntity
  8
0
  6
Continuous
 62
     1
370
    25
100
AcDbSpline
210
0.0
220
0.0
230
1.0
 70
     8
 71
     3
 72
    14
 73
    10
 74
     0
 42
0.000000001
 43
0.00000001
 40
0.0
 40
0.0
 40
0.0
 40
0.0
 40
0.0285506954708459
 40
0.1982838018337291
 40
0.3679009599350266
 40
0.5259103257927551
 40
0.6841555181758657
 40
0.8420894151920683
 40
1.0
 40
1.0
 40
1.0
 40
1.0
 10
16.92124823642811
 20
-4.220807563235989
 30
0.0
 10
16.85534473610614
 20
-4.251291683051112
 30
0.0
 10
16.39764672271329
 20
-4.463003064256162
 30
0.0
 10
15.54895916499214
 20
-4.71922118895765
 30
0.0
 10
14.40170457730945
 20
-4.957105279228632
 30
0.0
 10
13.2810032593688
 20
-5.024162751150712
 30
0.0
 10
12.18604465095208
 20
-4.943986222123633
 30
0.0
 10
11.09277821897517
 20
-4.727762715979076
 30
0.0
 10
10.36424148210144
 20
-4.469463998347749
 30
0.0
 10
9.999999999998067
 20
-4.340324171934656
 30
0.0
  0
SPLINE
  5
BA
330
1F
100
AcDbEntity
  8
0
  6
Continuous
 62
     1
370
    25
100
AcDbSpline
210
0.0
220
0.0
230
1.0
 70
     8
 71
     3
 72
    15
 73
    11
 74
     0
 42
0.000000001
 43
0.00000001
 40
0.0
 40
0.0
 40
0.0
 40
0.0
 40
0.1363640010314065
 40
0.2725517364966429
 40
0.4087261645321506
 40
0.5450504431300763
 40
0.6814494897764547
 40
0.8176548574230998
 40
0.9538203080911991
 40
1.0
 40
1.0
 40
1.0
 40
1.0
 10
32.0
 20
1.107382733648236
 30
0.0
 10
31.60791933833143
 20
1.402236361158677
 30
0.0
 10
30.82426482265092
 20
1.991562485227127
 30
0.0
 10
29.6498442584077
 20
2.799273798278866
 30
0.0
 10
28.47554206896656
 20
3.515653804047337
 30
0.0
 10
27.30007953083724
 20
4.112104868396875
 30
0.0
 10
26.12411274985506
 20
4.573444140652537
 30
0.0
 10
24.94951145483845
 20
4.869782543366219
 30
0.0
 10
24.03428435515563
 20
5.006731453835145
 30
0.0
 10
23.51012935567659
 20
4.986306801340763
 30
0.0
 10
23.37738484684937
 20
4.981134170218237
 30
0.0
  0
LINE
  5
BB
330
1F
100
AcDbEntity
  8
0
  6
Continuous
 62
     1
370
    25
100
AcDbLine
 10
32.0
 20
-0.5000000000000244
 30
0.0
 11
32.0
 21
1.107382733648331
 31
0.0
  0
LINE
  5
BC
330
1F
100
AcDbEntity
  8
0
  6
Continuous
 62
     1
370
    25
100
AcDbLine
 10
32.0
 20
-0.5000000000000248
 30
0.0
 11
31.58637274386091
 21
-0.7896249227576081
 31
0.0
  0
LINE
  5
BD
330
1F
100
AcDbEntity
  8
0
  6
Continuous
 62
     1
370
    25
100
AcDbLine
 10
9.999999999996703
 20
-4.986738544096127
 30
0.0
 11
10.4657764822583
 21
-4.982162068868026
 31
0.0
  0
SPLINE
  5
BE
330
1F
100
AcDbEntity
  8
0
  6
Continuous
 62
     1
370
    25
100
AcDbSpline
210
0.0
220
0.0
230
1.0
 70
     8
 71
     3
 72
    12
 73
     8
 74
     0
 42
0.000000001
 43
0.00000001
 40
0.0
 40
0.0
 40
0.0
 40
0.0
 40
0.0538549557320465
 40
0.2903541470683161
 40
0.5266379257491437
 40
0.7632640827708376
 40
1.0
 40
1.0
 40
1.0
 40
1.0
 10
26.96890581406419
 20
4.218076545902604
 30
0.0
 10
27.05183253697918
 20
4.255834909400631
 30
0.0
 10
27.4989245004551
 20
4.459405728077242
 30
0.0
 10
28.30936872065109
 20
4.707967025220791
 30
0.0
 10
29.40061053558719
 20
4.940659434994642
 30
0.0
 10
30.49312957881095
 20
5.029979943224096
 30
0.0
 10
31.2219020277937
 20
4.968168466347628
 30
0.0
 10
31.58637274386093
 20
4.937255561681999
 30
0.0
  0
SPLINE
  5
BF
330
1F
100
AcDbEntity
  8
0
  6
Continuous
 62
     1
370
    25
100
AcDbSpline
210
0.0
220
0.0
230
1.0
 70
     8
 71
     3
 72
    16
 73
    12
 74
     0
 42
0.000000001
 43
0.00000001
 40
0.0
 40
0.0
 40
0.0
 40
0.0
 40
0.1742336327144366
 40
0.3169076621370946
 40
0.4641989821850049
 40
0.5581548111445357
 40
0.6546364967092806
 40
0.748681620843636
 40
0.8458073162351086
 40
0.9348272839001224
 40
0.9999999999999999
 40
0.9999999999999999
 40
0.9999999999999999
 40
0.9999999999999999
 10
31.58637274386093
 20
4.937255561682001
 30
0.0
 10
31.58212812206072
 20
4.740344704079656
 30
0.0
 10
31.5744077230172
 20
4.38219020451501
 30
0.0
 10
31.4795045922224
 20
3.868511639749272
 30
0.0
 10
31.34142164238429
 20
3.466234737276538
 30
0.0
 10
31.16759995226636
 20
3.147957934448825
 30
0.0
 10
30.98680753695172
 20
2.91282413702126
 30
0.0
 10
30.77251432356488
 20
2.717712673028791
 30
0.0
 10
30.53901573576162
 20
2.578141674008098
 30
0.0
 10
30.31590644900496
 20
2.492801235635322
 30
0.0
 10
30.17405681751284
 20
2.473832555822353
 30
0.0
 10
30.11410114687801
 20
2.465815052306264
 30
0.0
  0
SPLINE
  5
C0
330
1F
100
AcDbEntity
  8
0
  6
Continuous
 62
     1
370
    25
100
AcDbSpline
210
0.0
220
0.0
230
1.0
 70
     8
 71
     3
 72
     9
 73
     5
 74
     0
 42
0.000000001
 43
0.00000001
 40
0.0
 40
0.0
 40
0.0
 40
0.0
 40
0.784021980708573
 40
1.0
 40
1.0
 40
1.0
 40
1.0
 10
32.00000000000001
 20
1.19314121498969
 30
0.0
 10
31.83603326923283
 20
1.295456584601828
 30
0.0
 10
31.62689789445802
 20
1.425957223779913
 30
0.0
 10
31.42154868549686
 20
1.543652714984727
 30
0.0
 10
31.37719777008237
 20
1.569072354054675
 30
0.0
  0
LINE
  5
C1
330
1F
100
AcDbEntity
  8
0
  6
Continuous
 62
     1
370
    25
100
AcDbLine
 10
32.0
 20
1.111313820536491
 30
0.0
 11
32.0
 21
1.19314121498969
 31
0.0
  0
LINE
  5
C2
330
1F
100
AcDbEntity
  8
0
  6
Continuous
 62
     1
370
    25
100
AcDbLine
 10
32.0
 20
-0.5000000000000071
 30
0.0
 11
32.0
 21
-3.778128546404891
 31
0.0
  0
ELLIPSE
  5
C3
330
1F
100
AcDbEntity
  8
0
  6
Continuous
 62
     1
370
    25
100
AcDbEllipse
 10
32.71407400337106
 20
-0.0000000000000084
 30
0.0
 11
7.140740033710557
 21
0.0
 31
0.0
210
0.0
220
0.0
230
1.0
 40
0.7002075382097117
 41
1.670963747956457
 42
1.729385239465866
  0
LINE
  5
C4
330
1F
100
AcDbEntity
  8
0
  6
Continuous
 62
     1
370
    25
100
AcDbLine
 10
32.0
 20
4.974937185533096
 30
0.0
 11
32.0
 21
4.999999999999997
 31
0.0
  0
LINE
  5
C5
330
1F
100
AcDbEntity
  8
0
  6
Continuous
 62
     1
370
    25
100
AcDbLine
 10
32.0
 20
1.19314121498969
 30
0.0
 11
32.0
 21
4.974937185533096
 31
0.0
  0
LINE
  5
C6
330
1F
100
AcDbEntity
  8
중심선
100
AcDbLine
 10
-36.00000000000001
 20
-0.0000000000000132
 30
0.0
 11
35.0
 21
-0.0000000000000045
 31
0.0
  0
CIRCLE
  5
C7
330
1F
100
AcDbEntity
  8
해칭선
100
AcDbCircle
 10
-0.0076201589394847
 20
-0.0000000000000043
 30
0.0
 40
3.000000000000001
  0
INSERT
  5
C8
330
1F
100
AcDbEntity
  8
0
  6
Continuous
 62
     7
100
AcDbBlockReference
 66
     1
  2
블럭10
 10
-12.94814782084246
 20
-52.04717430164393
 30
0.0
  0
ATTRIB
  5
C9
330
C8
100
AcDbEntity
  8
FORMAT
 62
     2
100
AcDbText
 10
-29.06740886027801
 20
-49.97180738881174
 30
0.0
 40
4.233333333333333
  1
SEME7110022E [ 4 FLUTE ]
 41
0.75
  7
SLDTEXTSTYLE0
 11
-29.06740886027801
 21
-52.08847405547841
 31
0.0
100
AcDbAttribute
  2
AUTOATTR0
 70
     0
 74
     1
  0
SEQEND
  5
CA
330
C8
100
AcDbEntity
  8
0
  6
Continuous
 62
     7
  0
HATCH
  5
CB
330
1F
100
AcDbEntity
  8
중심선
100
AcDbHatch
 10
0.0
 20
0.0
 30
0.0
210
0.0
220
0.0
230
1.0
  2
SOLID
 70
     1
 71
     0
 91
        1
 92
        0
 93
        4
 72
     1
 10
-7.233238516461626
 20
-35.8
 11
-10.67951376029891
 21
-35.8
 72
     1
 10
-10.67951376029891
 20
-35.8
 11
-12.80774361950293
 21
-38.33632558057259
 72
     1
 10
-12.80774361950293
 20
-38.33632558057259
 11
-9.3614352905525
 21
-38.3362861512701
 72
     1
 10
-9.3614352905525
 20
-38.3362861512701
 11
-7.233238516461626
 21
-35.8
 97
        0
 75
     0
 76
     1
 98
        1
 10
0.0
 20
0.0
  0
HATCH
  5
CC
330
1F
100
AcDbEntity
  8
중심선
100
AcDbHatch
 10
0.0
 20
0.0
 30
0.0
210
0.0
220
0.0
230
1.0
  2
SOLID
 70
     1
 71
     0
 91
        1
 92
        0
 93
        4
 72
     1
 10
-2.220474525425647
 20
-35.79999999999997
 11
-5.666749769262958
 21
-35.80000000000003
 72
     1
 10
-5.666749769262958
 20
-35.80000000000003
 11
-10.19788777762035
 21
-41.20000000000002
 72
     1
 10
-10.19788777762035
 20
-41.20000000000002
 11
-6.751612533783064
 21
-41.20000000000002
 72
     1
 10
-6.751612533783064
 20
-41.20000000000002
 11
-2.220474525425647
 21
-35.79999999999997
 97
        0
 75
     0
 76
     1
 98
        1
 10
0.0
 20
0.0
  0
HATCH
  5
CD
330
1F
100
AcDbEntity
  8
중심선
100
AcDbHatch
 10
0.0
 20
0.0
 30
0.0
210
0.0
220
0.0
230
1.0
  2
SOLID
 70
     1
 71
     0
 91
        1
 92
        0
 93
        4
 72
     1
 10
2.79228946561022
 20
-35.79999999999997
 11
-0.6539857782268679
 21
-35.8
 72
     1
 10
-0.6539857782268677
 20
-35.8
 11
-7.702422680116144
 21
-44.20000000000002
 72
     1
 10
-7.702422680116144
 20
-44.20000000000002
 11
-4.256147436278862
 21
-44.20000000000002
 72
     1
 10
-4.256147436278862
 20
-44.20000000000002
 11
2.792289465610221
 21
-35.79999999999997
 97
        0
 75
     0
 76
     1
 98
        1
 10
0.0
 20
0.0
  0
HATCH
  5
CE
330
1F
100
AcDbEntity
  8
중심선
100
AcDbHatch
 10
0.0
 20
0.0
 30
0.0
210
0.0
220
0.0
230
1.0
  2
SOLID
 70
     1
 71
     0
 91
        1
 92
        0
 93
        6
 72
     3
 10
7.59217989662242
 20
-40.00000000005127
 11
3.960054785062284
 21
1.540850780301639E-10
 40
0.3939339440162633
 50
17.09539180608433
 51
320.0019657685079
 73
     0
 72
     1
 10
9.275179552323015
 20
-38.5878940046383
 11
11.58048142602405
 21
-36.65356729459038
 72
     3
 10
7.592179896569573
 20
-40.00000000000015
 11
6.600054785286829
 21
-1.249000902703301E-13
 40
0.6363583540795982
 50
39.99873849337408
 51
368.4976242363725
 73
     1
 72
     1
 10
14.01751238847018
 20
-39.03999999993002
 11
6.272247203405495
 21
-39.03999999993002
 72
     1
 10
6.272247203405495
 20
-39.03999999993002
 11
6.272222158959561
 21
-40.95999999992991
 72
     1
 10
6.272222158959561
 20
-40.95999999992991
 11
10.7136019284316
 21
-40.95999999992988
 97
        0
 75
     0
 76
     1
 98
        1
 10
0.0
 20
0.0
  0
DIMENSION
  5
CF
330
1F
100
AcDbEntity
  8
치수문자_일반주서
100
AcDbDimension
  2
_D
 10
44.04222413058726
 20
5.000000000000039
 30
0.0
 11
44.04222413058723
 21
15.32275000000004
 31
0.0
 70
   160
  1
%%c<>
 71
     2
 42
10.00000000000001
 52
-270.0
  3
SLDDIMSTYLE0
100
AcDbAlignedDimension
 13
32.0
 23
-5.000000000000013
 33
0.0
 14
32.0
 24
4.999999999999996
 34
0.0
 50
90.0000000000002
100
AcDbRotatedDimension
  0
DIMENSION
  5
DD
330
1F
100
AcDbEntity
  8
치수문자_일반주서
100
AcDbDimension
  2
_D_1
 10
32.0
 20
22.38913260158164
 30
0.0
 11
-0.5000000000000047
 21
22.38913260158164
 31
0.0
 70
   160
  1
<>
 71
     2
 42
65.0
  3
SLDDIMSTYLE1
100
AcDbAlignedDimension
 13
-33.0
 23
4.499999999999987
 33
0.0
 14
32.0
 24
4.999999999999997
 34
0.0
 50
-0.0000000000000063
100
AcDbRotatedDimension
  0
DIMENSION
  5
E8
330
1F
100
AcDbEntity
  8
치수문자_일반주서
100
AcDbDimension
  2
_D_2
 10
-41.41836225194198
 20
-5.000000000000048
 30
0.0
 11
-41.41836225194205
 21
15.32274999999996
 31
0.0
 70
   160
  1
%%c<>
 71
     2
 42
10.00000000000001
 52
-270.0
  3
SLDDIMSTYLE2
100
AcDbAlignedDimension
 13
-32.50000000000001
 23
4.999999999999996
 33
0.0
 14
-32.50000000000001
 24
-5.000000000000013
 34
0.0
 50
90.0000000000002
100
AcDbRotatedDimension
  0
DIMENSION
  5
F6
330
1F
100
AcDbEntity
  8
치수문자_일반주서
100
AcDbDimension
  2
_D_3
 10
32.0
 20
15.83265684670257
 30
0.0
 11
21.0
 21
15.83265684670257
 31
0.0
 70
   160
  1
<>
 71
     2
 42
22.0
  3
SLDDIMSTYLE1
100
AcDbAlignedDimension
 13
10.0
 23
4.986738544114916
 33
0.0
 14
32.0
 24
4.999999999999997
 34
0.0
 50
-0.0000000000000046
100
AcDbRotatedDimension
  0
INSERT
  5
106
330
1F
100
AcDbEntity
  8
해칭선
100
AcDbBlockReference
  2
SW_DOWELSYMBOL_0
 10
-0.0076201589394847
 20
-0.0000000000000043
 30
0.0
  0
LINE
  5
12B
330
1F
100
AcDbEntity
  8
0
  6
Continuous
 62
     4
370
    25
100
AcDbLine
 10
10.0
 20
4.987579250954086
 30
0.0
 11
10.0
 21
-4.987579250954086
 31
0.0
  0
ENDSEC
  0
SECTION
  2
OBJECTS
  0
DICTIONARY
  5
C
330
0
100
AcDbDictionary
281
     1
  3
ACAD_GROUP
350
D
  3
ACAD_IMAGE_VARS
350
12A
  3
ACAD_LAYOUT
350
1A
  3
ACAD_MLINESTYLE
350
17
  3
ACAD_PLOTSETTINGS
350
19
  3
ACAD_PLOTSTYLENAME
350
E
  3
ACAD_SCALELIST
350
47
  3
APPDATA
350
128
  3
DWGPROPS
350
13A
  0
DICTIONARY
  5
D
102
{ACAD_REACTORS
330
C
102
}
330
C
100
AcDbDictionary
281
     1
  0
RASTERVARIABLES
  5
12A
102
{ACAD_REACTORS
330
C
102
}
330
C
100
AcDbRasterVariables
 90
        0
 70
     1
 71
     1
 72
     1
  0
DICTIONARY
  5
1A
102
{ACAD_REACTORS
330
C
102
}
330
C
100
AcDbDictionary
281
     1
  3
Layout1
350
1E
  3
Layout2
350
26
  3
Model
350
22
  0
DICTIONARY
  5
17
102
{ACAD_REACTORS
330
C
102
}
330
C
100
AcDbDictionary
281
     1
  3
Standard
350
18
  0
DICTIONARY
  5
19
102
{ACAD_REACTORS
330
C
102
}
330
C
100
AcDbDictionary
281
     1
  0
ACDBDICTIONARYWDFLT
  5
E
102
{ACAD_REACTORS
330
C
102
}
330
C
100
AcDbDictionary
281
     1
  3
Normal
350
F
100
AcDbDictionaryWithDefault
340
F
  0
DICTIONARY
  5
47
102
{ACAD_REACTORS
330
C
102
}
330
C
100
AcDbDictionary
281
     1
  3
A0
350
48
  3
A1
350
49
  3
A2
350
4A
  3
A3
350
4B
  3
A4
350
4C
  3
A5
350
4D
  3
A6
350
4E
  3
A7
350
4F
  3
A8
350
50
  3
A9
350
51
  3
B0
350
52
  3
B1
350
53
  3
B2
350
54
  3
B3
350
55
  3
B4
350
56
  3
B5
350
57
  3
B6
350
58
  3
B7
350
59
  3
B8
350
5A
  3
B9
350
5B
  3
C0
350
5C
  3
C1
350
5D
  3
C2
350
5E
  3
C3
350
5F
  3
C4
350
60
  3
C5
350
61
  3
C6
350
62
  3
C7
350
63
  3
C8
350
64
  3
C9
350
65
  3
D0
350
66
  3
D1
350
67
  3
D2
350
68
  0
DICTIONARY
  5
128
102
{ACAD_REACTORS
330
C
102
}
330
C
100
AcDbDictionary
281
     1
  0
XRECORD
  5
13A
102
{ACAD_REACTORS
330
C
102
}
330
C
100
AcDbXrecord
280
     1
  1
DWGPROPS COOKIE
  2

  3

  4

  6

  7

  8
12014102
  9

300
=
301
=
302
=
303
=
304
=
305
=
306
=
307
=
308
=
309
=
 40
0.0
 41
2458260.119112512
 42
2458267.32202272
  1

 90
        0
  0
LAYOUT
  5
1E
102
{ACAD_REACTORS
330
1A
102
}
330
1A
100
AcDbPlotSettings
  1

  2
none_device
  4

  6

 40
0.0
 41
0.0
 42
0.0
 43
0.0
 44
0.0
 45
0.0
 46
0.0
 47
0.0
 48
0.0
 49
0.0
140
0.0
141
0.0
142
1.0
143
1.0
 70
   688
 72
     1
 73
     0
 74
     5
  7

 75
    16
147
1.0
148
0.0
149
0.0
100
AcDbLayout
  1
Layout1
 70
     1
 71
     1
 10
0.0
 20
0.0
 11
420.0
 21
297.0
 12
0.0
 22
0.0
 32
0.0
 14
1.000000000000000E+20
 24
1.000000000000000E+20
 34
1.000000000000000E+20
 15
-1.000000000000000E+20
 25
-1.000000000000000E+20
 35
-1.000000000000000E+20
146
0.0
 13
0.0
 23
0.0
 33
0.0
 16
1.0
 26
0.0
 36
0.0
 17
0.0
 27
1.0
 37
0.0
 76
     0
330
1B
  0
LAYOUT
  5
26
102
{ACAD_REACTORS
330
1A
102
}
330
1A
100
AcDbPlotSettings
  1

  2
none_device
  4

  6

 40
0.0
 41
0.0
 42
0.0
 43
0.0
 44
0.0
 45
0.0
 46
0.0
 47
0.0
 48
0.0
 49
0.0
140
0.0
141
0.0
142
1.0
143
1.0
 70
   688
 72
     1
 73
     0
 74
     5
  7

 75
    16
147
1.0
148
0.0
149
0.0
100
AcDbLayout
  1
Layout2
 70
     1
 71
     2
 10
0.0
 20
0.0
 11
0.0
 21
0.0
 12
0.0
 22
0.0
 32
0.0
 14
0.0
 24
0.0
 34
0.0
 15
0.0
 25
0.0
 35
0.0
146
0.0
 13
0.0
 23
0.0
 33
0.0
 16
1.0
 26
0.0
 36
0.0
 17
0.0
 27
1.0
 37
0.0
 76
     0
330
23
  0
LAYOUT
  5
22
102
{ACAD_REACTORS
330
1A
102
}
330
1A
100
AcDbPlotSettings
  1

  2
none_device
  4
ANSI_A_(11.00_x_8.50_Inches)
  6

 40
6.35
 41
19.05
 42
6.35000508
 43
19.05000254
 44
279.4
 45
215.9
 46
132.3431206688129
 47
121.6907839230672
 48
0.0
 49
0.0
140
0.0
141
0.0
142
0.1084174696749213
143
1.0
 70
  1696
 72
     0
 73
     0
 74
     0
  7

 75
     0
147
0.0235690232323232
148
0.0
149
0.0
100
AcDbLayout
  1
Model
 70
     1
 71
     0
 10
0.0
 20
0.0
 11
420.0
 21
297.0
 12
0.0
 22
0.0
 32
0.0
 14
-45.79336225194206
 24
-49.97180738881174
 34
0.0
 15
44.59255746392065
 25
26.76413260158164
 35
0.0
146
0.0
 13
0.0
 23
0.0
 33
0.0
 16
1.0
 26
0.0
 36
0.0
 17
0.0
 27
1.0
 37
0.0
 76
     0
330
1F
331
29
  0
MLINESTYLE
  5
18
102
{ACAD_REACTORS
330
17
102
}
330
17
100
AcDbMlineStyle
  2
Standard
 70
     0
  3

 62
   256
 51
90.0
 52
90.0
 71
     2
 49
0.5
 62
   256
  6
BYLAYER
 49
-0.5
 62
   256
  6
BYLAYER
  0
ACDBPLACEHOLDER
  5
F
102
{ACAD_REACTORS
330
E
102
}
330
E
  0
SCALE
  5
48
102
{ACAD_REACTORS
330
47
102
}
330
47
100
AcDbScale
 70
     0
300
1:1
140
1.0
141
1.0
290
     1
  0
SCALE
  5
49
102
{ACAD_REACTORS
330
47
102
}
330
47
100
AcDbScale
 70
     0
300
1:2
140
1.0
141
2.0
290
     0
  0
SCALE
  5
4A
102
{ACAD_REACTORS
330
47
102
}
330
47
100
AcDbScale
 70
     0
300
1:4
140
1.0
141
4.0
290
     0
  0
SCALE
  5
4B
102
{ACAD_REACTORS
330
47
102
}
330
47
100
AcDbScale
 70
     0
300
1:5
140
1.0
141
5.0
290
     0
  0
SCALE
  5
4C
102
{ACAD_REACTORS
330
47
102
}
330
47
100
AcDbScale
 70
     0
300
1:8
140
1.0
141
8.0
290
     0
  0
SCALE
  5
4D
102
{ACAD_REACTORS
330
47
102
}
330
47
100
AcDbScale
 70
     0
300
1:10
140
1.0
141
10.0
290
     0
  0
SCALE
  5
4E
102
{ACAD_REACTORS
330
47
102
}
330
47
100
AcDbScale
 70
     0
300
1:16
140
1.0
141
16.0
290
     0
  0
SCALE
  5
4F
102
{ACAD_REACTORS
330
47
102
}
330
47
100
AcDbScale
 70
     0
300
1:20
140
1.0
141
20.0
290
     0
  0
SCALE
  5
50
102
{ACAD_REACTORS
330
47
102
}
330
47
100
AcDbScale
 70
     0
300
1:30
140
1.0
141
30.0
290
     0
  0
SCALE
  5
51
102
{ACAD_REACTORS
330
47
102
}
330
47
100
AcDbScale
 70
     0
300
1:40
140
1.0
141
40.0
290
     0
  0
SCALE
  5
52
102
{ACAD_REACTORS
330
47
102
}
330
47
100
AcDbScale
 70
     0
300
1:50
140
1.0
141
50.0
290
     0
  0
SCALE
  5
53
102
{ACAD_REACTORS
330
47
102
}
330
47
100
AcDbScale
 70
     0
300
1:100
140
1.0
141
100.0
290
     0
  0
SCALE
  5
54
102
{ACAD_REACTORS
330
47
102
}
330
47
100
AcDbScale
 70
     0
300
2:1
140
2.0
141
1.0
290
     0
  0
SCALE
  5
55
102
{ACAD_REACTORS
330
47
102
}
330
47
100
AcDbScale
 70
     0
300
4:1
140
4.0
141
1.0
290
     0
  0
SCALE
  5
56
102
{ACAD_REACTORS
330
47
102
}
330
47
100
AcDbScale
 70
     0
300
8:1
140
8.0
141
1.0
290
     0
  0
SCALE
  5
57
102
{ACAD_REACTORS
330
47
102
}
330
47
100
AcDbScale
 70
     0
300
10:1
140
10.0
141
1.0
290
     0
  0
SCALE
  5
58
102
{ACAD_REACTORS
330
47
102
}
330
47
100
AcDbScale
 70
     0
300
100:1
140
100.0
141
1.0
290
     0
  0
SCALE
  5
59
102
{ACAD_REACTORS
330
47
102
}
330
47
100
AcDbScale
 70
     0
300
1/128" = 1'-0"
140
0.0078125
141
12.0
290
     0
  0
SCALE
  5
5A
102
{ACAD_REACTORS
330
47
102
}
330
47
100
AcDbScale
 70
     0
300
1/64" = 1'-0"
140
0.015625
141
12.0
290
     0
  0
SCALE
  5
5B
102
{ACAD_REACTORS
330
47
102
}
330
47
100
AcDbScale
 70
     0
300
1/32" = 1'-0"
140
0.03125
141
12.0
290
     0
  0
SCALE
  5
5C
102
{ACAD_REACTORS
330
47
102
}
330
47
100
AcDbScale
 70
     0
300
1/16" = 1'-0"
140
0.0625
141
12.0
290
     0
  0
SCALE
  5
5D
102
{ACAD_REACTORS
330
47
102
}
330
47
100
AcDbScale
 70
     0
300
3/32" = 1'-0"
140
0.09375
141
12.0
290
     0
  0
SCALE
  5
5E
102
{ACAD_REACTORS
330
47
102
}
330
47
100
AcDbScale
 70
     0
300
1/8" = 1'-0"
140
0.125
141
12.0
290
     0
  0
SCALE
  5
5F
102
{ACAD_REACTORS
330
47
102
}
330
47
100
AcDbScale
 70
     0
300
3/16" = 1'-0"
140
0.1875
141
12.0
290
     0
  0
SCALE
  5
60
102
{ACAD_REACTORS
330
47
102
}
330
47
100
AcDbScale
 70
     0
300
1/4" = 1'-0"
140
0.25
141
12.0
290
     0
  0
SCALE
  5
61
102
{ACAD_REACTORS
330
47
102
}
330
47
100
AcDbScale
 70
     0
300
3/8" = 1'-0"
140
0.375
141
12.0
290
     0
  0
SCALE
  5
62
102
{ACAD_REACTORS
330
47
102
}
330
47
100
AcDbScale
 70
     0
300
1/2" = 1'-0"
140
0.5
141
12.0
290
     0
  0
SCALE
  5
63
102
{ACAD_REACTORS
330
47
102
}
330
47
100
AcDbScale
 70
     0
300
3/4" = 1'-0"
140
0.75
141
12.0
290
     0
  0
SCALE
  5
64
102
{ACAD_REACTORS
330
47
102
}
330
47
100
AcDbScale
 70
     0
300
1" = 1'-0"
140
1.0
141
12.0
290
     0
  0
SCALE
  5
65
102
{ACAD_REACTORS
330
47
102
}
330
47
100
AcDbScale
 70
     0
300
1-1/2" = 1'-0"
140
1.5
141
12.0
290
     0
  0
SCALE
  5
66
102
{ACAD_REACTORS
330
47
102
}
330
47
100
AcDbScale
 70
     0
300
3" = 1'-0"
140
3.0
141
12.0
290
     0
  0
SCALE
  5
67
102
{ACAD_REACTORS
330
47
102
}
330
47
100
AcDbScale
 70
     0
300
6" = 1'-0"
140
6.0
141
12.0
290
     0
  0
SCALE
  5
68
102
{ACAD_REACTORS
330
47
102
}
330
47
100
AcDbScale
 70
     0
300
1'-0" = 1'-0"
140
12.0
141
12.0
290
     0
  0
ENDSEC
  0
EOF
