  0
SECTION
  2
HEADER
  9
$ACADVER
  1
AC1015
  9
$ACADMAINTVER
 70
     6
  9
$DWGCODEPAGE
  3
ANSI_949
  9
$INSBASE
 10
0.0
 20
0.0
 30
0.0
  9
$EXTMIN
 10
-47.98546578345696
 20
-49.97180738881174
 30
0.0
  9
$EXTMAX
 10
47.69059414605589
 20
25.76413260158165
 30
0.0
  9
$LIMMIN
 10
0.0
 20
0.0
  9
$LIMMAX
 10
420.0
 20
297.0
  9
$ORTHOMODE
 70
     0
  9
$REGENMODE
 70
     1
  9
$FILLMODE
 70
     1
  9
$QTEXTMODE
 70
     0
  9
$MIRRTEXT
 70
     1
  9
$LTSCALE
 40
1.0
  9
$ATTMODE
 70
     1
  9
$TEXTSIZE
 40
3.5
  9
$TRACEWID
 40
1.0
  9
$TEXTSTYLE
  7
Standard
  9
$CLAYER
  8
0
  9
$CELTYPE
  6
ByLayer
  9
$CECOLOR
 62
   256
  9
$CELTSCALE
 40
1.0
  9
$DISPSILH
 70
     0
  9
$DIMSCALE
 40
1.0
  9
$DIMASZ
 40
3.302
  9
$DIMEXO
 40
1.0
  9
$DIMDLI
 40
3.75
  9
$DIMRND
 40
0.0
  9
$DIMDLE
 40
0.0
  9
$DIMEXE
 40
1.0
  9
$DIMTP
 40
0.0
  9
$DIMTM
 40
0.0
  9
$DIMTXT
 40
3.5
  9
$DIMCEN
 40
2.5
  9
$DIMTSZ
 40
0.0
  9
$DIMTOL
 70
     0
  9
$DIMLIM
 70
     0
  9
$DIMTIH
 70
     1
  9
$DIMTOH
 70
     1
  9
$DIMSE1
 70
     0
  9
$DIMSE2
 70
     0
  9
$DIMTAD
 70
     1
  9
$DIMZIN
 70
     0
  9
$DIMBLK
  1

  9
$DIMASO
 70
     1
  9
$DIMSHO
 70
     1
  9
$DIMPOST
  1

  9
$DIMAPOST
  1

  9
$DIMALT
 70
     0
  9
$DIMALTD
 70
     3
  9
$DIMALTF
 40
0.0393700787401575
  9
$DIMLFAC
 40
1.0
  9
$DIMTOFL
 70
     1
  9
$DIMTVP
 40
0.0
  9
$DIMTIX
 70
     0
  9
$DIMSOXD
 70
     0
  9
$DIMSAH
 70
     0
  9
$DIMBLK1
  1

  9
$DIMBLK2
  1

  9
$DIMSTYLE
  2
ISO-25
  9
$DIMCLRD
 70
     0
  9
$DIMCLRE
 70
     0
  9
$DIMCLRT
 70
     0
  9
$DIMTFAC
 40
1.0
  9
$DIMGAP
 40
1.524
  9
$DIMJUST
 70
     0
  9
$DIMSD1
 70
     0
  9
$DIMSD2
 70
     0
  9
$DIMTOLJ
 70
     0
  9
$DIMTZIN
 70
     0
  9
$DIMALTZ
 70
     0
  9
$DIMALTTZ
 70
     0
  9
$DIMUPT
 70
     0
  9
$DIMDEC
 70
     2
  9
$DIMTDEC
 70
     2
  9
$DIMALTU
 70
     2
  9
$DIMALTTD
 70
     3
  9
$DIMTXSTY
  7
Standard
  9
$DIMAUNIT
 70
     0
  9
$DIMADEC
 70
     2
  9
$DIMALTRND
 40
0.0
  9
$DIMAZIN
 70
     0
  9
$DIMDSEP
 70
    44
  9
$DIMATFIT
 70
     3
  9
$DIMFRAC
 70
     0
  9
$DIMLDRBLK
  1

  9
$DIMLUNIT
 70
     2
  9
$DIMLWD
 70
    -2
  9
$DIMLWE
 70
    -2
  9
$DIMTMOVE
 70
     0
  9
$LUNITS
 70
     2
  9
$LUPREC
 70
     2
  9
$SKETCHINC
 40
1.0
  9
$FILLETRAD
 40
10.0
  9
$AUNITS
 70
     0
  9
$AUPREC
 70
     2
  9
$MENU
  1
.
  9
$ELEVATION
 40
0.0
  9
$PELEVATION
 40
0.0
  9
$THICKNESS
 40
0.0
  9
$LIMCHECK
 70
     0
  9
$CHAMFERA
 40
0.0
  9
$CHAMFERB
 40
0.0
  9
$CHAMFERC
 40
0.0
  9
$CHAMFERD
 40
0.0
  9
$SKPOLY
 70
     0
  9
$TDCREATE
 40
2458260.493545567
  9
$TDUCREATE
 40
2458260.118545567
  9
$TDUPDATE
 40
2458267.694742396
  9
$TDUUPDATE
 40
2458267.319742396
  9
$TDINDWG
 40
0.0014612963
  9
$TDUSRTIMER
 40
2458267.318281122
  9
$USRTIMER
 70
     1
  9
$ANGBASE
 50
0.0
  9
$ANGDIR
 70
     0
  9
$PDMODE
 70
     0
  9
$PDSIZE
 40
-1.0
  9
$PLINEWID
 40
0.0
  9
$SPLFRAME
 70
     0
  9
$SPLINETYPE
 70
     6
  9
$SPLINESEGS
 70
     8
  9
$HANDSEED
  5
142
  9
$SURFTAB1
 70
     6
  9
$SURFTAB2
 70
     6
  9
$SURFTYPE
 70
     6
  9
$SURFU
 70
     6
  9
$SURFV
 70
     6
  9
$UCSBASE
  2

  9
$UCSNAME
  2

  9
$UCSORG
 10
0.0
 20
0.0
 30
0.0
  9
$UCSXDIR
 10
1.0
 20
0.0
 30
0.0
  9
$UCSYDIR
 10
0.0
 20
1.0
 30
0.0
  9
$UCSORTHOREF
  2

  9
$UCSORTHOVIEW
 70
     0
  9
$UCSORGTOP
 10
0.0
 20
0.0
 30
0.0
  9
$UCSORGBOTTOM
 10
0.0
 20
0.0
 30
0.0
  9
$UCSORGLEFT
 10
0.0
 20
0.0
 30
0.0
  9
$UCSORGRIGHT
 10
0.0
 20
0.0
 30
0.0
  9
$UCSORGFRONT
 10
0.0
 20
0.0
 30
0.0
  9
$UCSORGBACK
 10
0.0
 20
0.0
 30
0.0
  9
$PUCSBASE
  2

  9
$PUCSNAME
  2

  9
$PUCSORG
 10
0.0
 20
0.0
 30
0.0
  9
$PUCSXDIR
 10
1.0
 20
0.0
 30
0.0
  9
$PUCSYDIR
 10
0.0
 20
1.0
 30
0.0
  9
$PUCSORTHOREF
  2

  9
$PUCSORTHOVIEW
 70
     0
  9
$PUCSORGTOP
 10
0.0
 20
0.0
 30
0.0
  9
$PUCSORGBOTTOM
 10
0.0
 20
0.0
 30
0.0
  9
$PUCSORGLEFT
 10
0.0
 20
0.0
 30
0.0
  9
$PUCSORGRIGHT
 10
0.0
 20
0.0
 30
0.0
  9
$PUCSORGFRONT
 10
0.0
 20
0.0
 30
0.0
  9
$PUCSORGBACK
 10
0.0
 20
0.0
 30
0.0
  9
$USERI1
 70
     0
  9
$USERI2
 70
     0
  9
$USERI3
 70
     0
  9
$USERI4
 70
     0
  9
$USERI5
 70
     0
  9
$USERR1
 40
0.0
  9
$USERR2
 40
0.0
  9
$USERR3
 40
0.0
  9
$USERR4
 40
0.0
  9
$USERR5
 40
0.0
  9
$WORLDVIEW
 70
     1
  9
$SHADEDGE
 70
     3
  9
$SHADEDIF
 70
    70
  9
$TILEMODE
 70
     1
  9
$MAXACTVP
 70
    64
  9
$PINSBASE
 10
0.0
 20
0.0
 30
0.0
  9
$PLIMCHECK
 70
     0
  9
$PEXTMIN
 10
1.000000000000000E+20
 20
1.000000000000000E+20
 30
1.000000000000000E+20
  9
$PEXTMAX
 10
-1.000000000000000E+20
 20
-1.000000000000000E+20
 30
-1.000000000000000E+20
  9
$PLIMMIN
 10
0.0
 20
0.0
  9
$PLIMMAX
 10
0.0
 20
0.0
  9
$UNITMODE
 70
     0
  9
$VISRETAIN
 70
     1
  9
$PLINEGEN
 70
     0
  9
$PSLTSCALE
 70
     1
  9
$TREEDEPTH
 70
  3020
  9
$CMLSTYLE
  2
Standard
  9
$CMLJUST
 70
     0
  9
$CMLSCALE
 40
20.0
  9
$PROXYGRAPHICS
 70
     1
  9
$MEASUREMENT
 70
     1
  9
$CELWEIGHT
370
    -1
  9
$ENDCAPS
280
     0
  9
$JOINSTYLE
280
     0
  9
$LWDISPLAY
290
     1
  9
$INSUNITS
 70
     4
  9
$HYPERLINKBASE
  1

  9
$STYLESHEET
  1

  9
$XEDIT
290
     1
  9
$CEPSNTYPE
380
     0
  9
$PSTYLEMODE
290
     1
  9
$FINGERPRINTGUID
  2
{45421782-341D-4C80-9B86-1E2361533A68}
  9
$VERSIONGUID
  2
{FAEB1C32-E019-11D5-929B-00C0DF256EC4}
  9
$EXTNAMES
290
     1
  9
$PSVPSCALE
 40
0.0
  9
$OLESTARTUP
290
     0
  0
ENDSEC
  0
SECTION
  2
CLASSES
  0
CLASS
  1
ACDBDICTIONARYWDFLT
  2
AcDbDictionaryWithDefault
  3
ObjectDBX Classes
 90
        0
280
     0
281
     0
  0
CLASS
  1
VISUALSTYLE
  2
AcDbVisualStyle
  3
ObjectDBX Classes
 90
     4095
280
     0
281
     0
  0
CLASS
  1
MATERIAL
  2
AcDbMaterial
  3
ObjectDBX Classes
 90
     1153
280
     0
281
     0
  0
CLASS
  1
SCALE
  2
AcDbScale
  3
ObjectDBX Classes
 90
     1153
280
     0
281
     0
  0
CLASS
  1
TABLESTYLE
  2
AcDbTableStyle
  3
ObjectDBX Classes
 90
     4095
280
     0
281
     0
  0
CLASS
  1
MLEADERSTYLE
  2
AcDbMLeaderStyle
  3
ACDB_MLEADERSTYLE_CLASS
 90
     4095
280
     0
281
     0
  0
CLASS
  1
SUN
  2
AcDbSun
  3
SCENEOE
 90
     1153
280
     0
281
     0
  0
CLASS
  1
ACDBPLACEHOLDER
  2
AcDbPlaceHolder
  3
ObjectDBX Classes
 90
        0
280
     0
281
     0
  0
CLASS
  1
LAYOUT
  2
AcDbLayout
  3
ObjectDBX Classes
 90
        0
280
     0
281
     0
  0
CLASS
  1
RASTERVARIABLES
  2
AcDbRasterVariables
  3
ISM
 90
        0
280
     0
281
     0
  0
ENDSEC
  0
SECTION
  2
TABLES
  0
TABLE
  2
VPORT
  5
8
330
0
100
AcDbSymbolTable
 70
     1
  0
VPORT
  5
29
330
8
100
AcDbSymbolTableRecord
100
AcDbViewportTableRecord
  2
*Active
 70
     0
 10
0.0
 20
0.0
 11
1.0
 21
1.0
 12
-0.1474358187005365
 22
-12.10383739361504
 13
0.0
 23
0.0
 14
10.0
 24
10.0
 15
10.0
 25
10.0
 16
0.0
 26
0.0
 36
1.0
 17
0.0
 27
0.0
 37
0.0
 40
77.25065879020126
 41
1.739018087855297
 42
50.0
 43
0.0
 44
0.0
 50
0.0
 51
0.0
 71
    16
 72
  2000
 73
     1
 74
     3
 75
     0
 76
     0
 77
     0
 78
     0
281
     0
 65
     1
110
0.0
120
0.0
130
0.0
111
1.0
121
0.0
131
0.0
112
0.0
122
1.0
132
0.0
 79
     0
146
0.0
  0
ENDTAB
  0
TABLE
  2
LTYPE
  5
5
330
0
100
AcDbSymbolTable
 70
     6
  0
LTYPE
  5
14
330
5
100
AcDbSymbolTableRecord
100
AcDbLinetypeTableRecord
  2
ByBlock
 70
     0
  3

 72
    65
 73
     0
 40
0.0
  0
LTYPE
  5
15
330
5
100
AcDbSymbolTableRecord
100
AcDbLinetypeTableRecord
  2
ByLayer
 70
     0
  3

 72
    65
 73
     0
 40
0.0
  0
LTYPE
  5
16
330
5
100
AcDbSymbolTableRecord
100
AcDbLinetypeTableRecord
  2
Continuous
 70
     0
  3
Solid line
 72
    65
 73
     0
 40
0.0
  0
LTYPE
  5
6E
330
5
100
AcDbSymbolTableRecord
100
AcDbLinetypeTableRecord
  2
HIDDEN
 70
     0
  3
Hidden __ __ __ __ __ __ __ __ __ __ __ __ __ __
 72
    65
 73
     2
 40
1.905
 49
1.27
 74
     0
 49
-0.635
 74
     0
  0
LTYPE
  5
6F
330
5
100
AcDbSymbolTableRecord
100
AcDbLinetypeTableRecord
  2
PHANTOM
 70
     0
  3
Phantom ______  __  __  ______  __  __  ______
 72
    65
 73
     6
 40
12.7
 49
6.35
 74
     0
 49
-1.27
 74
     0
 49
1.27
 74
     0
 49
-1.27
 74
     0
 49
1.27
 74
     0
 49
-1.27
 74
     0
  0
LTYPE
  5
70
330
5
100
AcDbSymbolTableRecord
100
AcDbLinetypeTableRecord
  2
CENTER
 70
     0
  3
Center ____ _ ____ _ ____ _ ____ _ ____ _ ____
 72
    65
 73
     4
 40
10.16
 49
6.35
 74
     0
 49
-1.27
 74
     0
 49
1.27
 74
     0
 49
-1.27
 74
     0
  0
LTYPE
  5
71
330
5
100
AcDbSymbolTableRecord
100
AcDbLinetypeTableRecord
  2
CENTERX2
 70
     0
  3
Center (2x) ________  __  ________  __  _____
 72
    65
 73
     4
 40
20.32
 49
12.7
 74
     0
 49
-2.54
 74
     0
 49
2.54
 74
     0
 49
-2.54
 74
     0
  0
LTYPE
  5
72
330
5
100
AcDbSymbolTableRecord
100
AcDbLinetypeTableRecord
  2
DOT2
 70
     0
  3
Dot (.5x) ........................................
 72
    65
 73
     2
 40
0.635
 49
0.0
 74
     0
 49
-0.635
 74
     0
  0
ENDTAB
  0
TABLE
  2
LAYER
  5
2
330
0
100
AcDbSymbolTable
 70
    17
  0
LAYER
  5
10
330
2
100
AcDbSymbolTableRecord
100
AcDbLayerTableRecord
  2
0
 70
     0
 62
     7
  6
Continuous
370
    -3
390
F
  0
LAYER
  5
73
330
2
100
AcDbSymbolTableRecord
100
AcDbLayerTableRecord
  2
FORMAT
 70
     0
 62
     2
  6
Continuous
370
    -3
390
F
  0
LAYER
  5
74
330
2
100
AcDbSymbolTableRecord
100
AcDbLayerTableRecord
  2
외형선
 70
     0
 62
   100
  6
Continuous
370
    35
390
F
  0
LAYER
  5
75
330
2
100
AcDbSymbolTableRecord
100
AcDbLayerTableRecord
  2
숨은선
 70
     0
 62
     2
  6
HIDDEN
370
    25
390
F
  0
LAYER
  5
76
330
2
100
AcDbSymbolTableRecord
100
AcDbLayerTableRecord
  2
중심선
 70
     0
 62
     1
  6
CENTERX2
370
    -3
390
F
  0
LAYER
  5
77
330
2
100
AcDbSymbolTableRecord
100
AcDbLayerTableRecord
  2
파단선
 70
     0
 62
     4
  6
Continuous
370
    -3
390
F
  0
LAYER
  5
78
330
2
100
AcDbSymbolTableRecord
100
AcDbLayerTableRecord
  2
해칭선
 70
     0
 62
   100
  6
Continuous
370
    -3
390
F
  0
LAYER
  5
79
330
2
100
AcDbSymbolTableRecord
100
AcDbLayerTableRecord
  2
가는실선
 70
     0
 62
     4
  6
Continuous
370
    -3
390
F
  0
LAYER
  5
7A
330
2
100
AcDbSymbolTableRecord
100
AcDbLayerTableRecord
  2
치수_보조선
 70
     0
 62
     4
  6
Continuous
370
    -3
390
F
  0
LAYER
  5
7B
330
2
100
AcDbSymbolTableRecord
100
AcDbLayerTableRecord
  2
치수문자_일반주서
 70
     0
 62
     7
  6
Continuous
370
    25
390
F
  0
LAYER
  5
7C
330
2
100
AcDbSymbolTableRecord
100
AcDbLayerTableRecord
  2
개별주서
 70
     0
 62
   100
  6
Continuous
370
    35
390
F
  0
LAYER
  5
7D
330
2
100
AcDbSymbolTableRecord
100
AcDbLayerTableRecord
  2
중간선
 70
     0
 62
     2
  6
Continuous
370
    25
390
F
  0
LAYER
  5
7E
330
2
100
AcDbSymbolTableRecord
100
AcDbLayerTableRecord
  2
윤곽선
 70
     0
 62
     3
  6
Continuous
370
    50
390
F
  0
LAYER
  5
7F
330
2
100
AcDbSymbolTableRecord
100
AcDbLayerTableRecord
  2
중심마크
 70
     0
 62
   100
  6
Continuous
370
    35
390
F
  0
LAYER
  5
80
330
2
100
AcDbSymbolTableRecord
100
AcDbLayerTableRecord
  2
가상선
 70
     0
 62
     4
  6
PHANTOM
370
    -3
390
F
  0
LAYER
  5
81
330
2
100
AcDbSymbolTableRecord
100
AcDbLayerTableRecord
  2
특수지정선
 70
     0
 62
     5
  6
CENTERX2
370
    70
390
F
  0
LAYER
  5
133
330
2
100
AcDbSymbolTableRecord
100
AcDbLayerTableRecord
  2
Defpoints
 70
     0
 62
     7
  6
Continuous
290
     0
370
    -3
390
F
  0
ENDTAB
  0
TABLE
  2
STYLE
  5
3
330
0
100
AcDbSymbolTable
 70
     2
  0
STYLE
  5
11
330
3
100
AcDbSymbolTableRecord
100
AcDbTextStyleTableRecord
  2
Standard
 70
     0
 40
0.0
 41
1.0
 50
0.0
 71
     0
 42
3.5
  3
txt
  4

  0
STYLE
  5
97
330
3
100
AcDbSymbolTableRecord
100
AcDbTextStyleTableRecord
  2
SLDTEXTSTYLE0
 70
     0
 40
0.0
 41
0.75
 50
0.0
 71
     0
 42
3.5
  3
TXT
  4

  0
ENDTAB
  0
TABLE
  2
VIEW
  5
6
330
0
100
AcDbSymbolTable
 70
     0
  0
ENDTAB
  0
TABLE
  2
UCS
  5
7
330
0
100
AcDbSymbolTable
 70
     0
  0
ENDTAB
  0
TABLE
  2
APPID
  5
9
330
0
100
AcDbSymbolTable
 70
     1
  0
APPID
  5
12
330
9
100
AcDbSymbolTableRecord
100
AcDbRegAppTableRecord
  2
ACAD
 70
     0
  0
ENDTAB
  0
TABLE
  2
DIMSTYLE
  5
A
330
0
100
AcDbSymbolTable
 70
     4
100
AcDbDimStyleTable
  0
DIMSTYLE
105
27
330
A
100
AcDbSymbolTableRecord
100
AcDbDimStyleTableRecord
  2
ISO-25
 70
     0
 41
2.5
 42
0.625
 43
3.75
 44
1.25
 73
     0
 74
     0
 77
     1
 78
     8
140
2.5
141
2.5
143
0.03937007874016
147
0.625
171
     3
172
     1
178
     0
271
     2
272
     2
274
     3
278
    44
283
     0
284
     8
340
11
  0
DIMSTYLE
105
D7
102
{ACAD_REACTORS
330
D6
102
}
330
A
100
AcDbSymbolTableRecord
100
AcDbDimStyleTableRecord
  2
SLDDIMSTYLE0
 70
     0
 41
3.302
 44
0.0
 45
0.000000001
 73
     0
 74
     0
 77
     1
 78
    12
 79
     3
140
3.5
147
0.875
172
     1
173
     1
178
     0
271
     1
272
     1
276
     2
284
    12
289
     0
340
97
  0
DIMSTYLE
105
E5
102
{ACAD_REACTORS
330
E4
330
FD
102
}
330
A
100
AcDbSymbolTableRecord
100
AcDbDimStyleTableRecord
  2
SLDDIMSTYLE1
 70
     0
 41
3.302
 44
0.0
 45
0.000000001
 73
     0
 74
     0
 77
     1
 78
    12
 79
     3
140
3.5
147
0.875
173
     1
178
     0
271
     2
272
     2
276
     2
284
    12
340
97
  0
DIMSTYLE
105
F0
102
{ACAD_REACTORS
330
EF
102
}
330
A
100
AcDbSymbolTableRecord
100
AcDbDimStyleTableRecord
  2
SLDDIMSTYLE2
 70
     0
 41
3.302
 44
0.0
 45
0.000000001
 73
     0
 74
     0
 77
     1
 78
    12
 79
     3
140
3.5
147
0.875
172
     1
173
     1
178
     0
271
     2
272
     2
276
     2
284
    12
289
     0
340
97
  0
ENDTAB
  0
TABLE
  2
BLOCK_RECORD
  5
1
330
0
100
AcDbSymbolTable
 70
     7
  0
BLOCK_RECORD
  5
1F
330
1
100
AcDbSymbolTableRecord
100
AcDbBlockTableRecord
  2
*Model_Space
340
22
  0
BLOCK_RECORD
  5
1B
330
1
100
AcDbSymbolTableRecord
100
AcDbBlockTableRecord
  2
*Paper_Space
340
1E
  0
BLOCK_RECORD
  5
23
330
1
100
AcDbSymbolTableRecord
100
AcDbBlockTableRecord
  2
*Paper_Space0
340
26
  0
BLOCK_RECORD
  5
82
330
1
100
AcDbSymbolTableRecord
100
AcDbBlockTableRecord
  2
블럭10
340
0
102
{BLKREFS
331
CF
102
}
  0
BLOCK_RECORD
  5
D8
330
1
100
AcDbSymbolTableRecord
100
AcDbBlockTableRecord
  2
_D
340
0
  0
BLOCK_RECORD
  5
E6
330
1
100
AcDbSymbolTableRecord
100
AcDbBlockTableRecord
  2
_D_1
340
0
  0
BLOCK_RECORD
  5
F1
330
1
100
AcDbSymbolTableRecord
100
AcDbBlockTableRecord
  2
_D_2
340
0
  0
BLOCK_RECORD
  5
FE
330
1
100
AcDbSymbolTableRecord
100
AcDbBlockTableRecord
  2
_D_3
340
0
  0
BLOCK_RECORD
  5
107
330
1
100
AcDbSymbolTableRecord
100
AcDbBlockTableRecord
  2
SW_DOWELSYMBOL_0
340
0
102
{BLKREFS
331
10D
102
}
  0
ENDTAB
  0
ENDSEC
  0
SECTION
  2
BLOCKS
  0
BLOCK
  5
20
330
1F
100
AcDbEntity
  8
0
100
AcDbBlockBegin
  2
*Model_Space
 70
     0
 10
0.0
 20
0.0
 30
0.0
  3
*Model_Space
  1

  0
ENDBLK
  5
21
330
1F
100
AcDbEntity
  8
0
100
AcDbBlockEnd
  0
BLOCK
  5
1C
330
1B
100
AcDbEntity
 67
     1
  8
0
100
AcDbBlockBegin
  2
*Paper_Space
 70
     0
 10
0.0
 20
0.0
 30
0.0
  3
*Paper_Space
  1

  0
ENDBLK
  5
1D
330
1B
100
AcDbEntity
 67
     1
  8
0
100
AcDbBlockEnd
  0
BLOCK
  5
24
330
23
100
AcDbEntity
  8
0
100
AcDbBlockBegin
  2
*Paper_Space0
 70
     0
 10
0.0
 20
0.0
 30
0.0
  3
*Paper_Space0
  1

  0
ENDBLK
  5
25
330
23
100
AcDbEntity
  8
0
100
AcDbBlockEnd
  0
BLOCK
  5
83
330
82
100
AcDbEntity
  8
0
100
AcDbBlockBegin
  2
블럭10
 70
     2
 10
0.0
 20
0.0
 30
0.0
  3
블럭10
  1

  0
ELLIPSE
  5
85
330
82
100
AcDbEntity
  8
중심선
100
AcDbEllipse
 10
20.54032771741204
 20
12.0471743016438
 30
0.0
 11
6.600054785286829
 21
-1.261213355974178E-13
 31
0.0
210
0.0
220
0.0
230
1.0
 40
0.636358354079598
 41
0.9219305317359503
 42
6.513795318482858
  0
ELLIPSE
  5
86
330
82
100
AcDbEntity
  8
중심선
100
AcDbEllipse
 10
20.54032771746488
 20
12.04717430159265
 30
0.0
 11
3.960054785062283
 21
1.540847449632565E-10
 31
0.0
210
0.0
220
0.0
230
1.0
 40
0.3939339440162632
 41
1.131841032648279
 42
5.62031148352944
  0
LINE
  5
87
330
82
100
AcDbEntity
  8
중심선
100
AcDbLine
 10
2.268634060543552
 20
16.24717430164393
 30
0.0
 11
5.714909304380834
 21
16.24717430164393
 31
0.0
  0
LINE
  5
88
330
82
100
AcDbEntity
  8
중심선
100
AcDbLine
 10
5.245725140726316
 20
7.84717430164391
 30
0.0
 11
8.692000384563599
 21
7.84717430164391
 31
0.0
  0
LINE
  5
89
330
82
100
AcDbEntity
  8
중심선
100
AcDbLine
 10
15.74043728645272
 20
16.24717430164393
 30
0.0
 11
8.692000384563599
 21
7.84717430164391
 31
0.0
  0
LINE
  5
8A
330
82
100
AcDbEntity
  8
중심선
100
AcDbLine
 10
0.1404042013395286
 20
13.71084872107135
 30
0.0
 11
3.58671253028996
 21
13.71088815037384
 31
0.0
  0
LINE
  5
8B
330
82
100
AcDbEntity
  8
중심선
100
AcDbLine
 10
2.750260043222114
 20
10.84717430164391
 30
0.0
 11
6.196535287059397
 21
10.84717430164391
 31
0.0
  0
LINE
  5
8C
330
82
100
AcDbEntity
  8
중심선
100
AcDbLine
 10
12.29416204261559
 20
16.24717430164393
 30
0.0
 11
5.245725140726316
 21
7.84717430164391
 31
0.0
  0
LINE
  5
8D
330
82
100
AcDbEntity
  8
중심선
100
AcDbLine
 10
10.72767329541681
 20
16.24717430164393
 30
0.0
 11
6.196535287059397
 21
10.84717430164391
 31
0.0
  0
LINE
  5
8E
330
82
100
AcDbEntity
  8
중심선
100
AcDbLine
 10
7.28139805157953
 20
16.24717430164393
 30
0.0
 11
2.750260043222114
 21
10.84717430164391
 31
0.0
  0
LINE
  5
8F
330
82
100
AcDbEntity
  8
중심선
100
AcDbLine
 10
5.714909304380834
 20
16.24717430164393
 30
0.0
 11
3.58671253028996
 21
13.71088815037384
 31
0.0
  0
LINE
  5
90
330
82
100
AcDbEntity
  8
중심선
100
AcDbLine
 10
2.268634060543552
 20
16.24717430164393
 30
0.0
 11
0.1404042013395286
 21
13.71084872107135
 31
0.0
  0
LINE
  5
91
330
82
100
AcDbEntity
  8
중심선
100
AcDbLine
 10
7.28139805157953
 20
16.24717430164393
 30
0.0
 11
10.72767329541681
 21
16.24717430164393
 31
0.0
  0
LINE
  5
92
330
82
100
AcDbEntity
  8
중심선
100
AcDbLine
 10
12.29416204261559
 20
16.24717430164393
 30
0.0
 11
15.74043728645272
 21
16.24717430164393
 31
0.0
  0
LINE
  5
93
330
82
100
AcDbEntity
  8
중심선
100
AcDbLine
 10
19.22036997980202
 20
11.08717430171403
 30
0.0
 11
23.66174974927406
 21
11.08717430171406
 31
0.0
  0
LINE
  5
94
330
82
100
AcDbEntity
  8
중심선
100
AcDbLine
 10
19.22039502424796
 20
13.00717430171391
 30
0.0
 11
19.22036997980202
 21
11.08717430171403
 31
0.0
  0
LINE
  5
95
330
82
100
AcDbEntity
  8
중심선
100
AcDbLine
 10
19.22039502424796
 20
13.00717430171391
 30
0.0
 11
26.96566020931264
 21
13.00717430171391
 31
0.0
  0
LINE
  5
96
330
82
100
AcDbEntity
  8
중심선
100
AcDbLine
 10
22.22332737316547
 20
13.45928029700563
 30
0.0
 11
24.52862924686651
 21
15.39360700705356
 31
0.0
  0
ATTDEF
  5
98
330
82
100
AcDbEntity
  8
FORMAT
 62
     2
100
AcDbText
 10
-16.11926103943555
 20
2.075366912832191
 30
0.0
 40
4.233333333333333
  1
SEME7108025E [ 4 FLUTE ]
 41
0.75
  7
SLDTEXTSTYLE0
 11
-16.11926103943555
 21
-0.0412997538344756
 31
0.0
100
AcDbAttributeDefinition
  3

  2
AUTOATTR0
 70
     0
 74
     1
  0
ENDBLK
  5
84
330
82
100
AcDbEntity
  8
0
100
AcDbBlockEnd
  0
BLOCK
  5
D9
330
D8
100
AcDbEntity
  8
0
100
AcDbBlockBegin
  2
_D
 70
     0
 10
0.0
 20
0.0
 30
0.0
  3
_D
  1

  0
LINE
  5
DB
330
D8
100
AcDbEntity
  8
치수문자_일반주서
 62
     0
370
    -2
100
AcDbLine
 10
35.06250000000003
 20
-4.000000000000004
 30
0.0
 11
47.14026081272254
 21
-3.999999999999957
 31
0.0
  0
LINE
  5
DC
330
D8
100
AcDbEntity
  8
치수문자_일반주서
 62
     0
370
    -2
100
AcDbLine
 10
35.06250000000003
 20
4.000000000000008
 30
0.0
 11
47.14026081272251
 21
4.000000000000053
 31
0.0
  0
LINE
  5
DD
330
D8
100
AcDbEntity
  8
치수문자_일반주서
 62
     0
370
    -2
100
AcDbLine
 10
47.14026081272254
 20
-3.999999999999957
 30
0.0
 11
47.14026081272246
 21
16.72900000000005
 31
0.0
  0
LINE
  5
DE
330
D8
100
AcDbEntity
  8
치수문자_일반주서
 62
     0
370
    -2
100
AcDbLine
 10
47.14026081272254
 20
-3.999999999999957
 30
0.0
 11
47.14026081272251
 21
4.000000000000053
 31
0.0
  0
LINE
  5
DF
330
D8
100
AcDbEntity
  8
치수문자_일반주서
 62
     0
370
    -2
100
AcDbLine
 10
47.14026081272255
 20
-7.301999999999957
 30
0.0
 11
47.14026081272257
 21
-10.60399999999996
 31
0.0
  0
LINE
  5
E0
330
D8
100
AcDbEntity
  8
치수문자_일반주서
 62
     0
370
    -2
100
AcDbLine
 10
47.1402608127225
 20
7.302000000000053
 30
0.0
 11
47.14026081272248
 21
10.60400000000005
 31
0.0
  0
SOLID
  5
E1
330
D8
100
AcDbEntity
  8
치수문자_일반주서
 62
     0
100
AcDbTrace
 10
47.69059414605589
 20
-7.301999999999955
 30
0.0
 11
46.58992747938922
 21
-7.301999999999959
 31
0.0
 12
47.14026081272254
 22
-3.999999999999957
 32
0.0
 13
47.14026081272254
 23
-3.999999999999957
 33
0.0
  0
SOLID
  5
E2
330
D8
100
AcDbEntity
  8
치수문자_일반주서
 62
     0
100
AcDbTrace
 10
46.58992747938916
 20
7.302000000000051
 30
0.0
 11
47.69059414605583
 21
7.302000000000055
 31
0.0
 12
47.14026081272251
 22
4.000000000000053
 32
0.0
 13
47.14026081272251
 23
4.000000000000053
 33
0.0
  0
MTEXT
  5
E3
330
D8
100
AcDbEntity
  8
치수문자_일반주서
 62
     0
100
AcDbMText
 10
42.76526081272247
 20
13.66650000000004
 30
0.0
 40
3.5
 41
0.0
 71
     2
 72
     1
  1
\A1;%%c8
  7
SLDTEXTSTYLE0
 11
-3.552713678800496E-15
 21
1.0
 31
0.0
 73
     1
 44
1.0
  0
POINT
  5
13D
330
D8
100
AcDbEntity
  8
Defpoints
 62
     0
100
AcDbPoint
 10
35.00000000000003
 20
-4.000000000000004
 30
0.0
  0
POINT
  5
13E
330
D8
100
AcDbEntity
  8
Defpoints
 62
     0
100
AcDbPoint
 10
35.00000000000003
 20
4.000000000000008
 30
0.0
  0
POINT
  5
13F
330
D8
100
AcDbEntity
  8
Defpoints
 62
     0
100
AcDbPoint
 10
47.14026081272251
 20
4.000000000000053
 30
0.0
  0
ENDBLK
  5
DA
330
D8
100
AcDbEntity
  8
0
100
AcDbBlockEnd
  0
BLOCK
  5
E7
330
E6
100
AcDbEntity
  8
0
100
AcDbBlockBegin
  2
_D_1
 70
     0
 10
0.0
 20
0.0
 30
0.0
  3
_D_1
  1

  0
LINE
  5
E9
330
E6
100
AcDbEntity
  8
치수문자_일반주서
 62
     0
370
    -2
100
AcDbLine
 10
-35.00000000000001
 20
3.562499999999997
 30
0.0
 11
-35.0
 21
21.38913260158165
 31
0.0
  0
LINE
  5
EA
330
E6
100
AcDbEntity
  8
치수문자_일반주서
 62
     0
370
    -2
100
AcDbLine
 10
35.0
 20
4.062500000000004
 30
0.0
 11
35.00000000000001
 21
21.38913260158165
 31
0.0
  0
LINE
  5
EB
330
E6
100
AcDbEntity
  8
치수문자_일반주서
 62
     0
370
    -2
100
AcDbLine
 10
-31.698
 20
21.38913260158165
 30
0.0
 11
31.69800000000001
 21
21.38913260158165
 31
0.0
  0
SOLID
  5
EC
330
E6
100
AcDbEntity
  8
치수문자_일반주서
 62
     0
100
AcDbTrace
 10
-31.698
 20
21.93946593491498
 30
0.0
 11
-31.698
 21
20.83879926824832
 31
0.0
 12
-35.0
 22
21.38913260158165
 32
0.0
 13
-35.0
 23
21.38913260158165
 33
0.0
  0
SOLID
  5
ED
330
E6
100
AcDbEntity
  8
치수문자_일반주서
 62
     0
100
AcDbTrace
 10
31.69800000000001
 20
20.83879926824832
 30
0.0
 11
31.69800000000001
 21
21.93946593491498
 31
0.0
 12
35.00000000000001
 22
21.38913260158165
 32
0.0
 13
35.00000000000001
 23
21.38913260158165
 33
0.0
  0
MTEXT
  5
EE
330
E6
100
AcDbEntity
  8
치수문자_일반주서
 62
     0
100
AcDbMText
 10
-0.0000000000000042
 20
25.76413260158165
 30
0.0
 40
3.5
 41
0.0
 71
     2
 72
     1
  1
\A1;70
  7
SLDTEXTSTYLE0
 73
     1
 44
1.0
  0
POINT
  5
134
330
E6
100
AcDbEntity
  8
Defpoints
 62
     0
100
AcDbPoint
 10
-35.00000000000001
 20
3.499999999999997
 30
0.0
  0
POINT
  5
135
330
E6
100
AcDbEntity
  8
Defpoints
 62
     0
100
AcDbPoint
 10
35.0
 20
4.000000000000004
 30
0.0
  0
POINT
  5
136
330
E6
100
AcDbEntity
  8
Defpoints
 62
     0
100
AcDbPoint
 10
35.0
 20
21.38913260158165
 30
0.0
  0
ENDBLK
  5
E8
330
E6
100
AcDbEntity
  8
0
100
AcDbBlockEnd
  0
BLOCK
  5
F2
330
F1
100
AcDbEntity
  8
0
100
AcDbBlockBegin
  2
_D_2
 70
     0
 10
0.0
 20
0.0
 30
0.0
  3
_D_2
  1

  0
LINE
  5
F4
330
F1
100
AcDbEntity
  8
치수문자_일반주서
 62
     0
370
    -2
100
AcDbLine
 10
-34.56250000000001
 20
4.000000000000005
 30
0.0
 11
-43.61046578345692
 21
3.999999999999972
 31
0.0
  0
LINE
  5
F5
330
F1
100
AcDbEntity
  8
치수문자_일반주서
 62
     0
370
    -2
100
AcDbLine
 10
-34.56250000000001
 20
-4.000000000000002
 30
0.0
 11
-43.61046578345689
 21
-4.000000000000036
 31
0.0
  0
LINE
  5
F6
330
F1
100
AcDbEntity
  8
치수문자_일반주서
 62
     0
370
    -2
100
AcDbLine
 10
-43.61046578345692
 20
3.999999999999972
 30
0.0
 11
-43.61046578345697
 21
16.72899999999997
 31
0.0
  0
LINE
  5
F7
330
F1
100
AcDbEntity
  8
치수문자_일반주서
 62
     0
370
    -2
100
AcDbLine
 10
-43.61046578345692
 20
3.999999999999972
 30
0.0
 11
-43.61046578345689
 21
-4.000000000000036
 31
0.0
  0
LINE
  5
F8
330
F1
100
AcDbEntity
  8
치수문자_일반주서
 62
     0
370
    -2
100
AcDbLine
 10
-43.61046578345693
 20
7.301999999999971
 30
0.0
 11
-43.61046578345695
 21
10.60399999999997
 31
0.0
  0
LINE
  5
F9
330
F1
100
AcDbEntity
  8
치수문자_일반주서
 62
     0
370
    -2
100
AcDbLine
 10
-43.61046578345687
 20
-7.302000000000035
 30
0.0
 11
-43.61046578345686
 21
-10.60400000000003
 31
0.0
  0
SOLID
  5
FA
330
F1
100
AcDbEntity
  8
치수문자_일반주서
 62
     0
100
AcDbTrace
 10
-44.16079911679027
 20
7.301999999999969
 30
0.0
 11
-43.0601324501236
 21
7.301999999999973
 31
0.0
 12
-43.61046578345692
 22
3.999999999999972
 32
0.0
 13
-43.61046578345692
 23
3.999999999999972
 33
0.0
  0
SOLID
  5
FB
330
F1
100
AcDbEntity
  8
치수문자_일반주서
 62
     0
100
AcDbTrace
 10
-43.06013245012354
 20
-7.302000000000033
 30
0.0
 11
-44.16079911679021
 21
-7.302000000000037
 31
0.0
 12
-43.61046578345689
 22
-4.000000000000036
 32
0.0
 13
-43.61046578345689
 23
-4.000000000000036
 33
0.0
  0
MTEXT
  5
FC
330
F1
100
AcDbEntity
  8
치수문자_일반주서
 62
     0
100
AcDbMText
 10
-47.98546578345695
 20
13.66649999999996
 30
0.0
 40
3.5
 41
0.0
 71
     2
 72
     1
  1
\A1;%%c8
  7
SLDTEXTSTYLE0
 11
-3.552713678800498E-15
 21
1.0
 31
0.0
 73
     1
 44
1.0
  0
POINT
  5
13A
330
F1
100
AcDbEntity
  8
Defpoints
 62
     0
100
AcDbPoint
 10
-34.50000000000001
 20
4.000000000000005
 30
0.0
  0
POINT
  5
13B
330
F1
100
AcDbEntity
  8
Defpoints
 62
     0
100
AcDbPoint
 10
-34.50000000000001
 20
-4.000000000000002
 30
0.0
  0
POINT
  5
13C
330
F1
100
AcDbEntity
  8
Defpoints
 62
     0
100
AcDbPoint
 10
-43.61046578345687
 20
-4.000000000000036
 30
0.0
  0
ENDBLK
  5
F3
330
F1
100
AcDbEntity
  8
0
100
AcDbBlockEnd
  0
BLOCK
  5
FF
330
FE
100
AcDbEntity
  8
0
100
AcDbBlockBegin
  2
_D_3
 70
     0
 10
0.0
 20
0.0
 30
0.0
  3
_D_3
  1

  0
LINE
  5
101
330
FE
100
AcDbEntity
  8
치수문자_일반주서
 62
     0
370
    -2
100
AcDbLine
 10
10.0
 20
4.056928738617376
 30
0.0
 11
10.0
 21
14.84034704120503
 31
0.0
  0
LINE
  5
102
330
FE
100
AcDbEntity
  8
치수문자_일반주서
 62
     0
370
    -2
100
AcDbLine
 10
35.0
 20
4.062500000000004
 30
0.0
 11
35.0
 21
14.84034704120503
 31
0.0
  0
LINE
  5
103
330
FE
100
AcDbEntity
  8
치수문자_일반주서
 62
     0
370
    -2
100
AcDbLine
 10
13.302
 20
14.84034704120503
 30
0.0
 11
31.698
 21
14.84034704120503
 31
0.0
  0
SOLID
  5
104
330
FE
100
AcDbEntity
  8
치수문자_일반주서
 62
     0
100
AcDbTrace
 10
13.302
 20
15.39068037453836
 30
0.0
 11
13.302
 21
14.2900137078717
 31
0.0
 12
10.0
 22
14.84034704120503
 32
0.0
 13
10.0
 23
14.84034704120503
 33
0.0
  0
SOLID
  5
105
330
FE
100
AcDbEntity
  8
치수문자_일반주서
 62
     0
100
AcDbTrace
 10
31.698
 20
14.2900137078717
 30
0.0
 11
31.698
 21
15.39068037453836
 31
0.0
 12
35.0
 22
14.84034704120503
 32
0.0
 13
35.0
 23
14.84034704120503
 33
0.0
  0
MTEXT
  5
106
330
FE
100
AcDbEntity
  8
치수문자_일반주서
 62
     0
100
AcDbMText
 10
22.5
 20
19.21534704120503
 30
0.0
 40
3.5
 41
0.0
 71
     2
 72
     1
  1
\A1;25
  7
SLDTEXTSTYLE0
 73
     1
 44
1.0
  0
POINT
  5
137
330
FE
100
AcDbEntity
  8
Defpoints
 62
     0
100
AcDbPoint
 10
10.0
 20
3.994428738617377
 30
0.0
  0
POINT
  5
138
330
FE
100
AcDbEntity
  8
Defpoints
 62
     0
100
AcDbPoint
 10
35.0
 20
4.000000000000004
 30
0.0
  0
POINT
  5
139
330
FE
100
AcDbEntity
  8
Defpoints
 62
     0
100
AcDbPoint
 10
35.0
 20
14.84034704120503
 30
0.0
  0
ENDBLK
  5
100
330
FE
100
AcDbEntity
  8
0
100
AcDbBlockEnd
  0
BLOCK
  5
108
330
107
100
AcDbEntity
  8
0
100
AcDbBlockBegin
  2
SW_DOWELSYMBOL_0
 70
     0
 10
0.0
 20
0.0
 30
0.0
  3
SW_DOWELSYMBOL_0
  1

  0
CIRCLE
  5
10A
330
107
100
AcDbEntity
  8
해칭선
 62
     0
100
AcDbCircle
 10
0.0
 20
0.0
 30
0.0
 40
3.000000000000001
  0
HATCH
  5
10B
330
107
100
AcDbEntity
  8
0
  6
Continuous
 62
     0
370
    18
100
AcDbHatch
 10
0.0
 20
0.0
 30
0.0
210
0.0
220
0.0
230
1.0
  2
SOLID
 70
     1
 71
     0
 91
        1
 92
        0
 93
        3
 72
     2
 10
0.0
 20
0.0
 40
3.000000000000001
 50
0.0
 51
90.0
 73
     1
 72
     1
 10
0.0
 20
3.000000000000001
 11
0.0
 21
0.0
 72
     1
 10
0.0
 20
0.0
 11
3.000000000000001
 21
0.0
 97
        0
 75
     0
 76
     1
 98
        1
 10
0.0
 20
0.0
  0
HATCH
  5
10C
330
107
100
AcDbEntity
  8
0
  6
Continuous
 62
     0
370
    18
100
AcDbHatch
 10
0.0
 20
0.0
 30
0.0
210
0.0
220
0.0
230
1.0
  2
SOLID
 70
     1
 71
     0
 91
        1
 92
        0
 93
        3
 72
     2
 10
0.0
 20
0.0
 40
3.000000000000001
 50
180.0
 51
270.0000000000008
 73
     1
 72
     1
 10
0.0
 20
-3.000000000000001
 11
0.0
 21
0.0
 72
     1
 10
0.0
 20
0.0
 11
-3.000000000000001
 21
0.0
 97
        0
 75
     0
 76
     1
 98
        1
 10
0.0
 20
0.0
  0
ENDBLK
  5
109
330
107
100
AcDbEntity
  8
0
100
AcDbBlockEnd
  0
ENDSEC
  0
SECTION
  2
ENTITIES
  0
LINE
  5
99
330
1F
100
AcDbEntity
  8
0
  6
Continuous
 62
     4
370
    25
100
AcDbLine
 10
8.877646845241228
 20
4.000000000000002
 30
0.0
 11
-34.50000000000001
 21
4.0
 31
0.0
  0
LINE
  5
9A
330
1F
100
AcDbEntity
  8
0
  6
Continuous
 62
     4
370
    25
100
AcDbLine
 10
10.0
 20
4.000000000000002
 30
0.0
 11
9.714622940755293
 21
4.000000000000002
 31
0.0
  0
LINE
  5
9B
330
1F
100
AcDbEntity
  8
0
  6
Continuous
 62
     4
370
    25
100
AcDbLine
 10
9.71462294075535
 20
-3.999999999999998
 30
0.0
 11
10.0
 21
-3.999999999999998
 31
0.0
  0
LINE
  5
9C
330
1F
100
AcDbEntity
  8
0
  6
Continuous
 62
     4
370
    25
100
AcDbLine
 10
-34.50000000000001
 20
-4.0
 30
0.0
 11
8.877646845241193
 21
-3.999999999999998
 31
0.0
  0
LINE
  5
9D
330
1F
100
AcDbEntity
  8
0
  6
Continuous
 62
     4
370
    25
100
AcDbLine
 10
-34.50000000000001
 20
3.999999999999998
 30
0.0
 11
-35.00000000000001
 21
3.499999999999996
 31
0.0
  0
LINE
  5
9E
330
1F
100
AcDbEntity
  8
0
  6
Continuous
 62
     4
370
    25
100
AcDbLine
 10
-35.00000000000001
 20
-3.499999999999998
 30
0.0
 11
-34.50000000000001
 21
-4.0
 31
0.0
  0
LINE
  5
9F
330
1F
100
AcDbEntity
  8
0
  6
Continuous
 62
     1
370
    25
100
AcDbLine
 10
33.85630785483234
 20
-4.0
 30
0.0
 11
35.0
 21
-4.0
 31
0.0
  0
LINE
  5
A0
330
1F
100
AcDbEntity
  8
0
  6
Continuous
 62
     1
370
    25
100
AcDbLine
 10
20.05934898985949
 20
4.000000000000004
 30
0.0
 11
17.77218438143841
 21
4.000000000000004
 31
0.0
  0
LINE
  5
A1
330
1F
100
AcDbEntity
  8
0
  6
Continuous
 62
     1
370
    25
100
AcDbLine
 10
25.81469091581126
 20
-4.0
 30
0.0
 11
28.10110143476938
 21
-4.0
 31
0.0
  0
LINE
  5
A2
330
1F
100
AcDbEntity
  8
0
  6
Continuous
 62
     1
370
    25
100
AcDbLine
 10
12.01773997543719
 20
4.000000000000004
 30
0.0
 11
10.0
 21
4.000000000000004
 31
0.0
  0
LINE
  5
A3
330
1F
100
AcDbEntity
  8
0
  6
Continuous
 62
     1
370
    25
100
AcDbLine
 10
10.0
 20
-4.0
 30
0.0
 11
12.01773997543718
 21
-4.0
 31
0.0
  0
LINE
  5
A4
330
1F
100
AcDbEntity
  8
0
  6
Continuous
 62
     1
370
    25
100
AcDbLine
 10
28.10110143476939
 20
4.000000000000004
 30
0.0
 11
25.81469091581132
 21
4.000000000000004
 31
0.0
  0
LINE
  5
A5
330
1F
100
AcDbEntity
  8
0
  6
Continuous
 62
     1
370
    25
100
AcDbLine
 10
17.7721843814384
 20
-4.0
 30
0.0
 11
20.05934898985946
 21
-4.0
 31
0.0
  0
LINE
  5
A6
330
1F
100
AcDbEntity
  8
0
  6
Continuous
 62
     1
370
    25
100
AcDbLine
 10
35.0
 20
4.000000000000004
 30
0.0
 11
33.85630785483234
 21
4.000000000000004
 31
0.0
  0
LINE
  5
A7
330
1F
100
AcDbEntity
  8
0
  6
Continuous
 62
     4
370
    25
100
AcDbLine
 10
10.50073744094174
 20
-0.5978145995335158
 30
0.0
 11
10.46478537018113
 21
-0.5714028662342432
 31
0.0
  0
LINE
  5
A8
330
1F
100
AcDbEntity
  8
0
  6
Continuous
 62
     1
370
    25
100
AcDbLine
 10
34.97602505610498
 20
0.9045199717098756
 30
0.0
 11
35.0
 21
0.888723416219284
 31
0.0
  0
SPLINE
  5
A9
330
1F
100
AcDbEntity
  8
0
  6
Continuous
 62
     4
370
    25
100
AcDbSpline
210
0.0
220
0.0
230
1.0
 70
     8
 71
     3
 72
    10
 73
     6
 74
     0
 42
0.000000001
 43
0.00000001
 40
0.0
 40
0.0
 40
0.0
 40
0.0
 40
0.5
 40
0.5
 40
1.0
 40
1.0
 40
1.0
 40
1.0
 10
8.811226875689222
 20
-3.241185552564269
 30
0.0
 10
8.711459309543578
 20
-3.195635058397299
 30
0.0
 10
8.632124155050384
 20
-3.134717649503719
 30
0.0
 10
8.5262238189095
 20
-2.989329028264685
 30
0.0
 10
8.499741209980685
 20
-2.904587716683528
 30
0.0
 10
8.499741209980685
 20
-2.814810270154114
 30
0.0
  0
SPLINE
  5
AA
330
1F
100
AcDbEntity
  8
0
  6
Continuous
 62
     4
370
    25
100
AcDbSpline
210
0.0
220
0.0
230
1.0
 70
     8
 71
     3
 72
    16
 73
    12
 74
     0
 42
0.000000001
 43
0.00000001
 40
0.0
 40
0.0
 40
0.0
 40
0.0
 40
0.125
 40
0.125
 40
0.25
 40
0.25
 40
0.5
 40
0.5
 40
0.75
 40
0.75
 40
1.0
 40
1.0
 40
1.0
 40
1.0
 10
8.499741209980693
 20
-0.6984669788278335
 30
0.0
 10
8.499741209980693
 20
-0.6237889597235584
 30
0.0
 10
8.508911558698294
 20
-0.5502578936831575
 30
0.0
 10
8.54693972210712
 20
-0.4057756796517843
 30
0.0
 10
8.575973258989166
 20
-0.3355075693197139
 30
0.0
 10
8.689433992254925
 20
-0.1424266642612138
 30
0.0
 10
8.803733196747388
 20
-0.0338221059094543
 30
0.0
 10
9.071321247643803
 20
0.1030224964835092
 30
0.0
 10
9.223851118078331
 20
0.1324615852747376
 30
0.0
 10
9.525194666982756
 20
0.1040534739680774
 30
0.0
 10
9.669578394674465
 20
0.0468854772775718
 30
0.0
 10
9.789240063206563
 20
-0.0466362566568146
 30
0.0
  0
SPLINE
  5
AB
330
1F
100
AcDbEntity
  8
0
  6
Continuous
 62
     4
370
    25
100
AcDbSpline
210
0.0
220
0.0
230
1.0
 70
     8
 71
     3
 72
    10
 73
     6
 74
     0
 42
0.000000001
 43
0.00000001
 40
0.0
 40
0.0
 40
0.0
 40
0.0
 40
0.5
 40
0.5
 40
1.0
 40
1.0
 40
1.0
 40
1.0
 10
10.00000000000963
 20
-3.693720902000725
 30
0.0
 10
9.80115913270364
 20
-3.634225585075999
 30
0.0
 10
9.604317529862643
 20
-3.566622155353861
 30
0.0
 10
9.209519241176128
 20
-3.415645753655679
 30
0.0
 10
9.010287037541477
 20
-3.33206968547065
 30
0.0
 10
8.811226875689222
 20
-3.241185552564269
 30
0.0
  0
SPLINE
  5
AC
330
1F
100
AcDbEntity
  8
0
  6
Continuous
 62
     4
370
    25
100
AcDbSpline
210
0.0
220
0.0
230
1.0
 70
     8
 71
     3
 72
     8
 73
     4
 74
     0
 42
0.000000001
 43
0.00000001
 40
0.0
 40
0.0
 40
0.0
 40
0.0
 40
1.0
 40
1.0
 40
1.0
 40
1.0
 10
10.00000000000965
 20
-0.2110427734291972
 30
0.0
 10
9.929630905435166
 20
-0.1562545925753789
 30
0.0
 10
9.85934802346623
 20
-0.1014292249190651
 30
0.0
 10
9.789240063206563
 20
-0.0466362566568155
 30
0.0
  0
SPLINE
  5
AD
330
1F
100
AcDbEntity
  8
0
  6
Continuous
 62
     4
370
    25
100
AcDbSpline
210
0.0
220
0.0
230
1.0
 70
     8
 71
     3
 72
    10
 73
     6
 74
     0
 42
0.000000001
 43
0.00000001
 40
0.0
 40
0.0
 40
0.0
 40
0.0
 40
0.5
 40
0.5
 40
1.0
 40
1.0
 40
1.0
 40
1.0
 10
8.811226875689222
 20
2.344081102233559
 30
0.0
 10
8.711459309543518
 20
2.407064248791736
 30
0.0
 10
8.632124155050295
 20
2.487229309008376
 30
0.0
 10
8.52622381890941
 20
2.660202311568638
 30
0.0
 10
8.499741209980693
 20
2.753059536279678
 30
0.0
 10
8.499741209980682
 20
2.841978737259696
 30
0.0
  0
SPLINE
  5
AE
330
1F
100
AcDbEntity
  8
0
  6
Continuous
 62
     4
370
    25
100
AcDbSpline
210
0.0
220
0.0
230
1.0
 70
     8
 71
     3
 72
    10
 73
     6
 74
     0
 42
0.000000001
 43
0.00000001
 40
0.0
 40
0.0
 40
0.0
 40
0.0
 40
0.4999999999999998
 40
0.4999999999999998
 40
1.0
 40
1.0
 40
1.0
 40
1.0
 10
10.00000000000963
 20
1.535065437733143
 30
0.0
 10
9.80115913270364
 20
1.678224869438238
 30
0.0
 10
9.604317529862643
 20
1.817450005911658
 30
0.0
 10
9.209519241176128
 20
2.087410407318888
 30
0.0
 10
9.010287037541477
 20
2.218414657393915
 30
0.0
 10
8.811226875689222
 20
2.344081102233559
 30
0.0
  0
SPLINE
  5
AF
330
1F
100
AcDbEntity
  8
0
  6
Continuous
 62
     4
370
    25
100
AcDbSpline
210
0.0
220
0.0
230
1.0
 70
     8
 71
     3
 72
    12
 73
     8
 74
     0
 42
0.000000001
 43
0.00000001
 40
0.0
 40
0.0
 40
0.0
 40
0.0
 40
0.00357055629477
 40
0.3050236708587052
 40
0.6078340403327129
 40
0.9115045775853198
 40
0.9999999999999999
 40
0.9999999999999999
 40
0.9999999999999999
 40
0.9999999999999999
 10
8.877646845241193
 20
-3.999953976501105
 30
0.0
 10
8.878429240994747
 20
-3.999969275058945
 30
0.0
 10
8.945267348312234
 20
-4.001276192493191
 30
0.0
 10
9.127411637417445
 20
-3.997812255554907
 30
0.0
 10
9.391506834536186
 20
-3.997865212266579
 30
0.0
 10
9.596813137552587
 20
-3.999929316472055
 30
0.0
 10
9.692932768239592
 20
-3.999790557621641
 30
0.0
 10
9.714622940755346
 20
-3.999759245564135
 30
0.0
  0
SPLINE
  5
B0
330
1F
100
AcDbEntity
  8
0
  6
Continuous
 62
     4
370
    25
100
AcDbSpline
210
0.0
220
0.0
230
1.0
 70
     8
 71
     3
 72
     8
 73
     4
 74
     0
 42
0.000000001
 43
0.00000001
 40
0.0
 40
0.0
 40
0.0
 40
0.0
 40
1.0
 40
1.0
 40
1.0
 40
1.0
 10
10.00000000000965
 20
3.994428738603709
 30
0.0
 10
9.929630905435166
 20
3.997323432787832
 30
0.0
 10
9.85934802346623
 20
3.999089245049242
 30
0.0
 10
9.789240063206563
 20
3.999728123205995
 30
0.0
  0
SPLINE
  5
B1
330
1F
100
AcDbEntity
  8
0
  6
Continuous
 62
     4
370
    25
100
AcDbSpline
210
0.0
220
0.0
230
1.0
 70
     8
 71
     3
 72
    16
 73
    12
 74
     0
 42
0.000000001
 43
0.00000001
 40
0.0
 40
0.0
 40
0.0
 40
0.0
 40
0.125
 40
0.125
 40
0.25
 40
0.25
 40
0.5
 40
0.5
 40
0.7499999999999999
 40
0.7499999999999999
 40
1.0
 40
1.0
 40
1.0
 40
1.0
 10
8.499741209980693
 20
3.93854590927757
 30
0.0
 10
8.499741209980693
 20
3.951789408678134
 30
0.0
 10
8.508911558698294
 20
3.962639352562556
 30
0.0
 10
8.54693972210712
 20
3.980030211674422
 30
0.0
 10
8.575973258989166
 20
3.986426475062192
 30
0.0
 10
8.689433992254921
 20
3.999544989857964
 30
0.0
 10
8.803733196747388
 20
4.000442228901136
 30
0.0
 10
9.071321247643803
 20
3.999258472122295
 30
0.0
 10
9.223851118078331
 20
3.997831394659172
 30
0.0
 10
9.525194666982756
 20
3.998671630210608
 30
0.0
 10
9.669578394674465
 20
4.000818573219712
 30
0.0
 10
9.789240063206563
 20
3.999728123206007
 30
0.0
  0
LINE
  5
B2
330
1F
100
AcDbEntity
  8
0
  6
Continuous
 62
     4
370
    25
100
AcDbLine
 10
8.499741209980693
 20
3.93854590927757
 30
0.0
 11
8.499741209980693
 21
2.841978737259738
 31
0.0
  0
LINE
  5
B3
330
1F
100
AcDbEntity
  8
0
  6
Continuous
 62
     4
370
    25
100
AcDbLine
 10
-34.50000000000001
 20
3.999999999999998
 30
0.0
 11
-34.50000000000001
 21
-4.0
 31
0.0
  0
LINE
  5
B4
330
1F
100
AcDbEntity
  8
0
  6
Continuous
 62
     4
370
    25
100
AcDbLine
 10
8.499741209980693
 20
-0.6984669788278332
 30
0.0
 11
8.499741209980693
 21
-2.814810270154112
 31
0.0
  0
LINE
  5
B5
330
1F
100
AcDbEntity
  8
0
  6
Continuous
 62
     4
370
    25
100
AcDbLine
 10
-35.00000000000001
 20
3.499999999999997
 30
0.0
 11
-35.00000000000001
 21
-3.499999999999998
 31
0.0
  0
SPLINE
  5
B6
330
1F
100
AcDbEntity
  8
0
  6
Continuous
 62
     1
370
    25
100
AcDbSpline
210
0.0
220
0.0
230
1.0
 70
     8
 71
     3
 72
    28
 73
    24
 74
     0
 42
0.000000001
 43
0.00000001
 40
0.0
 40
0.0
 40
0.0
 40
0.0
 40
0.0121893660136512
 40
0.0621790156056666
 40
0.1120717032123975
 40
0.161924619245386
 40
0.2118759901855227
 40
0.2618235663200978
 40
0.3116758377099753
 40
0.3615710787243923
 40
0.4115599798821792
 40
0.4614340277791595
 40
0.5112953478285085
 40
0.5612719981346299
 40
0.6111901518802759
 40
0.6610399339516815
 40
0.7109596833763244
 40
0.7669236753202077
 40
0.8228139497663969
 40
0.8786710128940133
 40
0.9345447134864838
 40
0.990484676460857
 40
1.0
 40
1.0
 40
1.0
 40
1.0
 10
14.89343422648321
 20
3.372788342554226
 30
0.0
 10
14.97046892011117
 20
3.408438369056565
 30
0.0
 10
15.36342958860747
 20
3.590292253151009
 30
0.0
 10
16.07256447960258
 20
3.796542159979391
 30
0.0
 10
17.01870144925569
 20
3.98098901598333
 30
0.0
 10
17.96428223969614
 20
4.01953510294809
 30
0.0
 10
18.91124731105925
 20
3.923838281443337
 30
0.0
 10
19.85816263151853
 20
3.693906276669449
 30
0.0
 10
20.8037228845503
 20
3.337880250964049
 30
0.0
 10
21.74992242506646
 20
2.868038660475124
 30
0.0
 10
22.69740480023044
 20
2.301557510451442
 30
0.0
 10
23.64331110422899
 20
1.655451803063995
 30
0.0
 10
24.58902781799468
 20
0.9527428504429929
 30
0.0
 10
25.53634250187585
 20
0.2190025136015752
 30
0.0
 10
26.48285442286763
 20
-0.5230426094701135
 30
0.0
 10
27.42836095818796
 20
-1.247831870780491
 30
0.0
 10
28.41276145412105
 20
-1.95660909293269
 30
0.0
 10
29.43606598386655
 20
-2.617560694292429
 30
0.0
 10
30.49604814772097
 20
-3.190560528341901
 30
0.0
 10
31.55535358225664
 20
-3.631237354708634
 30
0.0
 10
32.61499537061472
 20
-3.901190206070131
 30
0.0
 10
33.38224438137
 20
-4.018077042800003
 30
0.0
 10
33.79613937914679
 20
-3.991740261058019
 30
0.0
 10
33.85630785483234
 20
-3.987911647471507
 30
0.0
  0
SPLINE
  5
B7
330
1F
100
AcDbEntity
  8
0
  6
Continuous
 62
     1
370
    25
100
AcDbSpline
210
0.0
220
0.0
230
1.0
 70
     8
 71
     3
 72
    23
 73
    19
 74
     0
 42
0.000000001
 43
0.00000001
 40
0.0
 40
0.0
 40
0.0
 40
0.0
 40
0.0633923847560639
 40
0.126661796438683
 40
0.1899837128821477
 40
0.2534266312141862
 40
0.3167244965755657
 40
0.3800041771606295
 40
0.4434295922529777
 40
0.5067842450171252
 40
0.5700501001126093
 40
0.6334027277526334
 40
0.696829595133833
 40
0.7601100934235357
 40
0.8234067450068033
 40
0.8868491603116662
 40
0.9501727087165653
 40
1.0
 40
1.0
 40
1.0
 40
1.0
 10
35.00000000000001
 20
-3.90066279342104
 30
0.0
 10
34.68414875589092
 20
-3.83322320666241
 30
0.0
 10
34.05305897846424
 20
-3.698474857269966
 30
0.0
 10
33.10749228657676
 20
-3.334282331620235
 30
0.0
 10
32.16131013576076
 20
-2.865953239593737
 30
0.0
 10
31.21382240824008
 20
-2.298504447909703
 30
0.0
 10
30.26790239678385
 20
-1.652226153655864
 30
0.0
 10
29.32219591651014
 20
-0.9492609478933832
 30
0.0
 10
28.3748966694035
 20
-0.2154196420733186
 30
0.0
 10
27.4283639552297
 20
0.5265894612671179
 30
0.0
 10
26.48285363359855
 20
1.251200309106514
 30
0.0
 10
25.53634265950807
 20
1.932599530646516
 30
0.0
 10
24.58902797846388
 20
2.547563505358606
 30
0.0
 10
23.64331030721487
 20
3.076600181600815
 30
0.0
 10
22.69740783234694
 20
3.501651410477552
 30
0.0
 10
21.74991107463363
 20
3.802538732685895
 30
0.0
 10
20.87068877740866
 20
3.976874904170936
 30
0.0
 10
20.30739983989075
 20
3.985010811706519
 30
0.0
 10
20.05934898985949
 20
3.988593553432052
 30
0.0
  0
LINE
  5
B8
330
1F
100
AcDbEntity
  8
0
  6
Continuous
 62
     1
370
    25
100
AcDbLine
 10
35.0
 20
-4.000000000000002
 30
0.0
 11
35.0
 21
-3.900662793421043
 31
0.0
  0
SPLINE
  5
B9
330
1F
100
AcDbEntity
  8
0
  6
Continuous
 62
     1
370
    25
100
AcDbSpline
210
0.0
220
0.0
230
1.0
 70
     8
 71
     3
 72
    24
 73
    20
 74
     0
 42
0.000000001
 43
0.00000001
 40
0.0
 40
0.0
 40
0.0
 40
0.0
 40
0.0648036709142531
 40
0.1296983428232681
 40
0.1944986161609101
 40
0.259247170156272
 40
0.3240292029046922
 40
0.3839700478749012
 40
0.4437946291110099
 40
0.5035715216404489
 40
0.5634664680145156
 40
0.6233568641696127
 40
0.6831329837299852
 40
0.7429606266681764
 40
0.8029005742170108
 40
0.8627028052273915
 40
0.9224897747196797
 40
0.9824150326996449
 40
1.0
 40
1.0
 40
1.0
 40
1.0
 10
10.00000000000873
 20
3.994428738603747
 30
0.0
 10
10.34156821218231
 20
3.964861824610009
 30
0.0
 10
11.02518428600995
 20
3.905686477082857
 30
0.0
 10
12.05131753392215
 20
3.618469653812204
 30
0.0
 10
13.07620746442908
 20
3.197846434703768
 30
0.0
 10
14.10032449354277
 20
2.646504142264618
 30
0.0
 10
15.09883829382866
 20
2.006561196307497
 30
0.0
 10
16.07252892257457
 20
1.312070114031632
 30
0.0
 10
17.01871095904944
 20
0.5904406549797234
 30
0.0
 10
17.96427968976131
 20
-0.1516250760249601
 30
0.0
 10
18.91124798376726
 20
-0.8874507841455904
 30
0.0
 10
19.85816249304246
 20
-1.593154900575523
 30
0.0
 10
20.80372276753157
 20
-2.245426840549574
 30
0.0
 10
21.74992303280642
 20
-2.821022256587154
 30
0.0
 10
22.69740248392915
 20
-3.298938099151683
 30
0.0
 10
23.64331973736761
 20
-3.668167213419595
 30
0.0
 10
24.5889955707573
 20
-3.902056765151187
 30
0.0
 10
25.31342926353978
 20
-4.007937346942168
 30
0.0
 10
25.72199779931499
 20
-3.989921482905908
 30
0.0
 10
25.81469091581126
 20
-3.985834172117951
 30
0.0
  0
SPLINE
  5
BA
330
1F
100
AcDbEntity
  8
0
  6
Continuous
 62
     1
370
    25
100
AcDbSpline
210
0.0
220
0.0
230
1.0
 70
     8
 71
     3
 72
    28
 73
    24
 74
     0
 42
0.000000001
 43
0.00000001
 40
0.0
 40
0.0
 40
0.0
 40
0.0
 40
0.0379523593537287
 40
0.0877915251077156
 40
0.1377454715653577
 40
0.1876436855134212
 40
0.2374719622922993
 40
0.2873685812497446
 40
0.337323671532136
 40
0.3871634813114509
 40
0.4370160134475793
 40
0.4869833492965953
 40
0.5368570654074082
 40
0.5866878304308609
 40
0.6366138590843602
 40
0.6865436809063342
 40
0.7363750902947979
 40
0.7862462540994699
 40
0.8362143380598384
 40
0.8902181488687233
 40
0.944194051009578
 40
0.9982130675983308
 40
1.0
 40
1.0
 40
1.0
 40
1.0
 10
30.98761601232875
 20
-3.370069460090253
 30
0.0
 10
30.74767025107865
 20
-3.468139844819346
 30
0.0
 10
30.19262691037502
 20
-3.694996588112216
 30
0.0
 10
29.32221537390282
 20
-3.906882480224709
 30
0.0
 10
28.37489145595398
 20
-4.017684048445804
 30
0.0
 10
27.42836535315182
 20
-3.9880754283327
 30
0.0
 10
26.48285324419772
 20
-3.823381008178435
 30
0.0
 10
25.53634281825639
 20
-3.52817984709437
 30
0.0
 10
24.58902773363057
 20
-3.113423476115077
 30
0.0
 10
23.64331112595082
 20
-2.591699899411563
 30
0.0
 10
22.69740479763119
 20
-1.981547357413306
 30
0.0
 10
21.74992241365612
 20
-1.305301456027283
 30
0.0
 10
20.80372293265599
 20
-0.5833693055730296
 30
0.0
 10
19.85816245049346
 20
0.1587551351483083
 30
0.0
 10
18.91124798854212
 20
0.8944653811410967
 30
0.0
 10
17.96427971323455
 20
1.599709439942115
 30
0.0
 10
17.01871086058754
 20
2.251332335244873
 30
0.0
 10
16.07252929365627
 20
2.826203384325792
 30
0.0
 10
15.09883685776373
 20
3.315972066153783
 30
0.0
 10
14.10033033566424
 20
3.701057143707826
 30
0.0
 10
13.0761857227665
 20
3.92940085697179
 30
0.0
 10
12.38211956753499
 20
4.024779536812103
 30
0.0
 10
12.02904556883498
 20
3.99829252103372
 30
0.0
 10
12.01773997543718
 20
3.997444394488537
 30
0.0
  0
SPLINE
  5
BB
330
1F
100
AcDbEntity
  8
0
  6
Continuous
 62
     1
370
    25
100
AcDbSpline
210
0.0
220
0.0
230
1.0
 70
     8
 71
     3
 72
    21
 73
    17
 74
     0
 42
0.000000001
 43
0.00000001
 40
0.0
 40
0.0
 40
0.0
 40
0.0
 40
0.0185559969500551
 40
0.0918249719066426
 40
0.1649566687366842
 40
0.2380253847795639
 40
0.3112337894491344
 40
0.3844477561836273
 40
0.4575174170830427
 40
0.5306453713710507
 40
0.603915443311318
 40
0.6831032525968195
 40
0.7622501383576975
 40
0.8414602444474093
 40
0.9207857408042917
 40
1.0
 40
1.0
 40
1.0
 40
1.0
 10
22.93790344585425
 20
-3.373683310470196
 30
0.0
 10
22.85791187994684
 20
-3.410223247596093
 30
0.0
 10
22.46207093903777
 20
-3.591042349317605
 30
0.0
 10
21.74987970185647
 20
-3.799506175076885
 30
0.0
 10
20.80373435696148
 20
-3.981861240974591
 30
0.0
 10
19.85815938218137
 20
-4.019306579768459
 30
0.0
 10
18.91124881811548
 20
-3.922232658816012
 30
0.0
 10
17.96427946669166
 20
-3.691076769610202
 30
0.0
 10
17.01871101880903
 20
-3.333886313541262
 30
0.0
 10
16.07252890656346
 20
-2.863009525170197
 30
0.0
 10
15.09883829851013
 20
-2.279934812486521
 30
0.0
 10
14.10032449224846
 20
-1.593990662603754
 30
0.0
 10
13.07620746477637
 20
-0.8264689632271919
 30
0.0
 10
12.05131753382994
 20
-0.0268728085647087
 30
0.0
 10
11.02518428603377
 20
0.7772384722371883
 30
0.0
 10
10.3415682121908
 20
1.282574636541676
 30
0.0
 10
10.00000000000956
 20
1.535065437733192
 30
0.0
  0
SPLINE
  5
BC
330
1F
100
AcDbEntity
  8
0
  6
Continuous
 62
     1
370
    25
100
AcDbSpline
210
0.0
220
0.0
230
1.0
 70
     8
 71
     3
 72
    19
 73
    15
 74
     0
 42
0.000000001
 43
0.00000001
 40
0.0
 40
0.0
 40
0.0
 40
0.0
 40
0.0598087921083498
 40
0.1399439824727805
 40
0.2202645271774512
 40
0.3004910584664176
 40
0.3806077054377334
 40
0.4608368012404362
 40
0.5507799704854129
 40
0.6406046638114804
 40
0.7303759811873429
 40
0.8201740376549895
 40
0.9100785884669997
 40
1.0
 40
1.0
 40
1.0
 40
1.0
 10
22.93790344585429
 20
3.373683310470201
 30
0.0
 10
23.17307695704118
 20
3.469885063757559
 30
0.0
 10
23.72334919240047
 20
3.694983347827691
 30
0.0
 10
24.58900816523545
 20
3.905963962115974
 30
0.0
 10
25.53634776604091
 20
4.017508516273151
 30
0.0
 10
26.4828530162679
 20
3.988541156048416
 30
0.0
 10
27.42836133167031
 20
3.824473681640552
 30
0.0
 10
28.41276134958741
 20
3.518189549211934
 30
0.0
 10
29.43606597378825
 20
3.062635810847212
 30
0.0
 10
30.49604829567179
 20
2.458917437921657
 30
0.0
 10
31.55535300078617
 20
1.750178631038045
 30
0.0
 10
32.61499755048708
 20
0.9670382530566546
 30
0.0
 10
33.67587840935285
 20
0.1408213863300328
 30
0.0
 10
34.38339308690195
 20
-0.4090597042578223
 30
0.0
 10
34.73718359443427
 20
-0.6840260283423236
 30
0.0
  0
SPLINE
  5
BD
330
1F
100
AcDbEntity
  8
0
  6
Continuous
 62
     1
370
    25
100
AcDbSpline
210
0.0
220
0.0
230
1.0
 70
     8
 71
     3
 72
    12
 73
     8
 74
     0
 42
0.000000001
 43
0.00000001
 40
0.0
 40
0.0
 40
0.0
 40
0.0
 40
0.5
 40
0.5
 40
0.75
 40
0.75
 40
1.0
 40
1.0
 40
1.0
 40
1.0
 10
35.0
 20
-3.083933400934668
 30
0.0
 10
34.6449874094951
 20
-2.974277168041034
 30
0.0
 10
34.29771057186802
 20
-2.828190881486981
 30
0.0
 10
33.79187178831135
 20
-2.538061676346761
 30
0.0
 10
33.62561231553313
 20
-2.429839190836764
 30
0.0
 10
33.30007557917147
 20
-2.182241896423536
 30
0.0
 10
33.14545608452092
 20
-2.046847781098981
 30
0.0
 10
32.99723206040275
 20
-1.902353208590741
 30
0.0
  0
LINE
  5
BE
330
1F
100
AcDbEntity
  8
0
  6
Continuous
 62
     1
370
    25
100
AcDbLine
 10
35.0
 20
-3.900662793421043
 30
0.0
 11
35.0
 21
-3.083933400934668
 31
0.0
  0
SPLINE
  5
BF
330
1F
100
AcDbEntity
  8
0
  6
Continuous
 62
     1
370
    25
100
AcDbSpline
210
0.0
220
0.0
230
1.0
 70
    24
 71
     3
 72
    18
 73
    14
 74
     0
 42
0.000000001
 43
0.00000001
 40
0.0
 40
0.0
 40
0.0
 40
0.0
 40
0.1107824876371983
 40
0.2591188728767196
 40
0.3409054584898542
 40
0.4246573612779654
 40
0.5065722037042534
 40
0.5914736488160438
 40
0.6647011048017187
 40
0.7400143173303757
 40
0.8144882954492072
 40
0.8905840758861604
 40
1.0
 40
1.0
 40
1.0
 40
1.0
 10
34.73258863770936
 20
-0.6872434516788392
 30
0.0
 10
34.73058740506123
 20
-0.6886447298647848
 30
0.0
 10
34.72590654656803
 20
-0.6919223022670049
 30
0.0
 10
34.6522048781636
 20
-0.7435287660624189
 30
0.0
 10
34.53884374476657
 20
-0.8229050862070219
 30
0.0
 10
34.41727784634975
 20
-0.9080264446677241
 30
0.0
 10
34.26223949196845
 20
-1.016585469117131
 30
0.0
 10
34.08553379835048
 20
-1.140316127833005
 30
0.0
 10
33.89404214865596
 20
-1.274400024453315
 30
0.0
 10
33.69903375347454
 20
-1.410946372773533
 30
0.0
 10
33.49534703979431
 20
-1.553569345125581
 30
0.0
 10
33.25871660099503
 20
-1.719259762142689
 30
0.0
 10
33.09424085127056
 20
-1.834426921952555
 30
0.0
 10
32.99723206040211
 20
-1.902353208591319
 30
0.0
  0
SPLINE
  5
C0
330
1F
100
AcDbEntity
  8
0
  6
Continuous
 62
     1
370
    25
100
AcDbSpline
210
0.0
220
0.0
230
1.0
 70
     8
 71
     3
 72
    15
 73
    11
 74
     0
 42
0.000000001
 43
0.00000001
 40
0.0
 40
0.0
 40
0.0
 40
0.0
 40
0.1372908199940761
 40
0.2743153134545253
 40
0.4114535180759888
 40
0.5488537801759186
 40
0.6859398966357848
 40
0.8229866297712751
 40
0.9603489845714736
 40
1.0
 40
1.0
 40
1.0
 40
1.0
 10
35.00000000000001
 20
0.885906186918675
 30
0.0
 10
34.68414874223262
 20
1.123351395575193
 30
0.0
 10
34.05305893751585
 20
1.597781199721591
 30
0.0
 10
33.1074924500562
 20
2.248027753494522
 30
0.0
 10
32.16130952160987
 20
2.823676507718607
 30
0.0
 10
31.2138247036758
 20
3.300955439529961
 30
0.0
 10
30.2678938532864
 20
3.669656486313703
 30
0.0
 10
29.322227824444
 20
3.902848751547261
 30
0.0
 10
28.59933363524339
 20
4.008197882525084
 30
0.0
 10
28.19228122238448
 20
3.990038688993355
 30
0.0
 10
28.10110143476939
 20
3.985971027539501
 30
0.0
  0
SPLINE
  5
C1
330
1F
100
AcDbEntity
  8
0
  6
Continuous
 62
     1
370
    25
100
AcDbSpline
210
0.0
220
0.0
230
1.0
 70
     8
 71
     3
 72
    12
 73
     8
 74
     0
 42
0.000000001
 43
0.00000001
 40
0.0
 40
0.0
 40
0.0
 40
0.0
 40
0.1621332358986314
 40
0.3713955448512603
 40
0.580825006710252
 40
0.7905595574366912
 40
1.0
 40
1.0
 40
1.0
 40
1.0
 10
14.89343422648321
 20
-3.37278834255422
 30
0.0
 10
14.62899309677501
 20
-3.479879723302116
 30
0.0
 10
14.02324278959886
 20
-3.725191928916795
 30
0.0
 10
13.07622426503612
 20
-3.938835081714831
 30
0.0
 10
12.05131304475001
 20
-4.02565624684474
 30
0.0
 10
11.0251854071475
 20
-3.958098911200976
 30
0.0
 10
10.34156858572053
 20
-3.781805673854532
 30
0.0
 10
10.00000000000956
 20
-3.693720902000704
 30
0.0
  0
LINE
  5
C2
330
1F
100
AcDbEntity
  8
0
  6
Continuous
 62
     1
370
    25
100
AcDbLine
 10
35.0
 20
-0.5000000000000101
 30
0.0
 11
35.0
 21
0.885906186918675
 31
0.0
  0
LINE
  5
C3
330
1F
100
AcDbEntity
  8
0
  6
Continuous
 62
     1
370
    25
100
AcDbLine
 10
35.0
 20
-0.5000000000000082
 30
0.0
 11
34.73718359443426
 21
-0.6840260283423242
 31
0.0
  0
SPLINE
  5
C4
330
1F
100
AcDbEntity
  8
0
  6
Continuous
 62
     1
370
    25
100
AcDbSpline
210
0.0
220
0.0
230
1.0
 70
     8
 71
     3
 72
    15
 73
    11
 74
     0
 42
0.000000001
 43
0.00000001
 40
0.0
 40
0.0
 40
0.0
 40
0.0
 40
0.1318627903644067
 40
0.2639107499472536
 40
0.3957666269080508
 40
0.5275172651270814
 40
0.6593360260578951
 40
0.7813039171212033
 40
0.9030352342346042
 40
1.0
 40
1.0
 40
1.0
 40
1.0
 10
10.00000000000873
 20
-0.2110427734284803
 30
0.0
 10
10.3415682063582
 20
-0.4768387603602857
 30
0.0
 10
11.02518426852944
 20
-1.008803980042741
 30
0.0
 10
12.05131760391633
 20
-1.7628046798948
 30
0.0
 10
13.07620720247778
 20
-2.447994918807433
 30
0.0
 10
14.10032547088288
 20
-3.034681164396764
 30
0.0
 10
15.09883475932914
 20
-3.489705539483595
 30
0.0
 10
16.07254101108525
 20
-3.800262100772847
 30
0.0
 10
16.95477780187596
 20
-3.976174193615631
 30
0.0
 10
17.52109325669868
 20
-3.985044984083075
 30
0.0
 10
17.7721843814384
 20
-3.988978086626599
 30
0.0
  0
SPLINE
  5
C5
330
1F
100
AcDbEntity
  8
0
  6
Continuous
 62
     1
370
    25
100
AcDbSpline
210
0.0
220
0.0
230
1.0
 70
     8
 71
     3
 72
    11
 73
     7
 74
     0
 42
0.000000001
 43
0.00000001
 40
0.0
 40
0.0
 40
0.0
 40
0.0
 40
0.1514371068535933
 40
0.434050276595182
 40
0.7169986061988431
 40
1.0
 40
1.0
 40
1.0
 40
1.0
 10
30.98761601232876
 20
3.370069460090259
 30
0.0
 10
31.17682812129423
 20
3.451756566728097
 30
0.0
 10
31.71914941848475
 20
3.685888821147699
 30
0.0
 10
32.61499623438419
 20
3.904485032813563
 30
0.0
 10
33.67587873861308
 20
4.034886183512388
 30
0.0
 10
34.38339319666221
 20
3.972350413874747
 30
0.0
 10
34.73718359443426
 20
3.941079597337532
 30
0.0
  0
LINE
  5
C6
330
1F
100
AcDbEntity
  8
0
  6
Continuous
 62
     1
370
    25
100
AcDbLine
 10
35.0
 20
3.968626966596892
 30
0.0
 11
35.0
 21
4.000000000000007
 31
0.0
  0
ELLIPSE
  5
C7
330
1F
100
AcDbEntity
  8
0
  6
Continuous
 62
     1
370
    25
100
AcDbEllipse
 10
35.71407400337105
 20
0.0000000000000022
 30
0.0
 11
5.712592026968444
 21
0.0
 31
0.0
210
0.0
220
0.0
230
1.0
 40
0.700207538209712
 41
1.696124157962962
 42
1.74264746024367
  0
SPLINE
  5
C8
330
1F
100
AcDbEntity
  8
0
  6
Continuous
 62
     1
370
    25
100
AcDbSpline
210
0.0
220
0.0
230
1.0
 70
     8
 71
     3
 72
    15
 73
    11
 74
     0
 42
0.000000001
 43
0.00000001
 40
0.0
 40
0.0
 40
0.0
 40
0.0
 40
0.1716917155541095
 40
0.3487217468956089
 40
0.4463288295478429
 40
0.5462813931184637
 40
0.6440415421112027
 40
0.7453660112548265
 40
0.9220294681947843
 40
1.0
 40
1.0
 40
1.0
 40
1.0
 10
34.73718359443427
 20
3.941079597337532
 30
0.0
 10
34.735144390803
 20
3.781753591281389
 30
0.0
 10
34.73100257970701
 20
3.458147743564828
 30
0.0
 10
34.65249336140419
 20
3.051453371581658
 30
0.0
 10
34.53878336444356
 20
2.732334682816747
 30
0.0
 10
34.41729881430151
 20
2.500933556376038
 30
0.0
 10
34.26221517074695
 20
2.295871112256917
 30
0.0
 10
34.03057417199312
 20
2.092427997374751
 30
0.0
 10
33.77339703730338
 20
1.956424861979769
 30
0.0
 10
33.57939865989824
 20
1.953740533592497
 30
0.0
 10
33.51999513435098
 20
1.952918575326333
 30
0.0
  0
LINE
  5
C9
330
1F
100
AcDbEntity
  8
0
  6
Continuous
 62
     1
370
    25
100
AcDbLine
 10
35.0
 20
0.940474845266448
 30
0.0
 11
34.6113891895399
 21
1.17389844732388
 31
0.0
  0
LINE
  5
CA
330
1F
100
AcDbEntity
  8
0
  6
Continuous
 62
     1
370
    25
100
AcDbLine
 10
35.0
 20
0.8893469635438195
 30
0.0
 11
35.0
 21
0.940474845266448
 31
0.0
  0
LINE
  5
CB
330
1F
100
AcDbEntity
  8
0
  6
Continuous
 62
     1
370
    25
100
AcDbLine
 10
35.0
 20
-0.4999999999999962
 30
0.0
 11
35.0
 21
-3.083933400934669
 31
0.0
  0
LINE
  5
CC
330
1F
100
AcDbEntity
  8
0
  6
Continuous
 62
     1
370
    25
100
AcDbLine
 10
35.0
 20
0.940474845266448
 30
0.0
 11
35.0
 21
3.968626966596892
 31
0.0
  0
LINE
  5
CD
330
1F
100
AcDbEntity
  8
중심선
100
AcDbLine
 10
-38.00000000000001
 20
-0.0000000000000021
 30
0.0
 11
38.0
 21
0.0000000000000072
 31
0.0
  0
CIRCLE
  5
CE
330
1F
100
AcDbEntity
  8
해칭선
100
AcDbCircle
 10
-0.0081336787365587
 20
-0.0000000000000042
 30
0.0
 40
3.000000000000001
  0
INSERT
  5
CF
330
1F
100
AcDbEntity
  8
0
  6
Continuous
 62
     7
100
AcDbBlockReference
 66
     1
  2
블럭10
 10
-12.44814782084246
 20
-52.04717430164393
 30
0.0
  0
ATTRIB
  5
D0
330
CF
100
AcDbEntity
  8
FORMAT
 62
     2
100
AcDbText
 10
-28.56740886027801
 20
-49.97180738881174
 30
0.0
 40
4.233333333333333
  1
SEME7108025E [ 4 FLUTE ]
 41
0.75
  7
SLDTEXTSTYLE0
 11
-28.56740886027801
 21
-52.08847405547841
 31
0.0
100
AcDbAttribute
  2
AUTOATTR0
 70
     0
 74
     1
  0
SEQEND
  5
D1
330
CF
100
AcDbEntity
  8
0
  6
Continuous
 62
     7
  0
HATCH
  5
D2
330
1F
100
AcDbEntity
  8
중심선
100
AcDbHatch
 10
0.0
 20
0.0
 30
0.0
210
0.0
220
0.0
230
1.0
  2
SOLID
 70
     1
 71
     0
 91
        1
 92
        0
 93
        4
 72
     1
 10
-6.733238516461626
 20
-35.8
 11
-10.17951376029891
 21
-35.8
 72
     1
 10
-10.17951376029891
 20
-35.8
 11
-12.30774361950293
 21
-38.33632558057259
 72
     1
 10
-12.30774361950293
 20
-38.33632558057259
 11
-8.8614352905525
 21
-38.3362861512701
 72
     1
 10
-8.8614352905525
 20
-38.3362861512701
 11
-6.733238516461626
 21
-35.8
 97
        0
 75
     0
 76
     1
 98
        1
 10
0.0
 20
0.0
  0
HATCH
  5
D3
330
1F
100
AcDbEntity
  8
중심선
100
AcDbHatch
 10
0.0
 20
0.0
 30
0.0
210
0.0
220
0.0
230
1.0
  2
SOLID
 70
     1
 71
     0
 91
        1
 92
        0
 93
        4
 72
     1
 10
-1.720474525425647
 20
-35.8
 11
-5.166749769262929
 21
-35.8
 72
     1
 10
-5.166749769262929
 20
-35.8
 11
-9.697887777620345
 21
-41.20000000000002
 72
     1
 10
-9.697887777620345
 20
-41.20000000000002
 11
-6.251612533783063
 21
-41.20000000000002
 72
     1
 10
-6.251612533783063
 20
-41.20000000000002
 11
-1.720474525425647
 21
-35.8
 97
        0
 75
     0
 76
     1
 98
        1
 10
0.0
 20
0.0
  0
HATCH
  5
D4
330
1F
100
AcDbEntity
  8
중심선
100
AcDbHatch
 10
0.0
 20
0.0
 30
0.0
210
0.0
220
0.0
230
1.0
  2
SOLID
 70
     1
 71
     0
 91
        1
 92
        0
 93
        4
 72
     1
 10
3.292289465610248
 20
-35.79999999999997
 11
-0.1539857782268674
 21
-35.8
 72
     1
 10
-0.1539857782268672
 20
-35.8
 11
-7.202422680116144
 21
-44.20000000000002
 72
     1
 10
-7.202422680116144
 20
-44.20000000000002
 11
-3.756147436278861
 21
-44.20000000000002
 72
     1
 10
-3.756147436278861
 20
-44.20000000000002
 11
3.292289465610248
 21
-35.79999999999997
 97
        0
 75
     0
 76
     1
 98
        1
 10
0.0
 20
0.0
  0
HATCH
  5
D5
330
1F
100
AcDbEntity
  8
중심선
100
AcDbHatch
 10
0.0
 20
0.0
 30
0.0
210
0.0
220
0.0
230
1.0
  2
SOLID
 70
     1
 71
     0
 91
        1
 92
        0
 93
        6
 72
     3
 10
8.09217989662242
 20
-40.00000000005127
 11
3.960054785062284
 21
1.540850780301639E-10
 40
0.3939339440162633
 50
17.09539180608434
 51
320.0019657685079
 73
     0
 72
     1
 10
9.775179552323015
 20
-38.5878940046383
 11
12.08048142602408
 21
-36.65356729459035
 72
     3
 10
8.092179896569574
 20
-40.00000000000015
 11
6.600054785286829
 21
-1.249000902703301E-13
 40
0.6363583540795982
 50
39.99873849337413
 51
368.4976242363725
 73
     1
 72
     1
 10
14.51751238847018
 20
-39.03999999993002
 11
6.772247203405496
 21
-39.03999999993002
 72
     1
 10
6.772247203405496
 20
-39.03999999993002
 11
6.772222158959562
 21
-40.95999999992991
 72
     1
 10
6.772222158959562
 20
-40.95999999992991
 11
11.2136019284316
 21
-40.95999999992988
 97
        0
 75
     0
 76
     1
 98
        1
 10
0.0
 20
0.0
  0
DIMENSION
  5
D6
330
1F
100
AcDbEntity
  8
치수문자_일반주서
100
AcDbDimension
  2
_D
 10
47.14026081272251
 20
4.000000000000053
 30
0.0
 11
47.14026081272247
 21
13.66650000000005
 31
0.0
 70
   160
  1
%%c<>
 71
     2
 42
8.000000000000012
 52
-270.0
  3
SLDDIMSTYLE0
100
AcDbAlignedDimension
 13
35.00000000000003
 23
-4.000000000000004
 33
0.0
 14
35.00000000000003
 24
4.000000000000008
 34
0.0
 50
90.0000000000002
100
AcDbRotatedDimension
  0
DIMENSION
  5
E4
330
1F
100
AcDbEntity
  8
치수문자_일반주서
100
AcDbDimension
  2
_D_1
 10
35.00000000000001
 20
21.38913260158165
 30
0.0
 11
-0.0000000000000042
 21
21.38913260158165
 31
0.0
 70
   160
  1
<>
 71
     2
 42
70.0
  3
SLDDIMSTYLE1
100
AcDbAlignedDimension
 13
-35.00000000000001
 23
3.499999999999997
 33
0.0
 14
35.0
 24
4.000000000000004
 34
0.0
 50
-0.0000000000000058
100
AcDbRotatedDimension
  0
DIMENSION
  5
EF
330
1F
100
AcDbEntity
  8
치수문자_일반주서
100
AcDbDimension
  2
_D_2
 10
-43.61046578345689
 20
-4.000000000000036
 30
0.0
 11
-43.61046578345695
 21
13.66649999999997
 31
0.0
 70
   160
  1
%%c<>
 71
     2
 42
8.000000000000007
 52
-270.0
  3
SLDDIMSTYLE2
100
AcDbAlignedDimension
 13
-34.50000000000001
 23
4.000000000000005
 33
0.0
 14
-34.50000000000001
 24
-4.000000000000002
 34
0.0
 50
90.0000000000002
100
AcDbRotatedDimension
  0
DIMENSION
  5
FD
330
1F
100
AcDbEntity
  8
치수문자_일반주서
100
AcDbDimension
  2
_D_3
 10
35.0
 20
14.84034704120503
 30
0.0
 11
22.5
 21
14.84034704120503
 31
0.0
 70
   160
  1
<>
 71
     2
 42
25.0
  3
SLDDIMSTYLE1
100
AcDbAlignedDimension
 13
10.0
 23
3.994428738617377
 33
0.0
 14
35.0
 24
4.000000000000004
 34
0.0
100
AcDbRotatedDimension
  0
INSERT
  5
10D
330
1F
100
AcDbEntity
  8
해칭선
100
AcDbBlockReference
  2
SW_DOWELSYMBOL_0
 10
-0.0081336787365587
 20
-0.0000000000000042
 30
0.0
  0
LINE
  5
132
330
1F
100
AcDbEntity
  8
0
  6
Continuous
 62
     4
370
    25
100
AcDbLine
 10
10.0
 20
4.000000000000002
 30
0.0
 11
10.0
 21
-4.000000000000001
 31
0.0
  0
ENDSEC
  0
SECTION
  2
OBJECTS
  0
DICTIONARY
  5
C
330
0
100
AcDbDictionary
281
     1
  3
ACAD_GROUP
350
D
  3
ACAD_IMAGE_VARS
350
131
  3
ACAD_LAYOUT
350
1A
  3
ACAD_MLINESTYLE
350
17
  3
ACAD_PLOTSETTINGS
350
19
  3
ACAD_PLOTSTYLENAME
350
E
  3
ACAD_SCALELIST
350
47
  3
APPDATA
350
12F
  3
DWGPROPS
350
141
  0
DICTIONARY
  5
D
102
{ACAD_REACTORS
330
C
102
}
330
C
100
AcDbDictionary
281
     1
  0
RASTERVARIABLES
  5
131
102
{ACAD_REACTORS
330
C
102
}
330
C
100
AcDbRasterVariables
 90
        0
 70
     1
 71
     1
 72
     1
  0
DICTIONARY
  5
1A
102
{ACAD_REACTORS
330
C
102
}
330
C
100
AcDbDictionary
281
     1
  3
Layout1
350
1E
  3
Layout2
350
26
  3
Model
350
22
  0
DICTIONARY
  5
17
102
{ACAD_REACTORS
330
C
102
}
330
C
100
AcDbDictionary
281
     1
  3
Standard
350
18
  0
DICTIONARY
  5
19
102
{ACAD_REACTORS
330
C
102
}
330
C
100
AcDbDictionary
281
     1
  0
ACDBDICTIONARYWDFLT
  5
E
102
{ACAD_REACTORS
330
C
102
}
330
C
100
AcDbDictionary
281
     1
  3
Normal
350
F
100
AcDbDictionaryWithDefault
340
F
  0
DICTIONARY
  5
47
102
{ACAD_REACTORS
330
C
102
}
330
C
100
AcDbDictionary
281
     1
  3
A0
350
48
  3
A1
350
49
  3
A2
350
4A
  3
A3
350
4B
  3
A4
350
4C
  3
A5
350
4D
  3
A6
350
4E
  3
A7
350
4F
  3
A8
350
50
  3
A9
350
51
  3
B0
350
52
  3
B1
350
53
  3
B2
350
54
  3
B3
350
55
  3
B4
350
56
  3
B5
350
57
  3
B6
350
58
  3
B7
350
59
  3
B8
350
5A
  3
B9
350
5B
  3
C0
350
5C
  3
C1
350
5D
  3
C2
350
5E
  3
C3
350
5F
  3
C4
350
60
  3
C5
350
61
  3
C6
350
62
  3
C7
350
63
  3
C8
350
64
  3
C9
350
65
  3
D0
350
66
  3
D1
350
67
  3
D2
350
68
  0
DICTIONARY
  5
12F
102
{ACAD_REACTORS
330
C
102
}
330
C
100
AcDbDictionary
281
     1
  0
XRECORD
  5
141
102
{ACAD_REACTORS
330
C
102
}
330
C
100
AcDbXrecord
280
     1
  1
DWGPROPS COOKIE
  2

  3

  4

  6

  7

  8
12014102
  9

300
=
301
=
302
=
303
=
304
=
305
=
306
=
307
=
308
=
309
=
 40
0.0
 41
2458260.118545567
 42
2458267.319742396
  1

 90
        0
  0
LAYOUT
  5
1E
102
{ACAD_REACTORS
330
1A
102
}
330
1A
100
AcDbPlotSettings
  1

  2
none_device
  4

  6

 40
0.0
 41
0.0
 42
0.0
 43
0.0
 44
0.0
 45
0.0
 46
0.0
 47
0.0
 48
0.0
 49
0.0
140
0.0
141
0.0
142
1.0
143
1.0
 70
   688
 72
     1
 73
     0
 74
     5
  7

 75
    16
147
1.0
148
0.0
149
0.0
100
AcDbLayout
  1
Layout1
 70
     1
 71
     1
 10
0.0
 20
0.0
 11
420.0
 21
297.0
 12
0.0
 22
0.0
 32
0.0
 14
1.000000000000000E+20
 24
1.000000000000000E+20
 34
1.000000000000000E+20
 15
-1.000000000000000E+20
 25
-1.000000000000000E+20
 35
-1.000000000000000E+20
146
0.0
 13
0.0
 23
0.0
 33
0.0
 16
1.0
 26
0.0
 36
0.0
 17
0.0
 27
1.0
 37
0.0
 76
     0
330
1B
  0
LAYOUT
  5
26
102
{ACAD_REACTORS
330
1A
102
}
330
1A
100
AcDbPlotSettings
  1

  2
none_device
  4

  6

 40
0.0
 41
0.0
 42
0.0
 43
0.0
 44
0.0
 45
0.0
 46
0.0
 47
0.0
 48
0.0
 49
0.0
140
0.0
141
0.0
142
1.0
143
1.0
 70
   688
 72
     1
 73
     0
 74
     5
  7

 75
    16
147
1.0
148
0.0
149
0.0
100
AcDbLayout
  1
Layout2
 70
     1
 71
     2
 10
0.0
 20
0.0
 11
0.0
 21
0.0
 12
0.0
 22
0.0
 32
0.0
 14
0.0
 24
0.0
 34
0.0
 15
0.0
 25
0.0
 35
0.0
146
0.0
 13
0.0
 23
0.0
 33
0.0
 16
1.0
 26
0.0
 36
0.0
 17
0.0
 27
1.0
 37
0.0
 76
     0
330
23
  0
LAYOUT
  5
22
102
{ACAD_REACTORS
330
1A
102
}
330
1A
100
AcDbPlotSettings
  1

  2
none_device
  4
ANSI_A_(11.00_x_8.50_Inches)
  6

 40
6.35
 41
19.05
 42
6.35000508
 43
19.05000254
 44
279.4
 45
215.9
 46
131.0666423311478
 47
121.6282737678144
 48
0.0
 49
0.0
140
0.0
141
0.0
142
0.103850072157585
143
1.0
 70
  1696
 72
     0
 73
     0
 74
     0
  7

 75
     0
147
0.0235690232323232
148
0.0
149
0.0
100
AcDbLayout
  1
Model
 70
     1
 71
     0
 10
0.0
 20
0.0
 11
420.0
 21
297.0
 12
0.0
 22
0.0
 32
0.0
 14
-47.98546578345696
 24
-49.97180738881174
 34
0.0
 15
47.69059414605589
 25
25.76413260158165
 35
0.0
146
0.0
 13
0.0
 23
0.0
 33
0.0
 16
1.0
 26
0.0
 36
0.0
 17
0.0
 27
1.0
 37
0.0
 76
     0
330
1F
331
29
  0
MLINESTYLE
  5
18
102
{ACAD_REACTORS
330
17
102
}
330
17
100
AcDbMlineStyle
  2
Standard
 70
     0
  3

 62
   256
 51
90.0
 52
90.0
 71
     2
 49
0.5
 62
   256
  6
BYLAYER
 49
-0.5
 62
   256
  6
BYLAYER
  0
ACDBPLACEHOLDER
  5
F
102
{ACAD_REACTORS
330
E
102
}
330
E
  0
SCALE
  5
48
102
{ACAD_REACTORS
330
47
102
}
330
47
100
AcDbScale
 70
     0
300
1:1
140
1.0
141
1.0
290
     1
  0
SCALE
  5
49
102
{ACAD_REACTORS
330
47
102
}
330
47
100
AcDbScale
 70
     0
300
1:2
140
1.0
141
2.0
290
     0
  0
SCALE
  5
4A
102
{ACAD_REACTORS
330
47
102
}
330
47
100
AcDbScale
 70
     0
300
1:4
140
1.0
141
4.0
290
     0
  0
SCALE
  5
4B
102
{ACAD_REACTORS
330
47
102
}
330
47
100
AcDbScale
 70
     0
300
1:5
140
1.0
141
5.0
290
     0
  0
SCALE
  5
4C
102
{ACAD_REACTORS
330
47
102
}
330
47
100
AcDbScale
 70
     0
300
1:8
140
1.0
141
8.0
290
     0
  0
SCALE
  5
4D
102
{ACAD_REACTORS
330
47
102
}
330
47
100
AcDbScale
 70
     0
300
1:10
140
1.0
141
10.0
290
     0
  0
SCALE
  5
4E
102
{ACAD_REACTORS
330
47
102
}
330
47
100
AcDbScale
 70
     0
300
1:16
140
1.0
141
16.0
290
     0
  0
SCALE
  5
4F
102
{ACAD_REACTORS
330
47
102
}
330
47
100
AcDbScale
 70
     0
300
1:20
140
1.0
141
20.0
290
     0
  0
SCALE
  5
50
102
{ACAD_REACTORS
330
47
102
}
330
47
100
AcDbScale
 70
     0
300
1:30
140
1.0
141
30.0
290
     0
  0
SCALE
  5
51
102
{ACAD_REACTORS
330
47
102
}
330
47
100
AcDbScale
 70
     0
300
1:40
140
1.0
141
40.0
290
     0
  0
SCALE
  5
52
102
{ACAD_REACTORS
330
47
102
}
330
47
100
AcDbScale
 70
     0
300
1:50
140
1.0
141
50.0
290
     0
  0
SCALE
  5
53
102
{ACAD_REACTORS
330
47
102
}
330
47
100
AcDbScale
 70
     0
300
1:100
140
1.0
141
100.0
290
     0
  0
SCALE
  5
54
102
{ACAD_REACTORS
330
47
102
}
330
47
100
AcDbScale
 70
     0
300
2:1
140
2.0
141
1.0
290
     0
  0
SCALE
  5
55
102
{ACAD_REACTORS
330
47
102
}
330
47
100
AcDbScale
 70
     0
300
4:1
140
4.0
141
1.0
290
     0
  0
SCALE
  5
56
102
{ACAD_REACTORS
330
47
102
}
330
47
100
AcDbScale
 70
     0
300
8:1
140
8.0
141
1.0
290
     0
  0
SCALE
  5
57
102
{ACAD_REACTORS
330
47
102
}
330
47
100
AcDbScale
 70
     0
300
10:1
140
10.0
141
1.0
290
     0
  0
SCALE
  5
58
102
{ACAD_REACTORS
330
47
102
}
330
47
100
AcDbScale
 70
     0
300
100:1
140
100.0
141
1.0
290
     0
  0
SCALE
  5
59
102
{ACAD_REACTORS
330
47
102
}
330
47
100
AcDbScale
 70
     0
300
1/128" = 1'-0"
140
0.0078125
141
12.0
290
     0
  0
SCALE
  5
5A
102
{ACAD_REACTORS
330
47
102
}
330
47
100
AcDbScale
 70
     0
300
1/64" = 1'-0"
140
0.015625
141
12.0
290
     0
  0
SCALE
  5
5B
102
{ACAD_REACTORS
330
47
102
}
330
47
100
AcDbScale
 70
     0
300
1/32" = 1'-0"
140
0.03125
141
12.0
290
     0
  0
SCALE
  5
5C
102
{ACAD_REACTORS
330
47
102
}
330
47
100
AcDbScale
 70
     0
300
1/16" = 1'-0"
140
0.0625
141
12.0
290
     0
  0
SCALE
  5
5D
102
{ACAD_REACTORS
330
47
102
}
330
47
100
AcDbScale
 70
     0
300
3/32" = 1'-0"
140
0.09375
141
12.0
290
     0
  0
SCALE
  5
5E
102
{ACAD_REACTORS
330
47
102
}
330
47
100
AcDbScale
 70
     0
300
1/8" = 1'-0"
140
0.125
141
12.0
290
     0
  0
SCALE
  5
5F
102
{ACAD_REACTORS
330
47
102
}
330
47
100
AcDbScale
 70
     0
300
3/16" = 1'-0"
140
0.1875
141
12.0
290
     0
  0
SCALE
  5
60
102
{ACAD_REACTORS
330
47
102
}
330
47
100
AcDbScale
 70
     0
300
1/4" = 1'-0"
140
0.25
141
12.0
290
     0
  0
SCALE
  5
61
102
{ACAD_REACTORS
330
47
102
}
330
47
100
AcDbScale
 70
     0
300
3/8" = 1'-0"
140
0.375
141
12.0
290
     0
  0
SCALE
  5
62
102
{ACAD_REACTORS
330
47
102
}
330
47
100
AcDbScale
 70
     0
300
1/2" = 1'-0"
140
0.5
141
12.0
290
     0
  0
SCALE
  5
63
102
{ACAD_REACTORS
330
47
102
}
330
47
100
AcDbScale
 70
     0
300
3/4" = 1'-0"
140
0.75
141
12.0
290
     0
  0
SCALE
  5
64
102
{ACAD_REACTORS
330
47
102
}
330
47
100
AcDbScale
 70
     0
300
1" = 1'-0"
140
1.0
141
12.0
290
     0
  0
SCALE
  5
65
102
{ACAD_REACTORS
330
47
102
}
330
47
100
AcDbScale
 70
     0
300
1-1/2" = 1'-0"
140
1.5
141
12.0
290
     0
  0
SCALE
  5
66
102
{ACAD_REACTORS
330
47
102
}
330
47
100
AcDbScale
 70
     0
300
3" = 1'-0"
140
3.0
141
12.0
290
     0
  0
SCALE
  5
67
102
{ACAD_REACTORS
330
47
102
}
330
47
100
AcDbScale
 70
     0
300
6" = 1'-0"
140
6.0
141
12.0
290
     0
  0
SCALE
  5
68
102
{ACAD_REACTORS
330
47
102
}
330
47
100
AcDbScale
 70
     0
300
1'-0" = 1'-0"
140
12.0
141
12.0
290
     0
  0
ENDSEC
  0
EOF
