  0
SECTION
  2
HEADER
  9
$ACADVER
  1
AC1015
  9
$ACADMAINTVER
 70
     6
  9
$DWGCODEPAGE
  3
ANSI_949
  9
$INSBASE
 10
0.0
 20
0.0
 30
0.0
  9
$EXTMIN
 10
-37.8954811324054
 20
-49.97180738881174
 30
0.0
  9
$EXTMAX
 10
47.3409244730553
 20
24.76414467903359
 30
0.0
  9
$LIMMIN
 10
0.0
 20
0.0
  9
$LIMMAX
 10
420.0
 20
297.0
  9
$ORTHOMODE
 70
     0
  9
$REGENMODE
 70
     1
  9
$FILLMODE
 70
     1
  9
$QTEXTMODE
 70
     0
  9
$MIRRTEXT
 70
     1
  9
$LTSCALE
 40
1.0
  9
$ATTMODE
 70
     1
  9
$TEXTSIZE
 40
3.5
  9
$TRACEWID
 40
1.0
  9
$TEXTSTYLE
  7
Standard
  9
$CLAYER
  8
0
  9
$CELTYPE
  6
ByLayer
  9
$CECOLOR
 62
   256
  9
$CELTSCALE
 40
1.0
  9
$DISPSILH
 70
     0
  9
$DIMSCALE
 40
1.0
  9
$DIMASZ
 40
3.302
  9
$DIMEXO
 40
1.0
  9
$DIMDLI
 40
3.75
  9
$DIMRND
 40
0.0
  9
$DIMDLE
 40
0.0
  9
$DIMEXE
 40
1.0
  9
$DIMTP
 40
0.0
  9
$DIMTM
 40
0.0
  9
$DIMTXT
 40
3.5
  9
$DIMCEN
 40
2.5
  9
$DIMTSZ
 40
0.0
  9
$DIMTOL
 70
     0
  9
$DIMLIM
 70
     0
  9
$DIMTIH
 70
     1
  9
$DIMTOH
 70
     1
  9
$DIMSE1
 70
     0
  9
$DIMSE2
 70
     0
  9
$DIMTAD
 70
     1
  9
$DIMZIN
 70
     0
  9
$DIMBLK
  1

  9
$DIMASO
 70
     1
  9
$DIMSHO
 70
     1
  9
$DIMPOST
  1

  9
$DIMAPOST
  1

  9
$DIMALT
 70
     0
  9
$DIMALTD
 70
     3
  9
$DIMALTF
 40
0.0393700787401575
  9
$DIMLFAC
 40
1.0
  9
$DIMTOFL
 70
     1
  9
$DIMTVP
 40
0.0
  9
$DIMTIX
 70
     0
  9
$DIMSOXD
 70
     0
  9
$DIMSAH
 70
     0
  9
$DIMBLK1
  1

  9
$DIMBLK2
  1

  9
$DIMSTYLE
  2
ISO-25
  9
$DIMCLRD
 70
     0
  9
$DIMCLRE
 70
     0
  9
$DIMCLRT
 70
     0
  9
$DIMTFAC
 40
1.0
  9
$DIMGAP
 40
1.524
  9
$DIMJUST
 70
     0
  9
$DIMSD1
 70
     0
  9
$DIMSD2
 70
     0
  9
$DIMTOLJ
 70
     0
  9
$DIMTZIN
 70
     0
  9
$DIMALTZ
 70
     0
  9
$DIMALTTZ
 70
     0
  9
$DIMUPT
 70
     0
  9
$DIMDEC
 70
     2
  9
$DIMTDEC
 70
     2
  9
$DIMALTU
 70
     2
  9
$DIMALTTD
 70
     3
  9
$DIMTXSTY
  7
Standard
  9
$DIMAUNIT
 70
     0
  9
$DIMADEC
 70
     2
  9
$DIMALTRND
 40
0.0
  9
$DIMAZIN
 70
     0
  9
$DIMDSEP
 70
    44
  9
$DIMATFIT
 70
     3
  9
$DIMFRAC
 70
     0
  9
$DIMLDRBLK
  1

  9
$DIMLUNIT
 70
     2
  9
$DIMLWD
 70
    -2
  9
$DIMLWE
 70
    -2
  9
$DIMTMOVE
 70
     0
  9
$LUNITS
 70
     2
  9
$LUPREC
 70
     2
  9
$SKETCHINC
 40
1.0
  9
$FILLETRAD
 40
10.0
  9
$AUNITS
 70
     0
  9
$AUPREC
 70
     2
  9
$MENU
  1
.
  9
$ELEVATION
 40
0.0
  9
$PELEVATION
 40
0.0
  9
$THICKNESS
 40
0.0
  9
$LIMCHECK
 70
     0
  9
$CHAMFERA
 40
0.0
  9
$CHAMFERB
 40
0.0
  9
$CHAMFERC
 40
0.0
  9
$CHAMFERD
 40
0.0
  9
$SKPOLY
 70
     0
  9
$TDCREATE
 40
2458260.492978264
  9
$TDUCREATE
 40
2458260.117978264
  9
$TDUPDATE
 40
2458267.691704954
  9
$TDUUPDATE
 40
2458267.316704954
  9
$TDINDWG
 40
0.0014379514
  9
$TDUSRTIMER
 40
2458267.315267037
  9
$USRTIMER
 70
     1
  9
$ANGBASE
 50
0.0
  9
$ANGDIR
 70
     0
  9
$PDMODE
 70
     0
  9
$PDSIZE
 40
-1.0
  9
$PLINEWID
 40
0.0
  9
$SPLFRAME
 70
     0
  9
$SPLINETYPE
 70
     6
  9
$SPLINESEGS
 70
     8
  9
$HANDSEED
  5
144
  9
$SURFTAB1
 70
     6
  9
$SURFTAB2
 70
     6
  9
$SURFTYPE
 70
     6
  9
$SURFU
 70
     6
  9
$SURFV
 70
     6
  9
$UCSBASE
  2

  9
$UCSNAME
  2

  9
$UCSORG
 10
0.0
 20
0.0
 30
0.0
  9
$UCSXDIR
 10
1.0
 20
0.0
 30
0.0
  9
$UCSYDIR
 10
0.0
 20
1.0
 30
0.0
  9
$UCSORTHOREF
  2

  9
$UCSORTHOVIEW
 70
     0
  9
$UCSORGTOP
 10
0.0
 20
0.0
 30
0.0
  9
$UCSORGBOTTOM
 10
0.0
 20
0.0
 30
0.0
  9
$UCSORGLEFT
 10
0.0
 20
0.0
 30
0.0
  9
$UCSORGRIGHT
 10
0.0
 20
0.0
 30
0.0
  9
$UCSORGFRONT
 10
0.0
 20
0.0
 30
0.0
  9
$UCSORGBACK
 10
0.0
 20
0.0
 30
0.0
  9
$PUCSBASE
  2

  9
$PUCSNAME
  2

  9
$PUCSORG
 10
0.0
 20
0.0
 30
0.0
  9
$PUCSXDIR
 10
1.0
 20
0.0
 30
0.0
  9
$PUCSYDIR
 10
0.0
 20
1.0
 30
0.0
  9
$PUCSORTHOREF
  2

  9
$PUCSORTHOVIEW
 70
     0
  9
$PUCSORGTOP
 10
0.0
 20
0.0
 30
0.0
  9
$PUCSORGBOTTOM
 10
0.0
 20
0.0
 30
0.0
  9
$PUCSORGLEFT
 10
0.0
 20
0.0
 30
0.0
  9
$PUCSORGRIGHT
 10
0.0
 20
0.0
 30
0.0
  9
$PUCSORGFRONT
 10
0.0
 20
0.0
 30
0.0
  9
$PUCSORGBACK
 10
0.0
 20
0.0
 30
0.0
  9
$USERI1
 70
     0
  9
$USERI2
 70
     0
  9
$USERI3
 70
     0
  9
$USERI4
 70
     0
  9
$USERI5
 70
     0
  9
$USERR1
 40
0.0
  9
$USERR2
 40
0.0
  9
$USERR3
 40
0.0
  9
$USERR4
 40
0.0
  9
$USERR5
 40
0.0
  9
$WORLDVIEW
 70
     1
  9
$SHADEDGE
 70
     3
  9
$SHADEDIF
 70
    70
  9
$TILEMODE
 70
     1
  9
$MAXACTVP
 70
    64
  9
$PINSBASE
 10
0.0
 20
0.0
 30
0.0
  9
$PLIMCHECK
 70
     0
  9
$PEXTMIN
 10
1.000000000000000E+20
 20
1.000000000000000E+20
 30
1.000000000000000E+20
  9
$PEXTMAX
 10
-1.000000000000000E+20
 20
-1.000000000000000E+20
 30
-1.000000000000000E+20
  9
$PLIMMIN
 10
0.0
 20
0.0
  9
$PLIMMAX
 10
0.0
 20
0.0
  9
$UNITMODE
 70
     0
  9
$VISRETAIN
 70
     1
  9
$PLINEGEN
 70
     0
  9
$PSLTSCALE
 70
     1
  9
$TREEDEPTH
 70
  3020
  9
$CMLSTYLE
  2
Standard
  9
$CMLJUST
 70
     0
  9
$CMLSCALE
 40
20.0
  9
$PROXYGRAPHICS
 70
     1
  9
$MEASUREMENT
 70
     1
  9
$CELWEIGHT
370
    -1
  9
$ENDCAPS
280
     0
  9
$JOINSTYLE
280
     0
  9
$LWDISPLAY
290
     1
  9
$INSUNITS
 70
     4
  9
$HYPERLINKBASE
  1

  9
$STYLESHEET
  1

  9
$XEDIT
290
     1
  9
$CEPSNTYPE
380
     0
  9
$PSTYLEMODE
290
     1
  9
$FINGERPRINTGUID
  2
{64B753A4-45F0-4496-AC93-69AC615CAF53}
  9
$VERSIONGUID
  2
{FAEB1C32-E019-11D5-929B-00C0DF256EC4}
  9
$EXTNAMES
290
     1
  9
$PSVPSCALE
 40
0.0
  9
$OLESTARTUP
290
     0
  0
ENDSEC
  0
SECTION
  2
CLASSES
  0
CLASS
  1
ACDBDICTIONARYWDFLT
  2
AcDbDictionaryWithDefault
  3
ObjectDBX Classes
 90
        0
280
     0
281
     0
  0
CLASS
  1
VISUALSTYLE
  2
AcDbVisualStyle
  3
ObjectDBX Classes
 90
     4095
280
     0
281
     0
  0
CLASS
  1
MATERIAL
  2
AcDbMaterial
  3
ObjectDBX Classes
 90
     1153
280
     0
281
     0
  0
CLASS
  1
SCALE
  2
AcDbScale
  3
ObjectDBX Classes
 90
     1153
280
     0
281
     0
  0
CLASS
  1
TABLESTYLE
  2
AcDbTableStyle
  3
ObjectDBX Classes
 90
     4095
280
     0
281
     0
  0
CLASS
  1
MLEADERSTYLE
  2
AcDbMLeaderStyle
  3
ACDB_MLEADERSTYLE_CLASS
 90
     4095
280
     0
281
     0
  0
CLASS
  1
SUN
  2
AcDbSun
  3
SCENEOE
 90
     1153
280
     0
281
     0
  0
CLASS
  1
ACDBPLACEHOLDER
  2
AcDbPlaceHolder
  3
ObjectDBX Classes
 90
        0
280
     0
281
     0
  0
CLASS
  1
LAYOUT
  2
AcDbLayout
  3
ObjectDBX Classes
 90
        0
280
     0
281
     0
  0
CLASS
  1
RASTERVARIABLES
  2
AcDbRasterVariables
  3
ISM
 90
        0
280
     0
281
     0
  0
ENDSEC
  0
SECTION
  2
TABLES
  0
TABLE
  2
VPORT
  5
8
330
0
100
AcDbSymbolTable
 70
     1
  0
VPORT
  5
29
330
8
100
AcDbSymbolTableRecord
100
AcDbViewportTableRecord
  2
*Active
 70
     0
 10
0.0
 20
0.0
 11
1.0
 21
1.0
 12
4.722721670324951
 22
-12.60383135488907
 13
0.0
 23
0.0
 14
10.0
 24
10.0
 15
10.0
 25
10.0
 16
0.0
 26
0.0
 36
1.0
 17
0.0
 27
0.0
 37
0.0
 40
76.23067110920223
 41
1.739018087855297
 42
50.0
 43
0.0
 44
0.0
 50
0.0
 51
0.0
 71
    16
 72
  2000
 73
     1
 74
     3
 75
     0
 76
     0
 77
     0
 78
     0
281
     0
 65
     1
110
0.0
120
0.0
130
0.0
111
1.0
121
0.0
131
0.0
112
0.0
122
1.0
132
0.0
 79
     0
146
0.0
  0
ENDTAB
  0
TABLE
  2
LTYPE
  5
5
330
0
100
AcDbSymbolTable
 70
     6
  0
LTYPE
  5
14
330
5
100
AcDbSymbolTableRecord
100
AcDbLinetypeTableRecord
  2
ByBlock
 70
     0
  3

 72
    65
 73
     0
 40
0.0
  0
LTYPE
  5
15
330
5
100
AcDbSymbolTableRecord
100
AcDbLinetypeTableRecord
  2
ByLayer
 70
     0
  3

 72
    65
 73
     0
 40
0.0
  0
LTYPE
  5
16
330
5
100
AcDbSymbolTableRecord
100
AcDbLinetypeTableRecord
  2
Continuous
 70
     0
  3
Solid line
 72
    65
 73
     0
 40
0.0
  0
LTYPE
  5
6E
330
5
100
AcDbSymbolTableRecord
100
AcDbLinetypeTableRecord
  2
HIDDEN
 70
     0
  3
Hidden __ __ __ __ __ __ __ __ __ __ __ __ __ __
 72
    65
 73
     2
 40
1.905
 49
1.27
 74
     0
 49
-0.635
 74
     0
  0
LTYPE
  5
6F
330
5
100
AcDbSymbolTableRecord
100
AcDbLinetypeTableRecord
  2
PHANTOM
 70
     0
  3
Phantom ______  __  __  ______  __  __  ______
 72
    65
 73
     6
 40
12.7
 49
6.35
 74
     0
 49
-1.27
 74
     0
 49
1.27
 74
     0
 49
-1.27
 74
     0
 49
1.27
 74
     0
 49
-1.27
 74
     0
  0
LTYPE
  5
70
330
5
100
AcDbSymbolTableRecord
100
AcDbLinetypeTableRecord
  2
CENTER
 70
     0
  3
Center ____ _ ____ _ ____ _ ____ _ ____ _ ____
 72
    65
 73
     4
 40
10.16
 49
6.35
 74
     0
 49
-1.27
 74
     0
 49
1.27
 74
     0
 49
-1.27
 74
     0
  0
LTYPE
  5
71
330
5
100
AcDbSymbolTableRecord
100
AcDbLinetypeTableRecord
  2
CENTERX2
 70
     0
  3
Center (2x) ________  __  ________  __  _____
 72
    65
 73
     4
 40
20.32
 49
12.7
 74
     0
 49
-2.54
 74
     0
 49
2.54
 74
     0
 49
-2.54
 74
     0
  0
LTYPE
  5
72
330
5
100
AcDbSymbolTableRecord
100
AcDbLinetypeTableRecord
  2
DOT2
 70
     0
  3
Dot (.5x) ........................................
 72
    65
 73
     2
 40
0.635
 49
0.0
 74
     0
 49
-0.635
 74
     0
  0
ENDTAB
  0
TABLE
  2
LAYER
  5
2
330
0
100
AcDbSymbolTable
 70
    17
  0
LAYER
  5
10
330
2
100
AcDbSymbolTableRecord
100
AcDbLayerTableRecord
  2
0
 70
     0
 62
     7
  6
Continuous
370
    -3
390
F
  0
LAYER
  5
73
330
2
100
AcDbSymbolTableRecord
100
AcDbLayerTableRecord
  2
FORMAT
 70
     0
 62
     2
  6
Continuous
370
    -3
390
F
  0
LAYER
  5
74
330
2
100
AcDbSymbolTableRecord
100
AcDbLayerTableRecord
  2
외형선
 70
     0
 62
   100
  6
Continuous
370
    35
390
F
  0
LAYER
  5
75
330
2
100
AcDbSymbolTableRecord
100
AcDbLayerTableRecord
  2
숨은선
 70
     0
 62
     2
  6
HIDDEN
370
    25
390
F
  0
LAYER
  5
76
330
2
100
AcDbSymbolTableRecord
100
AcDbLayerTableRecord
  2
중심선
 70
     0
 62
     1
  6
CENTERX2
370
    -3
390
F
  0
LAYER
  5
77
330
2
100
AcDbSymbolTableRecord
100
AcDbLayerTableRecord
  2
파단선
 70
     0
 62
     4
  6
Continuous
370
    -3
390
F
  0
LAYER
  5
78
330
2
100
AcDbSymbolTableRecord
100
AcDbLayerTableRecord
  2
해칭선
 70
     0
 62
   100
  6
Continuous
370
    -3
390
F
  0
LAYER
  5
79
330
2
100
AcDbSymbolTableRecord
100
AcDbLayerTableRecord
  2
가는실선
 70
     0
 62
     4
  6
Continuous
370
    -3
390
F
  0
LAYER
  5
7A
330
2
100
AcDbSymbolTableRecord
100
AcDbLayerTableRecord
  2
치수_보조선
 70
     0
 62
     4
  6
Continuous
370
    -3
390
F
  0
LAYER
  5
7B
330
2
100
AcDbSymbolTableRecord
100
AcDbLayerTableRecord
  2
치수문자_일반주서
 70
     0
 62
     7
  6
Continuous
370
    25
390
F
  0
LAYER
  5
7C
330
2
100
AcDbSymbolTableRecord
100
AcDbLayerTableRecord
  2
개별주서
 70
     0
 62
   100
  6
Continuous
370
    35
390
F
  0
LAYER
  5
7D
330
2
100
AcDbSymbolTableRecord
100
AcDbLayerTableRecord
  2
중간선
 70
     0
 62
     2
  6
Continuous
370
    25
390
F
  0
LAYER
  5
7E
330
2
100
AcDbSymbolTableRecord
100
AcDbLayerTableRecord
  2
윤곽선
 70
     0
 62
     3
  6
Continuous
370
    50
390
F
  0
LAYER
  5
7F
330
2
100
AcDbSymbolTableRecord
100
AcDbLayerTableRecord
  2
중심마크
 70
     0
 62
   100
  6
Continuous
370
    35
390
F
  0
LAYER
  5
80
330
2
100
AcDbSymbolTableRecord
100
AcDbLayerTableRecord
  2
가상선
 70
     0
 62
     4
  6
PHANTOM
370
    -3
390
F
  0
LAYER
  5
81
330
2
100
AcDbSymbolTableRecord
100
AcDbLayerTableRecord
  2
특수지정선
 70
     0
 62
     5
  6
CENTERX2
370
    70
390
F
  0
LAYER
  5
134
330
2
100
AcDbSymbolTableRecord
100
AcDbLayerTableRecord
  2
Defpoints
 70
     0
 62
     7
  6
Continuous
290
     0
370
    -3
390
F
  0
ENDTAB
  0
TABLE
  2
STYLE
  5
3
330
0
100
AcDbSymbolTable
 70
     2
  0
STYLE
  5
11
330
3
100
AcDbSymbolTableRecord
100
AcDbTextStyleTableRecord
  2
Standard
 70
     0
 40
0.0
 41
1.0
 50
0.0
 71
     0
 42
3.5
  3
txt
  4

  0
STYLE
  5
97
330
3
100
AcDbSymbolTableRecord
100
AcDbTextStyleTableRecord
  2
SLDTEXTSTYLE0
 70
     0
 40
0.0
 41
0.75
 50
0.0
 71
     0
 42
3.5
  3
TXT
  4

  0
ENDTAB
  0
TABLE
  2
VIEW
  5
6
330
0
100
AcDbSymbolTable
 70
     0
  0
ENDTAB
  0
TABLE
  2
UCS
  5
7
330
0
100
AcDbSymbolTable
 70
     0
  0
ENDTAB
  0
TABLE
  2
APPID
  5
9
330
0
100
AcDbSymbolTable
 70
     1
  0
APPID
  5
12
330
9
100
AcDbSymbolTableRecord
100
AcDbRegAppTableRecord
  2
ACAD
 70
     0
  0
ENDTAB
  0
TABLE
  2
DIMSTYLE
  5
A
330
0
100
AcDbSymbolTable
 70
     4
100
AcDbDimStyleTable
  0
DIMSTYLE
105
27
330
A
100
AcDbSymbolTableRecord
100
AcDbDimStyleTableRecord
  2
ISO-25
 70
     0
 41
2.5
 42
0.625
 43
3.75
 44
1.25
 73
     0
 74
     0
 77
     1
 78
     8
140
2.5
141
2.5
143
0.03937007874016
147
0.625
171
     3
172
     1
178
     0
271
     2
272
     2
274
     3
278
    44
283
     0
284
     8
340
11
  0
DIMSTYLE
105
D9
102
{ACAD_REACTORS
330
D8
102
}
330
A
100
AcDbSymbolTableRecord
100
AcDbDimStyleTableRecord
  2
SLDDIMSTYLE0
 70
     0
 41
3.302
 44
0.0
 45
0.000000001
 73
     0
 74
     0
 77
     1
 78
    12
 79
     3
140
3.5
147
0.875
172
     1
173
     1
178
     0
271
     1
272
     1
276
     2
284
    12
289
     0
340
97
  0
DIMSTYLE
105
E7
102
{ACAD_REACTORS
330
E6
330
FF
102
}
330
A
100
AcDbSymbolTableRecord
100
AcDbDimStyleTableRecord
  2
SLDDIMSTYLE1
 70
     0
 41
3.302
 44
0.0
 45
0.000000001
 73
     0
 74
     0
 77
     1
 78
    12
 79
     3
140
3.5
147
0.875
173
     1
178
     0
271
     2
272
     2
276
     2
284
    12
340
97
  0
DIMSTYLE
105
F2
102
{ACAD_REACTORS
330
F1
102
}
330
A
100
AcDbSymbolTableRecord
100
AcDbDimStyleTableRecord
  2
SLDDIMSTYLE2
 70
     0
 41
3.302
 44
0.0
 45
0.000000001
 73
     0
 74
     0
 77
     1
 78
    12
 79
     3
140
3.5
147
0.875
172
     1
173
     1
178
     0
271
     2
272
     2
276
     2
284
    12
289
     0
340
97
  0
ENDTAB
  0
TABLE
  2
BLOCK_RECORD
  5
1
330
0
100
AcDbSymbolTable
 70
     7
  0
BLOCK_RECORD
  5
1F
330
1
100
AcDbSymbolTableRecord
100
AcDbBlockTableRecord
  2
*Model_Space
340
22
  0
BLOCK_RECORD
  5
1B
330
1
100
AcDbSymbolTableRecord
100
AcDbBlockTableRecord
  2
*Paper_Space
340
1E
  0
BLOCK_RECORD
  5
23
330
1
100
AcDbSymbolTableRecord
100
AcDbBlockTableRecord
  2
*Paper_Space0
340
26
  0
BLOCK_RECORD
  5
82
330
1
100
AcDbSymbolTableRecord
100
AcDbBlockTableRecord
  2
블럭10
340
0
102
{BLKREFS
331
D1
102
}
  0
BLOCK_RECORD
  5
DA
330
1
100
AcDbSymbolTableRecord
100
AcDbBlockTableRecord
  2
_D
340
0
  0
BLOCK_RECORD
  5
E8
330
1
100
AcDbSymbolTableRecord
100
AcDbBlockTableRecord
  2
_D_1
340
0
  0
BLOCK_RECORD
  5
F3
330
1
100
AcDbSymbolTableRecord
100
AcDbBlockTableRecord
  2
_D_2
340
0
  0
BLOCK_RECORD
  5
100
330
1
100
AcDbSymbolTableRecord
100
AcDbBlockTableRecord
  2
_D_3
340
0
  0
BLOCK_RECORD
  5
109
330
1
100
AcDbSymbolTableRecord
100
AcDbBlockTableRecord
  2
SW_DOWELSYMBOL_0
340
0
102
{BLKREFS
331
10F
102
}
  0
ENDTAB
  0
ENDSEC
  0
SECTION
  2
BLOCKS
  0
BLOCK
  5
20
330
1F
100
AcDbEntity
  8
0
100
AcDbBlockBegin
  2
*Model_Space
 70
     0
 10
0.0
 20
0.0
 30
0.0
  3
*Model_Space
  1

  0
ENDBLK
  5
21
330
1F
100
AcDbEntity
  8
0
100
AcDbBlockEnd
  0
BLOCK
  5
1C
330
1B
100
AcDbEntity
 67
     1
  8
0
100
AcDbBlockBegin
  2
*Paper_Space
 70
     0
 10
0.0
 20
0.0
 30
0.0
  3
*Paper_Space
  1

  0
ENDBLK
  5
1D
330
1B
100
AcDbEntity
 67
     1
  8
0
100
AcDbBlockEnd
  0
BLOCK
  5
24
330
23
100
AcDbEntity
  8
0
100
AcDbBlockBegin
  2
*Paper_Space0
 70
     0
 10
0.0
 20
0.0
 30
0.0
  3
*Paper_Space0
  1

  0
ENDBLK
  5
25
330
23
100
AcDbEntity
  8
0
100
AcDbBlockEnd
  0
BLOCK
  5
83
330
82
100
AcDbEntity
  8
0
100
AcDbBlockBegin
  2
블럭10
 70
     2
 10
0.0
 20
0.0
 30
0.0
  3
블럭10
  1

  0
ELLIPSE
  5
85
330
82
100
AcDbEntity
  8
중심선
100
AcDbEllipse
 10
20.54032771741204
 20
12.0471743016438
 30
0.0
 11
6.600054785286829
 21
-1.261213355974178E-13
 31
0.0
210
0.0
220
0.0
230
1.0
 40
0.636358354079598
 41
0.9219305317359503
 42
6.513795318482858
  0
ELLIPSE
  5
86
330
82
100
AcDbEntity
  8
중심선
100
AcDbEllipse
 10
20.54032771746488
 20
12.04717430159265
 30
0.0
 11
3.960054785062283
 21
1.540847449632565E-10
 31
0.0
210
0.0
220
0.0
230
1.0
 40
0.3939339440162632
 41
1.131841032648279
 42
5.62031148352944
  0
LINE
  5
87
330
82
100
AcDbEntity
  8
중심선
100
AcDbLine
 10
2.268634060543552
 20
16.24717430164393
 30
0.0
 11
5.714909304380834
 21
16.24717430164393
 31
0.0
  0
LINE
  5
88
330
82
100
AcDbEntity
  8
중심선
100
AcDbLine
 10
5.245725140726316
 20
7.84717430164391
 30
0.0
 11
8.692000384563599
 21
7.84717430164391
 31
0.0
  0
LINE
  5
89
330
82
100
AcDbEntity
  8
중심선
100
AcDbLine
 10
15.74043728645272
 20
16.24717430164393
 30
0.0
 11
8.692000384563599
 21
7.84717430164391
 31
0.0
  0
LINE
  5
8A
330
82
100
AcDbEntity
  8
중심선
100
AcDbLine
 10
0.1404042013395286
 20
13.71084872107135
 30
0.0
 11
3.58671253028996
 21
13.71088815037384
 31
0.0
  0
LINE
  5
8B
330
82
100
AcDbEntity
  8
중심선
100
AcDbLine
 10
2.750260043222114
 20
10.84717430164391
 30
0.0
 11
6.196535287059397
 21
10.84717430164391
 31
0.0
  0
LINE
  5
8C
330
82
100
AcDbEntity
  8
중심선
100
AcDbLine
 10
12.29416204261559
 20
16.24717430164393
 30
0.0
 11
5.245725140726316
 21
7.84717430164391
 31
0.0
  0
LINE
  5
8D
330
82
100
AcDbEntity
  8
중심선
100
AcDbLine
 10
10.72767329541681
 20
16.24717430164393
 30
0.0
 11
6.196535287059397
 21
10.84717430164391
 31
0.0
  0
LINE
  5
8E
330
82
100
AcDbEntity
  8
중심선
100
AcDbLine
 10
7.28139805157953
 20
16.24717430164393
 30
0.0
 11
2.750260043222114
 21
10.84717430164391
 31
0.0
  0
LINE
  5
8F
330
82
100
AcDbEntity
  8
중심선
100
AcDbLine
 10
5.714909304380834
 20
16.24717430164393
 30
0.0
 11
3.58671253028996
 21
13.71088815037384
 31
0.0
  0
LINE
  5
90
330
82
100
AcDbEntity
  8
중심선
100
AcDbLine
 10
2.268634060543552
 20
16.24717430164393
 30
0.0
 11
0.1404042013395286
 21
13.71084872107135
 31
0.0
  0
LINE
  5
91
330
82
100
AcDbEntity
  8
중심선
100
AcDbLine
 10
7.28139805157953
 20
16.24717430164393
 30
0.0
 11
10.72767329541681
 21
16.24717430164393
 31
0.0
  0
LINE
  5
92
330
82
100
AcDbEntity
  8
중심선
100
AcDbLine
 10
12.29416204261559
 20
16.24717430164393
 30
0.0
 11
15.74043728645272
 21
16.24717430164393
 31
0.0
  0
LINE
  5
93
330
82
100
AcDbEntity
  8
중심선
100
AcDbLine
 10
19.22036997980202
 20
11.08717430171403
 30
0.0
 11
23.66174974927406
 21
11.08717430171406
 31
0.0
  0
LINE
  5
94
330
82
100
AcDbEntity
  8
중심선
100
AcDbLine
 10
19.22039502424796
 20
13.00717430171391
 30
0.0
 11
19.22036997980202
 21
11.08717430171403
 31
0.0
  0
LINE
  5
95
330
82
100
AcDbEntity
  8
중심선
100
AcDbLine
 10
19.22039502424796
 20
13.00717430171391
 30
0.0
 11
26.96566020931264
 21
13.00717430171391
 31
0.0
  0
LINE
  5
96
330
82
100
AcDbEntity
  8
중심선
100
AcDbLine
 10
22.22332737316547
 20
13.45928029700563
 30
0.0
 11
24.52862924686651
 21
15.39360700705356
 31
0.0
  0
ATTDEF
  5
98
330
82
100
AcDbEntity
  8
FORMAT
 62
     2
100
AcDbText
 10
-16.11926103943555
 20
2.075366912832191
 30
0.0
 40
4.233333333333333
  1
SEME7106025E [ 4 FLUTE ]
 41
0.75
  7
SLDTEXTSTYLE0
 11
-16.11926103943555
 21
-0.0412997538344756
 31
0.0
100
AcDbAttributeDefinition
  3

  2
AUTOATTR0
 70
     0
 74
     1
  0
ENDBLK
  5
84
330
82
100
AcDbEntity
  8
0
100
AcDbBlockEnd
  0
BLOCK
  5
DB
330
DA
100
AcDbEntity
  8
0
100
AcDbBlockBegin
  2
_D
 70
     0
 10
0.0
 20
0.0
 30
0.0
  3
_D
  1

  0
LINE
  5
DD
330
DA
100
AcDbEntity
  8
치수문자_일반주서
 62
     0
370
    -2
100
AcDbLine
 10
35.06250000000002
 20
-2.999987922548063
 30
0.0
 11
44.72363953862968
 21
-2.999987922548028
 31
0.0
  0
LINE
  5
DE
330
DA
100
AcDbEntity
  8
치수문자_일반주서
 62
     0
370
    -2
100
AcDbLine
 10
35.06250000000002
 20
3.000012077451947
 30
0.0
 11
44.72363953862966
 21
3.000012077451983
 31
0.0
  0
LINE
  5
DF
330
DA
100
AcDbEntity
  8
치수문자_일반주서
 62
     0
370
    -2
100
AcDbLine
 10
44.72363953862968
 20
-2.999987922548028
 30
0.0
 11
44.72363953862961
 21
15.72901207745198
 31
0.0
  0
LINE
  5
E0
330
DA
100
AcDbEntity
  8
치수문자_일반주서
 62
     0
370
    -2
100
AcDbLine
 10
44.72363953862968
 20
-2.999987922548028
 30
0.0
 11
44.72363953862966
 21
3.000012077451983
 31
0.0
  0
LINE
  5
E1
330
DA
100
AcDbEntity
  8
치수문자_일반주서
 62
     0
370
    -2
100
AcDbLine
 10
44.72363953862969
 20
-6.301987922548028
 30
0.0
 11
44.7236395386297
 21
-9.603987922548027
 31
0.0
  0
LINE
  5
E2
330
DA
100
AcDbEntity
  8
치수문자_일반주서
 62
     0
370
    -2
100
AcDbLine
 10
44.72363953862964
 20
6.302012077451982
 30
0.0
 11
44.72363953862963
 21
9.604012077451982
 31
0.0
  0
SOLID
  5
E3
330
DA
100
AcDbEntity
  8
치수문자_일반주서
 62
     0
100
AcDbTrace
 10
45.27397287196302
 20
-6.301987922548026
 30
0.0
 11
44.17330620529636
 21
-6.30198792254803
 31
0.0
 12
44.72363953862968
 22
-2.999987922548028
 32
0.0
 13
44.72363953862968
 23
-2.999987922548028
 33
0.0
  0
SOLID
  5
E4
330
DA
100
AcDbEntity
  8
치수문자_일반주서
 62
     0
100
AcDbTrace
 10
44.17330620529631
 20
6.30201207745198
 30
0.0
 11
45.27397287196298
 21
6.302012077451984
 31
0.0
 12
44.72363953862966
 22
3.000012077451983
 32
0.0
 13
44.72363953862966
 23
3.000012077451983
 33
0.0
  0
MTEXT
  5
E5
330
DA
100
AcDbEntity
  8
치수문자_일반주서
 62
     0
100
AcDbMText
 10
40.34863953862962
 20
12.66651207745197
 30
0.0
 40
3.5
 41
0.0
 71
     2
 72
     1
  1
\A1;%%c6
  7
SLDTEXTSTYLE0
 11
-3.552713678800495E-15
 21
1.0
 31
0.0
 73
     1
 44
1.0
  0
POINT
  5
13F
330
DA
100
AcDbEntity
  8
Defpoints
 62
     0
100
AcDbPoint
 10
35.00000000000002
 20
-2.999987922548063
 30
0.0
  0
POINT
  5
140
330
DA
100
AcDbEntity
  8
Defpoints
 62
     0
100
AcDbPoint
 10
35.00000000000002
 20
3.000012077451947
 30
0.0
  0
POINT
  5
141
330
DA
100
AcDbEntity
  8
Defpoints
 62
     0
100
AcDbPoint
 10
44.72363953862966
 20
3.000012077451983
 30
0.0
  0
ENDBLK
  5
DC
330
DA
100
AcDbEntity
  8
0
100
AcDbBlockEnd
  0
BLOCK
  5
E9
330
E8
100
AcDbEntity
  8
0
100
AcDbBlockBegin
  2
_D_1
 70
     0
 10
0.0
 20
0.0
 30
0.0
  3
_D_1
  1

  0
LINE
  5
EB
330
E8
100
AcDbEntity
  8
치수문자_일반주서
 62
     0
370
    -2
100
AcDbLine
 10
-25.00000000000001
 20
2.562512077451939
 30
0.0
 11
-25.00000000000001
 21
20.38914467903359
 31
0.0
  0
LINE
  5
EC
330
E8
100
AcDbEntity
  8
치수문자_일반주서
 62
     0
370
    -2
100
AcDbLine
 10
34.99999999999999
 20
3.062512077451945
 30
0.0
 11
34.99999999999999
 21
20.38914467903359
 31
0.0
  0
LINE
  5
ED
330
E8
100
AcDbEntity
  8
치수문자_일반주서
 62
     0
370
    -2
100
AcDbLine
 10
-21.69800000000001
 20
20.38914467903359
 30
0.0
 11
31.69799999999999
 21
20.38914467903359
 31
0.0
  0
SOLID
  5
EE
330
E8
100
AcDbEntity
  8
치수문자_일반주서
 62
     0
100
AcDbTrace
 10
-21.69800000000001
 20
20.93947801236693
 30
0.0
 11
-21.69800000000001
 21
19.83881134570026
 31
0.0
 12
-25.00000000000001
 22
20.38914467903359
 32
0.0
 13
-25.00000000000001
 23
20.38914467903359
 33
0.0
  0
SOLID
  5
EF
330
E8
100
AcDbEntity
  8
치수문자_일반주서
 62
     0
100
AcDbTrace
 10
31.69799999999999
 20
19.83881134570026
 30
0.0
 11
31.69799999999999
 21
20.93947801236693
 31
0.0
 12
34.99999999999999
 22
20.38914467903359
 32
0.0
 13
34.99999999999999
 23
20.38914467903359
 33
0.0
  0
MTEXT
  5
F0
330
E8
100
AcDbEntity
  8
치수문자_일반주서
 62
     0
100
AcDbMText
 10
4.999999999999996
 20
24.76414467903359
 30
0.0
 40
3.5
 41
0.0
 71
     2
 72
     1
  1
\A1;60
  7
SLDTEXTSTYLE0
 73
     1
 44
1.0
  0
POINT
  5
136
330
E8
100
AcDbEntity
  8
Defpoints
 62
     0
100
AcDbPoint
 10
-25.00000000000001
 20
2.500012077451939
 30
0.0
  0
POINT
  5
137
330
E8
100
AcDbEntity
  8
Defpoints
 62
     0
100
AcDbPoint
 10
34.99999999999999
 20
3.000012077451945
 30
0.0
  0
POINT
  5
138
330
E8
100
AcDbEntity
  8
Defpoints
 62
     0
100
AcDbPoint
 10
34.99999999999999
 20
20.38914467903359
 30
0.0
  0
ENDBLK
  5
EA
330
E8
100
AcDbEntity
  8
0
100
AcDbBlockEnd
  0
BLOCK
  5
F4
330
F3
100
AcDbEntity
  8
0
100
AcDbBlockBegin
  2
_D_2
 70
     0
 10
0.0
 20
0.0
 30
0.0
  3
_D_2
  1

  0
LINE
  5
F6
330
F3
100
AcDbEntity
  8
치수문자_일반주서
 62
     0
370
    -2
100
AcDbLine
 10
-24.56250000000001
 20
3.000012077451944
 30
0.0
 11
-33.52048113240536
 21
3.000012077451911
 31
0.0
  0
LINE
  5
F7
330
F3
100
AcDbEntity
  8
치수문자_일반주서
 62
     0
370
    -2
100
AcDbLine
 10
-24.56250000000001
 20
-2.999987922548061
 30
0.0
 11
-33.52048113240534
 21
-2.999987922548094
 31
0.0
  0
LINE
  5
F8
330
F3
100
AcDbEntity
  8
치수문자_일반주서
 62
     0
370
    -2
100
AcDbLine
 10
-33.52048113240536
 20
3.000012077451911
 30
0.0
 11
-33.52048113240541
 21
15.72901207745191
 31
0.0
  0
LINE
  5
F9
330
F3
100
AcDbEntity
  8
치수문자_일반주서
 62
     0
370
    -2
100
AcDbLine
 10
-33.52048113240536
 20
3.000012077451911
 30
0.0
 11
-33.52048113240534
 21
-2.999987922548094
 31
0.0
  0
LINE
  5
FA
330
F3
100
AcDbEntity
  8
치수문자_일반주서
 62
     0
370
    -2
100
AcDbLine
 10
-33.52048113240537
 20
6.302012077451911
 30
0.0
 11
-33.52048113240539
 21
9.60401207745191
 31
0.0
  0
LINE
  5
FB
330
F3
100
AcDbEntity
  8
치수문자_일반주서
 62
     0
370
    -2
100
AcDbLine
 10
-33.52048113240532
 20
-6.301987922548093
 30
0.0
 11
-33.52048113240531
 21
-9.603987922548093
 31
0.0
  0
SOLID
  5
FC
330
F3
100
AcDbEntity
  8
치수문자_일반주서
 62
     0
100
AcDbTrace
 10
-34.07081446573871
 20
6.302012077451909
 30
0.0
 11
-32.97014779907204
 21
6.302012077451913
 31
0.0
 12
-33.52048113240536
 22
3.000012077451911
 32
0.0
 13
-33.52048113240536
 23
3.000012077451911
 33
0.0
  0
SOLID
  5
FD
330
F3
100
AcDbEntity
  8
치수문자_일반주서
 62
     0
100
AcDbTrace
 10
-32.97014779907199
 20
-6.301987922548092
 30
0.0
 11
-34.07081446573866
 21
-6.301987922548095
 31
0.0
 12
-33.52048113240534
 22
-2.999987922548094
 32
0.0
 13
-33.52048113240534
 23
-2.999987922548094
 33
0.0
  0
MTEXT
  5
FE
330
F3
100
AcDbEntity
  8
치수문자_일반주서
 62
     0
100
AcDbMText
 10
-37.89548113240539
 20
12.6665120774519
 30
0.0
 40
3.5
 41
0.0
 71
     2
 72
     1
  1
\A1;%%c6
  7
SLDTEXTSTYLE0
 11
-3.552713678800498E-15
 21
1.0
 31
0.0
 73
     1
 44
1.0
  0
POINT
  5
13C
330
F3
100
AcDbEntity
  8
Defpoints
 62
     0
100
AcDbPoint
 10
-24.50000000000001
 20
3.000012077451945
 30
0.0
  0
POINT
  5
13D
330
F3
100
AcDbEntity
  8
Defpoints
 62
     0
100
AcDbPoint
 10
-24.50000000000001
 20
-2.999987922548061
 30
0.0
  0
POINT
  5
13E
330
F3
100
AcDbEntity
  8
Defpoints
 62
     0
100
AcDbPoint
 10
-33.52048113240534
 20
-2.999987922548094
 30
0.0
  0
ENDBLK
  5
F5
330
F3
100
AcDbEntity
  8
0
100
AcDbBlockEnd
  0
BLOCK
  5
101
330
100
100
AcDbEntity
  8
0
100
AcDbBlockBegin
  2
_D_3
 70
     0
 10
0.0
 20
0.0
 30
0.0
  3
_D_3
  1

  0
LINE
  5
103
330
100
100
AcDbEntity
  8
치수문자_일반주서
 62
     0
370
    -2
100
AcDbLine
 10
9.999999999999993
 20
3.062487922547982
 30
0.0
 11
9.999999999999993
 21
13.84590622513563
 31
0.0
  0
LINE
  5
104
330
100
100
AcDbEntity
  8
치수문자_일반주서
 62
     0
370
    -2
100
AcDbLine
 10
34.99999999999999
 20
3.062512077451947
 30
0.0
 11
34.99999999999999
 21
13.84590622513563
 31
0.0
  0
LINE
  5
105
330
100
100
AcDbEntity
  8
치수문자_일반주서
 62
     0
370
    -2
100
AcDbLine
 10
13.30199999999999
 20
13.84590622513563
 30
0.0
 11
31.69799999999999
 21
13.84590622513563
 31
0.0
  0
SOLID
  5
106
330
100
100
AcDbEntity
  8
치수문자_일반주서
 62
     0
100
AcDbTrace
 10
13.30199999999999
 20
14.39623955846896
 30
0.0
 11
13.30199999999999
 21
13.2955728918023
 31
0.0
 12
9.999999999999993
 22
13.84590622513563
 32
0.0
 13
9.999999999999993
 23
13.84590622513563
 33
0.0
  0
SOLID
  5
107
330
100
100
AcDbEntity
  8
치수문자_일반주서
 62
     0
100
AcDbTrace
 10
31.69799999999999
 20
13.2955728918023
 30
0.0
 11
31.69799999999999
 21
14.39623955846896
 31
0.0
 12
34.99999999999999
 22
13.84590622513563
 32
0.0
 13
34.99999999999999
 23
13.84590622513563
 33
0.0
  0
MTEXT
  5
108
330
100
100
AcDbEntity
  8
치수문자_일반주서
 62
     0
100
AcDbMText
 10
22.5
 20
18.22090622513563
 30
0.0
 40
3.5
 41
0.0
 71
     2
 72
     1
  1
\A1;25
  7
SLDTEXTSTYLE0
 73
     1
 44
1.0
  0
POINT
  5
139
330
100
100
AcDbEntity
  8
Defpoints
 62
     0
100
AcDbPoint
 10
9.999999999999993
 20
2.999987922547982
 30
0.0
  0
POINT
  5
13A
330
100
100
AcDbEntity
  8
Defpoints
 62
     0
100
AcDbPoint
 10
34.99999999999999
 20
3.000012077451947
 30
0.0
  0
POINT
  5
13B
330
100
100
AcDbEntity
  8
Defpoints
 62
     0
100
AcDbPoint
 10
34.99999999999999
 20
13.84590622513563
 30
0.0
  0
ENDBLK
  5
102
330
100
100
AcDbEntity
  8
0
100
AcDbBlockEnd
  0
BLOCK
  5
10A
330
109
100
AcDbEntity
  8
0
100
AcDbBlockBegin
  2
SW_DOWELSYMBOL_0
 70
     0
 10
0.0
 20
0.0
 30
0.0
  3
SW_DOWELSYMBOL_0
  1

  0
CIRCLE
  5
10C
330
109
100
AcDbEntity
  8
해칭선
 62
     0
100
AcDbCircle
 10
0.0
 20
0.0
 30
0.0
 40
3.000000000000001
  0
HATCH
  5
10D
330
109
100
AcDbEntity
  8
0
  6
Continuous
 62
     0
370
    18
100
AcDbHatch
 10
0.0
 20
0.0
 30
0.0
210
0.0
220
0.0
230
1.0
  2
SOLID
 70
     1
 71
     0
 91
        1
 92
        0
 93
        3
 72
     2
 10
0.0
 20
0.0
 40
3.000000000000001
 50
0.0
 51
90.0
 73
     1
 72
     1
 10
0.0
 20
3.000000000000001
 11
0.0
 21
0.0
 72
     1
 10
0.0
 20
0.0
 11
3.000000000000001
 21
0.0
 97
        0
 75
     0
 76
     1
 98
        1
 10
0.0
 20
0.0
  0
HATCH
  5
10E
330
109
100
AcDbEntity
  8
0
  6
Continuous
 62
     0
370
    18
100
AcDbHatch
 10
0.0
 20
0.0
 30
0.0
210
0.0
220
0.0
230
1.0
  2
SOLID
 70
     1
 71
     0
 91
        1
 92
        0
 93
        3
 72
     2
 10
0.0
 20
0.0
 40
3.000000000000001
 50
180.0
 51
270.0000000000008
 73
     1
 72
     1
 10
0.0
 20
-3.000000000000001
 11
0.0
 21
0.0
 72
     1
 10
0.0
 20
0.0
 11
-3.000000000000001
 21
0.0
 97
        0
 75
     0
 76
     1
 98
        1
 10
0.0
 20
0.0
  0
ENDBLK
  5
10B
330
109
100
AcDbEntity
  8
0
100
AcDbBlockEnd
  0
ENDSEC
  0
SECTION
  2
ENTITIES
  0
LINE
  5
99
330
1F
100
AcDbEntity
  8
0
  6
Continuous
 62
     4
370
    25
100
AcDbLine
 10
8.50504296851818
 20
3.000012077451942
 30
0.0
 11
-24.50000000000001
 21
3.00001207745194
 31
0.0
  0
LINE
  5
9A
330
1F
100
AcDbEntity
  8
0
  6
Continuous
 62
     4
370
    25
100
AcDbLine
 10
-24.50000000000001
 20
-2.99998792254806
 30
0.0
 11
8.505042968518188
 21
-2.999987922548058
 31
0.0
  0
LINE
  5
9B
330
1F
100
AcDbEntity
  8
0
  6
Continuous
 62
     4
370
    25
100
AcDbLine
 10
-24.50000000000001
 20
3.000012077451938
 30
0.0
 11
-25.00000000000001
 21
2.500012077451939
 31
0.0
  0
LINE
  5
9C
330
1F
100
AcDbEntity
  8
0
  6
Continuous
 62
     4
370
    25
100
AcDbLine
 10
-25.00000000000001
 20
-2.49998792254806
 30
0.0
 11
-24.50000000000001
 21
-2.999987922548058
 31
0.0
  0
LINE
  5
9D
330
1F
100
AcDbEntity
  8
0
  6
Continuous
 62
     1
370
    25
100
AcDbLine
 10
34.14174695542997
 20
-2.999987922548061
 30
0.0
 11
34.99999999999999
 21
-2.999987922548061
 31
0.0
  0
LINE
  5
9E
330
1F
100
AcDbEntity
  8
0
  6
Continuous
 62
     1
370
    25
100
AcDbLine
 10
9.999974999999992
 20
-2.999987922548061
 30
0.0
 11
11.7317625099846
 21
-2.999987922548061
 31
0.0
  0
LINE
  5
9F
330
1F
100
AcDbEntity
  8
0
  6
Continuous
 62
     1
370
    25
100
AcDbLine
 10
23.79385448564666
 20
3.000012077451945
 30
0.0
 11
22.07964510075518
 21
3.000012077451945
 31
0.0
  0
LINE
  5
A0
330
1F
100
AcDbEntity
  8
0
  6
Continuous
 62
     1
370
    25
100
AcDbLine
 10
28.1110847176401
 20
-2.999987922548061
 30
0.0
 11
29.82633542183446
 21
-2.999987922548061
 31
0.0
  0
LINE
  5
A1
330
1F
100
AcDbEntity
  8
0
  6
Continuous
 62
     1
370
    25
100
AcDbLine
 10
17.76205945777247
 20
3.000012077451945
 30
0.0
 11
16.04781745904229
 21
3.000012077451945
 31
0.0
  0
LINE
  5
A2
330
1F
100
AcDbEntity
  8
0
  6
Continuous
 62
     1
370
    25
100
AcDbLine
 10
16.0478174590423
 20
-2.999987922548061
 30
0.0
 11
17.76205945777245
 21
-2.999987922548061
 31
0.0
  0
LINE
  5
A3
330
1F
100
AcDbEntity
  8
0
  6
Continuous
 62
     1
370
    25
100
AcDbLine
 10
29.82633542183448
 20
3.000012077451945
 30
0.0
 11
28.11108471764014
 21
3.000012077451945
 31
0.0
  0
LINE
  5
A4
330
1F
100
AcDbEntity
  8
0
  6
Continuous
 62
     1
370
    25
100
AcDbLine
 10
22.07964510075518
 20
-2.999987922548061
 30
0.0
 11
23.79385448564664
 21
-2.999987922548061
 31
0.0
  0
LINE
  5
A5
330
1F
100
AcDbEntity
  8
0
  6
Continuous
 62
     1
370
    25
100
AcDbLine
 10
11.73176250998455
 20
3.000012077451945
 30
0.0
 11
9.999999999999993
 21
3.000012077451945
 31
0.0
  0
LINE
  5
A6
330
1F
100
AcDbEntity
  8
0
  6
Continuous
 62
     1
370
    25
100
AcDbLine
 10
34.99999999999999
 20
3.000012077451945
 30
0.0
 11
34.14174695542996
 21
3.000012077451945
 31
0.0
  0
SPLINE
  5
A7
330
1F
100
AcDbEntity
  8
0
  6
Continuous
 62
     4
370
    25
100
AcDbSpline
210
0.0
220
0.0
230
1.0
 70
     8
 71
     3
 72
    10
 73
     6
 74
     0
 42
0.000000001
 43
0.00000001
 40
0.0
 40
0.0
 40
0.0
 40
0.0
 40
0.5
 40
0.5
 40
1.0
 40
1.0
 40
1.0
 40
1.0
 10
8.732070391302795
 20
-2.130655306330385
 30
0.0
 10
8.657778567881657
 20
-2.089590432765531
 30
0.0
 10
8.598747607526533
 20
-2.035297302613299
 30
0.0
 10
8.519947402449322
 20
-1.907991016737257
 30
0.0
 10
8.500243361180848
 20
-1.834775886450676
 30
0.0
 10
8.500243361180848
 20
-1.758311928805109
 30
0.0
  0
SPLINE
  5
A8
330
1F
100
AcDbEntity
  8
0
  6
Continuous
 62
     4
370
    25
100
AcDbSpline
210
0.0
220
0.0
230
1.0
 70
     8
 71
     3
 72
    14
 73
    10
 74
     0
 42
0.000000001
 43
0.00000001
 40
0.0
 40
0.0
 40
0.0
 40
0.0
 40
0.25
 40
0.25
 40
0.5
 40
0.5
 40
0.75
 40
0.75
 40
1.0
 40
1.0
 40
1.0
 40
1.0
 10
8.500243361180859
 20
-0.0623285642552911
 30
0.0
 10
8.500243361180859
 20
0.0513672502770582
 30
0.0
 10
8.52902427999995
 20
0.1638879787049297
 30
0.0
 10
8.642388113542507
 20
0.3566372272974628
 30
0.0
 10
8.728040919185187
 20
0.4372190671423639
 30
0.0
 10
8.928612439393024
 20
0.538552060258433
 30
0.0
 10
9.042953632158483
 20
0.5602565998853588
 30
0.0
 10
9.268863917009073
 20
0.539469625394335
 30
0.0
 10
9.377156866263743
 20
0.4974560614329107
 30
0.0
 10
9.46693255348669
 20
0.4281365619017473
 30
0.0
  0
SPLINE
  5
A9
330
1F
100
AcDbEntity
  8
0
  6
Continuous
 62
     4
370
    25
100
AcDbSpline
210
0.0
220
0.0
230
1.0
 70
     8
 71
     3
 72
     8
 73
     4
 74
     0
 42
0.000000001
 43
0.00000001
 40
0.0
 40
0.0
 40
0.0
 40
0.0
 40
1.0
 40
1.0
 40
1.0
 40
1.0
 10
9.999999999999993
 20
2.999987922548061
 30
0.0
 10
9.821670363628078
 20
2.999428723571791
 30
0.0
 10
9.645707253361833
 20
2.989209555455191
 30
0.0
 10
9.46693255348665
 20
2.96930650977328
 30
0.0
  0
LINE
  5
AA
330
1F
100
AcDbEntity
  8
0
  6
Continuous
 62
     4
370
    25
100
AcDbLine
 10
8.500243361180859
 20
2.999364281577282
 30
0.0
 11
8.50504296851818
 21
2.999577627216598
 31
0.0
  0
SPLINE
  5
AB
330
1F
100
AcDbEntity
  8
0
  6
Continuous
 62
     4
370
    25
100
AcDbSpline
210
0.0
220
0.0
230
1.0
 70
     8
 71
     3
 72
    14
 73
    10
 74
     0
 42
0.000000001
 43
0.00000001
 40
0.0
 40
0.0
 40
0.0
 40
0.0
 40
0.25
 40
0.25
 40
0.5
 40
0.5
 40
0.75
 40
0.75
 40
1.0
 40
1.0
 40
1.0
 40
1.0
 10
8.50826179236407
 20
2.999720706010964
 30
0.0
 10
8.524281768074516
 20
2.998295011635454
 30
0.0
 10
8.565318933761658
 20
2.991337209696476
 30
0.0
 10
8.693940551887943
 20
2.973416315448611
 30
0.0
 10
8.779732546584471
 20
2.96308544848942
 30
0.0
 10
8.97167724775487
 20
2.949854935500193
 30
0.0
 10
9.078376593907493
 20
2.947131670661258
 30
0.0
 10
9.28579825947442
 20
2.952362149036883
 30
0.0
 10
9.384096495218403
 20
2.960084344371959
 30
0.0
 10
9.46693255348669
 20
2.969306509773294
 30
0.0
  0
LINE
  5
AC
330
1F
100
AcDbEntity
  8
0
  6
Continuous
 62
     4
370
    25
100
AcDbLine
 10
8.500243361180859
 20
2.999364281577282
 30
0.0
 11
8.500243361180859
 21
2.430710884178146
 31
0.0
  0
SPLINE
  5
AD
330
1F
100
AcDbEntity
  8
0
  6
Continuous
 62
     4
370
    25
100
AcDbSpline
210
0.0
220
0.0
230
1.0
 70
     8
 71
     3
 72
    10
 73
     6
 74
     0
 42
0.000000001
 43
0.00000001
 40
0.0
 40
0.0
 40
0.0
 40
0.0
 40
0.4999999999999996
 40
0.4999999999999996
 40
1.0
 40
1.0
 40
1.0
 40
1.0
 10
8.732070391302795
 20
2.111944012833907
 30
0.0
 10
8.657778567881657
 20
2.153373182618185
 30
0.0
 10
8.598747607526533
 20
2.205606837199711
 30
0.0
 10
8.519947402449322
 20
2.31661664219164
 30
0.0
 10
8.500243361180848
 20
2.375398225954272
 30
0.0
 10
8.500243361180848
 20
2.430710884178144
 30
0.0
  0
SPLINE
  5
AE
330
1F
100
AcDbEntity
  8
0
  6
Continuous
 62
     4
370
    25
100
AcDbSpline
210
0.0
220
0.0
230
1.0
 70
     8
 71
     3
 72
    10
 73
     6
 74
     0
 42
0.000000001
 43
0.00000001
 40
0.0
 40
0.0
 40
0.0
 40
0.0
 40
0.5
 40
0.5
 40
1.0
 40
1.0
 40
1.0
 40
1.0
 10
9.999999999999993
 20
1.306717235959335
 30
0.0
 10
9.788630876046122
 20
1.455394940137455
 30
0.0
 10
9.579763433305509
 20
1.597571184254345
 30
0.0
 10
9.155164551910202
 20
1.867643245808546
 30
0.0
 10
8.941924986513628
 20
1.994917653072663
 30
0.0
 10
8.732070391302805
 20
2.111944012833902
 30
0.0
  0
SPLINE
  5
AF
330
1F
100
AcDbEntity
  8
0
  6
Continuous
 62
     4
370
    25
100
AcDbSpline
210
0.0
220
0.0
230
1.0
 70
     8
 71
     3
 72
     8
 73
     4
 74
     0
 42
0.000000001
 43
0.00000001
 40
0.0
 40
0.0
 40
0.0
 40
0.0
 40
1.0
 40
1.0
 40
1.0
 40
1.0
 10
9.999999999999993
 20
0.0120507169004091
 30
0.0
 10
9.821670363628078
 20
0.1514006350195305
 30
0.0
 10
9.645707253361833
 20
0.2900972652110517
 30
0.0
 10
9.46693255348665
 20
0.4281365619017729
 30
0.0
  0
SPLINE
  5
B0
330
1F
100
AcDbEntity
  8
0
  6
Continuous
 62
     4
370
    25
100
AcDbSpline
210
0.0
220
0.0
230
1.0
 70
     8
 71
     3
 72
    10
 73
     6
 74
     0
 42
0.000000001
 43
0.00000001
 40
0.0
 40
0.0
 40
0.0
 40
0.0
 40
0.5
 40
0.5
 40
1.0
 40
1.0
 40
1.0
 40
1.0
 10
9.999999999999993
 20
-2.700454850457045
 30
0.0
 10
9.788630876046122
 20
-2.628512505599292
 30
0.0
 10
9.579763433305509
 20
-2.544622590758043
 30
0.0
 10
9.155164551910206
 20
-2.353562759549503
 30
0.0
 10
8.941924986513628
 20
-2.246652626391919
 30
0.0
 10
8.732070391302805
 20
-2.130655306330391
 30
0.0
  0
SPLINE
  5
B1
330
1F
100
AcDbEntity
  8
0
  6
Continuous
 62
     4
370
    25
100
AcDbSpline
210
0.0
220
0.0
230
1.0
 70
     8
 71
     3
 72
     8
 73
     4
 74
     0
 42
0.000000001
 43
0.00000001
 40
0.0
 40
0.0
 40
0.0
 40
0.0
 40
1.0
 40
1.0
 40
1.0
 40
1.0
 10
9.999999999999993
 20
-2.999963767644177
 30
0.0
 10
9.821670363628078
 20
-2.999404568667907
 30
0.0
 10
9.645707253361833
 20
-2.989185400551307
 30
0.0
 10
9.46693255348665
 20
-2.969282354869396
 30
0.0
  0
SPLINE
  5
B2
330
1F
100
AcDbEntity
  8
0
  6
Continuous
 62
     4
370
    25
100
AcDbSpline
210
0.0
220
0.0
230
1.0
 70
     8
 71
     3
 72
    21
 73
    17
 74
     0
 42
0.000000001
 43
0.00000001
 40
0.0
 40
0.0
 40
0.0
 40
0.0
 40
0.0325149141749494
 40
0.1157391778166649
 40
0.1967871819839337
 40
0.2804239651582104
 40
0.3576962289613057
 40
0.4372677208119606
 40
0.5136214999607758
 40
0.5921703326487978
 40
0.6688652233970375
 40
0.7477714712315061
 40
0.824677797244835
 40
0.9038195017152094
 40
0.9516470267887789
 40
1.0
 40
1.0
 40
1.0
 40
1.0
 10
8.50504296851818
 20
-2.999553472312714
 30
0.0
 10
8.505843375027426
 20
-2.999660517919845
 30
0.0
 10
8.508692479619889
 20
-3.000041554464846
 30
0.0
 10
8.53115059501397
 20
-2.996853462012966
 30
0.0
 10
8.572859981503308
 20
-2.990562386946253
 30
0.0
 10
8.630747000572159
 20
-2.982023175168353
 30
0.0
 10
8.702095256048086
 20
-2.972658783548275
 30
0.0
 10
8.782782573565886
 20
-2.96378947392318
 30
0.0
 10
8.872907392792461
 20
-2.956203247763014
 30
0.0
 10
8.968329232194789
 20
-2.950876564769466
 30
0.0
 10
9.06849235987805
 20
-2.948323973740598
 30
0.0
 10
9.168882111359006
 20
-2.948899999704502
 30
0.0
 10
9.268365481912157
 20
-2.952556608370323
 30
0.0
 10
9.350463105074923
 20
-2.958050440395449
 30
0.0
 10
9.416756647761174
 20
-2.963898508734721
 30
0.0
 10
9.450146447124709
 20
-2.967481215207913
 30
0.0
 10
9.46693255348665
 20
-2.969282354869396
 30
0.0
  0
LINE
  5
B3
330
1F
100
AcDbEntity
  8
0
  6
Continuous
 62
     4
370
    25
100
AcDbLine
 10
-24.50000000000001
 20
3.000012077451938
 30
0.0
 11
-24.50000000000001
 21
-2.999987922548058
 31
0.0
  0
LINE
  5
B4
330
1F
100
AcDbEntity
  8
0
  6
Continuous
 62
     4
370
    25
100
AcDbLine
 10
8.500243361180859
 20
-0.062328564255291
 30
0.0
 11
8.500243361180859
 21
-1.758311928805107
 31
0.0
  0
LINE
  5
B5
330
1F
100
AcDbEntity
  8
0
  6
Continuous
 62
     4
370
    25
100
AcDbLine
 10
-25.00000000000001
 20
2.500012077451939
 30
0.0
 11
-25.00000000000001
 21
-2.499987922548061
 31
0.0
  0
SPLINE
  5
B6
330
1F
100
AcDbEntity
  8
0
  6
Continuous
 62
     1
370
    25
100
AcDbSpline
210
0.0
220
0.0
230
1.0
 70
     8
 71
     3
 72
    26
 73
    22
 74
     0
 42
0.000000001
 43
0.00000001
 40
0.0
 40
0.0
 40
0.0
 40
0.0
 40
0.0121365457440853
 40
0.0703401910903549
 40
0.1286625933939554
 40
0.1869014219498379
 40
0.245067008302719
 40
0.3032633140642053
 40
0.3615802077552396
 40
0.4198299326449706
 40
0.477997688991755
 40
0.5361873911801185
 40
0.5944965094464704
 40
0.6527578584156967
 40
0.7109285251987199
 40
0.7691123608496485
 40
0.8274114382998559
 40
0.8846655423487886
 40
0.9418154469082197
 40
0.9989166472522508
 40
1.0
 40
1.0
 40
1.0
 40
1.0
 10
19.92026672330412
 20
2.528754155129686
 30
0.0
 10
19.9777784749663
 20
2.555649885537965
 30
0.0
 10
20.31110129079549
 20
2.711530385337921
 30
0.0
 10
20.92081761026753
 20
2.880883528744136
 30
0.0
 10
21.75004457143426
 20
3.013844428514402
 30
0.0
 10
22.57831806766034
 20
2.997501225345532
 30
0.0
 10
23.40564330629607
 20
2.844828434189357
 30
0.0
 10
24.23339609153865
 20
2.559452723556667
 30
0.0
 10
25.06255825305554
 20
2.156234008671146
 30
0.0
 10
25.89095998661309
 20
1.652681151477318
 30
0.0
 10
26.71831580421365
 20
1.072439983258082
 30
0.0
 10
27.54598149074214
 20
0.4423003806553867
 30
0.0
 10
28.37505650480139
 20
-0.2074629520754571
 30
0.0
 10
29.20359226784799
 20
-0.8481263771039222
 30
0.0
 10
30.03099013251942
 20
-1.449646015340178
 30
0.0
 10
30.85857281150934
 20
-1.984271797595079
 30
0.0
 10
31.68270923727874
 20
-2.422962858573547
 30
0.0
 10
32.50165664953627
 20
-2.752421216394401
 30
0.0
 10
33.31430722033333
 20
-2.945091466904499
 30
0.0
 10
33.86062677558623
 20
-3.015727252072741
 30
0.0
 10
34.13660838481628
 20
-2.999372774873846
 30
0.0
 10
34.14174695542996
 20
-2.999068266772126
 30
0.0
  0
SPLINE
  5
B7
330
1F
100
AcDbEntity
  8
0
  6
Continuous
 62
     1
370
    25
100
AcDbSpline
210
0.0
220
0.0
230
1.0
 70
     8
 71
     3
 72
    21
 73
    17
 74
     0
 42
0.000000001
 43
0.00000001
 40
0.0
 40
0.0
 40
0.0
 40
0.0
 40
0.073973072182081
 40
0.1478089953184237
 40
0.2216393471963105
 40
0.2955958267694567
 40
0.3695845147123516
 40
0.443426946661195
 40
0.5172526656996348
 40
0.5911934715674104
 40
0.6651949025389245
 40
0.7390447798441369
 40
0.8128668051816108
 40
0.8867928586651643
 40
0.9608041576053601
 40
1.0
 40
1.0
 40
1.0
 40
1.0
 10
35.0
 20
-2.92548501761384
 30
0.0
 10
34.72355433962878
 20
-2.864572776420033
 30
0.0
 10
34.17117556023958
 20
-2.742861227773132
 30
0.0
 10
33.34366327498264
 20
-2.396622005988934
 30
0.0
 10
32.51621438311695
 20
-1.948967219197396
 30
0.0
 10
31.68753740865071
 20
-1.408690189188942
 30
0.0
 10
30.85857504681341
 20
-0.8041391177875448
 30
0.0
 10
30.03098953976648
 20
-0.1614347332329204
 30
0.0
 10
29.20359240635476
 20
0.4885988955485576
 30
0.0
 10
28.37505654459551
 20
1.115727096667564
 30
0.0
 10
27.54598119282095
 20
1.690886385310069
 30
0.0
 10
26.71831695317377
 20
2.187947691660464
 30
0.0
 10
25.89095568690758
 20
2.585265444472574
 30
0.0
 10
25.06257433593759
 20
2.855799920075294
 30
0.0
 10
24.3629301456395
 20
2.994033417010731
 30
0.0
 10
23.94021251180774
 20
2.98558574032277
 30
0.0
 10
23.79385448564667
 20
2.982660891235
 30
0.0
  0
SPLINE
  5
B8
330
1F
100
AcDbEntity
  8
0
  6
Continuous
 62
     1
370
    25
100
AcDbSpline
210
0.0
220
0.0
230
1.0
 70
     8
 71
     3
 72
    14
 73
    10
 74
     0
 42
0.000000001
 43
0.00000001
 40
0.0
 40
0.0
 40
0.0
 40
0.0
 40
0.1083767460667696
 40
0.3210579812122127
 40
0.5339110787330351
 40
0.6549624463150677
 40
0.7754292482706431
 40
0.9885611650193374
 40
0.9999999999999999
 40
0.9999999999999999
 40
0.9999999999999999
 40
0.9999999999999999
 10
13.88889605342427
 20
-2.523711417520536
 30
0.0
 10
13.7483915990785
 20
-2.58496004965407
 30
0.0
 10
13.33215769189156
 20
-2.766404528275776
 30
0.0
 10
12.64036245305074
 20
-2.935240085029046
 30
0.0
 10
11.93195470859994
 20
-3.011120081358495
 30
0.0
 10
11.34245294893703
 20
-2.992012455635225
 30
0.0
 10
10.75389579039218
 20
-2.917535920578311
 30
0.0
 10
10.30576993901717
 20
-2.803666787442823
 30
0.0
 10
10.01481995677896
 20
-2.705457292653028
 30
0.0
 10
9.999999999999993
 20
-2.700454850457044
 30
0.0
  0
LINE
  5
B9
330
1F
100
AcDbEntity
  8
0
  6
Continuous
 62
     1
370
    25
100
AcDbLine
 10
34.99999999999999
 20
-2.999987922548063
 30
0.0
 11
34.99999999999999
 21
-2.925485017613843
 31
0.0
  0
SPLINE
  5
BA
330
1F
100
AcDbEntity
  8
0
  6
Continuous
 62
     1
370
    25
100
AcDbSpline
210
0.0
220
0.0
230
1.0
 70
     8
 71
     3
 72
    16
 73
    12
 74
     0
 42
0.000000001
 43
0.00000001
 40
0.0
 40
0.0
 40
0.0
 40
0.0
 40
0.1000953403205009
 40
0.1996818800494147
 40
0.2997496375457888
 40
0.4366297188492191
 40
0.573399280098261
 40
0.7103028891903133
 40
0.8474559596815016
 40
0.9843565068362828
 40
0.9999999999999999
 40
0.9999999999999999
 40
0.9999999999999999
 40
0.9999999999999999
 10
10.0
 20
0.0120507169004052
 30
0.0
 10
10.20202177445126
 20
-0.1452018233829325
 30
0.0
 10
10.60503841442849
 20
-0.4589075641874518
 30
0.0
 10
11.20790198434046
 20
-0.9212341225931936
 30
0.0
 10
11.88725816608654
 20
-1.411508681700203
 30
0.0
 10
12.64031700451541
 20
-1.909067447067815
 30
0.0
 10
13.46765291435131
 20
-2.365765778445414
 30
0.0
 10
14.29569937978334
 20
-2.716757032678216
 30
0.0
 10
15.12496752098038
 20
-2.927456360965986
 30
0.0
 10
15.70888546673246
 20
-3.017523774741422
 30
0.0
 10
16.01629264745319
 20
-2.995232496798865
 30
0.0
 10
16.0478174590423
 20
-2.992946511365564
 30
0.0
  0
SPLINE
  5
BB
330
1F
100
AcDbEntity
  8
0
  6
Continuous
 62
     1
370
    25
100
AcDbSpline
210
0.0
220
0.0
230
1.0
 70
     8
 71
     3
 72
    19
 73
    15
 74
     0
 42
0.000000001
 43
0.00000001
 40
0.0
 40
0.0
 40
0.0
 40
0.0
 40
0.0856132253179
 40
0.1782348747618767
 40
0.2710466010355579
 40
0.3637822920156018
 40
0.4563736424449049
 40
0.5489859540102997
 40
0.6417816981270338
 40
0.7329141383186537
 40
0.8238807222122363
 40
0.914769782685083
 40
0.9825248027783997
 40
1.0
 40
1.0
 40
1.0
 40
1.0
 10
25.95355868329211
 20
2.534378413487628
 30
0.0
 10
26.2084490985543
 20
2.632587065163622
 30
0.0
 10
26.73909563211928
 20
2.837043872707163
 30
0.0
 10
27.5459760119477
 20
2.989123528614094
 30
0.0
 10
28.37505797657797
 20
3.016680340845951
 30
0.0
 10
29.20359186041067
 20
2.90184325917626
 30
0.0
 10
30.03099029342746
 20
2.653166322087475
 30
0.0
 10
30.8585725748021
 20
2.281193668711281
 30
0.0
 10
31.68271001849073
 20
1.806854961978328
 30
0.0
 10
32.50165381967356
 20
1.253297289151173
 30
0.0
 10
33.31431775581679
 20
0.6468383804586302
 30
0.0
 10
34.05709359903076
 20
0.0655243248167202
 30
0.0
 10
34.58252091174565
 20
-0.3432742786365903
 30
0.0
 10
34.83603102392175
 20
-0.5383973842971084
 30
0.0
 10
34.88800952811327
 20
-0.5784044951708233
 30
0.0
  0
SPLINE
  5
BC
330
1F
100
AcDbEntity
  8
0
  6
Continuous
 62
     1
370
    25
100
AcDbSpline
210
0.0
220
0.0
230
1.0
 70
     8
 71
     3
 72
    12
 73
     8
 74
     0
 42
0.000000001
 43
0.00000001
 40
0.0
 40
0.0
 40
0.0
 40
0.0
 40
0.5
 40
0.5
 40
0.75
 40
0.75
 40
1.0
 40
1.0
 40
1.0
 40
1.0
 10
34.99999999999999
 20
-2.394162406267617
 30
0.0
 10
34.7348557101981
 20
-2.320900211930157
 30
0.0
 10
34.47449527444545
 20
-2.221493588414656
 30
0.0
 10
34.09416963146538
 20
-2.016557196122801
 30
0.0
 10
33.96881030698526
 20
-1.939010100564858
 30
0.0
 10
33.72372358562488
 20
-1.759250804240068
 30
0.0
 10
33.60837778720307
 20
-1.65917663657734
 30
0.0
 10
33.49851133582255
 20
-1.551341603741543
 30
0.0
  0
LINE
  5
BD
330
1F
100
AcDbEntity
  8
0
  6
Continuous
 62
     1
370
    25
100
AcDbLine
 10
34.99999999999999
 20
-2.925485017613843
 30
0.0
 11
34.99999999999999
 21
-2.394162406267618
 31
0.0
  0
SPLINE
  5
BE
330
1F
100
AcDbEntity
  8
0
  6
Continuous
 62
     1
370
    25
100
AcDbSpline
210
0.0
220
0.0
230
1.0
 70
    24
 71
     3
 72
    19
 73
    15
 74
     0
 42
0.000000001
 43
0.00000001
 40
0.0
 40
0.0
 40
0.0
 40
0.0
 40
0.0835483344586307
 40
0.1977850849963255
 40
0.3157213936491042
 40
0.3888016672597295
 40
0.4638273479609154
 40
0.5369819862258839
 40
0.6125473269787282
 40
0.6816162973947383
 40
0.7523921029768805
 40
0.8277782365256519
 40
0.9047149812064758
 40
0.9999999999999999
 40
0.9999999999999999
 40
0.9999999999999999
 40
0.9999999999999999
 10
34.8839329590915
 20
-0.5812589395298975
 30
0.0
 10
34.88364824671647
 20
-0.5814582972811162
 30
0.0
 10
34.88297424331878
 20
-0.5819302395409461
 30
0.0
 10
34.83797145074237
 20
-0.6134415341434465
 30
0.0
 10
34.76145567144182
 20
-0.6670184596016727
 30
0.0
 10
34.66209385797885
 20
-0.736592350398625
 30
0.0
 10
34.5589739691159
 20
-0.8087976739197952
 30
0.0
 10
34.43546099979248
 20
-0.8952823861068541
 30
0.0
 10
34.30004733498957
 20
-0.9901000549778666
 30
0.0
 10
34.15625477590508
 20
-1.09078468878941
 30
0.0
 10
34.00705606236669
 20
-1.195254752697765
 30
0.0
 10
33.85050839573631
 20
-1.304870608963646
 30
0.0
 10
33.67773525116219
 20
-1.425847667192815
 30
0.0
 10
33.56235029346146
 20
-1.506641084371162
 30
0.0
 10
33.49851133582216
 20
-1.551341603741808
 30
0.0
  0
SPLINE
  5
BF
330
1F
100
AcDbEntity
  8
0
  6
Continuous
 62
     1
370
    25
100
AcDbSpline
210
0.0
220
0.0
230
1.0
 70
     8
 71
     3
 72
    26
 73
    22
 74
     0
 42
0.000000001
 43
0.00000001
 40
0.0
 40
0.0
 40
0.0
 40
0.0
 40
0.0043810871931408
 40
0.0626305349670472
 40
0.120947151222709
 40
0.1791431801225052
 40
0.2373084897598395
 40
0.295547041251735
 40
0.3538691660937567
 40
0.4120725345434187
 40
0.4702364149731218
 40
0.5284647996086979
 40
0.5867901652290924
 40
0.64500160809919
 40
0.7031648003192845
 40
0.76138374909623
 40
0.8197100870947142
 40
0.877930338005017
 40
0.9360935831204703
 40
0.9943038284964707
 40
1.0
 40
1.0
 40
1.0
 40
1.0
 10
25.95355868329208
 20
-2.534354258583744
 30
0.0
 10
25.93279761439403
 20
-2.544300928861316
 30
0.0
 10
25.63600442260177
 20
-2.686495149875798
 30
0.0
 10
25.06253946646224
 20
-2.85240966173042
 30
0.0
 10
24.23340112784281
 20
-3.005545459711785
 30
0.0
 10
23.40564191598637
 20
-3.007336884455311
 30
0.0
 10
22.57831860060909
 20
-2.872957771396235
 30
0.0
 10
21.75004382995619
 20
-2.604506121620006
 30
0.0
 10
20.92082004371754
 20
-2.216134553644218
 30
0.0
 10
20.09297309206515
 20
-1.724388658899033
 30
0.0
 10
19.26566836434316
 20
-1.152857974412352
 30
0.0
 10
18.43751464896028
 20
-0.5277890221349874
 30
0.0
 10
17.6082544120457
 20
0.1208026496989492
 30
0.0
 10
16.78030648709843
 20
0.7648238147949461
 30
0.0
 10
15.95301159985878
 20
1.373162463697917
 30
0.0
 10
15.12497133835733
 20
1.918110529084982
 30
0.0
 10
14.29570133856725
 20
2.372928567110071
 30
0.0
 10
13.4676412979355
 20
2.72057027671876
 30
0.0
 10
12.64036148611859
 20
2.934245469415947
 30
0.0
 10
12.06180616246201
 20
3.008746580249124
 30
0.0
 10
11.7587727877894
 20
2.997789483893833
 30
0.0
 10
11.73176250998456
 20
2.996812844879035
 30
0.0
  0
SPLINE
  5
C0
330
1F
100
AcDbEntity
  8
0
  6
Continuous
 62
     1
370
    25
100
AcDbSpline
210
0.0
220
0.0
230
1.0
 70
     8
 71
     3
 72
    25
 73
    21
 74
     0
 42
0.000000001
 43
0.00000001
 40
0.0
 40
0.0
 40
0.0
 40
0.0
 40
0.028581418250018
 40
0.086906985843353
 40
0.1451251656336024
 40
0.2032875896034632
 40
0.2614982635860071
 40
0.3198228588140963
 40
0.3780504743383429
 40
0.4362135865087222
 40
0.4944161861774818
 40
0.5527375406700037
 40
0.6109753229162803
 40
0.6691398642754133
 40
0.7273351244912514
 40
0.785650970470174
 40
0.8438996488545372
 40
0.9020663601685878
 40
0.9602550169299419
 40
1.0
 40
1.0
 40
1.0
 40
1.0
 10
13.88889605342424
 20
2.52373557242442
 30
0.0
 10
14.02436416351407
 20
2.583086393050635
 30
0.0
 10
14.43627952134609
 20
2.7635533272956
 30
0.0
 10
15.12499096139089
 20
2.932361727732908
 30
0.0
 10
15.95300635173945
 20
3.023485891049799
 30
0.0
 10
16.78030789400421
 20
2.968156068404836
 30
0.0
 10
17.60825403396569
 20
2.776827902135575
 30
0.0
 10
18.43751475063373
 20
2.456873169676645
 30
0.0
 10
19.26566833541271
 20
2.022758104195602
 30
0.0
 10
20.09297310630867
 20
1.494889009081209
 30
0.0
 10
20.92082001562991
 20
0.8975293715645712
 30
0.0
 10
21.7500439281928
 20
0.2595646026191135
 30
0.0
 10
22.57831823659266
 20
-0.3912365376136737
 30
0.0
 10
23.40564327249059
 20
-1.023871494646253
 30
0.0
 10
24.2333960577885
 20
-1.609309337232416
 30
0.0
 10
25.06255842227365
 20
-2.119024982025403
 30
0.0
 10
25.89095934482972
 20
-2.53253609507824
 30
0.0
 10
26.71831819916261
 20
-2.82346520477231
 30
0.0
 10
27.45801011251079
 20
-2.983989382094906
 30
0.0
 10
27.92255552859581
 20
-2.984600921890031
 30
0.0
 10
28.11108471764011
 20
-2.984849106669497
 30
0.0
  0
SPLINE
  5
C1
330
1F
100
AcDbEntity
  8
0
  6
Continuous
 62
     1
370
    25
100
AcDbSpline
210
0.0
220
0.0
230
1.0
 70
     8
 71
     3
 72
    25
 73
    21
 74
     0
 42
0.000000001
 43
0.00000001
 40
0.0
 40
0.0
 40
0.0
 40
0.0
 40
0.0208695688288836
 40
0.0791669883614512
 40
0.1373491693720038
 40
0.1955181818891488
 40
0.2537778740136636
 40
0.3120853340768337
 40
0.3702733814579879
 40
0.4284394836216611
 40
0.4866875519972487
 40
0.5450027872639825
 40
0.6031974380304658
 40
0.6613613702619465
 40
0.7195985426135567
 40
0.7779192863362023
 40
0.8361212764787445
 40
0.8942837795364388
 40
0.9525107852724896
 40
1.0
 40
1.0
 40
1.0
 40
1.0
 10
31.98450107940157
 20
-2.525078364400541
 30
0.0
 10
31.88554448219111
 20
-2.569814098893616
 30
0.0
 10
31.51016079104333
 20
-2.739515418599494
 30
0.0
 10
30.85855743680781
 20
-2.909575349536988
 30
0.0
 10
30.03099424745369
 20
-3.020330498211227
 30
0.0
 10
29.20359116347674
 20
-2.983250817192494
 30
0.0
 10
28.3750568011821
 20
-2.810011456520246
 30
0.0
 10
27.54598141155535
 20
-2.506323660817087
 30
0.0
 10
26.71831582512311
 20
-2.086202080003759
 30
0.0
 10
25.89095998204883
 20
-1.56941150882687
 30
0.0
 10
25.06255825036828
 20
-0.9799710154440305
 30
0.0
 10
24.23339610686707
 20
-0.3458017087553607
 30
0.0
 10
23.40564324782446
 20
0.3053382900919068
 30
0.0
 10
22.57831828626032
 20
0.9421019628445237
 30
0.0
 10
21.75004375384867
 20
1.535267567342045
 30
0.0
 10
20.92082066368694
 20
2.056366401591982
 30
0.0
 10
20.09297069483733
 20
2.484058666637558
 30
0.0
 10
19.26567733292365
 20
2.792391929687449
 30
0.0
 10
18.488841279343
 20
2.974381505232687
 30
0.0
 10
17.98734061663977
 20
2.984789840444817
 30
0.0
 10
17.76205945777247
 20
2.989465411172537
 30
0.0
  0
SPLINE
  5
C2
330
1F
100
AcDbEntity
  8
0
  6
Continuous
 62
     1
370
    25
100
AcDbSpline
210
0.0
220
0.0
230
1.0
 70
     8
 71
     3
 72
    14
 73
    10
 74
     0
 42
0.000000001
 43
0.00000001
 40
0.0
 40
0.0
 40
0.0
 40
0.0
 40
0.160222067441315
 40
0.3201470767369075
 40
0.4800600189583376
 40
0.6402461476177504
 40
0.8005020380355684
 40
0.9604411451016698
 40
1.0
 40
1.0
 40
1.0
 40
1.0
 10
35.0
 20
0.6644417176409477
 30
0.0
 10
34.72355432264452
 20
0.8717992117799434
 30
0.0
 10
34.17117550931828
 20
1.286129750938695
 30
0.0
 10
33.34366347822093
 20
1.840701752987005
 30
0.0
 10
32.51621362044072
 20
2.311282517321204
 30
0.0
 10
31.68754026193704
 20
2.676895913270236
 30
0.0
 10
30.85856440227992
 20
2.90746366155581
 30
0.0
 10
30.23846382865095
 20
3.010626732494664
 30
0.0
 10
29.89453397002352
 20
2.990955842302567
 30
0.0
 10
29.82633542183448
 20
2.987055261649172
 30
0.0
  0
SPLINE
  5
C3
330
1F
100
AcDbEntity
  8
0
  6
Continuous
 62
     1
370
    25
100
AcDbSpline
210
0.0
220
0.0
230
1.0
 70
     8
 71
     3
 72
    21
 73
    17
 74
     0
 42
0.000000001
 43
0.00000001
 40
0.0
 40
0.0
 40
0.0
 40
0.0
 40
0.0659835108144522
 40
0.1494580038280763
 40
0.2330715259181614
 40
0.3165217317170032
 40
0.3999027668086067
 40
0.4833637328538929
 40
0.5669786489164974
 40
0.650441481661719
 40
0.7338225925825475
 40
0.8172710816892079
 40
0.8647289474504868
 40
0.9119576358172164
 40
0.995515435258426
 40
1.0
 40
1.0
 40
1.0
 40
1.0
 10
19.92026672330412
 20
-2.5287300002258
 30
0.0
 10
19.70216369400555
 20
-2.616499489768052
 30
0.0
 10
19.20814264260249
 20
-2.81530450244587
 30
0.0
 10
18.43751444865091
 20
-2.974616005582274
 30
0.0
 10
17.60825445941341
 20
-3.021527213603574
 30
0.0
 10
16.78030649760393
 20
-2.924845460581368
 30
0.0
 10
15.95301151059337
 20
-2.6935545333539
 30
0.0
 10
15.12497168558525
 20
-2.337034410810705
 30
0.0
 10
14.29570003745666
 20
-1.873014772082203
 30
0.0
 10
13.46764614256604
 20
-1.321451385226744
 30
0.0
 10
12.64034341797964
 20
-0.7088741045973224
 30
0.0
 10
11.93195742967542
 20
-0.1560354002386873
 30
0.0
 10
11.34245240744857
 20
0.3034468512932502
 30
0.0
 10
10.75389607346284
 20
0.7589631002178778
 30
0.0
 10
10.30576993563292
 20
1.091335195664351
 30
0.0
 10
10.01481995661493
 20
1.296278170110031
 30
0.0
 10
9.999999999999993
 20
1.306717235959334
 30
0.0
  0
SPLINE
  5
C4
330
1F
100
AcDbEntity
  8
0
  6
Continuous
 62
     1
370
    25
100
AcDbSpline
210
0.0
220
0.0
230
1.0
 70
     8
 71
     3
 72
    23
 73
    19
 74
     0
 42
0.000000001
 43
0.00000001
 40
0.0
 40
0.0
 40
0.0
 40
0.0
 40
0.0501150502531593
 40
0.0999753577067579
 40
0.1500765979802237
 40
0.2186087807093429
 40
0.2870856290136833
 40
0.3556295914750593
 40
0.4242984525632236
 40
0.492840881994793
 40
0.5613176680242817
 40
0.62985126058914
 40
0.6985189768755173
 40
0.7670725153478362
 40
0.8355501116214039
 40
0.9040741979961895
 40
0.972738098843992
 40
1.0
 40
1.0
 40
1.0
 40
1.0
 10
10.0
 20
2.999987922548063
 30
0.0
 10
10.20202177478141
 20
2.99350027516618
 30
0.0
 10
10.60503841541728
 20
2.980557958149582
 30
0.0
 10
11.20790198040082
 20
2.86719864303717
 30
0.0
 10
11.88725818325098
 20
2.667343356379851
 30
0.0
 10
12.64031691374217
 20
2.344474995556092
 30
0.0
 10
13.46765324949702
 20
1.881711981941303
 30
0.0
 10
14.29569812756963
 20
1.331388475368537
 30
0.0
 10
15.12497219974823
 20
0.7203560860928825
 30
0.0
 10
15.95301136172722
 20
0.0750011127496375
 30
0.0
 10
16.78030657985902
 20
-0.5736911195234524
 30
0.0
 10
17.60825427898382
 20
-1.195915630143219
 30
0.0
 10
18.43751508885793
 20
-1.762000328998072
 30
0.0
 10
19.2656667418451
 20
-2.246639318776436
 30
0.0
 10
20.09297913778524
 20
-2.62936836579932
 30
0.0
 10
20.92079744444031
 20
-2.881617194097271
 30
0.0
 10
21.58364581083588
 20
-3.002159132406013
 30
0.0
 10
21.96987859591428
 20
-2.987467810113781
 30
0.0
 10
22.07964510075518
 20
-2.983292568752068
 30
0.0
  0
SPLINE
  5
C5
330
1F
100
AcDbEntity
  8
0
  6
Continuous
 62
     1
370
    25
100
AcDbSpline
210
0.0
220
0.0
230
1.0
 70
     8
 71
     3
 72
    12
 73
     8
 74
     0
 42
0.000000001
 43
0.00000001
 40
0.0
 40
0.0
 40
0.0
 40
0.0
 40
0.1781919986131414
 40
0.4580910019971772
 40
0.7377514702260594
 40
0.9462298123452971
 40
1.0
 40
1.0
 40
1.0
 40
1.0
 10
31.98450107940156
 20
2.525102519304429
 30
0.0
 10
32.15703553392717
 20
2.597690330539968
 30
0.0
 10
32.60058227995288
 20
2.784297043750815
 30
0.0
 10
33.31430689654469
 20
2.949727027621133
 30
0.0
 10
34.05709578770146
 20
3.016529971602205
 30
0.0
 10
34.58252081393026
 20
2.986774225048503
 30
0.0
 10
34.83603100727858
 20
2.95104815032127
 30
0.0
 10
34.88800952811327
 20
2.943723046367759
 30
0.0
  0
SPLINE
  5
C6
330
1F
100
AcDbEntity
  8
0
  6
Continuous
 62
     1
370
    25
100
AcDbSpline
210
0.0
220
0.0
230
1.0
 70
     8
 71
     3
 72
    14
 73
    10
 74
     0
 42
0.000000001
 43
0.00000001
 40
0.0
 40
0.0
 40
0.0
 40
0.0
 40
0.1705015478244992
 40
0.3070585406208307
 40
0.4480379327631975
 40
0.6244834113886636
 40
0.8015442262383845
 40
0.9682162568880334
 40
1.0
 40
1.0
 40
1.0
 40
1.0
 10
34.88800952811327
 20
2.943723046367759
 30
0.0
 10
34.88833918364325
 20
2.821633557328924
 30
0.0
 10
34.88893286474021
 20
2.601760947327779
 30
0.0
 10
34.83854758455185
 20
2.285567430012717
 30
0.0
 10
34.74274080882532
 20
1.981373806116415
 30
0.0
 10
34.56765250166929
 20
1.68933839844559
 30
0.0
 10
34.30648170456361
 20
1.49034157714047
 30
0.0
 10
34.08885708443832
 20
1.407308279204112
 30
0.0
 10
33.97281892719677
 20
1.41800963502811
 30
0.0
 10
33.9542348018219
 20
1.419723513833512
 30
0.0
  0
LINE
  5
C7
330
1F
100
AcDbEntity
  8
0
  6
Continuous
 62
     1
370
    25
100
AcDbLine
 10
34.99999999999999
 20
0.6894352080324052
 30
0.0
 11
34.76622241883997
 21
0.8366803395311645
 31
0.0
  0
LINE
  5
C8
330
1F
100
AcDbEntity
  8
0
  6
Continuous
 62
     1
370
    25
100
AcDbLine
 10
34.99999999999999
 20
0.6669760023000929
 30
0.0
 11
34.99999999999999
 21
0.6894352080324052
 31
0.0
  0
LINE
  5
C9
330
1F
100
AcDbEntity
  8
0
  6
Continuous
 62
     1
370
    25
100
AcDbLine
 10
34.99999999999999
 20
-0.4999879225480667
 30
0.0
 11
34.99999999999999
 21
0.6644417176409478
 31
0.0
  0
LINE
  5
CA
330
1F
100
AcDbEntity
  8
0
  6
Continuous
 62
     1
370
    25
100
AcDbLine
 10
34.99999999999999
 20
-0.4999879225480653
 30
0.0
 11
34.88800952811327
 21
-0.5784044951708207
 31
0.0
  0
LINE
  5
CB
330
1F
100
AcDbEntity
  8
0
  6
Continuous
 62
     1
370
    25
100
AcDbLine
 10
34.99999999999999
 20
2.958051969001755
 30
0.0
 11
34.99999999999999
 21
3.000012077451947
 31
0.0
  0
ELLIPSE
  5
CC
330
1F
100
AcDbEntity
  8
0
  6
Continuous
 62
     1
370
    25
100
AcDbEllipse
 10
35.71407400337105
 20
0.0000120774519421
 30
0.0
 11
4.284444020226339
 21
0.0
 31
0.0
210
0.0
220
0.0
230
1.0
 40
0.7002075382097113
 41
1.738244406014585
 42
1.764816845379183
  0
LINE
  5
CD
330
1F
100
AcDbEntity
  8
0
  6
Continuous
 62
     1
370
    25
100
AcDbLine
 10
34.99999999999999
 20
-0.4999879225480563
 30
0.0
 11
34.99999999999999
 21
-2.394162406267614
 31
0.0
  0
LINE
  5
CE
330
1F
100
AcDbEntity
  8
0
  6
Continuous
 62
     1
370
    25
100
AcDbLine
 10
34.99999999999999
 20
0.6894352080324052
 30
0.0
 11
34.99999999999999
 21
2.958051969001755
 31
0.0
  0
LINE
  5
CF
330
1F
100
AcDbEntity
  8
중심선
100
AcDbLine
 10
-28.0
 20
0.0000120774519377
 30
0.0
 11
37.99999999999999
 21
0.0000120774519458
 31
0.0
  0
CIRCLE
  5
D0
330
1F
100
AcDbEntity
  8
해칭선
100
AcDbCircle
 10
-0.0076315275363854
 20
-0.0000000000000043
 30
0.0
 40
3.000000000000001
  0
INSERT
  5
D1
330
1F
100
AcDbEntity
  8
0
  6
Continuous
 62
     7
100
AcDbBlockReference
 66
     1
  2
블럭10
 10
-7.448147820842455
 20
-52.04717430164393
 30
0.0
  0
ATTRIB
  5
D2
330
D1
100
AcDbEntity
  8
FORMAT
 62
     2
100
AcDbText
 10
-23.56740886027801
 20
-49.97180738881174
 30
0.0
 40
4.233333333333333
  1
SEME7106025E [ 4 FLUTE ]
 41
0.75
  7
SLDTEXTSTYLE0
 11
-23.56740886027801
 21
-52.08847405547841
 31
0.0
100
AcDbAttribute
  2
AUTOATTR0
 70
     0
 74
     1
  0
SEQEND
  5
D3
330
D1
100
AcDbEntity
  8
0
  6
Continuous
 62
     7
  0
HATCH
  5
D4
330
1F
100
AcDbEntity
  8
중심선
100
AcDbHatch
 10
0.0
 20
0.0
 30
0.0
210
0.0
220
0.0
230
1.0
  2
SOLID
 70
     1
 71
     0
 91
        1
 92
        0
 93
        4
 72
     1
 10
-1.733238516461622
 20
-35.8
 11
-5.179513760298904
 21
-35.8
 72
     1
 10
-5.179513760298904
 20
-35.8
 11
-7.307743619502927
 21
-38.33632558057262
 72
     1
 10
-7.307743619502927
 20
-38.33632558057262
 11
-3.861435290552495
 21
-38.33628615127013
 72
     1
 10
-3.861435290552495
 20
-38.33628615127013
 11
-1.733238516461622
 21
-35.8
 97
        0
 75
     0
 76
     1
 98
        1
 10
0.0
 20
0.0
  0
HATCH
  5
D5
330
1F
100
AcDbEntity
  8
중심선
100
AcDbHatch
 10
0.0
 20
0.0
 30
0.0
210
0.0
220
0.0
230
1.0
  2
SOLID
 70
     1
 71
     0
 91
        1
 92
        0
 93
        4
 72
     1
 10
3.279525474574357
 20
-35.79999999999997
 11
-0.1667497692629247
 21
-35.8
 72
     1
 10
-0.166749769262925
 20
-35.8
 11
-4.697887777620341
 21
-41.20000000000002
 72
     1
 10
-4.697887777620341
 20
-41.20000000000002
 11
-1.251612533783058
 21
-41.20000000000002
 72
     1
 10
-1.251612533783059
 20
-41.20000000000002
 11
3.279525474574357
 21
-35.79999999999997
 97
        0
 75
     0
 76
     1
 98
        1
 10
0.0
 20
0.0
  0
HATCH
  5
D6
330
1F
100
AcDbEntity
  8
중심선
100
AcDbHatch
 10
0.0
 20
0.0
 30
0.0
210
0.0
220
0.0
230
1.0
  2
SOLID
 70
     1
 71
     0
 91
        1
 92
        0
 93
        4
 72
     1
 10
8.292289465610253
 20
-35.8
 11
4.846014221773165
 21
-35.79999999999997
 72
     1
 10
4.846014221773165
 20
-35.79999999999997
 11
-2.20242268011614
 21
-44.20000000000002
 72
     1
 10
-2.20242268011614
 20
-44.20000000000002
 11
1.243852563721143
 21
-44.20000000000002
 72
     1
 10
1.243852563721143
 20
-44.20000000000002
 11
8.292289465610253
 21
-35.8
 97
        0
 75
     0
 76
     1
 98
        1
 10
0.0
 20
0.0
  0
HATCH
  5
D7
330
1F
100
AcDbEntity
  8
중심선
100
AcDbHatch
 10
0.0
 20
0.0
 30
0.0
210
0.0
220
0.0
230
1.0
  2
SOLID
 70
     1
 71
     0
 91
        1
 92
        0
 93
        6
 72
     3
 10
13.09217989662242
 20
-40.00000000005127
 11
3.960054785062284
 21
1.540850780301639E-10
 40
0.3939339440162633
 50
17.09539180608433
 51
320.0019657685081
 73
     0
 72
     1
 10
14.77517955232302
 20
-38.5878940046383
 11
17.08048142602409
 21
-36.65356729459035
 72
     3
 10
13.09217989656958
 20
-40.00000000000015
 11
6.600054785286829
 21
-1.249000902703301E-13
 40
0.6363583540795982
 50
39.99873849337411
 51
368.4976242363725
 73
     1
 72
     1
 10
19.51751238847019
 20
-39.03999999993002
 11
11.77224720340553
 21
-39.03999999993002
 72
     1
 10
11.77224720340553
 20
-39.03999999993002
 11
11.77222215895957
 21
-40.95999999992991
 72
     1
 10
11.77222215895957
 20
-40.95999999992991
 11
16.2136019284316
 21
-40.95999999992988
 97
        0
 75
     0
 76
     1
 98
        1
 10
0.0
 20
0.0
  0
DIMENSION
  5
D8
330
1F
100
AcDbEntity
  8
치수문자_일반주서
100
AcDbDimension
  2
_D
 10
44.72363953862966
 20
3.000012077451983
 30
0.0
 11
44.72363953862962
 21
12.66651207745198
 31
0.0
 70
   160
  1
%%c<>
 71
     2
 42
6.00000000000001
 52
-270.0
  3
SLDDIMSTYLE0
100
AcDbAlignedDimension
 13
35.00000000000002
 23
-2.999987922548063
 33
0.0
 14
35.00000000000002
 24
3.000012077451947
 34
0.0
 50
90.0000000000002
100
AcDbRotatedDimension
  0
DIMENSION
  5
E6
330
1F
100
AcDbEntity
  8
치수문자_일반주서
100
AcDbDimension
  2
_D_1
 10
34.99999999999999
 20
20.38914467903359
 30
0.0
 11
4.999999999999996
 21
20.38914467903359
 31
0.0
 70
   160
  1
<>
 71
     2
 42
60.0
  3
SLDDIMSTYLE1
100
AcDbAlignedDimension
 13
-25.00000000000001
 23
2.500012077451939
 33
0.0
 14
34.99999999999999
 24
3.000012077451945
 34
0.0
 50
-0.0000000000000068
100
AcDbRotatedDimension
  0
DIMENSION
  5
F1
330
1F
100
AcDbEntity
  8
치수문자_일반주서
100
AcDbDimension
  2
_D_2
 10
-33.52048113240534
 20
-2.999987922548094
 30
0.0
 11
-33.52048113240539
 21
12.66651207745191
 31
0.0
 70
   160
  1
%%c<>
 71
     2
 42
6.000000000000005
 52
-270.0
  3
SLDDIMSTYLE2
100
AcDbAlignedDimension
 13
-24.50000000000001
 23
3.000012077451945
 33
0.0
 14
-24.50000000000001
 24
-2.999987922548061
 34
0.0
 50
90.0000000000002
100
AcDbRotatedDimension
  0
DIMENSION
  5
FF
330
1F
100
AcDbEntity
  8
치수문자_일반주서
100
AcDbDimension
  2
_D_3
 10
34.99999999999999
 20
13.84590622513563
 30
0.0
 11
22.5
 21
13.84590622513563
 31
0.0
 70
   160
  1
<>
 71
     2
 42
25.0
  3
SLDDIMSTYLE1
100
AcDbAlignedDimension
 13
9.999999999999993
 23
2.999987922547982
 33
0.0
 14
34.99999999999999
 24
3.000012077451947
 34
0.0
100
AcDbRotatedDimension
  0
INSERT
  5
10F
330
1F
100
AcDbEntity
  8
해칭선
100
AcDbBlockReference
  2
SW_DOWELSYMBOL_0
 10
-0.0076315275363854
 20
-0.0000000000000043
 30
0.0
  0
LINE
  5
135
330
1F
100
AcDbEntity
  8
0
  6
Continuous
 62
     4
370
    25
100
AcDbLine
 10
10.0
 20
2.999987922548063
 30
0.0
 11
10.0
 21
-2.999987922548063
 31
0.0
  0
ENDSEC
  0
SECTION
  2
OBJECTS
  0
DICTIONARY
  5
C
330
0
100
AcDbDictionary
281
     1
  3
ACAD_GROUP
350
D
  3
ACAD_IMAGE_VARS
350
133
  3
ACAD_LAYOUT
350
1A
  3
ACAD_MLINESTYLE
350
17
  3
ACAD_PLOTSETTINGS
350
19
  3
ACAD_PLOTSTYLENAME
350
E
  3
ACAD_SCALELIST
350
47
  3
APPDATA
350
131
  3
DWGPROPS
350
143
  0
DICTIONARY
  5
D
102
{ACAD_REACTORS
330
C
102
}
330
C
100
AcDbDictionary
281
     1
  0
RASTERVARIABLES
  5
133
102
{ACAD_REACTORS
330
C
102
}
330
C
100
AcDbRasterVariables
 90
        0
 70
     1
 71
     1
 72
     1
  0
DICTIONARY
  5
1A
102
{ACAD_REACTORS
330
C
102
}
330
C
100
AcDbDictionary
281
     1
  3
Layout1
350
1E
  3
Layout2
350
26
  3
Model
350
22
  0
DICTIONARY
  5
17
102
{ACAD_REACTORS
330
C
102
}
330
C
100
AcDbDictionary
281
     1
  3
Standard
350
18
  0
DICTIONARY
  5
19
102
{ACAD_REACTORS
330
C
102
}
330
C
100
AcDbDictionary
281
     1
  0
ACDBDICTIONARYWDFLT
  5
E
102
{ACAD_REACTORS
330
C
102
}
330
C
100
AcDbDictionary
281
     1
  3
Normal
350
F
100
AcDbDictionaryWithDefault
340
F
  0
DICTIONARY
  5
47
102
{ACAD_REACTORS
330
C
102
}
330
C
100
AcDbDictionary
281
     1
  3
A0
350
48
  3
A1
350
49
  3
A2
350
4A
  3
A3
350
4B
  3
A4
350
4C
  3
A5
350
4D
  3
A6
350
4E
  3
A7
350
4F
  3
A8
350
50
  3
A9
350
51
  3
B0
350
52
  3
B1
350
53
  3
B2
350
54
  3
B3
350
55
  3
B4
350
56
  3
B5
350
57
  3
B6
350
58
  3
B7
350
59
  3
B8
350
5A
  3
B9
350
5B
  3
C0
350
5C
  3
C1
350
5D
  3
C2
350
5E
  3
C3
350
5F
  3
C4
350
60
  3
C5
350
61
  3
C6
350
62
  3
C7
350
63
  3
C8
350
64
  3
C9
350
65
  3
D0
350
66
  3
D1
350
67
  3
D2
350
68
  0
DICTIONARY
  5
131
102
{ACAD_REACTORS
330
C
102
}
330
C
100
AcDbDictionary
281
     1
  0
XRECORD
  5
143
102
{ACAD_REACTORS
330
C
102
}
330
C
100
AcDbXrecord
280
     1
  1
DWGPROPS COOKIE
  2

  3

  4

  6

  7

  8
12014102
  9

300
=
301
=
302
=
303
=
304
=
305
=
306
=
307
=
308
=
309
=
 40
0.0
 41
2458260.117978264
 42
2458267.316704954
  1

 90
        0
  0
LAYOUT
  5
1E
102
{ACAD_REACTORS
330
1A
102
}
330
1A
100
AcDbPlotSettings
  1

  2
none_device
  4

  6

 40
0.0
 41
0.0
 42
0.0
 43
0.0
 44
0.0
 45
0.0
 46
0.0
 47
0.0
 48
0.0
 49
0.0
140
0.0
141
0.0
142
1.0
143
1.0
 70
   688
 72
     1
 73
     0
 74
     5
  7

 75
    16
147
1.0
148
0.0
149
0.0
100
AcDbLayout
  1
Layout1
 70
     1
 71
     1
 10
0.0
 20
0.0
 11
420.0
 21
297.0
 12
0.0
 22
0.0
 32
0.0
 14
1.000000000000000E+20
 24
1.000000000000000E+20
 34
1.000000000000000E+20
 15
-1.000000000000000E+20
 25
-1.000000000000000E+20
 35
-1.000000000000000E+20
146
0.0
 13
0.0
 23
0.0
 33
0.0
 16
1.0
 26
0.0
 36
0.0
 17
0.0
 27
1.0
 37
0.0
 76
     0
330
1B
  0
LAYOUT
  5
26
102
{ACAD_REACTORS
330
1A
102
}
330
1A
100
AcDbPlotSettings
  1

  2
none_device
  4

  6

 40
0.0
 41
0.0
 42
0.0
 43
0.0
 44
0.0
 45
0.0
 46
0.0
 47
0.0
 48
0.0
 49
0.0
140
0.0
141
0.0
142
1.0
143
1.0
 70
   688
 72
     1
 73
     0
 74
     5
  7

 75
    16
147
1.0
148
0.0
149
0.0
100
AcDbLayout
  1
Layout2
 70
     1
 71
     2
 10
0.0
 20
0.0
 11
0.0
 21
0.0
 12
0.0
 22
0.0
 32
0.0
 14
0.0
 24
0.0
 34
0.0
 15
0.0
 25
0.0
 35
0.0
146
0.0
 13
0.0
 23
0.0
 33
0.0
 16
1.0
 26
0.0
 36
0.0
 17
0.0
 27
1.0
 37
0.0
 76
     0
330
23
  0
LAYOUT
  5
22
102
{ACAD_REACTORS
330
1A
102
}
330
1A
100
AcDbPlotSettings
  1

  2
none_device
  4
ANSI_A_(11.00_x_8.50_Inches)
  6

 40
6.35
 41
19.05
 42
6.35000508
 43
19.05000254
 44
279.4
 45
215.9
 46
116.7699715256489
 47
125.3847137330092
 48
0.0
 49
0.0
140
0.0
141
0.0
142
0.1112850254374007
143
1.0
 70
  1696
 72
     0
 73
     0
 74
     0
  7

 75
     0
147
0.0235690232323232
148
0.0
149
0.0
100
AcDbLayout
  1
Model
 70
     1
 71
     0
 10
0.0
 20
0.0
 11
420.0
 21
297.0
 12
0.0
 22
0.0
 32
0.0
 14
-37.8954811324054
 24
-49.97180738881174
 34
0.0
 15
47.3409244730553
 25
24.76414467903359
 35
0.0
146
0.0
 13
0.0
 23
0.0
 33
0.0
 16
1.0
 26
0.0
 36
0.0
 17
0.0
 27
1.0
 37
0.0
 76
     0
330
1F
331
29
  0
MLINESTYLE
  5
18
102
{ACAD_REACTORS
330
17
102
}
330
17
100
AcDbMlineStyle
  2
Standard
 70
     0
  3

 62
   256
 51
90.0
 52
90.0
 71
     2
 49
0.5
 62
   256
  6
BYLAYER
 49
-0.5
 62
   256
  6
BYLAYER
  0
ACDBPLACEHOLDER
  5
F
102
{ACAD_REACTORS
330
E
102
}
330
E
  0
SCALE
  5
48
102
{ACAD_REACTORS
330
47
102
}
330
47
100
AcDbScale
 70
     0
300
1:1
140
1.0
141
1.0
290
     1
  0
SCALE
  5
49
102
{ACAD_REACTORS
330
47
102
}
330
47
100
AcDbScale
 70
     0
300
1:2
140
1.0
141
2.0
290
     0
  0
SCALE
  5
4A
102
{ACAD_REACTORS
330
47
102
}
330
47
100
AcDbScale
 70
     0
300
1:4
140
1.0
141
4.0
290
     0
  0
SCALE
  5
4B
102
{ACAD_REACTORS
330
47
102
}
330
47
100
AcDbScale
 70
     0
300
1:5
140
1.0
141
5.0
290
     0
  0
SCALE
  5
4C
102
{ACAD_REACTORS
330
47
102
}
330
47
100
AcDbScale
 70
     0
300
1:8
140
1.0
141
8.0
290
     0
  0
SCALE
  5
4D
102
{ACAD_REACTORS
330
47
102
}
330
47
100
AcDbScale
 70
     0
300
1:10
140
1.0
141
10.0
290
     0
  0
SCALE
  5
4E
102
{ACAD_REACTORS
330
47
102
}
330
47
100
AcDbScale
 70
     0
300
1:16
140
1.0
141
16.0
290
     0
  0
SCALE
  5
4F
102
{ACAD_REACTORS
330
47
102
}
330
47
100
AcDbScale
 70
     0
300
1:20
140
1.0
141
20.0
290
     0
  0
SCALE
  5
50
102
{ACAD_REACTORS
330
47
102
}
330
47
100
AcDbScale
 70
     0
300
1:30
140
1.0
141
30.0
290
     0
  0
SCALE
  5
51
102
{ACAD_REACTORS
330
47
102
}
330
47
100
AcDbScale
 70
     0
300
1:40
140
1.0
141
40.0
290
     0
  0
SCALE
  5
52
102
{ACAD_REACTORS
330
47
102
}
330
47
100
AcDbScale
 70
     0
300
1:50
140
1.0
141
50.0
290
     0
  0
SCALE
  5
53
102
{ACAD_REACTORS
330
47
102
}
330
47
100
AcDbScale
 70
     0
300
1:100
140
1.0
141
100.0
290
     0
  0
SCALE
  5
54
102
{ACAD_REACTORS
330
47
102
}
330
47
100
AcDbScale
 70
     0
300
2:1
140
2.0
141
1.0
290
     0
  0
SCALE
  5
55
102
{ACAD_REACTORS
330
47
102
}
330
47
100
AcDbScale
 70
     0
300
4:1
140
4.0
141
1.0
290
     0
  0
SCALE
  5
56
102
{ACAD_REACTORS
330
47
102
}
330
47
100
AcDbScale
 70
     0
300
8:1
140
8.0
141
1.0
290
     0
  0
SCALE
  5
57
102
{ACAD_REACTORS
330
47
102
}
330
47
100
AcDbScale
 70
     0
300
10:1
140
10.0
141
1.0
290
     0
  0
SCALE
  5
58
102
{ACAD_REACTORS
330
47
102
}
330
47
100
AcDbScale
 70
     0
300
100:1
140
100.0
141
1.0
290
     0
  0
SCALE
  5
59
102
{ACAD_REACTORS
330
47
102
}
330
47
100
AcDbScale
 70
     0
300
1/128" = 1'-0"
140
0.0078125
141
12.0
290
     0
  0
SCALE
  5
5A
102
{ACAD_REACTORS
330
47
102
}
330
47
100
AcDbScale
 70
     0
300
1/64" = 1'-0"
140
0.015625
141
12.0
290
     0
  0
SCALE
  5
5B
102
{ACAD_REACTORS
330
47
102
}
330
47
100
AcDbScale
 70
     0
300
1/32" = 1'-0"
140
0.03125
141
12.0
290
     0
  0
SCALE
  5
5C
102
{ACAD_REACTORS
330
47
102
}
330
47
100
AcDbScale
 70
     0
300
1/16" = 1'-0"
140
0.0625
141
12.0
290
     0
  0
SCALE
  5
5D
102
{ACAD_REACTORS
330
47
102
}
330
47
100
AcDbScale
 70
     0
300
3/32" = 1'-0"
140
0.09375
141
12.0
290
     0
  0
SCALE
  5
5E
102
{ACAD_REACTORS
330
47
102
}
330
47
100
AcDbScale
 70
     0
300
1/8" = 1'-0"
140
0.125
141
12.0
290
     0
  0
SCALE
  5
5F
102
{ACAD_REACTORS
330
47
102
}
330
47
100
AcDbScale
 70
     0
300
3/16" = 1'-0"
140
0.1875
141
12.0
290
     0
  0
SCALE
  5
60
102
{ACAD_REACTORS
330
47
102
}
330
47
100
AcDbScale
 70
     0
300
1/4" = 1'-0"
140
0.25
141
12.0
290
     0
  0
SCALE
  5
61
102
{ACAD_REACTORS
330
47
102
}
330
47
100
AcDbScale
 70
     0
300
3/8" = 1'-0"
140
0.375
141
12.0
290
     0
  0
SCALE
  5
62
102
{ACAD_REACTORS
330
47
102
}
330
47
100
AcDbScale
 70
     0
300
1/2" = 1'-0"
140
0.5
141
12.0
290
     0
  0
SCALE
  5
63
102
{ACAD_REACTORS
330
47
102
}
330
47
100
AcDbScale
 70
     0
300
3/4" = 1'-0"
140
0.75
141
12.0
290
     0
  0
SCALE
  5
64
102
{ACAD_REACTORS
330
47
102
}
330
47
100
AcDbScale
 70
     0
300
1" = 1'-0"
140
1.0
141
12.0
290
     0
  0
SCALE
  5
65
102
{ACAD_REACTORS
330
47
102
}
330
47
100
AcDbScale
 70
     0
300
1-1/2" = 1'-0"
140
1.5
141
12.0
290
     0
  0
SCALE
  5
66
102
{ACAD_REACTORS
330
47
102
}
330
47
100
AcDbScale
 70
     0
300
3" = 1'-0"
140
3.0
141
12.0
290
     0
  0
SCALE
  5
67
102
{ACAD_REACTORS
330
47
102
}
330
47
100
AcDbScale
 70
     0
300
6" = 1'-0"
140
6.0
141
12.0
290
     0
  0
SCALE
  5
68
102
{ACAD_REACTORS
330
47
102
}
330
47
100
AcDbScale
 70
     0
300
1'-0" = 1'-0"
140
12.0
141
12.0
290
     0
  0
ENDSEC
  0
EOF
