  0
SECTION
  2
HEADER
  9
$ACADVER
  1
AC1015
  9
$ACADMAINTVER
 70
     6
  9
$DWGCODEPAGE
  3
ANSI_949
  9
$INSBASE
 10
0.0
 20
0.0
 30
0.0
  9
$EXTMIN
 10
-46.32786406862119
 20
-49.97180738881174
 30
0.0
  9
$EXTMAX
 10
41.81175780638863
 20
24.76413260158165
 30
0.0
  9
$LIMMIN
 10
0.0
 20
0.0
  9
$LIMMAX
 10
420.0
 20
297.0
  9
$ORTHOMODE
 70
     0
  9
$REGENMODE
 70
     1
  9
$FILLMODE
 70
     1
  9
$QTEXTMODE
 70
     0
  9
$MIRRTEXT
 70
     1
  9
$LTSCALE
 40
1.0
  9
$ATTMODE
 70
     1
  9
$TEXTSIZE
 40
3.5
  9
$TRACEWID
 40
1.0
  9
$TEXTSTYLE
  7
Standard
  9
$CLAYER
  8
0
  9
$CELTYPE
  6
ByLayer
  9
$CECOLOR
 62
   256
  9
$CELTSCALE
 40
1.0
  9
$DISPSILH
 70
     0
  9
$DIMSCALE
 40
1.0
  9
$DIMASZ
 40
3.302
  9
$DIMEXO
 40
1.0
  9
$DIMDLI
 40
3.75
  9
$DIMRND
 40
0.0
  9
$DIMDLE
 40
0.0
  9
$DIMEXE
 40
1.0
  9
$DIMTP
 40
0.0
  9
$DIMTM
 40
0.0
  9
$DIMTXT
 40
3.5
  9
$DIMCEN
 40
2.5
  9
$DIMTSZ
 40
0.0
  9
$DIMTOL
 70
     0
  9
$DIMLIM
 70
     0
  9
$DIMTIH
 70
     1
  9
$DIMTOH
 70
     1
  9
$DIMSE1
 70
     0
  9
$DIMSE2
 70
     0
  9
$DIMTAD
 70
     1
  9
$DIMZIN
 70
     0
  9
$DIMBLK
  1

  9
$DIMASO
 70
     1
  9
$DIMSHO
 70
     1
  9
$DIMPOST
  1

  9
$DIMAPOST
  1

  9
$DIMALT
 70
     0
  9
$DIMALTD
 70
     3
  9
$DIMALTF
 40
0.0393700787401575
  9
$DIMLFAC
 40
1.0
  9
$DIMTOFL
 70
     1
  9
$DIMTVP
 40
0.0
  9
$DIMTIX
 70
     0
  9
$DIMSOXD
 70
     0
  9
$DIMSAH
 70
     0
  9
$DIMBLK1
  1

  9
$DIMBLK2
  1

  9
$DIMSTYLE
  2
ISO-25
  9
$DIMCLRD
 70
     0
  9
$DIMCLRE
 70
     0
  9
$DIMCLRT
 70
     0
  9
$DIMTFAC
 40
1.0
  9
$DIMGAP
 40
1.524
  9
$DIMJUST
 70
     0
  9
$DIMSD1
 70
     0
  9
$DIMSD2
 70
     0
  9
$DIMTOLJ
 70
     0
  9
$DIMTZIN
 70
     0
  9
$DIMALTZ
 70
     0
  9
$DIMALTTZ
 70
     0
  9
$DIMUPT
 70
     0
  9
$DIMDEC
 70
     2
  9
$DIMTDEC
 70
     2
  9
$DIMALTU
 70
     2
  9
$DIMALTTD
 70
     3
  9
$DIMTXSTY
  7
Standard
  9
$DIMAUNIT
 70
     0
  9
$DIMADEC
 70
     2
  9
$DIMALTRND
 40
0.0
  9
$DIMAZIN
 70
     0
  9
$DIMDSEP
 70
    44
  9
$DIMATFIT
 70
     3
  9
$DIMFRAC
 70
     0
  9
$DIMLDRBLK
  1

  9
$DIMLUNIT
 70
     2
  9
$DIMLWD
 70
    -2
  9
$DIMLWE
 70
    -2
  9
$DIMTMOVE
 70
     0
  9
$LUNITS
 70
     2
  9
$LUPREC
 70
     2
  9
$SKETCHINC
 40
1.0
  9
$FILLETRAD
 40
10.0
  9
$AUNITS
 70
     0
  9
$AUPREC
 70
     2
  9
$MENU
  1
.
  9
$ELEVATION
 40
0.0
  9
$PELEVATION
 40
0.0
  9
$THICKNESS
 40
0.0
  9
$LIMCHECK
 70
     0
  9
$CHAMFERA
 40
0.0
  9
$CHAMFERB
 40
0.0
  9
$CHAMFERC
 40
0.0
  9
$CHAMFERD
 40
0.0
  9
$SKPOLY
 70
     0
  9
$TDCREATE
 40
2458260.49184419
  9
$TDUCREATE
 40
2458260.11684419
  9
$TDUPDATE
 40
2458267.674599479
  9
$TDUUPDATE
 40
2458267.299599479
  9
$TDINDWG
 40
0.0009807639
  9
$TDUSRTIMER
 40
2458267.29861875
  9
$USRTIMER
 70
     1
  9
$ANGBASE
 50
0.0
  9
$ANGDIR
 70
     0
  9
$PDMODE
 70
     0
  9
$PDSIZE
 40
-1.0
  9
$PLINEWID
 40
0.0
  9
$SPLFRAME
 70
     0
  9
$SPLINETYPE
 70
     6
  9
$SPLINESEGS
 70
     8
  9
$HANDSEED
  5
151
  9
$SURFTAB1
 70
     6
  9
$SURFTAB2
 70
     6
  9
$SURFTYPE
 70
     6
  9
$SURFU
 70
     6
  9
$SURFV
 70
     6
  9
$UCSBASE
  2

  9
$UCSNAME
  2

  9
$UCSORG
 10
0.0
 20
0.0
 30
0.0
  9
$UCSXDIR
 10
1.0
 20
0.0
 30
0.0
  9
$UCSYDIR
 10
0.0
 20
1.0
 30
0.0
  9
$UCSORTHOREF
  2

  9
$UCSORTHOVIEW
 70
     0
  9
$UCSORGTOP
 10
0.0
 20
0.0
 30
0.0
  9
$UCSORGBOTTOM
 10
0.0
 20
0.0
 30
0.0
  9
$UCSORGLEFT
 10
0.0
 20
0.0
 30
0.0
  9
$UCSORGRIGHT
 10
0.0
 20
0.0
 30
0.0
  9
$UCSORGFRONT
 10
0.0
 20
0.0
 30
0.0
  9
$UCSORGBACK
 10
0.0
 20
0.0
 30
0.0
  9
$PUCSBASE
  2

  9
$PUCSNAME
  2

  9
$PUCSORG
 10
0.0
 20
0.0
 30
0.0
  9
$PUCSXDIR
 10
1.0
 20
0.0
 30
0.0
  9
$PUCSYDIR
 10
0.0
 20
1.0
 30
0.0
  9
$PUCSORTHOREF
  2

  9
$PUCSORTHOVIEW
 70
     0
  9
$PUCSORGTOP
 10
0.0
 20
0.0
 30
0.0
  9
$PUCSORGBOTTOM
 10
0.0
 20
0.0
 30
0.0
  9
$PUCSORGLEFT
 10
0.0
 20
0.0
 30
0.0
  9
$PUCSORGRIGHT
 10
0.0
 20
0.0
 30
0.0
  9
$PUCSORGFRONT
 10
0.0
 20
0.0
 30
0.0
  9
$PUCSORGBACK
 10
0.0
 20
0.0
 30
0.0
  9
$USERI1
 70
     0
  9
$USERI2
 70
     0
  9
$USERI3
 70
     0
  9
$USERI4
 70
     0
  9
$USERI5
 70
     0
  9
$USERR1
 40
0.0
  9
$USERR2
 40
0.0
  9
$USERR3
 40
0.0
  9
$USERR4
 40
0.0
  9
$USERR5
 40
0.0
  9
$WORLDVIEW
 70
     1
  9
$SHADEDGE
 70
     3
  9
$SHADEDIF
 70
    70
  9
$TILEMODE
 70
     1
  9
$MAXACTVP
 70
    64
  9
$PINSBASE
 10
0.0
 20
0.0
 30
0.0
  9
$PLIMCHECK
 70
     0
  9
$PEXTMIN
 10
1.000000000000000E+20
 20
1.000000000000000E+20
 30
1.000000000000000E+20
  9
$PEXTMAX
 10
-1.000000000000000E+20
 20
-1.000000000000000E+20
 30
-1.000000000000000E+20
  9
$PLIMMIN
 10
0.0
 20
0.0
  9
$PLIMMAX
 10
0.0
 20
0.0
  9
$UNITMODE
 70
     0
  9
$VISRETAIN
 70
     1
  9
$PLINEGEN
 70
     0
  9
$PSLTSCALE
 70
     1
  9
$TREEDEPTH
 70
  3020
  9
$CMLSTYLE
  2
Standard
  9
$CMLJUST
 70
     0
  9
$CMLSCALE
 40
20.0
  9
$PROXYGRAPHICS
 70
     1
  9
$MEASUREMENT
 70
     1
  9
$CELWEIGHT
370
    -1
  9
$ENDCAPS
280
     0
  9
$JOINSTYLE
280
     0
  9
$LWDISPLAY
290
     1
  9
$INSUNITS
 70
     4
  9
$HYPERLINKBASE
  1

  9
$STYLESHEET
  1

  9
$XEDIT
290
     1
  9
$CEPSNTYPE
380
     0
  9
$PSTYLEMODE
290
     1
  9
$FINGERPRINTGUID
  2
{173B776F-E64E-4F84-BB49-1B8B2BA6B360}
  9
$VERSIONGUID
  2
{FAEB1C32-E019-11D5-929B-00C0DF256EC4}
  9
$EXTNAMES
290
     1
  9
$PSVPSCALE
 40
0.0
  9
$OLESTARTUP
290
     0
  0
ENDSEC
  0
SECTION
  2
CLASSES
  0
CLASS
  1
ACDBDICTIONARYWDFLT
  2
AcDbDictionaryWithDefault
  3
ObjectDBX Classes
 90
        0
280
     0
281
     0
  0
CLASS
  1
VISUALSTYLE
  2
AcDbVisualStyle
  3
ObjectDBX Classes
 90
     4095
280
     0
281
     0
  0
CLASS
  1
MATERIAL
  2
AcDbMaterial
  3
ObjectDBX Classes
 90
     1153
280
     0
281
     0
  0
CLASS
  1
SCALE
  2
AcDbScale
  3
ObjectDBX Classes
 90
     1153
280
     0
281
     0
  0
CLASS
  1
TABLESTYLE
  2
AcDbTableStyle
  3
ObjectDBX Classes
 90
     4095
280
     0
281
     0
  0
CLASS
  1
MLEADERSTYLE
  2
AcDbMLeaderStyle
  3
ACDB_MLEADERSTYLE_CLASS
 90
     4095
280
     0
281
     0
  0
CLASS
  1
SUN
  2
AcDbSun
  3
SCENEOE
 90
     1153
280
     0
281
     0
  0
CLASS
  1
ACDBPLACEHOLDER
  2
AcDbPlaceHolder
  3
ObjectDBX Classes
 90
        0
280
     0
281
     0
  0
CLASS
  1
LAYOUT
  2
AcDbLayout
  3
ObjectDBX Classes
 90
        0
280
     0
281
     0
  0
CLASS
  1
RASTERVARIABLES
  2
AcDbRasterVariables
  3
ISM
 90
        0
280
     0
281
     0
  0
ENDSEC
  0
SECTION
  2
TABLES
  0
TABLE
  2
VPORT
  5
8
330
0
100
AcDbSymbolTable
 70
     1
  0
VPORT
  5
29
330
8
100
AcDbSymbolTableRecord
100
AcDbViewportTableRecord
  2
*Active
 70
     0
 10
0.0
 20
0.0
 11
1.0
 21
1.0
 12
-2.258053131116277
 22
-12.60383739361504
 13
0.0
 23
0.0
 14
10.0
 24
10.0
 15
10.0
 25
10.0
 16
0.0
 26
0.0
 36
1.0
 17
0.0
 27
0.0
 37
0.0
 40
76.23065879020126
 41
1.739018087855297
 42
50.0
 43
0.0
 44
0.0
 50
0.0
 51
0.0
 71
    16
 72
  2000
 73
     1
 74
     3
 75
     0
 76
     0
 77
     0
 78
     0
281
     0
 65
     1
110
0.0
120
0.0
130
0.0
111
1.0
121
0.0
131
0.0
112
0.0
122
1.0
132
0.0
 79
     0
146
0.0
  0
ENDTAB
  0
TABLE
  2
LTYPE
  5
5
330
0
100
AcDbSymbolTable
 70
     6
  0
LTYPE
  5
14
330
5
100
AcDbSymbolTableRecord
100
AcDbLinetypeTableRecord
  2
ByBlock
 70
     0
  3

 72
    65
 73
     0
 40
0.0
  0
LTYPE
  5
15
330
5
100
AcDbSymbolTableRecord
100
AcDbLinetypeTableRecord
  2
ByLayer
 70
     0
  3

 72
    65
 73
     0
 40
0.0
  0
LTYPE
  5
16
330
5
100
AcDbSymbolTableRecord
100
AcDbLinetypeTableRecord
  2
Continuous
 70
     0
  3
Solid line
 72
    65
 73
     0
 40
0.0
  0
LTYPE
  5
6E
330
5
100
AcDbSymbolTableRecord
100
AcDbLinetypeTableRecord
  2
HIDDEN
 70
     0
  3
Hidden __ __ __ __ __ __ __ __ __ __ __ __ __ __
 72
    65
 73
     2
 40
1.905
 49
1.27
 74
     0
 49
-0.635
 74
     0
  0
LTYPE
  5
6F
330
5
100
AcDbSymbolTableRecord
100
AcDbLinetypeTableRecord
  2
PHANTOM
 70
     0
  3
Phantom ______  __  __  ______  __  __  ______
 72
    65
 73
     6
 40
12.7
 49
6.35
 74
     0
 49
-1.27
 74
     0
 49
1.27
 74
     0
 49
-1.27
 74
     0
 49
1.27
 74
     0
 49
-1.27
 74
     0
  0
LTYPE
  5
70
330
5
100
AcDbSymbolTableRecord
100
AcDbLinetypeTableRecord
  2
CENTER
 70
     0
  3
Center ____ _ ____ _ ____ _ ____ _ ____ _ ____
 72
    65
 73
     4
 40
10.16
 49
6.35
 74
     0
 49
-1.27
 74
     0
 49
1.27
 74
     0
 49
-1.27
 74
     0
  0
LTYPE
  5
71
330
5
100
AcDbSymbolTableRecord
100
AcDbLinetypeTableRecord
  2
CENTERX2
 70
     0
  3
Center (2x) ________  __  ________  __  _____
 72
    65
 73
     4
 40
20.32
 49
12.7
 74
     0
 49
-2.54
 74
     0
 49
2.54
 74
     0
 49
-2.54
 74
     0
  0
LTYPE
  5
72
330
5
100
AcDbSymbolTableRecord
100
AcDbLinetypeTableRecord
  2
DOT2
 70
     0
  3
Dot (.5x) ........................................
 72
    65
 73
     2
 40
0.635
 49
0.0
 74
     0
 49
-0.635
 74
     0
  0
ENDTAB
  0
TABLE
  2
LAYER
  5
2
330
0
100
AcDbSymbolTable
 70
    17
  0
LAYER
  5
10
330
2
100
AcDbSymbolTableRecord
100
AcDbLayerTableRecord
  2
0
 70
     0
 62
     7
  6
Continuous
370
    -3
390
F
  0
LAYER
  5
73
330
2
100
AcDbSymbolTableRecord
100
AcDbLayerTableRecord
  2
FORMAT
 70
     0
 62
     2
  6
Continuous
370
    -3
390
F
  0
LAYER
  5
74
330
2
100
AcDbSymbolTableRecord
100
AcDbLayerTableRecord
  2
외형선
 70
     0
 62
   100
  6
Continuous
370
    35
390
F
  0
LAYER
  5
75
330
2
100
AcDbSymbolTableRecord
100
AcDbLayerTableRecord
  2
숨은선
 70
     0
 62
     2
  6
HIDDEN
370
    25
390
F
  0
LAYER
  5
76
330
2
100
AcDbSymbolTableRecord
100
AcDbLayerTableRecord
  2
중심선
 70
     0
 62
     1
  6
CENTERX2
370
    -3
390
F
  0
LAYER
  5
77
330
2
100
AcDbSymbolTableRecord
100
AcDbLayerTableRecord
  2
파단선
 70
     0
 62
     4
  6
Continuous
370
    -3
390
F
  0
LAYER
  5
78
330
2
100
AcDbSymbolTableRecord
100
AcDbLayerTableRecord
  2
해칭선
 70
     0
 62
   100
  6
Continuous
370
    -3
390
F
  0
LAYER
  5
79
330
2
100
AcDbSymbolTableRecord
100
AcDbLayerTableRecord
  2
가는실선
 70
     0
 62
     4
  6
Continuous
370
    -3
390
F
  0
LAYER
  5
7A
330
2
100
AcDbSymbolTableRecord
100
AcDbLayerTableRecord
  2
치수_보조선
 70
     0
 62
     4
  6
Continuous
370
    -3
390
F
  0
LAYER
  5
7B
330
2
100
AcDbSymbolTableRecord
100
AcDbLayerTableRecord
  2
치수문자_일반주서
 70
     0
 62
     7
  6
Continuous
370
    25
390
F
  0
LAYER
  5
7C
330
2
100
AcDbSymbolTableRecord
100
AcDbLayerTableRecord
  2
개별주서
 70
     0
 62
   100
  6
Continuous
370
    35
390
F
  0
LAYER
  5
7D
330
2
100
AcDbSymbolTableRecord
100
AcDbLayerTableRecord
  2
중간선
 70
     0
 62
     2
  6
Continuous
370
    25
390
F
  0
LAYER
  5
7E
330
2
100
AcDbSymbolTableRecord
100
AcDbLayerTableRecord
  2
윤곽선
 70
     0
 62
     3
  6
Continuous
370
    50
390
F
  0
LAYER
  5
7F
330
2
100
AcDbSymbolTableRecord
100
AcDbLayerTableRecord
  2
중심마크
 70
     0
 62
   100
  6
Continuous
370
    35
390
F
  0
LAYER
  5
80
330
2
100
AcDbSymbolTableRecord
100
AcDbLayerTableRecord
  2
가상선
 70
     0
 62
     4
  6
PHANTOM
370
    -3
390
F
  0
LAYER
  5
81
330
2
100
AcDbSymbolTableRecord
100
AcDbLayerTableRecord
  2
특수지정선
 70
     0
 62
     5
  6
CENTERX2
370
    70
390
F
  0
LAYER
  5
141
330
2
100
AcDbSymbolTableRecord
100
AcDbLayerTableRecord
  2
Defpoints
 70
     0
 62
     7
  6
Continuous
290
     0
370
    -3
390
F
  0
ENDTAB
  0
TABLE
  2
STYLE
  5
3
330
0
100
AcDbSymbolTable
 70
     2
  0
STYLE
  5
11
330
3
100
AcDbSymbolTableRecord
100
AcDbTextStyleTableRecord
  2
Standard
 70
     0
 40
0.0
 41
1.0
 50
0.0
 71
     0
 42
3.5
  3
txt
  4

  0
STYLE
  5
97
330
3
100
AcDbSymbolTableRecord
100
AcDbTextStyleTableRecord
  2
SLDTEXTSTYLE0
 70
     0
 40
0.0
 41
0.75
 50
0.0
 71
     0
 42
3.5
  3
TXT
  4

  0
ENDTAB
  0
TABLE
  2
VIEW
  5
6
330
0
100
AcDbSymbolTable
 70
     0
  0
ENDTAB
  0
TABLE
  2
UCS
  5
7
330
0
100
AcDbSymbolTable
 70
     0
  0
ENDTAB
  0
TABLE
  2
APPID
  5
9
330
0
100
AcDbSymbolTable
 70
     1
  0
APPID
  5
12
330
9
100
AcDbSymbolTableRecord
100
AcDbRegAppTableRecord
  2
ACAD
 70
     0
  0
ENDTAB
  0
TABLE
  2
DIMSTYLE
  5
A
330
0
100
AcDbSymbolTable
 70
     4
100
AcDbDimStyleTable
  0
DIMSTYLE
105
27
330
A
100
AcDbSymbolTableRecord
100
AcDbDimStyleTableRecord
  2
ISO-25
 70
     0
 41
2.5
 42
0.625
 43
3.75
 44
1.25
 73
     0
 74
     0
 77
     1
 78
     8
140
2.5
141
2.5
143
0.03937007874016
147
0.625
171
     3
172
     1
178
     0
271
     2
272
     2
274
     3
278
    44
283
     0
284
     8
340
11
  0
DIMSTYLE
105
E6
102
{ACAD_REACTORS
330
E5
102
}
330
A
100
AcDbSymbolTableRecord
100
AcDbDimStyleTableRecord
  2
SLDDIMSTYLE0
 70
     0
 41
3.302
 44
0.0
 45
0.000000001
 73
     0
 74
     0
 77
     1
 78
    12
 79
     3
140
3.5
147
0.875
172
     1
173
     1
178
     0
271
     1
272
     1
276
     2
284
    12
289
     0
340
97
  0
DIMSTYLE
105
F4
102
{ACAD_REACTORS
330
F3
102
}
330
A
100
AcDbSymbolTableRecord
100
AcDbDimStyleTableRecord
  2
SLDDIMSTYLE1
 70
     0
 41
3.302
 44
0.0
 45
0.000000001
 73
     0
 74
     0
 77
     1
 78
    12
 79
     3
140
3.5
147
0.875
173
     1
178
     0
271
     2
272
     2
276
     2
284
    12
340
97
  0
DIMSTYLE
105
FF
102
{ACAD_REACTORS
330
FE
330
10C
102
}
330
A
100
AcDbSymbolTableRecord
100
AcDbDimStyleTableRecord
  2
SLDDIMSTYLE2
 70
     0
 41
3.302
 44
0.0
 45
0.000000001
 73
     0
 74
     0
 77
     1
 78
    12
 79
     3
140
3.5
147
0.875
172
     1
173
     1
178
     0
271
     2
272
     2
276
     2
284
    12
289
     0
340
97
  0
ENDTAB
  0
TABLE
  2
BLOCK_RECORD
  5
1
330
0
100
AcDbSymbolTable
 70
     7
  0
BLOCK_RECORD
  5
1F
330
1
100
AcDbSymbolTableRecord
100
AcDbBlockTableRecord
  2
*Model_Space
340
22
  0
BLOCK_RECORD
  5
1B
330
1
100
AcDbSymbolTableRecord
100
AcDbBlockTableRecord
  2
*Paper_Space
340
1E
  0
BLOCK_RECORD
  5
23
330
1
100
AcDbSymbolTableRecord
100
AcDbBlockTableRecord
  2
*Paper_Space0
340
26
  0
BLOCK_RECORD
  5
82
330
1
100
AcDbSymbolTableRecord
100
AcDbBlockTableRecord
  2
블럭10
340
0
102
{BLKREFS
331
DE
102
}
  0
BLOCK_RECORD
  5
E7
330
1
100
AcDbSymbolTableRecord
100
AcDbBlockTableRecord
  2
_D
340
0
  0
BLOCK_RECORD
  5
F5
330
1
100
AcDbSymbolTableRecord
100
AcDbBlockTableRecord
  2
_D_1
340
0
  0
BLOCK_RECORD
  5
100
330
1
100
AcDbSymbolTableRecord
100
AcDbBlockTableRecord
  2
_D_2
340
0
  0
BLOCK_RECORD
  5
10D
330
1
100
AcDbSymbolTableRecord
100
AcDbBlockTableRecord
  2
_D_3
340
0
  0
BLOCK_RECORD
  5
116
330
1
100
AcDbSymbolTableRecord
100
AcDbBlockTableRecord
  2
SW_DOWELSYMBOL_0
340
0
102
{BLKREFS
331
11C
102
}
  0
ENDTAB
  0
ENDSEC
  0
SECTION
  2
BLOCKS
  0
BLOCK
  5
20
330
1F
100
AcDbEntity
  8
0
100
AcDbBlockBegin
  2
*Model_Space
 70
     0
 10
0.0
 20
0.0
 30
0.0
  3
*Model_Space
  1

  0
ENDBLK
  5
21
330
1F
100
AcDbEntity
  8
0
100
AcDbBlockEnd
  0
BLOCK
  5
1C
330
1B
100
AcDbEntity
 67
     1
  8
0
100
AcDbBlockBegin
  2
*Paper_Space
 70
     0
 10
0.0
 20
0.0
 30
0.0
  3
*Paper_Space
  1

  0
ENDBLK
  5
1D
330
1B
100
AcDbEntity
 67
     1
  8
0
100
AcDbBlockEnd
  0
BLOCK
  5
24
330
23
100
AcDbEntity
  8
0
100
AcDbBlockBegin
  2
*Paper_Space0
 70
     0
 10
0.0
 20
0.0
 30
0.0
  3
*Paper_Space0
  1

  0
ENDBLK
  5
25
330
23
100
AcDbEntity
  8
0
100
AcDbBlockEnd
  0
BLOCK
  5
83
330
82
100
AcDbEntity
  8
0
100
AcDbBlockBegin
  2
블럭10
 70
     2
 10
0.0
 20
0.0
 30
0.0
  3
블럭10
  1

  0
ELLIPSE
  5
85
330
82
100
AcDbEntity
  8
중심선
100
AcDbEllipse
 10
20.54032771741204
 20
12.0471743016438
 30
0.0
 11
6.600054785286829
 21
-1.261213355974178E-13
 31
0.0
210
0.0
220
0.0
230
1.0
 40
0.636358354079598
 41
0.9219305317359503
 42
6.513795318482858
  0
ELLIPSE
  5
86
330
82
100
AcDbEntity
  8
중심선
100
AcDbEllipse
 10
20.54032771746488
 20
12.04717430159265
 30
0.0
 11
3.960054785062283
 21
1.540847449632565E-10
 31
0.0
210
0.0
220
0.0
230
1.0
 40
0.3939339440162632
 41
1.131841032648279
 42
5.62031148352944
  0
LINE
  5
87
330
82
100
AcDbEntity
  8
중심선
100
AcDbLine
 10
2.268634060543552
 20
16.24717430164393
 30
0.0
 11
5.714909304380834
 21
16.24717430164393
 31
0.0
  0
LINE
  5
88
330
82
100
AcDbEntity
  8
중심선
100
AcDbLine
 10
5.245725140726316
 20
7.84717430164391
 30
0.0
 11
8.692000384563599
 21
7.84717430164391
 31
0.0
  0
LINE
  5
89
330
82
100
AcDbEntity
  8
중심선
100
AcDbLine
 10
15.74043728645272
 20
16.24717430164393
 30
0.0
 11
8.692000384563599
 21
7.84717430164391
 31
0.0
  0
LINE
  5
8A
330
82
100
AcDbEntity
  8
중심선
100
AcDbLine
 10
0.1404042013395286
 20
13.71084872107135
 30
0.0
 11
3.58671253028996
 21
13.71088815037384
 31
0.0
  0
LINE
  5
8B
330
82
100
AcDbEntity
  8
중심선
100
AcDbLine
 10
2.750260043222114
 20
10.84717430164391
 30
0.0
 11
6.196535287059397
 21
10.84717430164391
 31
0.0
  0
LINE
  5
8C
330
82
100
AcDbEntity
  8
중심선
100
AcDbLine
 10
12.29416204261559
 20
16.24717430164393
 30
0.0
 11
5.245725140726316
 21
7.84717430164391
 31
0.0
  0
LINE
  5
8D
330
82
100
AcDbEntity
  8
중심선
100
AcDbLine
 10
10.72767329541681
 20
16.24717430164393
 30
0.0
 11
6.196535287059397
 21
10.84717430164391
 31
0.0
  0
LINE
  5
8E
330
82
100
AcDbEntity
  8
중심선
100
AcDbLine
 10
7.28139805157953
 20
16.24717430164393
 30
0.0
 11
2.750260043222114
 21
10.84717430164391
 31
0.0
  0
LINE
  5
8F
330
82
100
AcDbEntity
  8
중심선
100
AcDbLine
 10
5.714909304380834
 20
16.24717430164393
 30
0.0
 11
3.58671253028996
 21
13.71088815037384
 31
0.0
  0
LINE
  5
90
330
82
100
AcDbEntity
  8
중심선
100
AcDbLine
 10
2.268634060543552
 20
16.24717430164393
 30
0.0
 11
0.1404042013395286
 21
13.71084872107135
 31
0.0
  0
LINE
  5
91
330
82
100
AcDbEntity
  8
중심선
100
AcDbLine
 10
7.28139805157953
 20
16.24717430164393
 30
0.0
 11
10.72767329541681
 21
16.24717430164393
 31
0.0
  0
LINE
  5
92
330
82
100
AcDbEntity
  8
중심선
100
AcDbLine
 10
12.29416204261559
 20
16.24717430164393
 30
0.0
 11
15.74043728645272
 21
16.24717430164393
 31
0.0
  0
LINE
  5
93
330
82
100
AcDbEntity
  8
중심선
100
AcDbLine
 10
19.22036997980202
 20
11.08717430171403
 30
0.0
 11
23.66174974927406
 21
11.08717430171406
 31
0.0
  0
LINE
  5
94
330
82
100
AcDbEntity
  8
중심선
100
AcDbLine
 10
19.22039502424796
 20
13.00717430171391
 30
0.0
 11
19.22036997980202
 21
11.08717430171403
 31
0.0
  0
LINE
  5
95
330
82
100
AcDbEntity
  8
중심선
100
AcDbLine
 10
19.22039502424796
 20
13.00717430171391
 30
0.0
 11
26.96566020931264
 21
13.00717430171391
 31
0.0
  0
LINE
  5
96
330
82
100
AcDbEntity
  8
중심선
100
AcDbLine
 10
22.22332737316547
 20
13.45928029700563
 30
0.0
 11
24.52862924686651
 21
15.39360700705356
 31
0.0
  0
ATTDEF
  5
98
330
82
100
AcDbEntity
  8
FORMAT
 62
     2
100
AcDbText
 10
-16.11926103943555
 20
2.075366912832191
 30
0.0
 40
4.233333333333333
  1
SEME7105020E [ 4 FLUTE ]
 41
0.75
  7
SLDTEXTSTYLE0
 11
-16.11926103943555
 21
-0.0412997538344756
 31
0.0
100
AcDbAttributeDefinition
  3

  2
AUTOATTR0
 70
     0
 74
     1
  0
ENDBLK
  5
84
330
82
100
AcDbEntity
  8
0
100
AcDbBlockEnd
  0
BLOCK
  5
E8
330
E7
100
AcDbEntity
  8
0
100
AcDbBlockBegin
  2
_D
 70
     0
 10
0.0
 20
0.0
 30
0.0
  3
_D
  1

  0
LINE
  5
EA
330
E7
100
AcDbEntity
  8
치수문자_일반주서
 62
     0
370
    -2
100
AcDbLine
 10
24.92852540378446
 20
-2.500000000000006
 30
0.0
 11
33.93743969426037
 21
-2.499999999999973
 31
0.0
  0
LINE
  5
EB
330
E7
100
AcDbEntity
  8
치수문자_일반주서
 62
     0
370
    -2
100
AcDbLine
 10
24.92852540378446
 20
2.500000000000006
 30
0.0
 11
33.93743969426036
 21
2.500000000000039
 31
0.0
  0
LINE
  5
EC
330
E7
100
AcDbEntity
  8
치수문자_일반주서
 62
     0
370
    -2
100
AcDbLine
 10
33.93743969426037
 20
-2.499999999999973
 30
0.0
 11
33.93743969426032
 21
15.22900000000004
 31
0.0
  0
LINE
  5
ED
330
E7
100
AcDbEntity
  8
치수문자_일반주서
 62
     0
370
    -2
100
AcDbLine
 10
33.93743969426037
 20
-2.499999999999973
 30
0.0
 11
33.93743969426036
 21
2.500000000000039
 31
0.0
  0
LINE
  5
EE
330
E7
100
AcDbEntity
  8
치수문자_일반주서
 62
     0
370
    -2
100
AcDbLine
 10
33.93743969426038
 20
-5.801999999999973
 30
0.0
 11
33.93743969426038
 21
-9.103999999999973
 31
0.0
  0
LINE
  5
EF
330
E7
100
AcDbEntity
  8
치수문자_일반주서
 62
     0
370
    -2
100
AcDbLine
 10
33.93743969426035
 20
5.802000000000039
 30
0.0
 11
33.93743969426034
 21
9.104000000000038
 31
0.0
  0
SOLID
  5
F0
330
E7
100
AcDbEntity
  8
치수문자_일반주서
 62
     0
100
AcDbTrace
 10
34.48777302759371
 20
-5.801999999999971
 30
0.0
 11
33.38710636092704
 21
-5.801999999999975
 31
0.0
 12
33.93743969426037
 22
-2.499999999999973
 32
0.0
 13
33.93743969426037
 23
-2.499999999999973
 33
0.0
  0
SOLID
  5
F1
330
E7
100
AcDbEntity
  8
치수문자_일반주서
 62
     0
100
AcDbTrace
 10
33.38710636092701
 20
5.802000000000037
 30
0.0
 11
34.48777302759368
 21
5.80200000000004
 31
0.0
 12
33.93743969426036
 22
2.500000000000039
 32
0.0
 13
33.93743969426036
 23
2.500000000000039
 33
0.0
  0
MTEXT
  5
F2
330
E7
100
AcDbEntity
  8
치수문자_일반주서
 62
     0
100
AcDbMText
 10
29.56243969426033
 20
12.16650000000003
 30
0.0
 40
3.5
 41
0.0
 71
     2
 72
     1
  1
\A1;%%c5
  7
SLDTEXTSTYLE0
 11
-2.842170943040394E-15
 21
1.0
 31
0.0
 73
     1
 44
1.0
  0
POINT
  5
14B
330
E7
100
AcDbEntity
  8
Defpoints
 62
     0
100
AcDbPoint
 10
24.86602540378446
 20
-2.500000000000006
 30
0.0
  0
POINT
  5
14C
330
E7
100
AcDbEntity
  8
Defpoints
 62
     0
100
AcDbPoint
 10
24.86602540378446
 20
2.500000000000005
 30
0.0
  0
POINT
  5
14D
330
E7
100
AcDbEntity
  8
Defpoints
 62
     0
100
AcDbPoint
 10
33.93743969426035
 20
2.500000000000039
 30
0.0
  0
ENDBLK
  5
E9
330
E7
100
AcDbEntity
  8
0
100
AcDbBlockEnd
  0
BLOCK
  5
F6
330
F5
100
AcDbEntity
  8
0
100
AcDbBlockBegin
  2
_D_1
 70
     0
 10
0.0
 20
0.0
 30
0.0
  3
_D_1
  1

  0
LINE
  5
F8
330
F5
100
AcDbEntity
  8
치수문자_일반주서
 62
     0
370
    -2
100
AcDbLine
 10
-35.13397459621557
 20
2.562499999999995
 30
0.0
 11
-35.13397459621557
 21
20.38913260158165
 31
0.0
  0
LINE
  5
F9
330
F5
100
AcDbEntity
  8
치수문자_일반주서
 62
     0
370
    -2
100
AcDbLine
 10
24.86602540378443
 20
2.562500000000004
 30
0.0
 11
24.86602540378443
 21
20.38913260158165
 31
0.0
  0
LINE
  5
FA
330
F5
100
AcDbEntity
  8
치수문자_일반주서
 62
     0
370
    -2
100
AcDbLine
 10
-31.83197459621557
 20
20.38913260158165
 30
0.0
 11
21.56402540378443
 21
20.38913260158165
 31
0.0
  0
SOLID
  5
FB
330
F5
100
AcDbEntity
  8
치수문자_일반주서
 62
     0
100
AcDbTrace
 10
-31.83197459621557
 20
20.93946593491498
 30
0.0
 11
-31.83197459621557
 21
19.83879926824831
 31
0.0
 12
-35.13397459621557
 22
20.38913260158165
 32
0.0
 13
-35.13397459621557
 23
20.38913260158165
 33
0.0
  0
SOLID
  5
FC
330
F5
100
AcDbEntity
  8
치수문자_일반주서
 62
     0
100
AcDbTrace
 10
21.56402540378443
 20
19.83879926824831
 30
0.0
 11
21.56402540378443
 21
20.93946593491498
 31
0.0
 12
24.86602540378443
 22
20.38913260158165
 32
0.0
 13
24.86602540378443
 23
20.38913260158165
 33
0.0
  0
MTEXT
  5
FD
330
F5
100
AcDbEntity
  8
치수문자_일반주서
 62
     0
100
AcDbMText
 10
-5.133974596215563
 20
24.76413260158165
 30
0.0
 40
3.5
 41
0.0
 71
     2
 72
     1
  1
\A1;60
  7
SLDTEXTSTYLE0
 73
     1
 44
1.0
  0
POINT
  5
142
330
F5
100
AcDbEntity
  8
Defpoints
 62
     0
100
AcDbPoint
 10
-35.13397459621557
 20
2.499999999999995
 30
0.0
  0
POINT
  5
143
330
F5
100
AcDbEntity
  8
Defpoints
 62
     0
100
AcDbPoint
 10
24.86602540378443
 20
2.500000000000004
 30
0.0
  0
POINT
  5
144
330
F5
100
AcDbEntity
  8
Defpoints
 62
     0
100
AcDbPoint
 10
24.86602540378443
 20
20.38913260158165
 30
0.0
  0
ENDBLK
  5
F7
330
F5
100
AcDbEntity
  8
0
100
AcDbBlockEnd
  0
BLOCK
  5
101
330
100
100
AcDbEntity
  8
0
100
AcDbBlockBegin
  2
_D_2
 70
     0
 10
0.0
 20
0.0
 30
0.0
  3
_D_2
  1

  0
LINE
  5
103
330
100
100
AcDbEntity
  8
치수문자_일반주서
 62
     0
370
    -2
100
AcDbLine
 10
-34.69647459621554
 20
3.000000000000002
 30
0.0
 11
-41.95286406862115
 21
2.999999999999975
 31
0.0
  0
LINE
  5
104
330
100
100
AcDbEntity
  8
치수문자_일반주서
 62
     0
370
    -2
100
AcDbLine
 10
-34.69647459621557
 20
-3.000000000000003
 30
0.0
 11
-41.95286406862112
 21
-3.000000000000032
 31
0.0
  0
LINE
  5
105
330
100
100
AcDbEntity
  8
치수문자_일반주서
 62
     0
370
    -2
100
AcDbLine
 10
-41.95286406862115
 20
2.999999999999975
 30
0.0
 11
-41.9528640686212
 21
15.72899999999997
 31
0.0
  0
LINE
  5
106
330
100
100
AcDbEntity
  8
치수문자_일반주서
 62
     0
370
    -2
100
AcDbLine
 10
-41.95286406862115
 20
2.999999999999975
 30
0.0
 11
-41.95286406862112
 21
-3.000000000000032
 31
0.0
  0
LINE
  5
107
330
100
100
AcDbEntity
  8
치수문자_일반주서
 62
     0
370
    -2
100
AcDbLine
 10
-41.95286406862116
 20
6.301999999999975
 30
0.0
 11
-41.95286406862117
 21
9.603999999999974
 31
0.0
  0
LINE
  5
108
330
100
100
AcDbEntity
  8
치수문자_일반주서
 62
     0
370
    -2
100
AcDbLine
 10
-41.95286406862111
 20
-6.302000000000032
 30
0.0
 11
-41.9528640686211
 21
-9.604000000000031
 31
0.0
  0
SOLID
  5
109
330
100
100
AcDbEntity
  8
치수문자_일반주서
 62
     0
100
AcDbTrace
 10
-42.50319740195449
 20
6.301999999999973
 30
0.0
 11
-41.40253073528783
 21
6.301999999999977
 31
0.0
 12
-41.95286406862115
 22
2.999999999999975
 32
0.0
 13
-41.95286406862115
 23
2.999999999999975
 33
0.0
  0
SOLID
  5
10A
330
100
100
AcDbEntity
  8
치수문자_일반주서
 62
     0
100
AcDbTrace
 10
-41.40253073528778
 20
-6.30200000000003
 30
0.0
 11
-42.50319740195444
 21
-6.302000000000033
 31
0.0
 12
-41.95286406862112
 22
-3.000000000000032
 32
0.0
 13
-41.95286406862112
 23
-3.000000000000032
 33
0.0
  0
MTEXT
  5
10B
330
100
100
AcDbEntity
  8
치수문자_일반주서
 62
     0
100
AcDbMText
 10
-46.32786406862118
 20
12.66649999999996
 30
0.0
 40
3.5
 41
0.0
 71
     2
 72
     1
  1
\A1;%%c6
  7
SLDTEXTSTYLE0
 11
-3.552713678800498E-15
 21
1.0
 31
0.0
 73
     1
 44
1.0
  0
POINT
  5
148
330
100
100
AcDbEntity
  8
Defpoints
 62
     0
100
AcDbPoint
 10
-34.63397459621554
 20
3.000000000000003
 30
0.0
  0
POINT
  5
149
330
100
100
AcDbEntity
  8
Defpoints
 62
     0
100
AcDbPoint
 10
-34.63397459621557
 20
-3.000000000000003
 30
0.0
  0
POINT
  5
14A
330
100
100
AcDbEntity
  8
Defpoints
 62
     0
100
AcDbPoint
 10
-41.95286406862112
 20
-3.00000000000003
 30
0.0
  0
ENDBLK
  5
102
330
100
100
AcDbEntity
  8
0
100
AcDbBlockEnd
  0
BLOCK
  5
10E
330
10D
100
AcDbEntity
  8
0
100
AcDbBlockBegin
  2
_D_3
 70
     0
 10
0.0
 20
0.0
 30
0.0
  3
_D_3
  1

  0
LINE
  5
110
330
10D
100
AcDbEntity
  8
치수문자_일반주서
 62
     0
370
    -2
100
AcDbLine
 10
4.86602540378443
 20
2.5625
 30
0.0
 11
4.86602540378443
 21
13.30081765413827
 31
0.0
  0
LINE
  5
111
330
10D
100
AcDbEntity
  8
치수문자_일반주서
 62
     0
370
    -2
100
AcDbLine
 10
24.86602540378443
 20
2.562500000000004
 30
0.0
 11
24.86602540378443
 21
13.30081765413827
 31
0.0
  0
LINE
  5
112
330
10D
100
AcDbEntity
  8
치수문자_일반주서
 62
     0
370
    -2
100
AcDbLine
 10
8.16802540378443
 20
13.30081765413827
 30
0.0
 11
21.56402540378443
 21
13.30081765413827
 31
0.0
  0
SOLID
  5
113
330
10D
100
AcDbEntity
  8
치수문자_일반주서
 62
     0
100
AcDbTrace
 10
8.16802540378443
 20
13.85115098747161
 30
0.0
 11
8.16802540378443
 21
12.75048432080494
 31
0.0
 12
4.86602540378443
 22
13.30081765413827
 32
0.0
 13
4.86602540378443
 23
13.30081765413827
 33
0.0
  0
SOLID
  5
114
330
10D
100
AcDbEntity
  8
치수문자_일반주서
 62
     0
100
AcDbTrace
 10
21.56402540378443
 20
12.75048432080494
 30
0.0
 11
21.56402540378443
 21
13.85115098747161
 31
0.0
 12
24.86602540378443
 22
13.30081765413827
 32
0.0
 13
24.86602540378443
 23
13.30081765413827
 33
0.0
  0
MTEXT
  5
115
330
10D
100
AcDbEntity
  8
치수문자_일반주서
 62
     0
100
AcDbMText
 10
14.86602540378442
 20
17.67581765413827
 30
0.0
 40
3.5
 41
0.0
 71
     2
 72
     1
  1
\A1;20
  7
SLDTEXTSTYLE0
 73
     1
 44
1.0
  0
POINT
  5
145
330
10D
100
AcDbEntity
  8
Defpoints
 62
     0
100
AcDbPoint
 10
4.86602540378443
 20
2.5
 30
0.0
  0
POINT
  5
146
330
10D
100
AcDbEntity
  8
Defpoints
 62
     0
100
AcDbPoint
 10
24.86602540378443
 20
2.500000000000004
 30
0.0
  0
POINT
  5
147
330
10D
100
AcDbEntity
  8
Defpoints
 62
     0
100
AcDbPoint
 10
24.86602540378443
 20
13.30081765413827
 30
0.0
  0
ENDBLK
  5
10F
330
10D
100
AcDbEntity
  8
0
100
AcDbBlockEnd
  0
BLOCK
  5
117
330
116
100
AcDbEntity
  8
0
100
AcDbBlockBegin
  2
SW_DOWELSYMBOL_0
 70
     0
 10
0.0
 20
0.0
 30
0.0
  3
SW_DOWELSYMBOL_0
  1

  0
CIRCLE
  5
119
330
116
100
AcDbEntity
  8
해칭선
 62
     0
100
AcDbCircle
 10
0.0
 20
0.0
 30
0.0
 40
3.000000000000001
  0
HATCH
  5
11A
330
116
100
AcDbEntity
  8
0
  6
Continuous
 62
     0
370
    18
100
AcDbHatch
 10
0.0
 20
0.0
 30
0.0
210
0.0
220
0.0
230
1.0
  2
SOLID
 70
     1
 71
     0
 91
        1
 92
        0
 93
        3
 72
     2
 10
0.0
 20
0.0
 40
3.000000000000001
 50
0.0
 51
90.0
 73
     1
 72
     1
 10
0.0
 20
3.000000000000001
 11
0.0
 21
0.0
 72
     1
 10
0.0
 20
0.0
 11
3.000000000000001
 21
0.0
 97
        0
 75
     0
 76
     1
 98
        1
 10
0.0
 20
0.0
  0
HATCH
  5
11B
330
116
100
AcDbEntity
  8
0
  6
Continuous
 62
     0
370
    18
100
AcDbHatch
 10
0.0
 20
0.0
 30
0.0
210
0.0
220
0.0
230
1.0
  2
SOLID
 70
     1
 71
     0
 91
        1
 92
        0
 93
        3
 72
     2
 10
0.0
 20
0.0
 40
3.000000000000001
 50
180.0
 51
270.0000000000008
 73
     1
 72
     1
 10
0.0
 20
-3.000000000000002
 11
0.0
 21
0.0
 72
     1
 10
0.0
 20
0.0
 11
-3.000000000000001
 21
0.0
 97
        0
 75
     0
 76
     1
 98
        1
 10
0.0
 20
0.0
  0
ENDBLK
  5
118
330
116
100
AcDbEntity
  8
0
100
AcDbBlockEnd
  0
ENDSEC
  0
SECTION
  2
ENTITIES
  0
LINE
  5
99
330
1F
100
AcDbEntity
  8
0
  6
Continuous
 62
     4
370
    25
100
AcDbLine
 10
2.0
 20
2.999999999999998
 30
0.0
 11
-34.63397459621556
 21
2.999999999999996
 31
0.0
  0
LINE
  5
9A
330
1F
100
AcDbEntity
  8
0
  6
Continuous
 62
     4
370
    25
100
AcDbLine
 10
-34.63397459621557
 20
-3.0
 30
0.0
 11
2.000000000000002
 21
-2.999999999999998
 31
0.0
  0
LINE
  5
9B
330
1F
100
AcDbEntity
  8
0
  6
Continuous
 62
     4
370
    25
100
AcDbLine
 10
2.0
 20
-3.0
 30
0.0
 11
3.775682432692653
 21
-2.524207326145871
 31
0.0
  0
LINE
  5
9C
330
1F
100
AcDbEntity
  8
0
  6
Continuous
 62
     4
370
    25
100
AcDbLine
 10
3.775682432692642
 20
2.524207326145874
 30
0.0
 11
2.0
 21
3.0
 31
0.0
  0
LINE
  5
9D
330
1F
100
AcDbEntity
  8
0
  6
Continuous
 62
     4
370
    25
100
AcDbLine
 10
-34.63397459621557
 20
2.999999999999995
 30
0.0
 11
-35.13397459621557
 21
2.499999999999995
 31
0.0
  0
LINE
  5
9E
330
1F
100
AcDbEntity
  8
0
  6
Continuous
 62
     4
370
    25
100
AcDbLine
 10
-35.13397459621557
 20
-2.5
 30
0.0
 11
-34.63397459621557
 21
-3.0
 31
0.0
  0
LINE
  5
9F
330
1F
100
AcDbEntity
  8
0
  6
Continuous
 62
     4
370
    25
100
AcDbLine
 10
3.946308511678009
 20
-2.5
 30
0.0
 11
4.866025403784434
 21
-2.5
 31
0.0
  0
LINE
  5
A0
330
1F
100
AcDbEntity
  8
0
  6
Continuous
 62
     4
370
    25
100
AcDbLine
 10
4.86602540378443
 20
2.5
 30
0.0
 11
3.946308511678001
 21
2.5
 31
0.0
  0
LINE
  5
A1
330
1F
100
AcDbEntity
  8
0
  6
Continuous
 62
     1
370
    25
100
AcDbLine
 10
24.15045019419734
 20
-2.500000000000002
 30
0.0
 11
24.86602540378444
 21
-2.500000000000002
 31
0.0
  0
LINE
  5
A2
330
1F
100
AcDbEntity
  8
0
  6
Continuous
 62
     1
370
    25
100
AcDbLine
 10
4.866025403784434
 20
-2.500000000000002
 30
0.0
 11
5.476130962402804
 21
-2.500000000000002
 31
0.0
  0
LINE
  5
A3
330
1F
100
AcDbEntity
  8
0
  6
Continuous
 62
     1
370
    25
100
AcDbLine
 10
15.52891313896881
 20
2.500000000000002
 30
0.0
 11
14.09817874114504
 21
2.500000000000002
 31
0.0
  0
LINE
  5
A4
330
1F
100
AcDbEntity
  8
0
  6
Continuous
 62
     1
370
    25
100
AcDbLine
 10
19.12573470690172
 20
-2.500000000000002
 30
0.0
 11
20.55361605980218
 21
-2.500000000000002
 31
0.0
  0
LINE
  5
A5
330
1F
100
AcDbEntity
  8
0
  6
Continuous
 62
     1
370
    25
100
AcDbLine
 10
10.50110431827667
 20
2.500000000000002
 30
0.0
 11
9.072815478437626
 21
2.500000000000002
 31
0.0
  0
LINE
  5
A6
330
1F
100
AcDbEntity
  8
0
  6
Continuous
 62
     4
370
    25
100
AcDbLine
 10
9.994994672669915
 20
0.3914198223395454
 30
0.0
 11
10.04199814518292
 21
0.3573165658802823
 31
0.0
  0
LINE
  5
A7
330
1F
100
AcDbEntity
  8
0
  6
Continuous
 62
     1
370
    25
100
AcDbLine
 10
14.61112258565268
 20
-0.3967589142262566
 30
0.0
 11
14.55845748287578
 21
-0.357316565879732
 31
0.0
  0
LINE
  5
A8
330
1F
100
AcDbEntity
  8
0
  6
Continuous
 62
     1
370
    25
100
AcDbLine
 10
24.6930665540949
 20
-0.4198834771907333
 30
0.0
 11
24.58897853793593
 21
-0.3402297143858934
 31
0.0
  0
LINE
  5
A9
330
1F
100
AcDbEntity
  8
0
  6
Continuous
 62
     4
370
    25
100
AcDbLine
 10
20.03335993161113
 20
0.4022772659554164
 30
0.0
 11
20.09463621698671
 21
0.3573165658802773
 31
0.0
  0
LINE
  5
AA
330
1F
100
AcDbEntity
  8
0
  6
Continuous
 62
     1
370
    25
100
AcDbLine
 10
9.072815478437652
 20
-2.500000000000002
 30
0.0
 11
10.50110431827668
 21
-2.500000000000002
 31
0.0
  0
LINE
  5
AB
330
1F
100
AcDbEntity
  8
0
  6
Continuous
 62
     1
370
    25
100
AcDbLine
 10
20.55361605980218
 20
2.500000000000002
 30
0.0
 11
19.12573470690176
 21
2.500000000000002
 31
0.0
  0
LINE
  5
AC
330
1F
100
AcDbEntity
  8
0
  6
Continuous
 62
     1
370
    25
100
AcDbLine
 10
14.09817874114504
 20
-2.500000000000002
 30
0.0
 11
15.52891313896879
 21
-2.500000000000002
 31
0.0
  0
LINE
  5
AD
330
1F
100
AcDbEntity
  8
0
  6
Continuous
 62
     1
370
    25
100
AcDbLine
 10
5.476130962402776
 20
2.500000000000002
 30
0.0
 11
4.866025403784434
 21
2.500000000000002
 31
0.0
  0
LINE
  5
AE
330
1F
100
AcDbEntity
  8
0
  6
Continuous
 62
     1
370
    25
100
AcDbLine
 10
24.86602540378444
 20
2.500000000000002
 30
0.0
 11
24.15045019419735
 21
2.500000000000002
 31
0.0
  0
LINE
  5
AF
330
1F
100
AcDbEntity
  8
0
  6
Continuous
 62
     4
370
    25
100
AcDbLine
 10
2.0
 20
3.0
 30
0.0
 11
2.0
 21
-3.0
 31
0.0
  0
LINE
  5
B0
330
1F
100
AcDbEntity
  8
0
  6
Continuous
 62
     4
370
    25
100
AcDbLine
 10
-34.63397459621557
 20
2.999999999999995
 30
0.0
 11
-34.63397459621557
 21
-3.0
 31
0.0
  0
SPLINE
  5
B1
330
1F
100
AcDbEntity
  8
0
  6
Continuous
 62
     4
370
    25
100
AcDbSpline
210
0.0
220
0.0
230
1.0
 70
     8
 71
     3
 72
    12
 73
     8
 74
     0
 42
0.000000001
 43
0.00000001
 40
0.0
 40
0.0
 40
0.0
 40
0.0
 40
0.2499999999999999
 40
0.2499999999999999
 40
0.4999999999999999
 40
0.4999999999999999
 40
1.0
 40
1.0
 40
1.0
 40
1.0
 10
3.366181010332259
 20
2.588361231203297
 30
0.0
 10
3.366181010332257
 20
2.600775530571647
 30
0.0
 10
3.379060021089918
 20
2.60700972956082
 30
0.0
 10
3.429878800475368
 20
2.607139920529949
 30
0.0
 10
3.467973916265302
 20
2.601016257125567
 30
0.0
 10
3.608172447608073
 20
2.570367219528693
 30
0.0
 10
3.736671165392691
 20
2.534643103904285
 30
0.0
 10
3.866025403784414
 20
2.499991362082127
 30
0.0
  0
LINE
  5
B2
330
1F
100
AcDbEntity
  8
0
  6
Continuous
 62
     4
370
    25
100
AcDbLine
 10
3.366181010332259
 20
2.588361231203298
 30
0.0
 11
3.366181010332259
 21
1.78683178546229
 31
0.0
  0
SPLINE
  5
B3
330
1F
100
AcDbEntity
  8
0
  6
Continuous
 62
     4
370
    25
100
AcDbSpline
210
0.0
220
0.0
230
1.0
 70
     8
 71
     3
 72
    10
 73
     6
 74
     0
 42
0.000000001
 43
0.00000001
 40
0.0
 40
0.0
 40
0.0
 40
0.0
 40
0.5
 40
0.5
 40
1.0
 40
1.0
 40
1.0
 40
1.0
 10
3.552796142604148
 20
1.452999031025127
 30
0.0
 10
3.494527231254015
 20
1.499517524121121
 30
0.0
 10
3.447071964443564
 20
1.555040549553361
 30
0.0
 10
3.382828928959238
 20
1.670862865251917
 30
0.0
 10
3.366181010331683
 20
1.73124304127883
 30
0.0
 10
3.366181010331657
 20
1.786831785462264
 30
0.0
  0
SPLINE
  5
B4
330
1F
100
AcDbEntity
  8
0
  6
Continuous
 62
     4
370
    25
100
AcDbSpline
210
0.0
220
0.0
230
1.0
 70
     8
 71
     3
 72
     8
 73
     4
 74
     0
 42
0.000000001
 43
0.00000001
 40
0.0
 40
0.0
 40
0.0
 40
0.0
 40
1.0
 40
1.0
 40
1.0
 40
1.0
 10
3.866025403784432
 20
1.204579444778489
 30
0.0
 10
3.760454794689732
 20
1.287151617996943
 30
0.0
 10
3.656365883727327
 20
1.370315003202179
 30
0.0
 10
3.552796142604658
 20
1.452999031026693
 30
0.0
  0
LINE
  5
B5
330
1F
100
AcDbEntity
  8
0
  6
Continuous
 62
     4
370
    25
100
AcDbLine
 10
3.866025403784436
 20
1.204579444778277
 30
0.0
 11
3.866025403784432
 21
0.0065718730035089
 31
0.0
  0
SPLINE
  5
B6
330
1F
100
AcDbEntity
  8
0
  6
Continuous
 62
     4
370
    25
100
AcDbSpline
210
0.0
220
0.0
230
1.0
 70
     8
 71
     3
 72
    12
 73
     8
 74
     0
 42
0.000000001
 43
0.00000001
 40
0.0
 40
0.0
 40
0.0
 40
0.0
 40
0.2500000000000001
 40
0.2500000000000001
 40
0.5000000000000002
 40
0.5000000000000002
 40
1.0
 40
1.0
 40
1.0
 40
1.0
 10
3.366181010332259
 20
-0.487840821128688
 30
0.0
 10
3.366181010332257
 20
-0.4219736574845284
 30
0.0
 10
3.379060021089918
 20
-0.3558576662614182
 30
0.0
 10
3.429878800475368
 20
-0.2334598471364883
 30
0.0
 10
3.467973916265302
 20
-0.1772509056633101
 30
0.0
 10
3.608172447608073
 20
-0.0400301879000143
 30
0.0
 10
3.736671165392695
 20
0.0098972644109689
 30
0.0
 10
3.866025403784414
 20
0.0065718730035095
 30
0.0
  0
LINE
  5
B7
330
1F
100
AcDbEntity
  8
0
  6
Continuous
 62
     4
370
    25
100
AcDbLine
 10
3.366181010332259
 20
-0.4878408211286882
 30
0.0
 11
3.366181010332259
 21
-1.935157538914448
 31
0.0
  0
SPLINE
  5
B8
330
1F
100
AcDbEntity
  8
0
  6
Continuous
 62
     4
370
    25
100
AcDbSpline
210
0.0
220
0.0
230
1.0
 70
     8
 71
     3
 72
    10
 73
     6
 74
     0
 42
0.000000001
 43
0.00000001
 40
0.0
 40
0.0
 40
0.0
 40
0.0
 40
0.5
 40
0.5
 40
1.0
 40
1.0
 40
1.0
 40
1.0
 10
3.552796142604148
 20
-2.136699702652199
 30
0.0
 10
3.494527231254015
 20
-2.1239472530438
 30
0.0
 10
3.447071964443564
 20
-2.100047125383942
 30
0.0
 10
3.382828928959238
 20
-2.031451891390822
 30
0.0
 10
3.366181010331683
 20
-1.986485522824767
 30
0.0
 10
3.366181010331657
 20
-1.935157538914693
 30
0.0
  0
SPLINE
  5
B9
330
1F
100
AcDbEntity
  8
0
  6
Continuous
 62
     4
370
    25
100
AcDbSpline
210
0.0
220
0.0
230
1.0
 70
     8
 71
     3
 72
     8
 73
     4
 74
     0
 42
0.000000001
 43
0.00000001
 40
0.0
 40
0.0
 40
0.0
 40
0.0
 40
1.0
 40
1.0
 40
1.0
 40
1.0
 10
3.866025403784432
 20
-2.190659343945828
 30
0.0
 10
3.760454794689736
 20
-2.177537338454371
 30
0.0
 10
3.656365883727327
 20
-2.159366470817897
 30
0.0
 10
3.552796142604658
 20
-2.136699702655878
 30
0.0
  0
LINE
  5
BA
330
1F
100
AcDbEntity
  8
0
  6
Continuous
 62
     4
370
    25
100
AcDbLine
 10
3.866025403784436
 20
-2.190659343945829
 30
0.0
 11
3.866025403784432
 21
-2.499991362082123
 31
0.0
  0
SPLINE
  5
BB
330
1F
100
AcDbEntity
  8
0
  6
Continuous
 62
     4
370
    25
100
AcDbSpline
210
0.0
220
0.0
230
1.0
 70
     8
 71
     3
 72
     9
 73
     5
 74
     0
 42
0.000000001
 43
0.00000001
 40
0.0
 40
0.0
 40
0.0
 40
0.0
 40
0.0639973596485057
 40
1.0
 40
1.0
 40
1.0
 40
1.0
 10
3.7756812463586
 20
-2.524202898686923
 30
0.0
 10
3.777564226705662
 20
-2.523699869569945
 30
0.0
 10
3.806987008479837
 20
-2.51583971534264
 30
0.0
 10
3.837482005787216
 20
-2.507653593624521
 30
0.0
 10
3.866025403784432
 20
-2.499991362082123
 30
0.0
  0
LINE
  5
BC
330
1F
100
AcDbEntity
  8
0
  6
Continuous
 62
     4
370
    25
100
AcDbLine
 10
-35.13397459621557
 20
2.499999999999995
 30
0.0
 11
-35.13397459621557
 21
-2.500000000000002
 31
0.0
  0
SPLINE
  5
BD
330
1F
100
AcDbEntity
  8
0
  6
Continuous
 62
     4
370
    25
100
AcDbSpline
210
0.0
220
0.0
230
1.0
 70
     8
 71
     3
 72
     8
 73
     4
 74
     0
 42
0.000000001
 43
0.00000001
 40
0.0
 40
0.0
 40
0.0
 40
0.0
 40
1.0
 40
1.0
 40
1.0
 40
1.0
 10
3.866025403784432
 20
0.0065718730035091
 30
0.0
 10
3.976601229412514
 20
0.0066064387825516
 30
0.0
 10
4.084057072383317
 20
-0.0301836750275005
 30
0.0
 10
4.171321628890905
 20
-0.0980547134891812
 30
0.0
  0
SPLINE
  5
BE
330
1F
100
AcDbEntity
  8
0
  6
Continuous
 62
     4
370
    25
100
AcDbSpline
210
0.0
220
0.0
230
1.0
 70
     8
 71
     3
 72
    10
 73
     6
 74
     0
 42
0.000000001
 43
0.00000001
 40
0.0
 40
0.0
 40
0.0
 40
0.0
 40
0.4999999999999999
 40
0.4999999999999999
 40
1.0
 40
1.0
 40
1.0
 40
1.0
 10
4.866025403784434
 20
0.4727252624447136
 30
0.0
 10
4.700257054538943
 20
0.6003586873287847
 30
0.0
 10
4.53515433582575
 20
0.7259122119256822
 30
0.0
 10
4.20005771138133
 20
0.9713050814956162
 30
0.0
 10
4.031844507166781
 20
1.090672609871492
 30
0.0
 10
3.866025403784436
 20
1.204579444778277
 30
0.0
  0
SPLINE
  5
BF
330
1F
100
AcDbEntity
  8
0
  6
Continuous
 62
     4
370
    25
100
AcDbSpline
210
0.0
220
0.0
230
1.0
 70
     8
 71
     3
 72
    10
 73
     6
 74
     0
 42
0.000000001
 43
0.00000001
 40
0.0
 40
0.0
 40
0.0
 40
0.0
 40
0.5
 40
0.5
 40
1.0
 40
1.0
 40
1.0
 40
1.0
 10
4.866025403784406
 20
2.418259525098636
 30
0.0
 10
4.750795045091461
 20
2.441174549929368
 30
0.0
 10
4.636559614862012
 20
2.459306480877222
 30
0.0
 10
4.404588572611724
 20
2.486015390254263
 30
0.0
 10
4.287827018387924
 20
2.49451954766777
 30
0.0
 10
4.171321628890908
 20
2.498076314519338
 30
0.0
  0
SPLINE
  5
C0
330
1F
100
AcDbEntity
  8
0
  6
Continuous
 62
     4
370
    25
100
AcDbSpline
210
0.0
220
0.0
230
1.0
 70
     8
 71
     3
 72
    10
 73
     6
 74
     0
 42
0.000000001
 43
0.00000001
 40
0.0
 40
0.0
 40
0.0
 40
0.0
 40
0.5
 40
0.5
 40
1.0
 40
1.0
 40
1.0
 40
1.0
 10
4.866025403784434
 20
-2.454899351550612
 30
0.0
 10
4.70025705453895
 20
-2.430321747488382
 30
0.0
 10
4.535154335825768
 20
-2.395843560126744
 30
0.0
 10
4.20005771138136
 20
-2.307288742807117
 30
0.0
 10
4.031844507166817
 20
-2.25329337799886
 30
0.0
 10
3.866025403784475
 20
-2.190659343945282
 30
0.0
  0
SPLINE
  5
C1
330
1F
100
AcDbEntity
  8
0
  6
Continuous
 62
     4
370
    25
100
AcDbSpline
210
0.0
220
0.0
230
1.0
 70
     8
 71
     3
 72
    10
 73
     6
 74
     0
 42
0.000000001
 43
0.00000001
 40
0.0
 40
0.0
 40
0.0
 40
0.0
 40
0.5
 40
0.5
 40
1.0
 40
1.0
 40
1.0
 40
1.0
 10
4.866025403784406
 20
-0.6340511566661605
 30
0.0
 10
4.750795045091461
 20
-0.5466536707027898
 30
0.0
 10
4.636559614862012
 20
-0.4582691494535108
 30
0.0
 10
4.404588572611724
 20
-0.2791531114719842
 30
0.0
 10
4.287827018387924
 20
-0.1886681548221237
 30
0.0
 10
4.171321628890908
 20
-0.098054713489185
 30
0.0
  0
SPLINE
  5
C2
330
1F
100
AcDbEntity
  8
0
  6
Continuous
 62
     4
370
    25
100
AcDbSpline
210
0.0
220
0.0
230
1.0
 70
     8
 71
     3
 72
     8
 73
     4
 74
     0
 42
0.000000001
 43
0.00000001
 40
0.0
 40
0.0
 40
0.0
 40
0.0
 40
1.0
 40
1.0
 40
1.0
 40
1.0
 10
3.866025403784432
 20
2.499991362082186
 30
0.0
 10
3.976601229412514
 20
2.499991271217108
 30
0.0
 10
4.084057072383317
 20
2.500740394552406
 30
0.0
 10
4.171321628890905
 20
2.498076314519345
 30
0.0
  0
SPLINE
  5
C3
330
1F
100
AcDbEntity
  8
0
  6
Continuous
 62
     4
370
    25
100
AcDbSpline
210
0.0
220
0.0
230
1.0
 70
     8
 71
     3
 72
     9
 73
     5
 74
     0
 42
0.000000001
 43
0.00000001
 40
0.0
 40
0.0
 40
0.0
 40
0.0
 40
0.5105882445395127
 40
1.0
 40
1.0
 40
1.0
 40
1.0
 10
3.866025403784432
 20
-2.499991362082123
 30
0.0
 10
3.879759207337329
 20
-2.499992579403307
 30
0.0
 10
3.906657209200423
 20
-2.499994963557657
 30
0.0
 10
3.933279331882225
 20
-2.499998183414097
 30
0.0
 10
3.946308511678009
 20
-2.499999759249691
 30
0.0
  0
SPLINE
  5
C4
330
1F
100
AcDbEntity
  8
0
  6
Continuous
 62
     1
370
    25
100
AcDbSpline
210
0.0
220
0.0
230
1.0
 70
     8
 71
     3
 72
    24
 73
    20
 74
     0
 42
0.000000001
 43
0.00000001
 40
0.0
 40
0.0
 40
0.0
 40
0.0
 40
0.0236999556530225
 40
0.0884368171761587
 40
0.1531514404919097
 40
0.2179680483399713
 40
0.2828799510058956
 40
0.3476400322267429
 40
0.4123486891641742
 40
0.4771302910536301
 40
0.5420503171300977
 40
0.6068404110565422
 40
0.6711033067892176
 40
0.7354148646872991
 40
0.7998831043352049
 40
0.8642528824360347
 40
0.9285196702605467
 40
0.992816186440882
 40
1.0
 40
1.0
 40
1.0
 40
1.0
 10
12.30022781402974
 20
2.101266843333328
 30
0.0
 10
12.39389998754087
 20
2.143883398708546
 30
0.0
 10
12.74343941303935
 20
2.302907853081949
 30
0.0
 10
13.34805451534673
 20
2.450010856560137
 30
0.0
 10
14.11508180675348
 20
2.52540166057893
 30
0.0
 10
14.88320771107118
 20
2.448129423213003
 30
0.0
 10
15.65225011889929
 20
2.232989996016455
 30
0.0
 10
16.41979490899728
 20
1.888910620105617
 30
0.0
 10
17.18672998041312
 20
1.436807617097147
 30
0.0
 10
17.95450630690137
 20
0.9020917634853354
 30
0.0
 10
18.72362134336848
 20
0.3166789295152199
 30
0.0
 10
19.48972942160006
 20
-0.2864679732179916
 30
0.0
 10
20.25313757868447
 20
-0.8716487092211593
 30
0.0
 10
21.01536534317668
 20
-1.406669824641735
 30
0.0
 10
21.7791253834129
 20
-1.860315938068122
 30
0.0
 10
22.54193794193002
 20
-2.213290986278256
 30
0.0
 10
23.30368489683935
 20
-2.426812344647294
 30
0.0
 10
23.83953420086135
 20
-2.517958655556752
 30
0.0
 10
24.12205653941366
 20
-2.495263176075091
 30
0.0
 10
24.15045019419735
 20
-2.492982267553469
 30
0.0
  0
SPLINE
  5
C5
330
1F
100
AcDbEntity
  8
0
  6
Continuous
 62
     1
370
    25
100
AcDbSpline
210
0.0
220
0.0
230
1.0
 70
     8
 71
     3
 72
    20
 73
    16
 74
     0
 42
0.000000001
 43
0.00000001
 40
0.0
 40
0.0
 40
0.0
 40
0.0
 40
0.0823318660807333
 40
0.1644880690872139
 40
0.2466257309613469
 40
0.328902428496037
 40
0.411279773122549
 40
0.493463187193186
 40
0.5755910030156149
 40
0.6578210391089261
 40
0.7402159819763845
 40
0.822435240179655
 40
0.9045619183961667
 40
0.9867538630820586
 40
1.0
 40
1.0
 40
1.0
 40
1.0
 10
24.86602540378444
 20
-2.437914245888152
 30
0.0
 10
24.60962634701094
 20
-2.380048946110207
 30
0.0
 10
24.09737528588352
 20
-2.264441807820718
 30
0.0
 10
23.33015923568252
 20
-1.923537393122117
 30
0.0
 10
22.56312291449446
 20
-1.482385526398724
 30
0.0
 10
21.79488970175031
 20
-0.9536533180886809
 30
0.0
 10
21.02590292623708
 20
-0.3716472414090615
 30
0.0
 10
20.25843263344121
 20
0.2328027072101141
 30
0.0
 10
19.49148688738392
 20
0.8235324508258263
 30
0.0
 10
18.72362353903845
 20
1.367448435767435
 30
0.0
 10
17.95450417651065
 20
1.831277902017022
 30
0.0
 10
17.186736289978
 20
2.19450492524981
 30
0.0
 10
16.41977181490908
 20
2.418467735727312
 30
0.0
 10
15.86740985876628
 20
2.515628851136035
 30
0.0
 10
15.57016819842174
 20
2.49338640878174
 30
0.0
 10
15.52891313896881
 20
2.490299313653011
 30
0.0
  0
SPLINE
  5
C6
330
1F
100
AcDbEntity
  8
0
  6
Continuous
 62
     1
370
    25
100
AcDbSpline
210
0.0
220
0.0
230
1.0
 70
     8
 71
     3
 72
    11
 73
     7
 74
     0
 42
0.000000001
 43
0.00000001
 40
0.0
 40
0.0
 40
0.0
 40
0.0
 40
0.0346546347938726
 40
0.3559782616250636
 40
0.6776610869838134
 40
1.0
 40
1.0
 40
1.0
 40
1.0
 10
7.27409766462811
 20
-2.109446344293248
 30
0.0
 10
7.246287538360864
 20
-2.122888940679956
 30
0.0
 10
6.960617224330075
 20
-2.260973561162348
 30
0.0
 10
6.417046628642018
 20
-2.406828341585858
 30
0.0
 10
5.642289810966217
 20
-2.52952307616269
 30
0.0
 10
5.124955881617794
 20
-2.479790814424671
 30
0.0
 10
4.866025403784326
 20
-2.454899351551197
 30
0.0
  0
LINE
  5
C7
330
1F
100
AcDbEntity
  8
0
  6
Continuous
 62
     1
370
    25
100
AcDbLine
 10
24.86602540378443
 20
-2.500000000000004
 30
0.0
 11
24.86602540378444
 21
-2.437914245888155
 31
0.0
  0
SPLINE
  5
C8
330
1F
100
AcDbEntity
  8
0
  6
Continuous
 62
     1
370
    25
100
AcDbSpline
210
0.0
220
0.0
230
1.0
 70
     8
 71
     3
 72
    23
 73
    19
 74
     0
 42
0.000000001
 43
0.00000001
 40
0.0
 40
0.0
 40
0.0
 40
0.0
 40
0.0582865391873081
 40
0.1237602878714394
 40
0.1885949721877093
 40
0.2533125604096018
 40
0.3180371263509989
 40
0.3828925726407336
 40
0.447771490291493
 40
0.5125054730304712
 40
0.5772172185509753
 40
0.6420309440686387
 40
0.7069399601664987
 40
0.771697161570631
 40
0.8364029409781343
 40
0.9011816620938724
 40
0.9660988012410355
 40
1.0
 40
1.0
 40
1.0
 40
1.0
 10
7.274097664628091
 20
2.109446344293249
 30
0.0
 10
7.504259140030127
 20
2.198313518231824
 30
0.0
 10
7.992962893072196
 20
2.387005919295742
 30
0.0
 10
8.738648818353683
 20
2.508632062322859
 30
0.0
 10
9.509265622062696
 20
2.501252201793184
 30
0.0
 10
10.27634044151799
 20
2.347409697605349
 30
0.0
 10
11.04349985206244
 20
2.059734702783018
 30
0.0
 10
11.81203682329729
 20
1.654025099919084
 30
0.0
 10
12.58079466556018
 20
1.153840119308828
 30
0.0
 10
13.34807217339219
 20
0.5868908818653228
 30
0.0
 10
14.11507709281802
 20
-0.0135632719620117
 30
0.0
 10
14.88320888389657
 20
-0.6131709725057767
 30
0.0
 10
15.65225015365893
 20
-1.177071980491841
 30
0.0
 10
16.41979360370318
 20
-1.673916887465139
 30
0.0
 10
17.18673516553962
 20
-2.076480683135216
 30
0.0
 10
17.95448682856165
 20
-2.352889656767823
 30
0.0
 10
18.60153572958382
 20
-2.494309660459015
 30
0.0
 10
18.99183600467716
 20
-2.485193644334731
 30
0.0
 10
19.12573470690173
 20
-2.482066250360417
 30
0.0
  0
SPLINE
  5
C9
330
1F
100
AcDbEntity
  8
0
  6
Continuous
 62
     1
370
    25
100
AcDbSpline
210
0.0
220
0.0
230
1.0
 70
     8
 71
     3
 72
    23
 73
    19
 74
     0
 42
0.000000001
 43
0.00000001
 40
0.0
 40
0.0
 40
0.0
 40
0.0
 40
0.0469635605391956
 40
0.1118720813945244
 40
0.1766277963347369
 40
0.2413397031130125
 40
0.3061321534753825
 40
0.3710545407134485
 40
0.435838498729972
 40
0.5005495091414403
 40
0.5653119457066418
 40
0.6302262092387135
 40
0.6950451744870205
 40
0.7597621514938073
 40
0.82450136751679
 40
0.8893855301685151
 40
0.9542462195617222
 40
1.0
 40
1.0
 40
1.0
 40
1.0
 10
22.35172326657412
 20
-2.103699665801246
 30
0.0
 10
22.16620813812685
 20
-2.179631100578684
 30
0.0
 10
21.72429182447243
 20
-2.360507668587939
 30
0.0
 10
21.02589106485848
 20
-2.493915081676336
 30
0.0
 10
20.25843577629152
 20
-2.514076882056569
 30
0.0
 10
19.49148615518434
 20
-2.385783757680754
 30
0.0
 10
18.72362332132517
 20
-2.121754170118272
 30
0.0
 10
17.95450578394718
 20
-1.736452588094402
 30
0.0
 10
17.18673009699492
 20
-1.251056640765831
 30
0.0
 10
16.41979496439346
 20
-0.694060034290665
 30
0.0
 10
15.65224978002609
 20
-0.0970093685194223
 30
0.0
 10
14.88320901366341
 20
0.5045751499585563
 30
0.0
 10
14.11507694752968
 20
1.078118148458171
 30
0.0
 10
13.34807262439055
 20
1.589497612534279
 30
0.0
 10
12.58079300435971
 20
2.011220989015821
 30
0.0
 10
11.81204303090903
 20
2.312099114141819
 30
0.0
 10
11.11847018415232
 20
2.48162741277606
 30
0.0
 10
10.68174726995408
 20
2.484101505254922
 30
0.0
 10
10.50110431827668
 20
2.485124871223535
 30
0.0
  0
SPLINE
  5
CA
330
1F
100
AcDbEntity
  8
0
  6
Continuous
 62
     1
370
    25
100
AcDbSpline
210
0.0
220
0.0
230
1.0
 70
     8
 71
     3
 72
    13
 73
     9
 74
     0
 42
0.000000001
 43
0.00000001
 40
0.0
 40
0.0
 40
0.0
 40
0.0
 40
0.1782748017368101
 40
0.356169236779342
 40
0.5340235243449541
 40
0.7121788685487803
 40
0.8905521458712651
 40
1.0
 40
1.0
 40
1.0
 40
1.0
 10
24.86602540378444
 20
0.5536913668241705
 30
0.0
 10
24.60962626826742
 20
0.7456852143938516
 30
0.0
 10
24.09737504982098
 20
1.129263271915276
 30
0.0
 10
23.33016017749423
 20
1.63172816228407
 30
0.0
 10
22.56311938081564
 20
2.044417854794691
 30
0.0
 10
21.7949029260202
 20
2.333098121181076
 30
0.0
 10
21.12442397577344
 20
2.488139611365895
 30
0.0
 10
20.71087399785024
 20
2.484408974972865
 30
0.0
 10
20.55361605980218
 20
2.482990350337166
 30
0.0
  0
SPLINE
  5
CB
330
1F
100
AcDbEntity
  8
0
  6
Continuous
 62
     1
370
    25
100
AcDbSpline
210
0.0
220
0.0
230
1.0
 70
     8
 71
     3
 72
    17
 73
    13
 74
     0
 42
0.000000001
 43
0.00000001
 40
0.0
 40
0.0
 40
0.0
 40
0.0
 40
0.0656513256477364
 40
0.1690472552065568
 40
0.2722345284989953
 40
0.375410677547663
 40
0.4787735072872907
 40
0.5831551667188437
 40
0.6873039802572242
 40
0.7913875785018503
 40
0.8955875288354939
 40
1.0
 40
1.0
 40
1.0
 40
1.0
 10
12.30022781402974
 20
-2.101266843333328
 30
0.0
 10
12.13747847279374
 20
-2.169828153654594
 30
0.0
 10
11.71841108685483
 20
-2.346368401834255
 30
0.0
 10
11.04348834002707
 20
-2.484708840881379
 30
0.0
 10
10.27634328768682
 20
-2.518704182145265
 30
0.0
 10
9.509265736643261
 20
-2.403220337986884
 30
0.0
 10
8.738645489680144
 20
-2.150616289902642
 30
0.0
 10
7.965136192153704
 20
-1.772714460339611
 30
0.0
 10
7.1908181869308
 20
-1.289678343266741
 30
0.0
 10
6.417021435737972
 20
-0.7320632576985008
 30
0.0
 10
5.642296127118918
 20
-0.1296172991186105
 30
0.0
 10
5.124957988431431
 20
0.2718080931889747
 30
0.0
 10
4.866025403784326
 20
0.4727252624448239
 30
0.0
  0
SPLINE
  5
CC
330
1F
100
AcDbEntity
  8
0
  6
Continuous
 62
     1
370
    25
100
AcDbSpline
210
0.0
220
0.0
230
1.0
 70
     8
 71
     3
 72
    19
 73
    15
 74
     0
 42
0.000000001
 43
0.00000001
 40
0.0
 40
0.0
 40
0.0
 40
0.0
 40
0.0840733316167318
 40
0.167975540626276
 40
0.251784062477043
 40
0.3356450959383215
 40
0.4196936178267386
 40
0.5029217740481551
 40
0.5859996142444602
 40
0.6690864117255139
 40
0.7523412200512664
 40
0.8356261585168152
 40
0.9187250443223275
 40
1.0
 40
1.0
 40
1.0
 40
1.0
 10
4.866025403784409
 20
2.418259525098634
 30
0.0
 10
5.124957988058407
 20
2.353347709299457
 30
0.0
 10
5.642296126000453
 20
2.223656199016427
 30
0.0
 10
6.417021440199459
 20
1.861364142037493
 30
0.0
 10
7.190818170215737
 20
1.400653323705404
 30
0.0
 10
7.965136254661928
 20
0.8552692575980034
 30
0.0
 10
8.738645256779035
 20
0.2632536395242353
 30
0.0
 10
9.509266595684057
 20
-0.342716914696881
 30
0.0
 10
10.27634008697464
 20
-0.927483139808661
 30
0.0
 10
11.04350029788779
 20
-1.458909479620971
 30
0.0
 10
11.81203539180879
 20
-1.907121244745864
 30
0.0
 10
12.58079994146646
 20
-2.243121446328498
 30
0.0
 10
13.34253044276087
 20
-2.460165654938308
 30
0.0
 10
13.84816619205503
 20
-2.485807642393703
 30
0.0
 10
14.09817874114504
 20
-2.498486371412382
 30
0.0
  0
SPLINE
  5
CD
330
1F
100
AcDbEntity
  8
0
  6
Continuous
 62
     1
370
    25
100
AcDbSpline
210
0.0
220
0.0
230
1.0
 70
     8
 71
     3
 72
    11
 73
     7
 74
     0
 42
0.000000001
 43
0.00000001
 40
0.0
 40
0.0
 40
0.0
 40
0.0
 40
0.0768956185785568
 40
0.3842545584509472
 40
0.691755675585329
 40
1.0
 40
1.0
 40
1.0
 40
1.0
 10
22.35172326657412
 20
2.103699665801249
 30
0.0
 10
22.41524598836197
 20
2.133450610818416
 30
0.0
 10
22.73267493767532
 20
2.282118850340946
 30
0.0
 10
23.30361934656193
 20
2.428248932830241
 30
0.0
 10
24.06574099793613
 20
2.530588228581807
 30
0.0
 10
24.57468816657848
 20
2.472969344525462
 30
0.0
 10
24.82946890156248
 20
2.444125129382279
 30
0.0
  0
SPLINE
  5
CE
330
1F
100
AcDbEntity
  8
0
  6
Continuous
 62
     1
370
    25
100
AcDbSpline
210
0.0
220
0.0
230
1.0
 70
     8
 71
     3
 72
    14
 73
    10
 74
     0
 42
0.000000001
 43
0.00000001
 40
0.0
 40
0.0
 40
0.0
 40
0.0
 40
0.1692689829859854
 40
0.3030915437736283
 40
0.4412463273007313
 40
0.6114211277219588
 40
0.7822147220750846
 40
0.9426858517885189
 40
1.0
 40
1.0
 40
1.0
 40
1.0
 10
24.82946890156247
 20
2.444125129382279
 30
0.0
 10
24.8309996095701
 20
2.340473675895442
 30
0.0
 10
24.83374048178965
 20
2.154876300064886
 30
0.0
 10
24.79454796635346
 20
1.887844420313294
 30
0.0
 10
24.71781433014922
 20
1.632939721668569
 30
0.0
 10
24.57563965154036
 20
1.388800630842446
 30
0.0
 10
24.36224815181032
 20
1.219471642913024
 30
0.0
 10
24.17040657895598
 20
1.147056074546992
 30
0.0
 10
24.06133692128876
 20
1.156843628453195
 30
0.0
 10
24.03263326149836
 20
1.159419400886268
 30
0.0
  0
LINE
  5
CF
330
1F
100
AcDbEntity
  8
0
  6
Continuous
 62
     1
370
    25
100
AcDbLine
 10
24.86602540378444
 20
0.5556605557705779
 30
0.0
 11
24.86602540378444
 21
0.5653176926618394
 31
0.0
  0
SPLINE
  5
D0
330
1F
100
AcDbEntity
  8
0
  6
Continuous
 62
     1
370
    25
100
AcDbSpline
210
0.0
220
0.0
230
1.0
 70
     8
 71
     3
 72
    24
 73
    20
 74
     0
 42
0.000000001
 43
0.00000001
 40
0.0
 40
0.0
 40
0.0
 40
0.0
 40
0.0118321928509435
 40
0.0765400113808032
 40
0.1412992535277924
 40
0.206210315152761
 40
0.2710260831945687
 40
0.3357398680254436
 40
0.4004758907755712
 40
0.4653568530049239
 40
0.5302143431335812
 40
0.5949409487893691
 40
0.659660576505758
 40
0.7244973040066629
 40
0.7899731160147505
 40
0.8553028700466455
 40
0.9205917162759901
 40
0.9859535470463809
 40
1.0
 40
1.0
 40
1.0
 40
1.0
 10
17.32668834389475
 20
-2.106317477949637
 30
0.0
 10
17.27994959553967
 20
-2.128536794976809
 30
0.0
 10
16.97760628723762
 20
-2.272268966989018
 30
0.0
 10
16.4198239080075
 20
-2.420234734271612
 30
0.0
 10
15.65224200931004
 20
-2.524010575648983
 30
0.0
 10
14.88321106479385
 20
-2.472676086337552
 30
0.0
 10
14.1150765101279
 20
-2.282441216316141
 30
0.0
 10
13.34807232840984
 20
-1.960554208703059
 30
0.0
 10
12.5807946278671
 20
-1.526317432392752
 30
0.0
 10
11.81203681860871
 20
-1.005115715220088
 30
0.0
 10
11.04349990845363
 20
-0.4262141261235561
 30
0.0
 10
10.27634022115334
 20
0.1775758107869626
 30
0.0
 10
9.509266447850376
 20
0.771065928364715
 30
0.0
 10
8.738645716617759
 20
1.321990063068907
 30
0.0
 10
7.965134547382579
 20
1.796894979903344
 30
0.0
 10
7.190824515393027
 20
2.172298973273592
 30
0.0
 10
6.416997765647901
 20
2.408420512435985
 30
0.0
 10
5.84556425742884
 20
2.512977631179856
 30
0.0
 10
5.531657601100443
 20
2.491469076780408
 30
0.0
 10
5.476130962402779
 20
2.487664449815767
 30
0.0
  0
SPLINE
  5
D1
330
1F
100
AcDbEntity
  8
0
  6
Continuous
 62
     1
370
    25
100
AcDbSpline
210
0.0
220
0.0
230
1.0
 70
     8
 71
     3
 72
    13
 73
     9
 74
     0
 42
0.000000001
 43
0.00000001
 40
0.0
 40
0.0
 40
0.0
 40
0.0
 40
0.1845262129625648
 40
0.3686768418243285
 40
0.5526218438091753
 40
0.7366820995663882
 40
0.9211538595279539
 40
1.0
 40
1.0
 40
1.0
 40
1.0
 10
4.866025403784409
 20
-0.6340511566661622
 30
0.0
 10
5.124958104853139
 20
-0.825766092640096
 30
0.0
 10
5.642296476146923
 20
-1.208805748581892
 30
0.0
 10
6.417020043588764
 20
-1.702792109947544
 30
0.0
 10
7.190823402714635
 20
-2.102212694960055
 30
0.0
 10
7.96511668707477
 20
-2.369840548164858
 30
0.0
 10
8.593001996546665
 20
-2.500206597302373
 30
0.0
 10
8.962250262135482
 20
-2.48646700891299
 30
0.0
 10
9.072815478437649
 20
-2.482352919007239
 30
0.0
  0
SPLINE
  5
D2
330
1F
100
AcDbEntity
  8
0
  6
Continuous
 62
     1
370
    25
100
AcDbSpline
210
0.0
220
0.0
230
1.0
 70
     8
 71
     3
 72
    17
 73
    13
 74
     0
 42
0.000000001
 43
0.00000001
 40
0.0
 40
0.0
 40
0.0
 40
0.0
 40
0.0836366093628978
 40
0.186181787493069
 40
0.2885217297927241
 40
0.3900289300872191
 40
0.4916129952679646
 40
0.5934445489190109
 40
0.6951205764944505
 40
0.7966339245876268
 40
0.8981942304491163
 40
1.0
 40
1.0
 40
1.0
 40
1.0
 10
17.32668834389477
 20
2.106317477949637
 30
0.0
 10
17.53579110203034
 20
2.189307674864724
 30
0.0
 10
18.00127058016761
 20
2.374050496504108
 30
0.0
 10
18.72362904183736
 20
2.501918584219729
 30
0.0
 10
19.48972742740862
 20
2.508235638294319
 30
0.0
 10
20.25313793365017
 20
2.368310394125126
 30
0.0
 10
21.01536591353482
 20
2.095554906347898
 30
0.0
 10
21.77912274020013
 20
1.704778313536233
 30
0.0
 10
22.54194791828909
 20
1.217066990821737
 30
0.0
 10
23.30364768555481
 20
0.6610129401705324
 30
0.0
 10
24.0657338918386
 20
0.0652852272647936
 30
0.0
 10
24.57468579597406
 20
-0.3284779252811653
 30
0.0
 10
24.82946890156249
 20
-0.5255971384264094
 30
0.0
  0
SPLINE
  5
D3
330
1F
100
AcDbEntity
  8
0
  6
Continuous
 62
     1
370
    25
100
AcDbSpline
210
0.0
220
0.0
230
1.0
 70
     8
 71
     3
 72
    12
 73
     8
 74
     0
 42
0.000000001
 43
0.00000001
 40
0.0
 40
0.0
 40
0.0
 40
0.0
 40
0.4999999999999999
 40
0.4999999999999999
 40
0.7499999999999999
 40
0.7499999999999999
 40
1.0
 40
1.0
 40
1.0
 40
1.0
 10
24.86602540378444
 20
-2.053197595406609
 30
0.0
 10
24.6443982459685
 20
-1.999101064195141
 30
0.0
 10
24.42598517578419
 20
-1.924401692690402
 30
0.0
 10
24.10593958236145
 20
-1.763801950297308
 30
0.0
 10
24.00050869619404
 20
-1.701796081507001
 30
0.0
 10
23.79339163606007
 20
-1.555605251823091
 30
0.0
 10
23.69677760099886
 20
-1.472940327544766
 30
0.0
 10
23.6059314169915
 20
-1.3823273084023
 30
0.0
  0
LINE
  5
D4
330
1F
100
AcDbEntity
  8
0
  6
Continuous
 62
     1
370
    25
100
AcDbLine
 10
24.86602540378444
 20
-2.437914245888155
 30
0.0
 11
24.86602540378444
 21
-2.053197595406608
 31
0.0
  0
SPLINE
  5
D5
330
1F
100
AcDbEntity
  8
0
  6
Continuous
 62
     1
370
    25
100
AcDbSpline
210
0.0
220
0.0
230
1.0
 70
    24
 71
     3
 72
    15
 73
    11
 74
     0
 42
0.000000001
 43
0.00000001
 40
0.0
 40
0.0
 40
0.0
 40
0.0
 40
0.06601262024797
 40
0.1793312718967061
 40
0.2923364967358302
 40
0.4339501950032216
 40
0.5760788325973796
 40
0.7096174651541128
 40
0.8556988272830586
 40
1.0
 40
1.0
 40
1.0
 40
1.0
 10
24.82699312186018
 20
-0.5273306980368949
 30
0.0
 10
24.82725578885015
 20
-0.527146776630483
 30
0.0
 10
24.82796935551693
 20
-0.5266471318713905
 30
0.0
 10
24.79338322607218
 20
-0.5508646004260979
 30
0.0
 10
24.71741098165654
 20
-0.604060938660634
 30
0.0
 10
24.57558352608824
 20
-0.703369592174672
 30
0.0
 10
24.36214986001577
 20
-0.8528174540663371
 30
0.0
 10
24.11246647879508
 20
-1.027647639762758
 30
0.0
 10
23.85315430098234
 20
-1.209219981416829
 30
0.0
 10
23.68800155548847
 20
-1.324861178767659
 30
0.0
 10
23.60593141699052
 20
-1.382327308405835
 30
0.0
  0
LINE
  5
D6
330
1F
100
AcDbEntity
  8
0
  6
Continuous
 62
     1
370
    25
100
AcDbLine
 10
24.86602540378444
 20
-0.5000000000000073
 30
0.0
 11
24.86602540378444
 21
0.5536913668241703
 31
0.0
  0
LINE
  5
D7
330
1F
100
AcDbEntity
  8
0
  6
Continuous
 62
     1
370
    25
100
AcDbLine
 10
24.86602540378444
 20
-0.500000000000006
 30
0.0
 11
24.82946890156247
 21
-0.5255971384264037
 31
0.0
  0
LINE
  5
D8
330
1F
100
AcDbEntity
  8
0
  6
Continuous
 62
     1
370
    25
100
AcDbLine
 10
24.86602540378444
 20
2.449489742783182
 30
0.0
 11
24.86602540378443
 21
2.500000000000004
 31
0.0
  0
ELLIPSE
  5
D9
330
1F
100
AcDbEntity
  8
0
  6
Continuous
 62
     1
370
    25
100
AcDbEllipse
 10
25.58009940715549
 20
0.0
 30
0.0
 11
3.570370016855279
 21
0.0
 31
0.0
210
0.0
220
0.0
230
1.0
 40
0.7002075382097118
 41
1.772154247585225
 42
1.782615595954127
  0
LINE
  5
DA
330
1F
100
AcDbEntity
  8
0
  6
Continuous
 62
     1
370
    25
100
AcDbLine
 10
24.86602540378444
 20
-0.4999999999999987
 30
0.0
 11
24.86602540378444
 21
-2.053197595406608
 31
0.0
  0
LINE
  5
DB
330
1F
100
AcDbEntity
  8
0
  6
Continuous
 62
     1
370
    25
100
AcDbLine
 10
24.86602540378444
 20
0.5653176926618394
 30
0.0
 11
24.86602540378444
 21
2.449489742783182
 31
0.0
  0
LINE
  5
DC
330
1F
100
AcDbEntity
  8
중심선
100
AcDbLine
 10
-38.13397459621557
 20
-0.0000000000000043
 30
0.0
 11
27.86602540378444
 21
0.0000000000000037
 31
0.0
  0
CIRCLE
  5
DD
330
1F
100
AcDbEntity
  8
해칭선
100
AcDbCircle
 10
-0.0077192821694213
 20
-0.0000000000000045
 30
0.0
 40
3.000000000000001
  0
INSERT
  5
DE
330
1F
100
AcDbEntity
  8
0
  6
Continuous
 62
     7
100
AcDbBlockReference
 66
     1
  2
블럭10
 10
-12.44814782084245
 20
-52.04717430164393
 30
0.0
  0
ATTRIB
  5
DF
330
DE
100
AcDbEntity
  8
FORMAT
 62
     2
100
AcDbText
 10
-28.56740886027801
 20
-49.97180738881174
 30
0.0
 40
4.233333333333333
  1
SEME7105020E [ 4 FLUTE ]
 41
0.75
  7
SLDTEXTSTYLE0
 11
-28.56740886027801
 21
-52.08847405547841
 31
0.0
100
AcDbAttribute
  2
AUTOATTR0
 70
     0
 74
     1
  0
SEQEND
  5
E0
330
DE
100
AcDbEntity
  8
0
  6
Continuous
 62
     7
  0
HATCH
  5
E1
330
1F
100
AcDbEntity
  8
중심선
100
AcDbHatch
 10
0.0
 20
0.0
 30
0.0
210
0.0
220
0.0
230
1.0
  2
SOLID
 70
     1
 71
     0
 91
        1
 92
        0
 93
        4
 72
     1
 10
-6.733238516461598
 20
-35.8
 11
-10.17951376029888
 21
-35.8
 72
     1
 10
-10.17951376029888
 20
-35.8
 11
-12.3077436195029
 21
-38.33632558057259
 72
     1
 10
-12.3077436195029
 20
-38.33632558057259
 11
-8.861435290552471
 21
-38.3362861512701
 72
     1
 10
-8.861435290552471
 20
-38.3362861512701
 11
-6.733238516461598
 21
-35.8
 97
        0
 75
     0
 76
     1
 98
        1
 10
0.0
 20
0.0
  0
HATCH
  5
E2
330
1F
100
AcDbEntity
  8
중심선
100
AcDbHatch
 10
0.0
 20
0.0
 30
0.0
210
0.0
220
0.0
230
1.0
  2
SOLID
 70
     1
 71
     0
 91
        1
 92
        0
 93
        4
 72
     1
 10
-1.720474525425619
 20
-35.8
 11
-5.166749769262902
 21
-35.8
 72
     1
 10
-5.166749769262902
 20
-35.8
 11
-9.697887777620318
 21
-41.20000000000002
 72
     1
 10
-9.697887777620318
 20
-41.20000000000002
 11
-6.251612533783035
 21
-41.20000000000002
 72
     1
 10
-6.251612533783035
 20
-41.20000000000002
 11
-1.720474525425619
 21
-35.8
 97
        0
 75
     0
 76
     1
 98
        1
 10
0.0
 20
0.0
  0
HATCH
  5
E3
330
1F
100
AcDbEntity
  8
중심선
100
AcDbHatch
 10
0.0
 20
0.0
 30
0.0
210
0.0
220
0.0
230
1.0
  2
SOLID
 70
     1
 71
     0
 91
        1
 92
        0
 93
        4
 72
     1
 10
3.292289465610304
 20
-35.79999999999997
 11
-0.1539857782268674
 21
-35.8
 72
     1
 10
-0.1539857782268672
 20
-35.8
 11
-7.202422680116117
 21
-44.20000000000002
 72
     1
 10
-7.202422680116117
 20
-44.20000000000002
 11
-3.756147436278834
 21
-44.20000000000002
 72
     1
 10
-3.756147436278834
 20
-44.20000000000002
 11
3.292289465610304
 21
-35.79999999999997
 97
        0
 75
     0
 76
     1
 98
        1
 10
0.0
 20
0.0
  0
HATCH
  5
E4
330
1F
100
AcDbEntity
  8
중심선
100
AcDbHatch
 10
0.0
 20
0.0
 30
0.0
210
0.0
220
0.0
230
1.0
  2
SOLID
 70
     1
 71
     0
 91
        1
 92
        0
 93
        6
 72
     3
 10
8.092179896622447
 20
-40.00000000005127
 11
3.960054785062284
 21
1.540850780301639E-10
 40
0.3939339440162633
 50
17.09539180608433
 51
320.0019657685081
 73
     0
 72
     1
 10
9.775179552323015
 20
-38.58789400463833
 11
12.08048142602408
 21
-36.65356729459038
 72
     3
 10
8.0921798965696
 20
-40.00000000000015
 11
6.600054785286829
 21
-1.249000902703301E-13
 40
0.6363583540795982
 50
39.99873849337408
 51
368.4976242363725
 73
     1
 72
     1
 10
14.51751238847021
 20
-39.03999999993002
 11
6.772247203405524
 21
-39.03999999993002
 72
     1
 10
6.772247203405524
 20
-39.03999999993002
 11
6.77222215895959
 21
-40.95999999992991
 72
     1
 10
6.77222215895959
 20
-40.95999999992991
 11
11.21360192843163
 21
-40.95999999992988
 97
        0
 75
     0
 76
     1
 98
        1
 10
0.0
 20
0.0
  0
DIMENSION
  5
E5
330
1F
100
AcDbEntity
  8
치수문자_일반주서
100
AcDbDimension
  2
_D
 10
33.93743969426036
 20
2.500000000000039
 30
0.0
 11
33.93743969426033
 21
12.16650000000004
 31
0.0
 70
   160
  1
%%c<>
 71
     2
 42
5.000000000000012
 52
-270.0
  3
SLDDIMSTYLE0
100
AcDbAlignedDimension
 13
24.86602540378446
 23
-2.500000000000006
 33
0.0
 14
24.86602540378446
 24
2.500000000000005
 34
0.0
 50
90.0000000000002
100
AcDbRotatedDimension
  0
DIMENSION
  5
F3
330
1F
100
AcDbEntity
  8
치수문자_일반주서
100
AcDbDimension
  2
_D_1
 10
24.86602540378443
 20
20.38913260158165
 30
0.0
 11
-5.133974596215563
 21
20.38913260158165
 31
0.0
 70
   160
  1
<>
 71
     2
 42
60.0
  3
SLDDIMSTYLE1
100
AcDbAlignedDimension
 13
-35.13397459621557
 23
2.499999999999995
 33
0.0
 14
24.86602540378443
 24
2.500000000000004
 34
0.0
 50
-0.0000000000000068
100
AcDbRotatedDimension
  0
DIMENSION
  5
FE
330
1F
100
AcDbEntity
  8
치수문자_일반주서
100
AcDbDimension
  2
_D_2
 10
-41.95286406862112
 20
-3.000000000000032
 30
0.0
 11
-41.95286406862118
 21
12.66649999999997
 31
0.0
 70
   160
  1
%%c<>
 71
     2
 42
6.000000000000005
 52
-270.0
  3
SLDDIMSTYLE2
100
AcDbAlignedDimension
 13
-34.63397459621554
 23
3.000000000000003
 33
0.0
 14
-34.63397459621557
 24
-3.000000000000003
 34
0.0
 50
90.0000000000002
100
AcDbRotatedDimension
  0
DIMENSION
  5
10C
330
1F
100
AcDbEntity
  8
치수문자_일반주서
100
AcDbDimension
  2
_D_3
 10
24.86602540378443
 20
13.30081765413827
 30
0.0
 11
14.86602540378442
 21
13.30081765413827
 31
0.0
 70
   160
  1
<>
 71
     2
 42
20.0
  3
SLDDIMSTYLE2
100
AcDbAlignedDimension
 13
4.86602540378443
 23
2.5
 33
0.0
 14
24.86602540378443
 24
2.500000000000004
 34
0.0
 50
0.0000000000000407
100
AcDbRotatedDimension
  0
INSERT
  5
11C
330
1F
100
AcDbEntity
  8
해칭선
100
AcDbBlockReference
  2
SW_DOWELSYMBOL_0
 10
-0.0077192821694213
 20
-0.0000000000000046
 30
0.0
  0
LINE
  5
14E
330
1F
100
AcDbEntity
  8
0
  6
Continuous
 62
     4
370
    25
100
AcDbLine
 10
4.866025403784434
 20
2.500000000000002
 30
0.0
 11
4.866025403784434
 21
-2.5
 31
0.0
  0
ENDSEC
  0
SECTION
  2
OBJECTS
  0
DICTIONARY
  5
C
330
0
100
AcDbDictionary
281
     1
  3
ACAD_GROUP
350
D
  3
ACAD_IMAGE_VARS
350
140
  3
ACAD_LAYOUT
350
1A
  3
ACAD_MLINESTYLE
350
17
  3
ACAD_PLOTSETTINGS
350
19
  3
ACAD_PLOTSTYLENAME
350
E
  3
ACAD_SCALELIST
350
47
  3
APPDATA
350
13E
  3
DWGPROPS
350
150
  0
DICTIONARY
  5
D
102
{ACAD_REACTORS
330
C
102
}
330
C
100
AcDbDictionary
281
     1
  0
RASTERVARIABLES
  5
140
102
{ACAD_REACTORS
330
C
102
}
330
C
100
AcDbRasterVariables
 90
        0
 70
     1
 71
     1
 72
     1
  0
DICTIONARY
  5
1A
102
{ACAD_REACTORS
330
C
102
}
330
C
100
AcDbDictionary
281
     1
  3
Layout1
350
1E
  3
Layout2
350
26
  3
Model
350
22
  0
DICTIONARY
  5
17
102
{ACAD_REACTORS
330
C
102
}
330
C
100
AcDbDictionary
281
     1
  3
Standard
350
18
  0
DICTIONARY
  5
19
102
{ACAD_REACTORS
330
C
102
}
330
C
100
AcDbDictionary
281
     1
  0
ACDBDICTIONARYWDFLT
  5
E
102
{ACAD_REACTORS
330
C
102
}
330
C
100
AcDbDictionary
281
     1
  3
Normal
350
F
100
AcDbDictionaryWithDefault
340
F
  0
DICTIONARY
  5
47
102
{ACAD_REACTORS
330
C
102
}
330
C
100
AcDbDictionary
281
     1
  3
A0
350
48
  3
A1
350
49
  3
A2
350
4A
  3
A3
350
4B
  3
A4
350
4C
  3
A5
350
4D
  3
A6
350
4E
  3
A7
350
4F
  3
A8
350
50
  3
A9
350
51
  3
B0
350
52
  3
B1
350
53
  3
B2
350
54
  3
B3
350
55
  3
B4
350
56
  3
B5
350
57
  3
B6
350
58
  3
B7
350
59
  3
B8
350
5A
  3
B9
350
5B
  3
C0
350
5C
  3
C1
350
5D
  3
C2
350
5E
  3
C3
350
5F
  3
C4
350
60
  3
C5
350
61
  3
C6
350
62
  3
C7
350
63
  3
C8
350
64
  3
C9
350
65
  3
D0
350
66
  3
D1
350
67
  3
D2
350
68
  0
DICTIONARY
  5
13E
102
{ACAD_REACTORS
330
C
102
}
330
C
100
AcDbDictionary
281
     1
  0
XRECORD
  5
150
102
{ACAD_REACTORS
330
C
102
}
330
C
100
AcDbXrecord
280
     1
  1
DWGPROPS COOKIE
  2

  3

  4

  6

  7

  8
12014102
  9

300
=
301
=
302
=
303
=
304
=
305
=
306
=
307
=
308
=
309
=
 40
0.0
 41
2458260.11684419
 42
2458267.299599479
  1

 90
        0
  0
LAYOUT
  5
1E
102
{ACAD_REACTORS
330
1A
102
}
330
1A
100
AcDbPlotSettings
  1

  2
none_device
  4

  6

 40
0.0
 41
0.0
 42
0.0
 43
0.0
 44
0.0
 45
0.0
 46
0.0
 47
0.0
 48
0.0
 49
0.0
140
0.0
141
0.0
142
1.0
143
1.0
 70
   688
 72
     1
 73
     0
 74
     5
  7

 75
    16
147
1.0
148
0.0
149
0.0
100
AcDbLayout
  1
Layout1
 70
     1
 71
     1
 10
0.0
 20
0.0
 11
420.0
 21
297.0
 12
0.0
 22
0.0
 32
0.0
 14
1.000000000000000E+20
 24
1.000000000000000E+20
 34
1.000000000000000E+20
 15
-1.000000000000000E+20
 25
-1.000000000000000E+20
 35
-1.000000000000000E+20
146
0.0
 13
0.0
 23
0.0
 33
0.0
 16
1.0
 26
0.0
 36
0.0
 17
0.0
 27
1.0
 37
0.0
 76
     0
330
1B
  0
LAYOUT
  5
26
102
{ACAD_REACTORS
330
1A
102
}
330
1A
100
AcDbPlotSettings
  1

  2
none_device
  4

  6

 40
0.0
 41
0.0
 42
0.0
 43
0.0
 44
0.0
 45
0.0
 46
0.0
 47
0.0
 48
0.0
 49
0.0
140
0.0
141
0.0
142
1.0
143
1.0
 70
   688
 72
     1
 73
     0
 74
     5
  7

 75
    16
147
1.0
148
0.0
149
0.0
100
AcDbLayout
  1
Layout2
 70
     1
 71
     2
 10
0.0
 20
0.0
 11
0.0
 21
0.0
 12
0.0
 22
0.0
 32
0.0
 14
0.0
 24
0.0
 34
0.0
 15
0.0
 25
0.0
 35
0.0
146
0.0
 13
0.0
 23
0.0
 33
0.0
 16
1.0
 26
0.0
 36
0.0
 17
0.0
 27
1.0
 37
0.0
 76
     0
330
23
  0
LAYOUT
  5
22
102
{ACAD_REACTORS
330
1A
102
}
330
1A
100
AcDbPlotSettings
  1

  2
none_device
  4
ANSI_A_(11.00_x_8.50_Inches)
  6

 40
6.35
 41
19.05
 42
6.35000508
 43
19.05000254
 44
279.4
 45
215.9
 46
130.9031697561988
 47
125.3847137330092
 48
0.0
 49
0.0
140
0.0
141
0.0
142
0.1112850254374007
143
1.0
 70
  1696
 72
     0
 73
     0
 74
     0
  7

 75
     0
147
0.0235690232323232
148
0.0
149
0.0
100
AcDbLayout
  1
Model
 70
     1
 71
     0
 10
0.0
 20
0.0
 11
420.0
 21
297.0
 12
0.0
 22
0.0
 32
0.0
 14
-46.32786406862119
 24
-49.97180738881174
 34
0.0
 15
41.81175780638863
 25
24.76413260158165
 35
0.0
146
0.0
 13
0.0
 23
0.0
 33
0.0
 16
1.0
 26
0.0
 36
0.0
 17
0.0
 27
1.0
 37
0.0
 76
     0
330
1F
331
29
  0
MLINESTYLE
  5
18
102
{ACAD_REACTORS
330
17
102
}
330
17
100
AcDbMlineStyle
  2
Standard
 70
     0
  3

 62
   256
 51
90.0
 52
90.0
 71
     2
 49
0.5
 62
   256
  6
BYLAYER
 49
-0.5
 62
   256
  6
BYLAYER
  0
ACDBPLACEHOLDER
  5
F
102
{ACAD_REACTORS
330
E
102
}
330
E
  0
SCALE
  5
48
102
{ACAD_REACTORS
330
47
102
}
330
47
100
AcDbScale
 70
     0
300
1:1
140
1.0
141
1.0
290
     1
  0
SCALE
  5
49
102
{ACAD_REACTORS
330
47
102
}
330
47
100
AcDbScale
 70
     0
300
1:2
140
1.0
141
2.0
290
     0
  0
SCALE
  5
4A
102
{ACAD_REACTORS
330
47
102
}
330
47
100
AcDbScale
 70
     0
300
1:4
140
1.0
141
4.0
290
     0
  0
SCALE
  5
4B
102
{ACAD_REACTORS
330
47
102
}
330
47
100
AcDbScale
 70
     0
300
1:5
140
1.0
141
5.0
290
     0
  0
SCALE
  5
4C
102
{ACAD_REACTORS
330
47
102
}
330
47
100
AcDbScale
 70
     0
300
1:8
140
1.0
141
8.0
290
     0
  0
SCALE
  5
4D
102
{ACAD_REACTORS
330
47
102
}
330
47
100
AcDbScale
 70
     0
300
1:10
140
1.0
141
10.0
290
     0
  0
SCALE
  5
4E
102
{ACAD_REACTORS
330
47
102
}
330
47
100
AcDbScale
 70
     0
300
1:16
140
1.0
141
16.0
290
     0
  0
SCALE
  5
4F
102
{ACAD_REACTORS
330
47
102
}
330
47
100
AcDbScale
 70
     0
300
1:20
140
1.0
141
20.0
290
     0
  0
SCALE
  5
50
102
{ACAD_REACTORS
330
47
102
}
330
47
100
AcDbScale
 70
     0
300
1:30
140
1.0
141
30.0
290
     0
  0
SCALE
  5
51
102
{ACAD_REACTORS
330
47
102
}
330
47
100
AcDbScale
 70
     0
300
1:40
140
1.0
141
40.0
290
     0
  0
SCALE
  5
52
102
{ACAD_REACTORS
330
47
102
}
330
47
100
AcDbScale
 70
     0
300
1:50
140
1.0
141
50.0
290
     0
  0
SCALE
  5
53
102
{ACAD_REACTORS
330
47
102
}
330
47
100
AcDbScale
 70
     0
300
1:100
140
1.0
141
100.0
290
     0
  0
SCALE
  5
54
102
{ACAD_REACTORS
330
47
102
}
330
47
100
AcDbScale
 70
     0
300
2:1
140
2.0
141
1.0
290
     0
  0
SCALE
  5
55
102
{ACAD_REACTORS
330
47
102
}
330
47
100
AcDbScale
 70
     0
300
4:1
140
4.0
141
1.0
290
     0
  0
SCALE
  5
56
102
{ACAD_REACTORS
330
47
102
}
330
47
100
AcDbScale
 70
     0
300
8:1
140
8.0
141
1.0
290
     0
  0
SCALE
  5
57
102
{ACAD_REACTORS
330
47
102
}
330
47
100
AcDbScale
 70
     0
300
10:1
140
10.0
141
1.0
290
     0
  0
SCALE
  5
58
102
{ACAD_REACTORS
330
47
102
}
330
47
100
AcDbScale
 70
     0
300
100:1
140
100.0
141
1.0
290
     0
  0
SCALE
  5
59
102
{ACAD_REACTORS
330
47
102
}
330
47
100
AcDbScale
 70
     0
300
1/128" = 1'-0"
140
0.0078125
141
12.0
290
     0
  0
SCALE
  5
5A
102
{ACAD_REACTORS
330
47
102
}
330
47
100
AcDbScale
 70
     0
300
1/64" = 1'-0"
140
0.015625
141
12.0
290
     0
  0
SCALE
  5
5B
102
{ACAD_REACTORS
330
47
102
}
330
47
100
AcDbScale
 70
     0
300
1/32" = 1'-0"
140
0.03125
141
12.0
290
     0
  0
SCALE
  5
5C
102
{ACAD_REACTORS
330
47
102
}
330
47
100
AcDbScale
 70
     0
300
1/16" = 1'-0"
140
0.0625
141
12.0
290
     0
  0
SCALE
  5
5D
102
{ACAD_REACTORS
330
47
102
}
330
47
100
AcDbScale
 70
     0
300
3/32" = 1'-0"
140
0.09375
141
12.0
290
     0
  0
SCALE
  5
5E
102
{ACAD_REACTORS
330
47
102
}
330
47
100
AcDbScale
 70
     0
300
1/8" = 1'-0"
140
0.125
141
12.0
290
     0
  0
SCALE
  5
5F
102
{ACAD_REACTORS
330
47
102
}
330
47
100
AcDbScale
 70
     0
300
3/16" = 1'-0"
140
0.1875
141
12.0
290
     0
  0
SCALE
  5
60
102
{ACAD_REACTORS
330
47
102
}
330
47
100
AcDbScale
 70
     0
300
1/4" = 1'-0"
140
0.25
141
12.0
290
     0
  0
SCALE
  5
61
102
{ACAD_REACTORS
330
47
102
}
330
47
100
AcDbScale
 70
     0
300
3/8" = 1'-0"
140
0.375
141
12.0
290
     0
  0
SCALE
  5
62
102
{ACAD_REACTORS
330
47
102
}
330
47
100
AcDbScale
 70
     0
300
1/2" = 1'-0"
140
0.5
141
12.0
290
     0
  0
SCALE
  5
63
102
{ACAD_REACTORS
330
47
102
}
330
47
100
AcDbScale
 70
     0
300
3/4" = 1'-0"
140
0.75
141
12.0
290
     0
  0
SCALE
  5
64
102
{ACAD_REACTORS
330
47
102
}
330
47
100
AcDbScale
 70
     0
300
1" = 1'-0"
140
1.0
141
12.0
290
     0
  0
SCALE
  5
65
102
{ACAD_REACTORS
330
47
102
}
330
47
100
AcDbScale
 70
     0
300
1-1/2" = 1'-0"
140
1.5
141
12.0
290
     0
  0
SCALE
  5
66
102
{ACAD_REACTORS
330
47
102
}
330
47
100
AcDbScale
 70
     0
300
3" = 1'-0"
140
3.0
141
12.0
290
     0
  0
SCALE
  5
67
102
{ACAD_REACTORS
330
47
102
}
330
47
100
AcDbScale
 70
     0
300
6" = 1'-0"
140
6.0
141
12.0
290
     0
  0
SCALE
  5
68
102
{ACAD_REACTORS
330
47
102
}
330
47
100
AcDbScale
 70
     0
300
1'-0" = 1'-0"
140
12.0
141
12.0
290
     0
  0
ENDSEC
  0
EOF
