  0
SECTION
  2
HEADER
  9
$ACADVER
  1
AC1015
  9
$ACADMAINTVER
 70
     6
  9
$DWGCODEPAGE
  3
ANSI_949
  9
$INSBASE
 10
0.0
 20
0.0
 30
0.0
  9
$EXTMIN
 10
-43.67402614573301
 20
-49.97180738881174
 30
0.0
  9
$EXTMAX
 10
42.28259113972197
 20
24.76413260158165
 30
0.0
  9
$LIMMIN
 10
0.0
 20
0.0
  9
$LIMMAX
 10
420.0
 20
297.0
  9
$ORTHOMODE
 70
     0
  9
$REGENMODE
 70
     1
  9
$FILLMODE
 70
     1
  9
$QTEXTMODE
 70
     0
  9
$MIRRTEXT
 70
     1
  9
$LTSCALE
 40
1.0
  9
$ATTMODE
 70
     1
  9
$TEXTSIZE
 40
3.5
  9
$TRACEWID
 40
1.0
  9
$TEXTSTYLE
  7
Standard
  9
$CLAYER
  8
0
  9
$CELTYPE
  6
ByLayer
  9
$CECOLOR
 62
   256
  9
$CELTSCALE
 40
1.0
  9
$DISPSILH
 70
     0
  9
$DIMSCALE
 40
1.0
  9
$DIMASZ
 40
3.302
  9
$DIMEXO
 40
1.0
  9
$DIMDLI
 40
3.75
  9
$DIMRND
 40
0.0
  9
$DIMDLE
 40
0.0
  9
$DIMEXE
 40
1.0
  9
$DIMTP
 40
0.0
  9
$DIMTM
 40
0.0
  9
$DIMTXT
 40
3.5
  9
$DIMCEN
 40
2.5
  9
$DIMTSZ
 40
0.0
  9
$DIMTOL
 70
     0
  9
$DIMLIM
 70
     0
  9
$DIMTIH
 70
     1
  9
$DIMTOH
 70
     1
  9
$DIMSE1
 70
     0
  9
$DIMSE2
 70
     0
  9
$DIMTAD
 70
     1
  9
$DIMZIN
 70
     0
  9
$DIMBLK
  1

  9
$DIMASO
 70
     1
  9
$DIMSHO
 70
     1
  9
$DIMPOST
  1

  9
$DIMAPOST
  1

  9
$DIMALT
 70
     0
  9
$DIMALTD
 70
     3
  9
$DIMALTF
 40
0.0393700787401575
  9
$DIMLFAC
 40
1.0
  9
$DIMTOFL
 70
     1
  9
$DIMTVP
 40
0.0
  9
$DIMTIX
 70
     0
  9
$DIMSOXD
 70
     0
  9
$DIMSAH
 70
     0
  9
$DIMBLK1
  1

  9
$DIMBLK2
  1

  9
$DIMSTYLE
  2
ISO-25
  9
$DIMCLRD
 70
     0
  9
$DIMCLRE
 70
     0
  9
$DIMCLRT
 70
     0
  9
$DIMTFAC
 40
1.0
  9
$DIMGAP
 40
1.524
  9
$DIMJUST
 70
     0
  9
$DIMSD1
 70
     0
  9
$DIMSD2
 70
     0
  9
$DIMTOLJ
 70
     0
  9
$DIMTZIN
 70
     0
  9
$DIMALTZ
 70
     0
  9
$DIMALTTZ
 70
     0
  9
$DIMUPT
 70
     0
  9
$DIMDEC
 70
     2
  9
$DIMTDEC
 70
     2
  9
$DIMALTU
 70
     2
  9
$DIMALTTD
 70
     3
  9
$DIMTXSTY
  7
Standard
  9
$DIMAUNIT
 70
     0
  9
$DIMADEC
 70
     2
  9
$DIMALTRND
 40
0.0
  9
$DIMAZIN
 70
     0
  9
$DIMDSEP
 70
    44
  9
$DIMATFIT
 70
     3
  9
$DIMFRAC
 70
     0
  9
$DIMLDRBLK
  1

  9
$DIMLUNIT
 70
     2
  9
$DIMLWD
 70
    -2
  9
$DIMLWE
 70
    -2
  9
$DIMTMOVE
 70
     0
  9
$LUNITS
 70
     2
  9
$LUPREC
 70
     2
  9
$SKETCHINC
 40
1.0
  9
$FILLETRAD
 40
10.0
  9
$AUNITS
 70
     0
  9
$AUPREC
 70
     2
  9
$MENU
  1
.
  9
$ELEVATION
 40
0.0
  9
$PELEVATION
 40
0.0
  9
$THICKNESS
 40
0.0
  9
$LIMCHECK
 70
     0
  9
$CHAMFERA
 40
0.0
  9
$CHAMFERB
 40
0.0
  9
$CHAMFERC
 40
0.0
  9
$CHAMFERD
 40
0.0
  9
$SKPOLY
 70
     0
  9
$TDCREATE
 40
2458260.491088565
  9
$TDUCREATE
 40
2458260.116088565
  9
$TDUPDATE
 40
2458267.671077789
  9
$TDUUPDATE
 40
2458267.296077789
  9
$TDINDWG
 40
0.0011603241
  9
$TDUSRTIMER
 40
2458267.294917512
  9
$USRTIMER
 70
     1
  9
$ANGBASE
 50
0.0
  9
$ANGDIR
 70
     0
  9
$PDMODE
 70
     0
  9
$PDSIZE
 40
-1.0
  9
$PLINEWID
 40
0.0
  9
$SPLFRAME
 70
     0
  9
$SPLINETYPE
 70
     6
  9
$SPLINESEGS
 70
     8
  9
$HANDSEED
  5
15A
  9
$SURFTAB1
 70
     6
  9
$SURFTAB2
 70
     6
  9
$SURFTYPE
 70
     6
  9
$SURFU
 70
     6
  9
$SURFV
 70
     6
  9
$UCSBASE
  2

  9
$UCSNAME
  2

  9
$UCSORG
 10
0.0
 20
0.0
 30
0.0
  9
$UCSXDIR
 10
1.0
 20
0.0
 30
0.0
  9
$UCSYDIR
 10
0.0
 20
1.0
 30
0.0
  9
$UCSORTHOREF
  2

  9
$UCSORTHOVIEW
 70
     0
  9
$UCSORGTOP
 10
0.0
 20
0.0
 30
0.0
  9
$UCSORGBOTTOM
 10
0.0
 20
0.0
 30
0.0
  9
$UCSORGLEFT
 10
0.0
 20
0.0
 30
0.0
  9
$UCSORGRIGHT
 10
0.0
 20
0.0
 30
0.0
  9
$UCSORGFRONT
 10
0.0
 20
0.0
 30
0.0
  9
$UCSORGBACK
 10
0.0
 20
0.0
 30
0.0
  9
$PUCSBASE
  2

  9
$PUCSNAME
  2

  9
$PUCSORG
 10
0.0
 20
0.0
 30
0.0
  9
$PUCSXDIR
 10
1.0
 20
0.0
 30
0.0
  9
$PUCSYDIR
 10
0.0
 20
1.0
 30
0.0
  9
$PUCSORTHOREF
  2

  9
$PUCSORTHOVIEW
 70
     0
  9
$PUCSORGTOP
 10
0.0
 20
0.0
 30
0.0
  9
$PUCSORGBOTTOM
 10
0.0
 20
0.0
 30
0.0
  9
$PUCSORGLEFT
 10
0.0
 20
0.0
 30
0.0
  9
$PUCSORGRIGHT
 10
0.0
 20
0.0
 30
0.0
  9
$PUCSORGFRONT
 10
0.0
 20
0.0
 30
0.0
  9
$PUCSORGBACK
 10
0.0
 20
0.0
 30
0.0
  9
$USERI1
 70
     0
  9
$USERI2
 70
     0
  9
$USERI3
 70
     0
  9
$USERI4
 70
     0
  9
$USERI5
 70
     0
  9
$USERR1
 40
0.0
  9
$USERR2
 40
0.0
  9
$USERR3
 40
0.0
  9
$USERR4
 40
0.0
  9
$USERR5
 40
0.0
  9
$WORLDVIEW
 70
     1
  9
$SHADEDGE
 70
     3
  9
$SHADEDIF
 70
    70
  9
$TILEMODE
 70
     1
  9
$MAXACTVP
 70
    64
  9
$PINSBASE
 10
0.0
 20
0.0
 30
0.0
  9
$PLIMCHECK
 70
     0
  9
$PEXTMIN
 10
1.000000000000000E+20
 20
1.000000000000000E+20
 30
1.000000000000000E+20
  9
$PEXTMAX
 10
-1.000000000000000E+20
 20
-1.000000000000000E+20
 30
-1.000000000000000E+20
  9
$PLIMMIN
 10
0.0
 20
0.0
  9
$PLIMMAX
 10
0.0
 20
0.0
  9
$UNITMODE
 70
     0
  9
$VISRETAIN
 70
     1
  9
$PLINEGEN
 70
     0
  9
$PSLTSCALE
 70
     1
  9
$TREEDEPTH
 70
  3020
  9
$CMLSTYLE
  2
Standard
  9
$CMLJUST
 70
     0
  9
$CMLSCALE
 40
20.0
  9
$PROXYGRAPHICS
 70
     1
  9
$MEASUREMENT
 70
     1
  9
$CELWEIGHT
370
    -1
  9
$ENDCAPS
280
     0
  9
$JOINSTYLE
280
     0
  9
$LWDISPLAY
290
     1
  9
$INSUNITS
 70
     4
  9
$HYPERLINKBASE
  1

  9
$STYLESHEET
  1

  9
$XEDIT
290
     1
  9
$CEPSNTYPE
380
     0
  9
$PSTYLEMODE
290
     1
  9
$FINGERPRINTGUID
  2
{561456AF-DE25-4CB0-AC20-22F4481EF0FB}
  9
$VERSIONGUID
  2
{FAEB1C32-E019-11D5-929B-00C0DF256EC4}
  9
$EXTNAMES
290
     1
  9
$PSVPSCALE
 40
0.0
  9
$OLESTARTUP
290
     0
  0
ENDSEC
  0
SECTION
  2
CLASSES
  0
CLASS
  1
ACDBDICTIONARYWDFLT
  2
AcDbDictionaryWithDefault
  3
ObjectDBX Classes
 90
        0
280
     0
281
     0
  0
CLASS
  1
VISUALSTYLE
  2
AcDbVisualStyle
  3
ObjectDBX Classes
 90
     4095
280
     0
281
     0
  0
CLASS
  1
MATERIAL
  2
AcDbMaterial
  3
ObjectDBX Classes
 90
     1153
280
     0
281
     0
  0
CLASS
  1
SCALE
  2
AcDbScale
  3
ObjectDBX Classes
 90
     1153
280
     0
281
     0
  0
CLASS
  1
TABLESTYLE
  2
AcDbTableStyle
  3
ObjectDBX Classes
 90
     4095
280
     0
281
     0
  0
CLASS
  1
MLEADERSTYLE
  2
AcDbMLeaderStyle
  3
ACDB_MLEADERSTYLE_CLASS
 90
     4095
280
     0
281
     0
  0
CLASS
  1
SUN
  2
AcDbSun
  3
SCENEOE
 90
     1153
280
     0
281
     0
  0
CLASS
  1
ACDBPLACEHOLDER
  2
AcDbPlaceHolder
  3
ObjectDBX Classes
 90
        0
280
     0
281
     0
  0
CLASS
  1
LAYOUT
  2
AcDbLayout
  3
ObjectDBX Classes
 90
        0
280
     0
281
     0
  0
CLASS
  1
RASTERVARIABLES
  2
AcDbRasterVariables
  3
ISM
 90
        0
280
     0
281
     0
  0
ENDSEC
  0
SECTION
  2
TABLES
  0
TABLE
  2
VPORT
  5
8
330
0
100
AcDbSymbolTable
 70
     1
  0
VPORT
  5
29
330
8
100
AcDbSymbolTableRecord
100
AcDbViewportTableRecord
  2
*Active
 70
     0
 10
0.0
 20
0.0
 11
1.0
 21
1.0
 12
-3.773505729354092
 22
-10.68329754037353
 13
0.0
 23
0.0
 14
10.0
 24
10.0
 15
10.0
 25
10.0
 16
0.0
 26
0.0
 36
1.0
 17
0.0
 27
0.0
 37
0.0
 40
95.28832348775157
 41
1.739018087855297
 42
50.0
 43
0.0
 44
0.0
 50
0.0
 51
0.0
 71
    16
 72
  2000
 73
     1
 74
     3
 75
     0
 76
     0
 77
     0
 78
     0
281
     0
 65
     1
110
0.0
120
0.0
130
0.0
111
1.0
121
0.0
131
0.0
112
0.0
122
1.0
132
0.0
 79
     0
146
0.0
  0
ENDTAB
  0
TABLE
  2
LTYPE
  5
5
330
0
100
AcDbSymbolTable
 70
     6
  0
LTYPE
  5
14
330
5
100
AcDbSymbolTableRecord
100
AcDbLinetypeTableRecord
  2
ByBlock
 70
     0
  3

 72
    65
 73
     0
 40
0.0
  0
LTYPE
  5
15
330
5
100
AcDbSymbolTableRecord
100
AcDbLinetypeTableRecord
  2
ByLayer
 70
     0
  3

 72
    65
 73
     0
 40
0.0
  0
LTYPE
  5
16
330
5
100
AcDbSymbolTableRecord
100
AcDbLinetypeTableRecord
  2
Continuous
 70
     0
  3
Solid line
 72
    65
 73
     0
 40
0.0
  0
LTYPE
  5
6E
330
5
100
AcDbSymbolTableRecord
100
AcDbLinetypeTableRecord
  2
HIDDEN
 70
     0
  3
Hidden __ __ __ __ __ __ __ __ __ __ __ __ __ __
 72
    65
 73
     2
 40
1.905
 49
1.27
 74
     0
 49
-0.635
 74
     0
  0
LTYPE
  5
6F
330
5
100
AcDbSymbolTableRecord
100
AcDbLinetypeTableRecord
  2
PHANTOM
 70
     0
  3
Phantom ______  __  __  ______  __  __  ______
 72
    65
 73
     6
 40
12.7
 49
6.35
 74
     0
 49
-1.27
 74
     0
 49
1.27
 74
     0
 49
-1.27
 74
     0
 49
1.27
 74
     0
 49
-1.27
 74
     0
  0
LTYPE
  5
70
330
5
100
AcDbSymbolTableRecord
100
AcDbLinetypeTableRecord
  2
CENTER
 70
     0
  3
Center ____ _ ____ _ ____ _ ____ _ ____ _ ____
 72
    65
 73
     4
 40
10.16
 49
6.35
 74
     0
 49
-1.27
 74
     0
 49
1.27
 74
     0
 49
-1.27
 74
     0
  0
LTYPE
  5
71
330
5
100
AcDbSymbolTableRecord
100
AcDbLinetypeTableRecord
  2
CENTERX2
 70
     0
  3
Center (2x) ________  __  ________  __  _____
 72
    65
 73
     4
 40
20.32
 49
12.7
 74
     0
 49
-2.54
 74
     0
 49
2.54
 74
     0
 49
-2.54
 74
     0
  0
LTYPE
  5
72
330
5
100
AcDbSymbolTableRecord
100
AcDbLinetypeTableRecord
  2
DOT2
 70
     0
  3
Dot (.5x) ........................................
 72
    65
 73
     2
 40
0.635
 49
0.0
 74
     0
 49
-0.635
 74
     0
  0
ENDTAB
  0
TABLE
  2
LAYER
  5
2
330
0
100
AcDbSymbolTable
 70
    17
  0
LAYER
  5
10
330
2
100
AcDbSymbolTableRecord
100
AcDbLayerTableRecord
  2
0
 70
     0
 62
     7
  6
Continuous
370
    -3
390
F
  0
LAYER
  5
73
330
2
100
AcDbSymbolTableRecord
100
AcDbLayerTableRecord
  2
FORMAT
 70
     0
 62
     2
  6
Continuous
370
    -3
390
F
  0
LAYER
  5
74
330
2
100
AcDbSymbolTableRecord
100
AcDbLayerTableRecord
  2
외형선
 70
     0
 62
   100
  6
Continuous
370
    35
390
F
  0
LAYER
  5
75
330
2
100
AcDbSymbolTableRecord
100
AcDbLayerTableRecord
  2
숨은선
 70
     0
 62
     2
  6
HIDDEN
370
    25
390
F
  0
LAYER
  5
76
330
2
100
AcDbSymbolTableRecord
100
AcDbLayerTableRecord
  2
중심선
 70
     0
 62
     1
  6
CENTERX2
370
    -3
390
F
  0
LAYER
  5
77
330
2
100
AcDbSymbolTableRecord
100
AcDbLayerTableRecord
  2
파단선
 70
     0
 62
     4
  6
Continuous
370
    -3
390
F
  0
LAYER
  5
78
330
2
100
AcDbSymbolTableRecord
100
AcDbLayerTableRecord
  2
해칭선
 70
     0
 62
   100
  6
Continuous
370
    -3
390
F
  0
LAYER
  5
79
330
2
100
AcDbSymbolTableRecord
100
AcDbLayerTableRecord
  2
가는실선
 70
     0
 62
     4
  6
Continuous
370
    -3
390
F
  0
LAYER
  5
7A
330
2
100
AcDbSymbolTableRecord
100
AcDbLayerTableRecord
  2
치수_보조선
 70
     0
 62
     4
  6
Continuous
370
    -3
390
F
  0
LAYER
  5
7B
330
2
100
AcDbSymbolTableRecord
100
AcDbLayerTableRecord
  2
치수문자_일반주서
 70
     0
 62
     7
  6
Continuous
370
    25
390
F
  0
LAYER
  5
7C
330
2
100
AcDbSymbolTableRecord
100
AcDbLayerTableRecord
  2
개별주서
 70
     0
 62
   100
  6
Continuous
370
    35
390
F
  0
LAYER
  5
7D
330
2
100
AcDbSymbolTableRecord
100
AcDbLayerTableRecord
  2
중간선
 70
     0
 62
     2
  6
Continuous
370
    25
390
F
  0
LAYER
  5
7E
330
2
100
AcDbSymbolTableRecord
100
AcDbLayerTableRecord
  2
윤곽선
 70
     0
 62
     3
  6
Continuous
370
    50
390
F
  0
LAYER
  5
7F
330
2
100
AcDbSymbolTableRecord
100
AcDbLayerTableRecord
  2
중심마크
 70
     0
 62
   100
  6
Continuous
370
    35
390
F
  0
LAYER
  5
80
330
2
100
AcDbSymbolTableRecord
100
AcDbLayerTableRecord
  2
가상선
 70
     0
 62
     4
  6
PHANTOM
370
    -3
390
F
  0
LAYER
  5
81
330
2
100
AcDbSymbolTableRecord
100
AcDbLayerTableRecord
  2
특수지정선
 70
     0
 62
     5
  6
CENTERX2
370
    70
390
F
  0
LAYER
  5
14C
330
2
100
AcDbSymbolTableRecord
100
AcDbLayerTableRecord
  2
Defpoints
 70
     0
 62
     7
  6
Continuous
290
     0
370
    -3
390
F
  0
ENDTAB
  0
TABLE
  2
STYLE
  5
3
330
0
100
AcDbSymbolTable
 70
     2
  0
STYLE
  5
11
330
3
100
AcDbSymbolTableRecord
100
AcDbTextStyleTableRecord
  2
Standard
 70
     0
 40
0.0
 41
1.0
 50
0.0
 71
     0
 42
3.5
  3
txt
  4

  0
STYLE
  5
97
330
3
100
AcDbSymbolTableRecord
100
AcDbTextStyleTableRecord
  2
SLDTEXTSTYLE0
 70
     0
 40
0.0
 41
0.75
 50
0.0
 71
     0
 42
3.5
  3
TXT
  4

  0
ENDTAB
  0
TABLE
  2
VIEW
  5
6
330
0
100
AcDbSymbolTable
 70
     0
  0
ENDTAB
  0
TABLE
  2
UCS
  5
7
330
0
100
AcDbSymbolTable
 70
     0
  0
ENDTAB
  0
TABLE
  2
APPID
  5
9
330
0
100
AcDbSymbolTable
 70
     1
  0
APPID
  5
12
330
9
100
AcDbSymbolTableRecord
100
AcDbRegAppTableRecord
  2
ACAD
 70
     0
  0
ENDTAB
  0
TABLE
  2
DIMSTYLE
  5
A
330
0
100
AcDbSymbolTable
 70
     4
100
AcDbDimStyleTable
  0
DIMSTYLE
105
27
330
A
100
AcDbSymbolTableRecord
100
AcDbDimStyleTableRecord
  2
ISO-25
 70
     0
 41
2.5
 42
0.625
 43
3.75
 44
1.25
 73
     0
 74
     0
 77
     1
 78
     8
140
2.5
141
2.5
143
0.03937007874016
147
0.625
171
     3
172
     1
178
     0
271
     2
272
     2
274
     3
278
    44
283
     0
284
     8
340
11
  0
DIMSTYLE
105
EF
102
{ACAD_REACTORS
330
EE
102
}
330
A
100
AcDbSymbolTableRecord
100
AcDbDimStyleTableRecord
  2
SLDDIMSTYLE0
 70
     0
 41
3.302
 44
0.0
 45
0.000000001
 73
     0
 74
     0
 77
     1
 78
    12
 79
     3
140
3.5
147
0.875
172
     1
173
     1
178
     0
271
     1
272
     1
276
     2
284
    12
289
     0
340
97
  0
DIMSTYLE
105
FD
102
{ACAD_REACTORS
330
FC
102
}
330
A
100
AcDbSymbolTableRecord
100
AcDbDimStyleTableRecord
  2
SLDDIMSTYLE1
 70
     0
 41
3.302
 44
0.0
 45
0.000000001
 73
     0
 74
     0
 77
     1
 78
    12
 79
     3
140
3.5
147
0.875
173
     1
178
     0
271
     2
272
     2
276
     2
284
    12
340
97
  0
DIMSTYLE
105
108
102
{ACAD_REACTORS
330
107
330
115
102
}
330
A
100
AcDbSymbolTableRecord
100
AcDbDimStyleTableRecord
  2
SLDDIMSTYLE2
 70
     0
 41
3.302
 44
0.0
 45
0.000000001
 73
     0
 74
     0
 77
     1
 78
    12
 79
     3
140
3.5
147
0.875
172
     1
173
     1
178
     0
271
     2
272
     2
276
     2
284
    12
289
     0
340
97
  0
ENDTAB
  0
TABLE
  2
BLOCK_RECORD
  5
1
330
0
100
AcDbSymbolTable
 70
     7
  0
BLOCK_RECORD
  5
1F
330
1
100
AcDbSymbolTableRecord
100
AcDbBlockTableRecord
  2
*Model_Space
340
22
  0
BLOCK_RECORD
  5
1B
330
1
100
AcDbSymbolTableRecord
100
AcDbBlockTableRecord
  2
*Paper_Space
340
1E
  0
BLOCK_RECORD
  5
23
330
1
100
AcDbSymbolTableRecord
100
AcDbBlockTableRecord
  2
*Paper_Space0
340
26
  0
BLOCK_RECORD
  5
82
330
1
100
AcDbSymbolTableRecord
100
AcDbBlockTableRecord
  2
블럭10
340
0
102
{BLKREFS
331
E7
102
}
  0
BLOCK_RECORD
  5
F0
330
1
100
AcDbSymbolTableRecord
100
AcDbBlockTableRecord
  2
_D
340
0
  0
BLOCK_RECORD
  5
FE
330
1
100
AcDbSymbolTableRecord
100
AcDbBlockTableRecord
  2
_D_1
340
0
  0
BLOCK_RECORD
  5
109
330
1
100
AcDbSymbolTableRecord
100
AcDbBlockTableRecord
  2
_D_2
340
0
  0
BLOCK_RECORD
  5
116
330
1
100
AcDbSymbolTableRecord
100
AcDbBlockTableRecord
  2
_D_3
340
0
  0
BLOCK_RECORD
  5
121
330
1
100
AcDbSymbolTableRecord
100
AcDbBlockTableRecord
  2
SW_DOWELSYMBOL_0
340
0
102
{BLKREFS
331
127
102
}
  0
ENDTAB
  0
ENDSEC
  0
SECTION
  2
BLOCKS
  0
BLOCK
  5
20
330
1F
100
AcDbEntity
  8
0
100
AcDbBlockBegin
  2
*Model_Space
 70
     0
 10
0.0
 20
0.0
 30
0.0
  3
*Model_Space
  1

  0
ENDBLK
  5
21
330
1F
100
AcDbEntity
  8
0
100
AcDbBlockEnd
  0
BLOCK
  5
1C
330
1B
100
AcDbEntity
 67
     1
  8
0
100
AcDbBlockBegin
  2
*Paper_Space
 70
     0
 10
0.0
 20
0.0
 30
0.0
  3
*Paper_Space
  1

  0
ENDBLK
  5
1D
330
1B
100
AcDbEntity
 67
     1
  8
0
100
AcDbBlockEnd
  0
BLOCK
  5
24
330
23
100
AcDbEntity
  8
0
100
AcDbBlockBegin
  2
*Paper_Space0
 70
     0
 10
0.0
 20
0.0
 30
0.0
  3
*Paper_Space0
  1

  0
ENDBLK
  5
25
330
23
100
AcDbEntity
  8
0
100
AcDbBlockEnd
  0
BLOCK
  5
83
330
82
100
AcDbEntity
  8
0
100
AcDbBlockBegin
  2
블럭10
 70
     2
 10
0.0
 20
0.0
 30
0.0
  3
블럭10
  1

  0
ELLIPSE
  5
85
330
82
100
AcDbEntity
  8
중심선
100
AcDbEllipse
 10
20.54032771741204
 20
12.0471743016438
 30
0.0
 11
6.600054785286829
 21
-1.261213355974178E-13
 31
0.0
210
0.0
220
0.0
230
1.0
 40
0.636358354079598
 41
0.9219305317359503
 42
6.513795318482858
  0
ELLIPSE
  5
86
330
82
100
AcDbEntity
  8
중심선
100
AcDbEllipse
 10
20.54032771746488
 20
12.04717430159265
 30
0.0
 11
3.960054785062283
 21
1.540847449632565E-10
 31
0.0
210
0.0
220
0.0
230
1.0
 40
0.3939339440162632
 41
1.131841032648279
 42
5.62031148352944
  0
LINE
  5
87
330
82
100
AcDbEntity
  8
중심선
100
AcDbLine
 10
2.268634060543552
 20
16.24717430164393
 30
0.0
 11
5.714909304380834
 21
16.24717430164393
 31
0.0
  0
LINE
  5
88
330
82
100
AcDbEntity
  8
중심선
100
AcDbLine
 10
5.245725140726316
 20
7.84717430164391
 30
0.0
 11
8.692000384563599
 21
7.84717430164391
 31
0.0
  0
LINE
  5
89
330
82
100
AcDbEntity
  8
중심선
100
AcDbLine
 10
15.74043728645272
 20
16.24717430164393
 30
0.0
 11
8.692000384563599
 21
7.84717430164391
 31
0.0
  0
LINE
  5
8A
330
82
100
AcDbEntity
  8
중심선
100
AcDbLine
 10
0.1404042013395286
 20
13.71084872107135
 30
0.0
 11
3.58671253028996
 21
13.71088815037384
 31
0.0
  0
LINE
  5
8B
330
82
100
AcDbEntity
  8
중심선
100
AcDbLine
 10
2.750260043222114
 20
10.84717430164391
 30
0.0
 11
6.196535287059397
 21
10.84717430164391
 31
0.0
  0
LINE
  5
8C
330
82
100
AcDbEntity
  8
중심선
100
AcDbLine
 10
12.29416204261559
 20
16.24717430164393
 30
0.0
 11
5.245725140726316
 21
7.84717430164391
 31
0.0
  0
LINE
  5
8D
330
82
100
AcDbEntity
  8
중심선
100
AcDbLine
 10
10.72767329541681
 20
16.24717430164393
 30
0.0
 11
6.196535287059397
 21
10.84717430164391
 31
0.0
  0
LINE
  5
8E
330
82
100
AcDbEntity
  8
중심선
100
AcDbLine
 10
7.28139805157953
 20
16.24717430164393
 30
0.0
 11
2.750260043222114
 21
10.84717430164391
 31
0.0
  0
LINE
  5
8F
330
82
100
AcDbEntity
  8
중심선
100
AcDbLine
 10
5.714909304380834
 20
16.24717430164393
 30
0.0
 11
3.58671253028996
 21
13.71088815037384
 31
0.0
  0
LINE
  5
90
330
82
100
AcDbEntity
  8
중심선
100
AcDbLine
 10
2.268634060543552
 20
16.24717430164393
 30
0.0
 11
0.1404042013395286
 21
13.71084872107135
 31
0.0
  0
LINE
  5
91
330
82
100
AcDbEntity
  8
중심선
100
AcDbLine
 10
7.28139805157953
 20
16.24717430164393
 30
0.0
 11
10.72767329541681
 21
16.24717430164393
 31
0.0
  0
LINE
  5
92
330
82
100
AcDbEntity
  8
중심선
100
AcDbLine
 10
12.29416204261559
 20
16.24717430164393
 30
0.0
 11
15.74043728645272
 21
16.24717430164393
 31
0.0
  0
LINE
  5
93
330
82
100
AcDbEntity
  8
중심선
100
AcDbLine
 10
19.22036997980202
 20
11.08717430171403
 30
0.0
 11
23.66174974927406
 21
11.08717430171406
 31
0.0
  0
LINE
  5
94
330
82
100
AcDbEntity
  8
중심선
100
AcDbLine
 10
19.22039502424796
 20
13.00717430171391
 30
0.0
 11
19.22036997980202
 21
11.08717430171403
 31
0.0
  0
LINE
  5
95
330
82
100
AcDbEntity
  8
중심선
100
AcDbLine
 10
19.22039502424796
 20
13.00717430171391
 30
0.0
 11
26.96566020931264
 21
13.00717430171391
 31
0.0
  0
LINE
  5
96
330
82
100
AcDbEntity
  8
중심선
100
AcDbLine
 10
22.22332737316547
 20
13.45928029700563
 30
0.0
 11
24.52862924686651
 21
15.39360700705356
 31
0.0
  0
ATTDEF
  5
98
330
82
100
AcDbEntity
  8
FORMAT
 62
     2
100
AcDbText
 10
-16.11926103943555
 20
2.075366912832191
 30
0.0
 40
4.233333333333333
  1
SEME7104016E [ 4 FLUTE ]
 41
0.75
  7
SLDTEXTSTYLE0
 11
-16.11926103943555
 21
-0.0412997538344756
 31
0.0
100
AcDbAttributeDefinition
  3

  2
AUTOATTR0
 70
     0
 74
     1
  0
ENDBLK
  5
84
330
82
100
AcDbEntity
  8
0
100
AcDbBlockEnd
  0
BLOCK
  5
F1
330
F0
100
AcDbEntity
  8
0
100
AcDbBlockBegin
  2
_D
 70
     0
 10
0.0
 20
0.0
 30
0.0
  3
_D
  1

  0
LINE
  5
F3
330
F0
100
AcDbEntity
  8
치수문자_일반주서
 62
     0
370
    -2
100
AcDbLine
 10
22.79455080756889
 20
-2.000000000000005
 30
0.0
 11
38.06241318474451
 21
-1.999999999999948
 31
0.0
  0
LINE
  5
F4
330
F0
100
AcDbEntity
  8
치수문자_일반주서
 62
     0
370
    -2
100
AcDbLine
 10
22.79455080756889
 20
2.000000000000008
 30
0.0
 11
38.06241318474449
 21
2.000000000000064
 31
0.0
  0
LINE
  5
F5
330
F0
100
AcDbEntity
  8
치수문자_일반주서
 62
     0
370
    -2
100
AcDbLine
 10
38.06241318474451
 20
-1.999999999999948
 30
0.0
 11
38.06241318474444
 21
14.72900000000006
 31
0.0
  0
LINE
  5
F6
330
F0
100
AcDbEntity
  8
치수문자_일반주서
 62
     0
370
    -2
100
AcDbLine
 10
38.06241318474451
 20
-1.999999999999948
 30
0.0
 11
38.06241318474449
 21
2.000000000000064
 31
0.0
  0
LINE
  5
F7
330
F0
100
AcDbEntity
  8
치수문자_일반주서
 62
     0
370
    -2
100
AcDbLine
 10
38.06241318474452
 20
-5.301999999999948
 30
0.0
 11
38.06241318474454
 21
-8.603999999999948
 31
0.0
  0
LINE
  5
F8
330
F0
100
AcDbEntity
  8
치수문자_일반주서
 62
     0
370
    -2
100
AcDbLine
 10
38.06241318474448
 20
5.302000000000064
 30
0.0
 11
38.06241318474446
 21
8.604000000000063
 31
0.0
  0
SOLID
  5
F9
330
F0
100
AcDbEntity
  8
치수문자_일반주서
 62
     0
100
AcDbTrace
 10
38.61274651807786
 20
-5.301999999999946
 30
0.0
 11
37.51207985141119
 21
-5.30199999999995
 31
0.0
 12
38.06241318474451
 22
-1.999999999999948
 32
0.0
 13
38.06241318474451
 23
-1.999999999999948
 33
0.0
  0
SOLID
  5
FA
330
F0
100
AcDbEntity
  8
치수문자_일반주서
 62
     0
100
AcDbTrace
 10
37.51207985141114
 20
5.302000000000062
 30
0.0
 11
38.61274651807781
 21
5.302000000000065
 31
0.0
 12
38.06241318474449
 22
2.000000000000064
 32
0.0
 13
38.06241318474449
 23
2.000000000000064
 33
0.0
  0
MTEXT
  5
FB
330
F0
100
AcDbEntity
  8
치수문자_일반주서
 62
     0
100
AcDbMText
 10
33.68741318474446
 20
11.66650000000005
 30
0.0
 40
3.5
 41
0.0
 71
     2
 72
     1
  1
\A1;%%c4
  7
SLDTEXTSTYLE0
 11
-3.552713678800488E-15
 21
1.0
 31
0.0
 73
     1
 44
1.0
  0
POINT
  5
154
330
F0
100
AcDbEntity
  8
Defpoints
 62
     0
100
AcDbPoint
 10
22.73205080756889
 20
-2.000000000000005
 30
0.0
  0
POINT
  5
155
330
F0
100
AcDbEntity
  8
Defpoints
 62
     0
100
AcDbPoint
 10
22.73205080756889
 20
2.000000000000008
 30
0.0
  0
POINT
  5
156
330
F0
100
AcDbEntity
  8
Defpoints
 62
     0
100
AcDbPoint
 10
38.06241318474449
 20
2.000000000000065
 30
0.0
  0
ENDBLK
  5
F2
330
F0
100
AcDbEntity
  8
0
100
AcDbBlockEnd
  0
BLOCK
  5
FF
330
FE
100
AcDbEntity
  8
0
100
AcDbBlockBegin
  2
_D_1
 70
     0
 10
0.0
 20
0.0
 30
0.0
  3
_D_1
  1

  0
LINE
  5
101
330
FE
100
AcDbEntity
  8
치수문자_일반주서
 62
     0
370
    -2
100
AcDbLine
 10
-27.26794919243114
 20
2.562499999999997
 30
0.0
 11
-27.26794919243114
 21
20.38913260158165
 31
0.0
  0
LINE
  5
102
330
FE
100
AcDbEntity
  8
치수문자_일반주서
 62
     0
370
    -2
100
AcDbLine
 10
22.73205080756887
 20
2.062500000000005
 30
0.0
 11
22.73205080756887
 21
20.38913260158165
 31
0.0
  0
LINE
  5
103
330
FE
100
AcDbEntity
  8
치수문자_일반주서
 62
     0
370
    -2
100
AcDbLine
 10
-23.96594919243114
 20
20.38913260158165
 30
0.0
 11
19.43005080756887
 21
20.38913260158165
 31
0.0
  0
SOLID
  5
104
330
FE
100
AcDbEntity
  8
치수문자_일반주서
 62
     0
100
AcDbTrace
 10
-23.96594919243114
 20
20.93946593491498
 30
0.0
 11
-23.96594919243114
 21
19.83879926824831
 31
0.0
 12
-27.26794919243114
 22
20.38913260158165
 32
0.0
 13
-27.26794919243114
 23
20.38913260158165
 33
0.0
  0
SOLID
  5
105
330
FE
100
AcDbEntity
  8
치수문자_일반주서
 62
     0
100
AcDbTrace
 10
19.43005080756887
 20
19.83879926824831
 30
0.0
 11
19.43005080756887
 21
20.93946593491498
 31
0.0
 12
22.73205080756887
 22
20.38913260158165
 32
0.0
 13
22.73205080756887
 23
20.38913260158165
 33
0.0
  0
MTEXT
  5
106
330
FE
100
AcDbEntity
  8
치수문자_일반주서
 62
     0
100
AcDbMText
 10
-2.267949192431132
 20
24.76413260158165
 30
0.0
 40
3.5
 41
0.0
 71
     2
 72
     1
  1
\A1;50
  7
SLDTEXTSTYLE0
 73
     1
 44
1.0
  0
POINT
  5
14D
330
FE
100
AcDbEntity
  8
Defpoints
 62
     0
100
AcDbPoint
 10
-27.26794919243114
 20
2.499999999999997
 30
0.0
  0
POINT
  5
14E
330
FE
100
AcDbEntity
  8
Defpoints
 62
     0
100
AcDbPoint
 10
22.73205080756887
 20
2.000000000000005
 30
0.0
  0
POINT
  5
14F
330
FE
100
AcDbEntity
  8
Defpoints
 62
     0
100
AcDbPoint
 10
22.73205080756887
 20
20.38913260158165
 30
0.0
  0
ENDBLK
  5
100
330
FE
100
AcDbEntity
  8
0
100
AcDbBlockEnd
  0
BLOCK
  5
10A
330
109
100
AcDbEntity
  8
0
100
AcDbBlockBegin
  2
_D_2
 70
     0
 10
0.0
 20
0.0
 30
0.0
  3
_D_2
  1

  0
LINE
  5
10C
330
109
100
AcDbEntity
  8
치수문자_일반주서
 62
     0
370
    -2
100
AcDbLine
 10
-26.83044919243114
 20
3.000000000000004
 30
0.0
 11
-39.29902614573297
 21
2.999999999999956
 31
0.0
  0
LINE
  5
10D
330
109
100
AcDbEntity
  8
치수문자_일반주서
 62
     0
370
    -2
100
AcDbLine
 10
-26.83044919243114
 20
-3.000000000000001
 30
0.0
 11
-39.29902614573295
 21
-3.000000000000048
 31
0.0
  0
LINE
  5
10E
330
109
100
AcDbEntity
  8
치수문자_일반주서
 62
     0
370
    -2
100
AcDbLine
 10
-39.29902614573297
 20
2.999999999999956
 30
0.0
 11
-39.29902614573302
 21
15.72899999999996
 31
0.0
  0
LINE
  5
10F
330
109
100
AcDbEntity
  8
치수문자_일반주서
 62
     0
370
    -2
100
AcDbLine
 10
-39.29902614573297
 20
2.999999999999956
 30
0.0
 11
-39.29902614573295
 21
-3.000000000000048
 31
0.0
  0
LINE
  5
110
330
109
100
AcDbEntity
  8
치수문자_일반주서
 62
     0
370
    -2
100
AcDbLine
 10
-39.29902614573298
 20
6.301999999999955
 30
0.0
 11
-39.299026145733
 21
9.603999999999955
 31
0.0
  0
LINE
  5
111
330
109
100
AcDbEntity
  8
치수문자_일반주서
 62
     0
370
    -2
100
AcDbLine
 10
-39.29902614573293
 20
-6.302000000000048
 30
0.0
 11
-39.29902614573292
 21
-9.604000000000047
 31
0.0
  0
SOLID
  5
112
330
109
100
AcDbEntity
  8
치수문자_일반주서
 62
     0
100
AcDbTrace
 10
-39.84935947906632
 20
6.301999999999953
 30
0.0
 11
-38.74869281239965
 21
6.301999999999957
 31
0.0
 12
-39.29902614573297
 22
2.999999999999956
 32
0.0
 13
-39.29902614573297
 23
2.999999999999956
 33
0.0
  0
SOLID
  5
113
330
109
100
AcDbEntity
  8
치수문자_일반주서
 62
     0
100
AcDbTrace
 10
-38.7486928123996
 20
-6.302000000000046
 30
0.0
 11
-39.84935947906627
 21
-6.302000000000049
 31
0.0
 12
-39.29902614573295
 22
-3.000000000000048
 32
0.0
 13
-39.29902614573295
 23
-3.000000000000048
 33
0.0
  0
MTEXT
  5
114
330
109
100
AcDbEntity
  8
치수문자_일반주서
 62
     0
100
AcDbMText
 10
-43.674026145733
 20
12.66649999999994
 30
0.0
 40
3.5
 41
0.0
 71
     2
 72
     1
  1
\A1;%%c6
  7
SLDTEXTSTYLE0
 11
-3.552713678800498E-15
 21
1.0
 31
0.0
 73
     1
 44
1.0
  0
POINT
  5
151
330
109
100
AcDbEntity
  8
Defpoints
 62
     0
100
AcDbPoint
 10
-26.76794919243114
 20
3.000000000000004
 30
0.0
  0
POINT
  5
152
330
109
100
AcDbEntity
  8
Defpoints
 62
     0
100
AcDbPoint
 10
-26.76794919243114
 20
-3.000000000000001
 30
0.0
  0
POINT
  5
153
330
109
100
AcDbEntity
  8
Defpoints
 62
     0
100
AcDbPoint
 10
-39.29902614573294
 20
-3.000000000000048
 30
0.0
  0
ENDBLK
  5
10B
330
109
100
AcDbEntity
  8
0
100
AcDbBlockEnd
  0
BLOCK
  5
117
330
116
100
AcDbEntity
  8
0
100
AcDbBlockBegin
  2
_D_3
 70
     0
 10
0.0
 20
0.0
 30
0.0
  3
_D_3
  1

  0
LINE
  5
119
330
116
100
AcDbEntity
  8
치수문자_일반주서
 62
     0
370
    -2
100
AcDbLine
 10
6.732050807568868
 20
2.062500000000004
 30
0.0
 11
6.732050807568868
 21
12.80985849860406
 31
0.0
  0
LINE
  5
11A
330
116
100
AcDbEntity
  8
치수문자_일반주서
 62
     0
370
    -2
100
AcDbLine
 10
22.73205080756887
 20
2.062500000000005
 30
0.0
 11
22.73205080756887
 21
12.80985849860406
 31
0.0
  0
LINE
  5
11B
330
116
100
AcDbEntity
  8
치수문자_일반주서
 62
     0
370
    -2
100
AcDbLine
 10
10.03405080756887
 20
12.80985849860406
 30
0.0
 11
19.43005080756887
 21
12.80985849860406
 31
0.0
  0
SOLID
  5
11C
330
116
100
AcDbEntity
  8
치수문자_일반주서
 62
     0
100
AcDbTrace
 10
10.03405080756887
 20
13.36019183193739
 30
0.0
 11
10.03405080756887
 21
12.25952516527073
 31
0.0
 12
6.732050807568868
 22
12.80985849860406
 32
0.0
 13
6.732050807568868
 23
12.80985849860406
 33
0.0
  0
SOLID
  5
11D
330
116
100
AcDbEntity
  8
치수문자_일반주서
 62
     0
100
AcDbTrace
 10
19.43005080756887
 20
12.25952516527073
 30
0.0
 11
19.43005080756887
 21
13.36019183193739
 31
0.0
 12
22.73205080756887
 22
12.80985849860406
 32
0.0
 13
22.73205080756887
 23
12.80985849860406
 33
0.0
  0
MTEXT
  5
11E
330
116
100
AcDbEntity
  8
치수문자_일반주서
 62
     0
100
AcDbMText
 10
14.73205080756887
 20
17.18485849860406
 30
0.0
 40
3.5
 41
0.0
 71
     2
 72
     1
  1
\A1;16
  7
SLDTEXTSTYLE0
 73
     1
 44
1.0
  0
POINT
  5
11F
330
116
100
AcDbEntity
  8
Defpoints
 62
     0
100
AcDbPoint
 10
6.732050807568868
 20
2.000000000000004
 30
0.0
  0
POINT
  5
120
330
116
100
AcDbEntity
  8
Defpoints
 62
     0
100
AcDbPoint
 10
22.73205080756887
 20
2.000000000000005
 30
0.0
  0
POINT
  5
150
330
116
100
AcDbEntity
  8
Defpoints
 62
     0
100
AcDbPoint
 10
22.73205080756887
 20
12.80985849860406
 30
0.0
  0
ENDBLK
  5
118
330
116
100
AcDbEntity
  8
0
100
AcDbBlockEnd
  0
BLOCK
  5
122
330
121
100
AcDbEntity
  8
0
100
AcDbBlockBegin
  2
SW_DOWELSYMBOL_0
 70
     0
 10
0.0
 20
0.0
 30
0.0
  3
SW_DOWELSYMBOL_0
  1

  0
CIRCLE
  5
124
330
121
100
AcDbEntity
  8
해칭선
 62
     0
100
AcDbCircle
 10
0.0
 20
0.0
 30
0.0
 40
3.000000000000001
  0
HATCH
  5
125
330
121
100
AcDbEntity
  8
0
  6
Continuous
 62
     0
370
    18
100
AcDbHatch
 10
0.0
 20
0.0
 30
0.0
210
0.0
220
0.0
230
1.0
  2
SOLID
 70
     1
 71
     0
 91
        1
 92
        0
 93
        3
 72
     2
 10
0.0
 20
0.0
 40
3.000000000000001
 50
0.0
 51
90.0
 73
     1
 72
     1
 10
0.0
 20
3.000000000000002
 11
0.0
 21
0.0
 72
     1
 10
0.0
 20
0.0
 11
3.000000000000001
 21
0.0
 97
        0
 75
     0
 76
     1
 98
        1
 10
0.0
 20
0.0
  0
HATCH
  5
126
330
121
100
AcDbEntity
  8
0
  6
Continuous
 62
     0
370
    18
100
AcDbHatch
 10
0.0
 20
0.0
 30
0.0
210
0.0
220
0.0
230
1.0
  2
SOLID
 70
     1
 71
     0
 91
        1
 92
        0
 93
        3
 72
     2
 10
0.0
 20
0.0
 40
3.000000000000001
 50
180.0
 51
270.0000000000008
 73
     1
 72
     1
 10
0.0
 20
-3.000000000000001
 11
0.0
 21
0.0
 72
     1
 10
0.0
 20
0.0
 11
-3.000000000000001
 21
0.0
 97
        0
 75
     0
 76
     1
 98
        1
 10
0.0
 20
0.0
  0
ENDBLK
  5
123
330
121
100
AcDbEntity
  8
0
100
AcDbBlockEnd
  0
ENDSEC
  0
SECTION
  2
ENTITIES
  0
LINE
  5
99
330
1F
100
AcDbEntity
  8
0
  6
Continuous
 62
     4
370
    25
100
AcDbLine
 10
2.0
 20
-2.999999999999998
 30
0.0
 11
5.258370120515833
 21
-2.126922357566078
 31
0.0
  0
LINE
  5
9A
330
1F
100
AcDbEntity
  8
0
  6
Continuous
 62
     4
370
    25
100
AcDbLine
 10
5.258370120515833
 20
2.126922357566081
 30
0.0
 11
2.0
 21
3.000000000000001
 31
0.0
  0
LINE
  5
9B
330
1F
100
AcDbEntity
  8
0
  6
Continuous
 62
     4
370
    25
100
AcDbLine
 10
2.0
 20
3.0
 30
0.0
 11
-26.76794919243114
 21
2.999999999999998
 31
0.0
  0
LINE
  5
9C
330
1F
100
AcDbEntity
  8
0
  6
Continuous
 62
     4
370
    25
100
AcDbLine
 10
-26.76794919243114
 20
-2.999999999999999
 30
0.0
 11
2.0
 21
-2.999999999999997
 31
0.0
  0
LINE
  5
9D
330
1F
100
AcDbEntity
  8
0
  6
Continuous
 62
     4
370
    25
100
AcDbLine
 10
-26.76794919243114
 20
2.999999999999997
 30
0.0
 11
-27.26794919243114
 21
2.499999999999997
 31
0.0
  0
LINE
  5
9E
330
1F
100
AcDbEntity
  8
0
  6
Continuous
 62
     4
370
    25
100
AcDbLine
 10
-27.26794919243114
 20
-2.499999999999998
 30
0.0
 11
-26.76794919243114
 21
-2.999999999999998
 31
0.0
  0
LINE
  5
9F
330
1F
100
AcDbEntity
  8
0
  6
Continuous
 62
     4
370
    25
100
AcDbLine
 10
6.075929894325082
 20
-1.999999999999998
 30
0.0
 11
6.732050807568868
 21
-1.999999999999998
 31
0.0
  0
LINE
  5
A0
330
1F
100
AcDbEntity
  8
0
  6
Continuous
 62
     4
370
    25
100
AcDbLine
 10
6.732050807568868
 20
2.000000000000002
 30
0.0
 11
6.075929894325082
 21
2.000000000000002
 31
0.0
  0
LINE
  5
A1
330
1F
100
AcDbEntity
  8
0
  6
Continuous
 62
     1
370
    25
100
AcDbLine
 10
18.13893245363326
 20
-2.0
 30
0.0
 11
19.28302896630806
 21
-2.0
 31
0.0
  0
LINE
  5
A2
330
1F
100
AcDbEntity
  8
0
  6
Continuous
 62
     1
370
    25
100
AcDbLine
 10
11.24080861172631
 20
2.000000000000004
 30
0.0
 11
10.09725280486422
 21
2.000000000000004
 31
0.0
  0
LINE
  5
A3
330
1F
100
AcDbEntity
  8
0
  6
Continuous
 62
     1
370
    25
100
AcDbLine
 10
14.55492143646017
 20
-0.3355872166448973
 30
0.0
 11
14.48625838578616
 21
-0.2858600580300744
 31
0.0
  0
LINE
  5
A4
330
1F
100
AcDbEntity
  8
0
  6
Continuous
 62
     4
370
    25
100
AcDbLine
 10
22.52254198675811
 20
-0.2814480513362927
 30
0.0
 11
22.51074190873614
 21
-0.2722356191953856
 31
0.0
  0
SPLINE
  5
A5
330
1F
100
AcDbEntity
  8
0
  6
Continuous
 62
     4
370
    25
100
AcDbSpline
210
0.0
220
0.0
230
1.0
 70
     8
 71
     3
 72
     9
 73
     5
 74
     0
 42
0.000000001
 43
0.00000001
 40
0.0
 40
0.0
 40
0.0
 40
0.0
 40
0.5319089101413265
 40
1.0
 40
1.0
 40
1.0
 40
1.0
 10
22.73205080756887
 20
-0.4452605203051199
 30
0.0
 10
22.69556270177325
 20
-0.4166696997671512
 30
0.0
 10
22.62696429121847
 20
-0.3629183525103959
 30
0.0
 10
22.55583634474315
 20
-0.3074243155688965
 30
0.0
 10
22.52254198675811
 20
-0.2814480513362927
 30
0.0
  0
LINE
  5
A6
330
1F
100
AcDbEntity
  8
0
  6
Continuous
 62
     1
370
    25
100
AcDbLine
 10
18.88825092373574
 20
0.3062422965662585
 30
0.0
 11
18.91652034194545
 21
0.2857455969790062
 31
0.0
  0
LINE
  5
A7
330
1F
100
AcDbEntity
  8
0
  6
Continuous
 62
     1
370
    25
100
AcDbLine
 10
22.1594549129447
 20
-2.0
 30
0.0
 11
22.73205080756887
 21
-2.0
 31
0.0
  0
LINE
  5
A8
330
1F
100
AcDbEntity
  8
0
  6
Continuous
 62
     1
370
    25
100
AcDbLine
 10
6.732050807568868
 20
-2.0
 30
0.0
 11
7.220356288739014
 21
-2.0
 31
0.0
  0
LINE
  5
A9
330
1F
100
AcDbEntity
  8
0
  6
Continuous
 62
     1
370
    25
100
AcDbLine
 10
15.2619185912689
 20
2.000000000000004
 30
0.0
 11
14.11739583169885
 21
2.000000000000004
 31
0.0
  0
LINE
  5
AA
330
1F
100
AcDbEntity
  8
0
  6
Continuous
 62
     1
370
    25
100
AcDbLine
 10
14.11739583169885
 20
-2.0
 30
0.0
 11
15.26191859126887
 21
-2.0
 31
0.0
  0
LINE
  5
AB
330
1F
100
AcDbEntity
  8
0
  6
Continuous
 62
     1
370
    25
100
AcDbLine
 10
7.220356288738996
 20
2.000000000000004
 30
0.0
 11
6.732050807568868
 21
2.000000000000004
 31
0.0
  0
LINE
  5
AC
330
1F
100
AcDbEntity
  8
0
  6
Continuous
 62
     1
370
    25
100
AcDbLine
 10
22.73205080756887
 20
2.000000000000004
 30
0.0
 11
22.15945491294469
 21
2.000000000000004
 31
0.0
  0
LINE
  5
AD
330
1F
100
AcDbEntity
  8
0
  6
Continuous
 62
     1
370
    25
100
AcDbLine
 10
10.09725280486424
 20
-2.0
 30
0.0
 11
11.24080861172631
 21
-2.0
 31
0.0
  0
LINE
  5
AE
330
1F
100
AcDbEntity
  8
0
  6
Continuous
 62
     1
370
    25
100
AcDbLine
 10
19.28302896630806
 20
2.000000000000004
 30
0.0
 11
18.13893245363328
 21
2.000000000000004
 31
0.0
  0
SPLINE
  5
AF
330
1F
100
AcDbEntity
  8
0
  6
Continuous
 62
     4
370
    25
100
AcDbSpline
210
0.0
220
0.0
230
1.0
 70
     8
 71
     3
 72
    12
 73
     8
 74
     0
 42
0.000000001
 43
0.00000001
 40
0.0
 40
0.0
 40
0.0
 40
0.0
 40
0.2500000000000002
 40
0.2500000000000002
 40
0.5000000000000003
 40
0.5000000000000003
 40
1.0
 40
1.0
 40
1.0
 40
1.0
 10
5.231919883331997
 20
2.129340110028231
 30
0.0
 10
5.231919883331994
 20
2.133468524472454
 30
0.0
 10
5.246240288250737
 20
2.130806566144068
 30
0.0
 10
5.300970016033403
 20
2.114207886063079
 30
0.0
 10
5.341210303828307
 20
2.100424883580902
 30
0.0
 10
5.488224087581461
 20
2.052073387030926
 30
0.0
 10
5.6159137303449
 20
2.014321197292045
 30
0.0
 10
5.732050807568822
 20
1.987171743692313
 30
0.0
  0
LINE
  5
B0
330
1F
100
AcDbEntity
  8
0
  6
Continuous
 62
     4
370
    25
100
AcDbLine
 10
5.231919883331997
 20
2.129340110028231
 30
0.0
 11
5.231919883331997
 21
1.616835485907473
 31
0.0
  0
SPLINE
  5
B1
330
1F
100
AcDbEntity
  8
0
  6
Continuous
 62
     4
370
    25
100
AcDbSpline
210
0.0
220
0.0
230
1.0
 70
     8
 71
     3
 72
     8
 73
     4
 74
     0
 42
0.000000001
 43
0.00000001
 40
0.0
 40
0.0
 40
0.0
 40
0.0
 40
1.0
 40
1.0
 40
1.0
 40
1.0
 10
5.379717944331468
 20
1.371382184334032
 30
0.0
 10
5.287618436232746
 20
1.442909012516574
 30
0.0
 10
5.231919883331543
 20
1.53832625969204
 30
0.0
 10
5.231919883331713
 20
1.616835485907476
 30
0.0
  0
SPLINE
  5
B2
330
1F
100
AcDbEntity
  8
0
  6
Continuous
 62
     4
370
    25
100
AcDbSpline
210
0.0
220
0.0
230
1.0
 70
     8
 71
     3
 72
     8
 73
     4
 74
     0
 42
0.000000001
 43
0.00000001
 40
0.0
 40
0.0
 40
0.0
 40
0.0
 40
1.0
 40
1.0
 40
1.0
 40
1.0
 10
5.732050807568866
 20
1.097976721852615
 30
0.0
 10
5.613192847907477
 20
1.189915434669088
 30
0.0
 10
5.49583235214911
 20
1.281204772220585
 30
0.0
 10
5.379717944332109
 20
1.371382184336223
 30
0.0
  0
LINE
  5
B3
330
1F
100
AcDbEntity
  8
0
  6
Continuous
 62
     4
370
    25
100
AcDbLine
 10
5.732050807568866
 20
1.097976721852615
 30
0.0
 11
5.732050807568866
 21
0.2261602552865001
 31
0.0
  0
SPLINE
  5
B4
330
1F
100
AcDbEntity
  8
0
  6
Continuous
 62
     4
370
    25
100
AcDbSpline
210
0.0
220
0.0
230
1.0
 70
     8
 71
     3
 72
    12
 73
     8
 74
     0
 42
0.000000001
 43
0.00000001
 40
0.0
 40
0.0
 40
0.0
 40
0.0
 40
0.2499999999999998
 40
0.2499999999999998
 40
0.4999999999999997
 40
0.4999999999999997
 40
1.0
 40
1.0
 40
1.0
 40
1.0
 10
5.231919883331997
 20
-0.1410957067400177
 30
0.0
 10
5.231919883331997
 20
-0.0787919083466019
 30
0.0
 10
5.246240288250737
 20
-0.016932308261706
 30
0.0
 10
5.300970016033403
 20
0.0921213630890696
 30
0.0
 10
5.341210303828307
 20
0.139305814725551
 30
0.0
 10
5.488224087581461
 20
0.2447103224955799
 30
0.0
 10
5.6159137303449
 20
0.2628026133622117
 30
0.0
 10
5.732050807568822
 20
0.2261602552857233
 30
0.0
  0
LINE
  5
B5
330
1F
100
AcDbEntity
  8
0
  6
Continuous
 62
     4
370
    25
100
AcDbLine
 10
5.231919883331997
 20
-0.1410957067400177
 30
0.0
 11
5.231919883331997
 21
-1.392781502657848
 31
0.0
  0
SPLINE
  5
B6
330
1F
100
AcDbEntity
  8
0
  6
Continuous
 62
     4
370
    25
100
AcDbSpline
210
0.0
220
0.0
230
1.0
 70
     8
 71
     3
 72
     8
 73
     4
 74
     0
 42
0.000000001
 43
0.00000001
 40
0.0
 40
0.0
 40
0.0
 40
0.0
 40
1.0
 40
1.0
 40
1.0
 40
1.0
 10
5.379717944331468
 20
-1.58298858764575
 30
0.0
 10
5.287618436232746
 20
-1.553673873597305
 30
0.0
 10
5.231919883331546
 20
-1.483920351554293
 30
0.0
 10
5.231919883331717
 20
-1.392781502657961
 30
0.0
  0
SPLINE
  5
B7
330
1F
100
AcDbEntity
  8
0
  6
Continuous
 62
     4
370
    25
100
AcDbSpline
210
0.0
220
0.0
230
1.0
 70
     8
 71
     3
 72
     8
 73
     4
 74
     0
 42
0.000000001
 43
0.00000001
 40
0.0
 40
0.0
 40
0.0
 40
0.0
 40
1.0
 40
1.0
 40
1.0
 40
1.0
 10
5.732050807568866
 20
-1.671659988834391
 30
0.0
 10
5.613192847907477
 20
-1.649376283925599
 30
0.0
 10
5.49583235214911
 20
-1.619947098420579
 30
0.0
 10
5.379717944332109
 20
-1.582988587649535
 30
0.0
  0
LINE
  5
B8
330
1F
100
AcDbEntity
  8
0
  6
Continuous
 62
     4
370
    25
100
AcDbLine
 10
5.732050807568866
 20
-1.671659988834393
 30
0.0
 11
5.732050807568866
 21
-1.98717174369221
 31
0.0
  0
SPLINE
  5
B9
330
1F
100
AcDbEntity
  8
0
  6
Continuous
 62
     4
370
    25
100
AcDbSpline
210
0.0
220
0.0
230
1.0
 70
     8
 71
     3
 72
    16
 73
    12
 74
     0
 42
0.000000001
 43
0.00000001
 40
0.0
 40
0.0
 40
0.0
 40
0.0
 40
0.0669931390757547
 40
0.1720646010284572
 40
0.2739225509705297
 40
0.3784866614535717
 40
0.4851183336743739
 40
0.5945532735991692
 40
0.7066142408154321
 40
0.8217312641268689
 40
0.9999999999999999
 40
0.9999999999999999
 40
0.9999999999999999
 40
0.9999999999999999
 10
5.258328203617706
 20
-2.126765921572571
 30
0.0
 10
5.262988281427397
 20
-2.125517325013669
 30
0.0
 10
5.274957185111379
 20
-2.122310440372689
 30
0.0
 10
5.303896670653565
 20
-2.112949854117474
 30
0.0
 10
5.343114456047225
 20
-2.099930609676622
 30
0.0
 10
5.389443832271338
 20
-2.084495110815817
 30
0.0
 10
5.442383576780676
 20
-2.067282659255873
 30
0.0
 10
5.501051153359263
 20
-2.048984044737604
 30
0.0
 10
5.564303679265526
 20
-2.030379375666676
 30
0.0
 10
5.642638545876823
 20
-2.008785854600068
 30
0.0
 10
5.698256131528625
 20
-1.995341114002344
 30
0.0
 10
5.732050807568866
 20
-1.98717174369221
 30
0.0
  0
LINE
  5
BA
330
1F
100
AcDbEntity
  8
0
  6
Continuous
 62
     4
370
    25
100
AcDbLine
 10
2.0
 20
3.000000000000001
 30
0.0
 11
2.0
 21
-3.0
 31
0.0
  0
LINE
  5
BB
330
1F
100
AcDbEntity
  8
0
  6
Continuous
 62
     4
370
    25
100
AcDbLine
 10
-26.76794919243114
 20
2.999999999999997
 30
0.0
 11
-26.76794919243114
 21
-3.0
 31
0.0
  0
LINE
  5
BC
330
1F
100
AcDbEntity
  8
0
  6
Continuous
 62
     4
370
    25
100
AcDbLine
 10
-27.26794919243114
 20
2.499999999999997
 30
0.0
 11
-27.26794919243114
 21
-2.499999999999998
 31
0.0
  0
SPLINE
  5
BD
330
1F
100
AcDbEntity
  8
0
  6
Continuous
 62
     4
370
    25
100
AcDbSpline
210
0.0
220
0.0
230
1.0
 70
     8
 71
     3
 72
     8
 73
     4
 74
     0
 42
0.000000001
 43
0.00000001
 40
0.0
 40
0.0
 40
0.0
 40
0.0
 40
1.0
 40
1.0
 40
1.0
 40
1.0
 10
5.732050807568866
 20
0.2261602552865143
 30
0.0
 10
5.785024283351673
 20
0.212481548092121
 30
0.0
 10
5.833967490584383
 20
0.188431432793345
 30
0.0
 10
5.877052334129091
 20
0.1547730101811328
 30
0.0
  0
SPLINE
  5
BE
330
1F
100
AcDbEntity
  8
0
  6
Continuous
 62
     4
370
    25
100
AcDbSpline
210
0.0
220
0.0
230
1.0
 70
     8
 71
     3
 72
    10
 73
     6
 74
     0
 42
0.000000001
 43
0.00000001
 40
0.0
 40
0.0
 40
0.0
 40
0.0
 40
0.5
 40
0.5
 40
1.0
 40
1.0
 40
1.0
 40
1.0
 10
6.732050807568868
 20
0.3780726206313603
 30
0.0
 10
6.566404121110878
 20
0.5057867593453563
 30
0.0
 10
6.400741993334563
 20
0.6311115763886358
 30
0.0
 10
6.064469629270821
 20
0.8733299388228858
 30
0.0
 10
5.896763901388301
 20
0.9894732300338848
 30
0.0
 10
5.732050807568866
 20
1.097976721852615
 30
0.0
  0
SPLINE
  5
BF
330
1F
100
AcDbEntity
  8
0
  6
Continuous
 62
     4
370
    25
100
AcDbSpline
210
0.0
220
0.0
230
1.0
 70
     8
 71
     3
 72
    10
 73
     6
 74
     0
 42
0.000000001
 43
0.00000001
 40
0.0
 40
0.0
 40
0.0
 40
0.0
 40
0.5
 40
0.5
 40
1.0
 40
1.0
 40
1.0
 40
1.0
 10
6.732050807568843
 20
1.934579829162612
 30
0.0
 10
6.590639797880439
 20
1.9627452476124
 30
0.0
 10
6.449742931008204
 20
1.981955156934926
 30
0.0
 10
6.162998881950967
 20
2.001948134597826
 30
0.0
 10
6.018895304565378
 20
2.002603289796815
 30
0.0
 10
5.877052334130246
 20
1.994002335836077
 30
0.0
  0
SPLINE
  5
C0
330
1F
100
AcDbEntity
  8
0
  6
Continuous
 62
     4
370
    25
100
AcDbSpline
210
0.0
220
0.0
230
1.0
 70
     8
 71
     3
 72
    10
 73
     6
 74
     0
 42
0.000000001
 43
0.00000001
 40
0.0
 40
0.0
 40
0.0
 40
0.0
 40
0.5
 40
0.5
 40
1.0
 40
1.0
 40
1.0
 40
1.0
 10
6.732050807568868
 20
-1.963940196016402
 30
0.0
 10
6.566404121110878
 20
-1.939354305258009
 30
0.0
 10
6.400741993334563
 20
-1.902309732267667
 30
0.0
 10
6.064469629270821
 20
-1.803989733143636
 30
0.0
 10
5.896763901388301
 20
-1.742927058126252
 30
0.0
 10
5.732050807568866
 20
-1.671659988834392
 30
0.0
  0
SPLINE
  5
C1
330
1F
100
AcDbEntity
  8
0
  6
Continuous
 62
     4
370
    25
100
AcDbSpline
210
0.0
220
0.0
230
1.0
 70
     8
 71
     3
 72
    10
 73
     6
 74
     0
 42
0.000000001
 43
0.00000001
 40
0.0
 40
0.0
 40
0.0
 40
0.0
 40
0.5
 40
0.5
 40
1.0
 40
1.0
 40
1.0
 40
1.0
 10
6.732050807568843
 20
-0.5073469075466466
 30
0.0
 10
6.590639797880439
 20
-0.3999484990762502
 30
0.0
 10
6.449742931008204
 20
-0.290335952811731
 30
0.0
 10
6.162998881950971
 20
-0.0681533269644475
 30
0.0
 10
6.018895304565378
 20
0.0439634945666328
 30
0.0
 10
5.877052334130246
 20
0.1547730101802287
 30
0.0
  0
SPLINE
  5
C2
330
1F
100
AcDbEntity
  8
0
  6
Continuous
 62
     4
370
    25
100
AcDbSpline
210
0.0
220
0.0
230
1.0
 70
     8
 71
     3
 72
     8
 73
     4
 74
     0
 42
0.000000001
 43
0.00000001
 40
0.0
 40
0.0
 40
0.0
 40
0.0
 40
1.0
 40
1.0
 40
1.0
 40
1.0
 10
5.732050807568866
 20
1.987171743692338
 30
0.0
 10
5.785024283351673
 20
1.988728519004232
 30
0.0
 10
5.833967490584383
 20
1.991389793567622
 30
0.0
 10
5.877052334129091
 20
1.994002335836013
 30
0.0
  0
LINE
  5
C3
330
1F
100
AcDbEntity
  8
0
  6
Continuous
 62
     4
370
    25
100
AcDbLine
 10
5.877052334131406
 20
-1.994002335836144
 30
0.0
 11
6.075929894325082
 21
-1.993052374050036
 31
0.0
  0
SPLINE
  5
C4
330
1F
100
AcDbEntity
  8
0
  6
Continuous
 62
     4
370
    25
100
AcDbSpline
210
0.0
220
0.0
230
1.0
 70
     8
 71
     3
 72
     8
 73
     4
 74
     0
 42
0.000000001
 43
0.00000001
 40
0.0
 40
0.0
 40
0.0
 40
0.0
 40
1.0
 40
1.0
 40
1.0
 40
1.0
 10
5.732050807568866
 20
-1.987171743692335
 30
0.0
 10
5.785024283351673
 20
-1.988728519004229
 30
0.0
 10
5.833967490584383
 20
-1.991389793567619
 30
0.0
 10
5.877052334129091
 20
-1.994002335836009
 30
0.0
  0
SPLINE
  5
C5
330
1F
100
AcDbEntity
  8
0
  6
Continuous
 62
     1
370
    25
100
AcDbSpline
210
0.0
220
0.0
230
1.0
 70
     8
 71
     3
 72
    23
 73
    19
 74
     0
 42
0.000000001
 43
0.00000001
 40
0.0
 40
0.0
 40
0.0
 40
0.0
 40
0.0395085271405677
 40
0.0999871479337301
 40
0.1659851000222873
 40
0.2320132277606849
 40
0.297796039659675
 40
0.3636838523400182
 40
0.4297913210747865
 40
0.49561621478326
 40
0.5614310230752496
 40
0.6275308699842189
 40
0.6934353050341148
 40
0.7592146205676701
 40
0.8252201393720102
 40
0.8912409556706773
 40
0.9570224735978533
 40
1.0
 40
1.0
 40
1.0
 40
1.0
 10
8.65879031427304
 20
1.682601692301041
 30
0.0
 10
8.783749660414687
 20
1.734897794704408
 30
0.0
 10
9.099993507822953
 20
1.867247403910514
 30
0.0
 10
9.623385553633906
 20
1.981816511838578
 30
0.0
 10
10.23230780878296
 20
2.01775433998487
 30
0.0
 10
10.85796502490238
 20
1.931565557031035
 30
0.0
 10
11.48198126392084
 20
1.731377919614741
 30
0.0
 10
12.10674095928135
 20
1.428130832607955
 30
0.0
 10
12.73298411378452
 20
1.041590401304998
 30
0.0
 10
13.35731463456795
 20
0.5916988204758893
 30
0.0
 10
13.98157214365738
 20
0.1065239477798529
 30
0.0
 10
14.60776367053115
 20
-0.3830137918306019
 30
0.0
 10
15.23263662433119
 20
-0.8513855702094747
 30
0.0
 10
15.85660754761871
 20
-1.269272677819742
 30
0.0
 10
16.4821522589888
 20
-1.612109791394505
 30
0.0
 10
17.1078406123843
 20
-1.854810358697064
 30
0.0
 10
17.65939900953061
 20
-1.988103985598178
 30
0.0
 10
18.0031104750866
 20
-1.986958874548
 30
0.0
 10
18.13893245363326
 20
-1.986506369281005
 30
0.0
  0
SPLINE
  5
C6
330
1F
100
AcDbEntity
  8
0
  6
Continuous
 62
     1
370
    25
100
AcDbSpline
210
0.0
220
0.0
230
1.0
 70
     8
 71
     3
 72
    23
 73
    19
 74
     0
 42
0.000000001
 43
0.00000001
 40
0.0
 40
0.0
 40
0.0
 40
0.0
 40
0.059546768746673
 40
0.1229656184571525
 40
0.1863182985575665
 40
0.2499822960473221
 40
0.3158287578975454
 40
0.3815635899959995
 40
0.447537550633397
 40
0.5134962246332584
 40
0.5792288559011537
 40
0.6450865178867647
 40
0.7111394530456169
 40
0.776907551882365
 40
0.8426857289778726
 40
0.9087462805532345
 40
0.9745873319663617
 40
1.0
 40
1.0
 40
1.0
 40
1.0
 10
20.72818763371737
 20
-1.686894643518027
 30
0.0
 10
20.53964189605107
 20
-1.758714401793299
 30
0.0
 10
20.15029006844425
 20
-1.907024061236499
 30
0.0
 10
19.56140606220911
 20
-2.005275036795155
 30
0.0
 10
18.96003492346138
 20
-2.002688866014552
 30
0.0
 10
18.34902238964104
 20
-1.88666652115544
 30
0.0
 10
17.73181054703091
 20
-1.660815680963692
 30
0.0
 10
17.10781487595407
 20
-1.332947243185304
 30
0.0
 10
16.48215916572908
 20
-0.9270722319519391
 30
0.0
 10
15.8566057001235
 20
-0.466255939468993
 30
0.0
 10
15.23263713530209
 20
0.0234665514367744
 30
0.0
 10
14.60776347440711
 20
0.5112095049567376
 30
0.0
 10
13.98157241523069
 20
0.9674757975485796
 30
0.0
 10
13.35731374829222
 20
1.367594657123827
 30
0.0
 10
12.73298739547635
 20
1.688242689632055
 30
0.0
 10
12.10672867941702
 20
1.900336881256666
 30
0.0
 10
11.60948299414941
 20
2.002415076750729
 30
0.0
 10
11.32111451555485
 20
1.989506612194315
 30
0.0
 10
11.24080861172631
 20
1.98591181598672
 30
0.0
  0
SPLINE
  5
C7
330
1F
100
AcDbEntity
  8
0
  6
Continuous
 62
     1
370
    25
100
AcDbSpline
210
0.0
220
0.0
230
1.0
 70
     8
 71
     3
 72
    24
 73
    20
 74
     0
 42
0.000000001
 43
0.00000001
 40
0.0
 40
0.0
 40
0.0
 40
0.0
 40
0.0230873912996315
 40
0.0890878494176371
 40
0.154862121608011
 40
0.2207615037217299
 40
0.2868562827121673
 40
0.3526660449397216
 40
0.418485891810505
 40
0.484588292042371
 40
0.5504710530609852
 40
0.616248821348725
 40
0.6822718866673464
 40
0.7482647786497147
 40
0.8087387625074319
 40
0.8694858191253941
 40
0.9301621118096894
 40
0.9906443089467638
 40
1.0
 40
1.0
 40
1.0
 40
1.0
 10
16.70113415148291
 20
-1.68084044953165
 30
0.0
 10
16.62813432773238
 20
-1.714237226196053
 30
0.0
 10
16.346448223772
 20
-1.843106138750943
 30
0.0
 10
15.8565840174205
 20
-1.961227037795643
 30
0.0
 10
15.23264293275611
 20
-2.020994036827658
 30
0.0
 10
14.60776197338452
 20
-1.953866959446547
 30
0.0
 10
13.98157259538204
 20
-1.773314398374479
 30
0.0
 10
13.35731451894769
 20
-1.486333007459574
 30
0.0
 10
12.73298412546209
 20
-1.110988640015511
 30
0.0
 10
12.10674102906082
 20
-0.6714472725228942
 30
0.0
 10
11.4819809745704
 20
-0.1906953972360492
 30
0.0
 10
10.85796611273859
 20
0.301868235763618
 30
0.0
 10
10.23230373042475
 20
0.7750671422865782
 30
0.0
 10
9.6234002276406
 20
1.191271520427091
 30
0.0
 10
9.032958701531197
 20
1.53195971736228
 30
0.0
 10
8.457467560205862
 20
1.787005008287795
 30
0.0
 10
7.882312420435774
 20
1.943526041160252
 30
0.0
 10
7.470886777468712
 20
2.01119197736757
 30
0.0
 10
7.249953206498747
 20
1.995532977565408
 30
0.0
 10
7.220356288738996
 20
1.993435251414919
 30
0.0
  0
SPLINE
  5
C8
330
1F
100
AcDbEntity
  8
0
  6
Continuous
 62
     1
370
    25
100
AcDbSpline
210
0.0
220
0.0
230
1.0
 70
     8
 71
     3
 72
    17
 73
    13
 74
     0
 42
0.000000001
 43
0.00000001
 40
0.0
 40
0.0
 40
0.0
 40
0.0
 40
0.0984434853030537
 40
0.1973667407255891
 40
0.2958949472509509
 40
0.3943203519589351
 40
0.4932294227089876
 40
0.5955291935462238
 40
0.6976555352013335
 40
0.800153389524659
 40
0.9026274943636104
 40
1.0
 40
1.0
 40
1.0
 40
1.0
 10
21.36811066648296
 20
-1.45504116845517
 30
0.0
 10
21.16796875963458
 20
-1.339630329174
 30
0.0
 10
20.76670954257548
 20
-1.108246189093957
 30
0.0
 10
20.16325437316576
 20
-0.6808175598960668
 30
0.0
 10
19.56142679985056
 20
-0.2199303864759662
 30
0.0
 10
18.96002931770036
 20
0.255154819740288
 30
0.0
 10
18.34902405665545
 20
0.7192500155645798
 30
0.0
 10
17.73180969001102
 20
1.149775507873829
 30
0.0
 10
17.1078166118631
 20
1.518159282405853
 30
0.0
 10
16.48215305605465
 20
1.793013615257022
 30
0.0
 10
15.86630452733737
 20
1.968669490718355
 30
0.0
 10
15.45992258824015
 20
1.987969179800492
 30
0.0
 10
15.26191859126891
 20
1.997372687217812
 30
0.0
  0
SPLINE
  5
C9
330
1F
100
AcDbEntity
  8
0
  6
Continuous
 62
     1
370
    25
100
AcDbSpline
210
0.0
220
0.0
230
1.0
 70
     8
 71
     3
 72
    11
 73
     7
 74
     0
 42
0.000000001
 43
0.00000001
 40
0.0
 40
0.0
 40
0.0
 40
0.0
 40
0.104527226525775
 40
0.4031081688666124
 40
0.7007339897122244
 40
1.0
 40
1.0
 40
1.0
 40
1.0
 10
8.658790314273057
 20
-1.682601692301037
 30
0.0
 10
8.59162846005605
 20
-1.713117400134738
 30
0.0
 10
8.332619463348118
 20
-1.830800912032746
 30
0.0
 10
7.882361548757418
 20
-1.944703171702585
 30
0.0
 10
7.308406628032794
 20
-2.021046387012411
 30
0.0
 10
6.924521038731283
 20
-1.983010432476884
 30
0.0
 10
6.732050807568811
 20
-1.963940196015915
 30
0.0
  0
SPLINE
  5
CA
330
1F
100
AcDbEntity
  8
0
  6
Continuous
 62
     1
370
    25
100
AcDbSpline
210
0.0
220
0.0
230
1.0
 70
     8
 71
     3
 72
    13
 73
     9
 74
     0
 42
0.000000001
 43
0.00000001
 40
0.0
 40
0.0
 40
0.0
 40
0.0
 40
0.1713306833395148
 40
0.341722353332136
 40
0.512660833229069
 40
0.6837986707122585
 40
0.8541672020880291
 40
1.0
 40
1.0
 40
1.0
 40
1.0
 10
6.732050807568847
 20
-0.5073469075466468
 30
0.0
 10
6.924519098207062
 20
-0.6497678576628596
 30
0.0
 10
7.308400817095503
 20
-0.9338291903376844
 30
0.0
 10
7.882384674824735
 20
-1.30814615227069
 30
0.0
 10
8.457445693174236
 20
-1.61784298347107
 30
0.0
 10
9.032973681499286
 20
-1.842574648214018
 30
0.0
 10
9.578491732289235
 20
-1.980658802439947
 30
0.0
 10
9.933515162539113
 20
-1.987006323044339
 30
0.0
 10
10.09725280486424
 20
-1.989933814499316
 30
0.0
  0
SPLINE
  5
CB
330
1F
100
AcDbEntity
  8
0
  6
Continuous
 62
     1
370
    25
100
AcDbSpline
210
0.0
220
0.0
230
1.0
 70
     8
 71
     3
 72
    17
 73
    13
 74
     0
 42
0.000000001
 43
0.00000001
 40
0.0
 40
0.0
 40
0.0
 40
0.0
 40
0.0674871004515487
 40
0.1708934083450884
 40
0.2744753190372211
 40
0.3783904828811659
 40
0.4818594904448825
 40
0.5853232133337063
 40
0.6892343833993522
 40
0.7928250040755979
 40
0.8962294799025258
 40
1.0
 40
1.0
 40
1.0
 40
1.0
 10
16.70113415148293
 20
1.680840449531655
 30
0.0
 10
16.83691123539346
 20
1.737731102340905
 30
0.0
 10
17.18073114304063
 20
1.881791782033758
 30
0.0
 10
17.73179456641335
 20
1.99202086100454
 30
0.0
 10
18.35660916587028
 20
2.013260234726164
 30
0.0
 10
18.98283229659181
 20
1.911497856833381
 30
0.0
 10
19.60713900269378
 20
1.696993774321128
 30
0.0
 10
20.23141988349708
 20
1.381159786038764
 30
0.0
 10
20.85763028275984
 20
0.9848871679634119
 30
0.0
 10
21.4824662621707
 20
0.5295384043246911
 30
0.0
 10
22.10644545582116
 20
0.0403194750727787
 30
0.0
 10
22.52327020331003
 20
-0.2816726015358184
 30
0.0
 10
22.73205080756887
 20
-0.4429530934593337
 30
0.0
  0
LINE
  5
CC
330
1F
100
AcDbEntity
  8
0
  6
Continuous
 62
     1
370
    25
100
AcDbLine
 10
22.73205080756887
 20
-0.5000000000000023
 30
0.0
 11
22.73205080756887
 21
-0.4448799765089982
 31
0.0
  0
SPLINE
  5
CD
330
1F
100
AcDbEntity
  8
0
  6
Continuous
 62
     1
370
    25
100
AcDbSpline
210
0.0
220
0.0
230
1.0
 70
    24
 71
     3
 72
    16
 73
    12
 74
     0
 42
0.000000001
 43
0.00000001
 40
0.0
 40
0.0
 40
0.0
 40
0.0
 40
0.1249999999999998
 40
0.1249999999999998
 40
0.2499999999999997
 40
0.2499999999999997
 40
0.4999999999999998
 40
0.4999999999999998
 40
0.7499999999999999
 40
0.7499999999999999
 40
1.0
 40
1.0
 40
1.0
 40
1.0
 10
22.73205080756887
 20
-0.5000000000000021
 30
0.0
 10
22.71617434992261
 20
-0.5111168153239753
 30
0.0
 10
22.69562191823876
 20
-0.5255077829175497
 30
0.0
 10
22.64311381284571
 20
-0.5622743541308708
 30
0.0
 10
22.61070034494091
 20
-0.5849705086973293
 30
0.0
 10
22.49886880944999
 20
-0.6632757928576373
 30
0.0
 10
22.40196196102418
 20
-0.7311306986295335
 30
0.0
 10
22.19466589953968
 20
-0.876280963522169
 30
0.0
 10
22.0859051445973
 20
-0.9524360639942078
 30
0.0
 10
21.87910689078173
 20
-1.097237760204471
 30
0.0
 10
21.77884120110025
 20
-1.167444551943253
 30
0.0
 10
21.6876501755166
 20
-1.231297195473994
 30
0.0
  0
SPLINE
  5
CE
330
1F
100
AcDbEntity
  8
0
  6
Continuous
 62
     1
370
    25
100
AcDbSpline
210
0.0
220
0.0
230
1.0
 70
     8
 71
     3
 72
    12
 73
     8
 74
     0
 42
0.000000001
 43
0.00000001
 40
0.0
 40
0.0
 40
0.0
 40
0.0
 40
0.5000000000000001
 40
0.5000000000000001
 40
0.7500000000000002
 40
0.7500000000000002
 40
1.0
 40
1.0
 40
1.0
 40
1.0
 10
22.73205080756887
 20
-1.718789664692073
 30
0.0
 10
22.55085811946538
 20
-1.685823223901581
 30
0.0
 10
22.37009328003669
 20
-1.639177888928081
 30
0.0
 10
22.10014859622456
 20
-1.530761945247648
 30
0.0
 10
22.01153233752418
 20
-1.488306347774123
 30
0.0
 10
21.83966466674459
 20
-1.378694667394754
 30
0.0
 10
21.75995321744081
 20
-1.31126104844475
 30
0.0
 10
21.68765017550565
 20
-1.23129719548877
 30
0.0
  0
LINE
  5
CF
330
1F
100
AcDbEntity
  8
0
  6
Continuous
 62
     1
370
    25
100
AcDbLine
 10
22.73205080756887
 20
-1.950331396710522
 30
0.0
 11
22.73205080756887
 21
-1.718789664692073
 31
0.0
  0
SPLINE
  5
D0
330
1F
100
AcDbEntity
  8
0
  6
Continuous
 62
     1
370
    25
100
AcDbSpline
210
0.0
220
0.0
230
1.0
 70
     8
 71
     3
 72
    10
 73
     6
 74
     0
 42
0.000000001
 43
0.00000001
 40
0.0
 40
0.0
 40
0.0
 40
0.0
 40
0.5
 40
0.5
 40
1.0
 40
1.0
 40
1.0
 40
1.0
 10
22.73205080756887
 20
-1.950331396710042
 30
0.0
 10
22.55147242554123
 20
-1.918763566006015
 30
0.0
 10
22.36575128134254
 20
-1.871867396786424
 30
0.0
 10
21.99666943488605
 20
-1.750004613960771
 30
0.0
 10
21.81671660801817
 20
-1.675667326149122
 30
0.0
 10
21.63317046912046
 20
-1.588604751142841
 30
0.0
  0
SPLINE
  5
D1
330
1F
100
AcDbEntity
  8
0
  6
Continuous
 62
     1
370
    25
100
AcDbSpline
210
0.0
220
0.0
230
1.0
 70
     8
 71
     3
 72
     8
 73
     4
 74
     0
 42
0.000000001
 43
0.00000001
 40
0.0
 40
0.0
 40
0.0
 40
0.0
 40
1.0
 40
1.0
 40
1.0
 40
1.0
 10
21.3887513832229
 20
-1.440588382999815
 30
0.0
 10
21.47146332951744
 20
-1.485111536604646
 30
0.0
 10
21.55370311090781
 20
-1.531469980942574
 30
0.0
 10
21.63317046898186
 20
-1.588604751042029
 30
0.0
  0
SPLINE
  5
D2
330
1F
100
AcDbEntity
  8
0
  6
Continuous
 62
     1
370
    25
100
AcDbSpline
210
0.0
220
0.0
230
1.0
 70
    24
 71
     3
 72
     8
 73
     4
 74
     0
 42
0.000000001
 43
0.00000001
 40
0.0
 40
0.0
 40
0.0
 40
0.0
 40
1.0
 40
1.0
 40
1.0
 40
1.0
 10
21.3887513832229
 20
-1.440588382999817
 30
0.0
 10
21.38178422975185
 20
-1.445466836380118
 30
0.0
 10
21.37490412614618
 20
-1.450284336788453
 30
0.0
 10
21.36811066648296
 20
-1.455041168455171
 30
0.0
  0
SPLINE
  5
D3
330
1F
100
AcDbEntity
  8
0
  6
Continuous
 62
     1
370
    25
100
AcDbSpline
210
0.0
220
0.0
230
1.0
 70
     8
 71
     3
 72
    24
 73
    20
 74
     0
 42
0.000000001
 43
0.00000001
 40
0.0
 40
0.0
 40
0.0
 40
0.0
 40
0.0056753749714744
 40
0.0715022286981804
 40
0.1373189967080967
 40
0.2034208118223729
 40
0.2693272092589439
 40
0.3351084834535849
 40
0.401115967654495
 40
0.4671387498052339
 40
0.5329222264590746
 40
0.5988174154720248
 40
0.664924608485298
 40
0.7307479724765102
 40
0.7965679745423765
 40
0.8626726268535702
 40
0.9285733568537988
 40
0.9943556680109341
 40
0.9999999999999999
 40
0.9999999999999999
 40
0.9999999999999999
 40
0.9999999999999999
 10
12.67974225361138
 20
1.688354716854716
 30
0.0
 10
12.6976949007121
 20
1.697049824071718
 30
0.0
 10
12.9238745426187
 20
1.806596690650596
 30
0.0
 10
13.35727415869192
 20
1.925063302803007
 30
0.0
 10
13.98158307345527
 20
2.018848644661104
 30
0.0
 10
14.60776062758682
 20
1.982829499281588
 30
0.0
 10
15.23263787687534
 20
1.831967313851202
 30
0.0
 10
15.85660557009771
 20
1.571178848806938
 30
0.0
 10
16.48215894093106
 20
1.218122731082337
 30
0.0
 10
17.10781590386149
 20
0.7930621121182361
 30
0.0
 10
17.73180667300961
 20
0.3196885638368318
 30
0.0
 10
18.35660583768995
 20
-0.1722459989761395
 30
0.0
 10
18.98283344641403
 20
-0.6523922794826219
 30
0.0
 10
19.6071377261595
 20
-1.095983237244533
 30
0.0
 10
20.23142385067498
 20
-1.473411254108657
 30
0.0
 10
20.8576156424941
 20
-1.765634278284
 30
0.0
 10
21.48252060597069
 20
-1.941565136231432
 30
0.0
 10
21.91577753570787
 20
-2.016160046691778
 30
0.0
 10
22.14160907652008
 20
-1.996875256689194
 30
0.0
 10
22.1594549129447
 20
-1.995351318949446
 30
0.0
  0
SPLINE
  5
D4
330
1F
100
AcDbEntity
  8
0
  6
Continuous
 62
     1
370
    25
100
AcDbSpline
210
0.0
220
0.0
230
1.0
 70
     8
 71
     3
 72
    10
 73
     6
 74
     0
 42
0.000000001
 43
0.00000001
 40
0.0
 40
0.0
 40
0.0
 40
0.0
 40
0.5
 40
0.5
 40
1.0
 40
1.0
 40
1.0
 40
1.0
 10
22.73205080756887
 20
0.4429530934593001
 30
0.0
 10
22.55147242551761
 20
0.581946888209276
 30
0.0
 10
22.36575128129393
 20
0.7188348724791858
 30
0.0
 10
21.99666943478975
 20
0.9788232609814641
 30
0.0
 10
21.81671660789953
 20
1.101215721136587
 30
0.0
 10
21.63317046897633
 20
1.215045243956668
 30
0.0
  0
SPLINE
  5
D5
330
1F
100
AcDbEntity
  8
0
  6
Continuous
 62
     1
370
    25
100
AcDbSpline
210
0.0
220
0.0
230
1.0
 70
     8
 71
     3
 72
     8
 73
     4
 74
     0
 42
0.000000001
 43
0.00000001
 40
0.0
 40
0.0
 40
0.0
 40
0.0
 40
1.0
 40
1.0
 40
1.0
 40
1.0
 10
21.3887513832229
 20
1.343299424345969
 30
0.0
 10
21.38178422975184
 20
1.352814154946101
 30
0.0
 10
21.37490412614618
 20
1.362438419980734
 30
0.0
 10
21.36811066648296
 20
1.372171708678886
 30
0.0
  0
SPLINE
  5
D6
330
1F
100
AcDbEntity
  8
0
  6
Continuous
 62
     1
370
    25
100
AcDbSpline
210
0.0
220
0.0
230
1.0
 70
     8
 71
     3
 72
    11
 73
     7
 74
     0
 42
0.000000001
 43
0.00000001
 40
0.0
 40
0.0
 40
0.0
 40
0.0
 40
0.2882714455892832
 40
0.5779477990347623
 40
0.8664673332522747
 40
1.0
 40
1.0
 40
1.0
 40
1.0
 10
21.36811066648296
 20
1.372171708678885
 30
0.0
 10
21.1679708192318
 20
1.479220672248391
 30
0.0
 10
20.76671573140471
 20
1.69384030881169
 30
0.0
 10
20.1632295184755
 20
1.895090139752994
 30
0.0
 10
19.6689462012821
 20
1.998715023280507
 30
0.0
 10
19.37578267600164
 20
1.989268096492434
 30
0.0
 10
19.28302896630806
 20
1.986279192930986
 30
0.0
  0
SPLINE
  5
D7
330
1F
100
AcDbEntity
  8
0
  6
Continuous
 62
     1
370
    25
100
AcDbSpline
210
0.0
220
0.0
230
1.0
 70
     8
 71
     3
 72
    17
 73
    13
 74
     0
 42
0.000000001
 43
0.00000001
 40
0.0
 40
0.0
 40
0.0
 40
0.0
 40
0.0963298433389864
 40
0.2013559069788999
 40
0.3062145979546437
 40
0.4114643256929295
 40
0.5166659530376593
 40
0.6130696917244036
 40
0.7099087454564252
 40
0.8066349918730612
 40
0.9030518236419278
 40
0.9999999999999999
 40
0.9999999999999999
 40
0.9999999999999999
 40
0.9999999999999999
 10
12.67974225361138
 20
-1.688354716854712
 30
0.0
 10
12.4885414655138
 20
-1.761225318549096
 30
0.0
 10
12.08887915144788
 20
-1.913544948558633
 30
0.0
 10
11.48196285037258
 20
-2.009481021864267
 30
0.0
 10
10.85797088335195
 20
-1.99769714054437
 30
0.0
 10
10.23230283581426
 20
-1.86517950006089
 30
0.0
 10
9.62339904002932
 20
-1.629523500021009
 30
0.0
 10
9.032963731087628
 20
-1.311373618750454
 30
0.0
 10
8.457448360323452
 20
-0.9379673609341999
 30
0.0
 10
7.882383966604007
 20
-0.5174934754281185
 30
0.0
 10
7.30840099505164
 20
-0.0678402335355527
 30
0.0
 10
6.924519157634318
 20
0.2291629591470285
 30
0.0
 10
6.732050807568811
 20
0.37807262063138
 30
0.0
  0
SPLINE
  5
D8
330
1F
100
AcDbEntity
  8
0
  6
Continuous
 62
     1
370
    25
100
AcDbSpline
210
0.0
220
0.0
230
1.0
 70
     8
 71
     3
 72
    20
 73
    16
 74
     0
 42
0.000000001
 43
0.00000001
 40
0.0
 40
0.0
 40
0.0
 40
0.0
 40
0.0780705473695751
 40
0.1557132129111529
 40
0.233605044262991
 40
0.3115877172292905
 40
0.3892198391575021
 40
0.4739367357460303
 40
0.5586923666789754
 40
0.6431331030441206
 40
0.727708621475286
 40
0.8125660968257027
 40
0.8970608506291082
 40
0.9815426584977042
 40
1.0
 40
1.0
 40
1.0
 40
1.0
 10
6.732050807568847
 20
1.934579829162613
 30
0.0
 10
6.924519157155475
 20
1.887186539882777
 30
0.0
 10
7.308400993617662
 20
1.792659710075165
 30
0.0
 10
7.882383972310997
 20
1.533614391939863
 30
0.0
 10
8.457448338831089
 20
1.205384548148005
 30
0.0
 10
9.032963811269887
 20
0.8155203310298189
 30
0.0
 10
9.62339873080915
 20
0.3704495787258006
 30
0.0
 10
10.23230410813798
 20
-0.1066697436387469
 30
0.0
 10
10.85796615372884
 20
-0.5904561663997683
 30
0.0
 10
11.48198043651445
 20
-1.040757129626286
 30
0.0
 10
12.10674314782193
 20
-1.428026811272419
 30
0.0
 10
12.73297617549899
 20
-1.732375645641457
 30
0.0
 10
13.3573440496125
 20
-1.92514454937586
 30
0.0
 10
13.81821765294198
 20
-2.010400926838525
 30
0.0
 10
14.07190824160764
 20
-1.992978373364896
 30
0.0
 10
14.11739583169885
 20
-1.989854449947323
 30
0.0
  0
SPLINE
  5
D9
330
1F
100
AcDbEntity
  8
0
  6
Continuous
 62
     1
370
    25
100
AcDbSpline
210
0.0
220
0.0
230
1.0
 70
     8
 71
     3
 72
    11
 73
     7
 74
     0
 42
0.000000001
 43
0.00000001
 40
0.0
 40
0.0
 40
0.0
 40
0.0
 40
0.0647503156660214
 40
0.3765064756530518
 40
0.6877024323799238
 40
1.0
 40
1.0
 40
1.0
 40
1.0
 10
20.72818763371738
 20
1.686894643518032
 30
0.0
 10
20.77148367347809
 20
1.707295662023664
 30
0.0
 10
21.02323903825688
 20
1.825922351303556
 30
0.0
 10
21.48245997009677
 20
1.942767776294249
 30
0.0
 10
22.10644703415427
 20
2.026061338491859
 30
0.0
 10
22.52327073004041
 20
1.975604427002578
 30
0.0
 10
22.73205080756887
 20
1.950331396710517
 30
0.0
  0
LINE
  5
DA
330
1F
100
AcDbEntity
  8
0
  6
Continuous
 62
     1
370
    25
100
AcDbLine
 10
22.73205080756887
 20
1.428017363720413
 30
0.0
 11
22.73205080756887
 21
1.950331396710525
 31
0.0
  0
SPLINE
  5
DB
330
1F
100
AcDbEntity
  8
0
  6
Continuous
 62
     1
370
    25
100
AcDbSpline
210
0.0
220
0.0
230
1.0
 70
     8
 71
     3
 72
    12
 73
     8
 74
     0
 42
0.000000001
 43
0.00000001
 40
0.0
 40
0.0
 40
0.0
 40
0.0
 40
0.2784956585141429
 40
0.5150772364258281
 40
0.7517852637367882
 40
0.9914226331270526
 40
1.0
 40
1.0
 40
1.0
 40
1.0
 10
22.73205080756887
 20
1.428017363720413
 30
0.0
 10
22.70382549756085
 20
1.34200633749809
 30
0.0
 10
22.65162283575362
 20
1.182929093977994
 30
0.0
 10
22.50177106352309
 20
1.003299132604695
 30
0.0
 10
22.32487207591659
 20
0.909891827532025
 30
0.0
 10
22.19093048707981
 20
0.8720038565448534
 30
0.0
 10
22.12500454974433
 20
0.8873784599846699
 30
0.0
 10
22.12272639753032
 20
0.887909748401364
 30
0.0
  0
ELLIPSE
  5
DC
330
1F
100
AcDbEntity
  8
0
  6
Continuous
 62
     1
370
    25
100
AcDbEllipse
 10
22.48782311459077
 20
0.0000000000000028
 30
0.0
 11
2.778646611319925
 21
-1.100682012083527
 31
0.0
210
0.0
220
0.0
230
1.0
 40
0.600968817488727
 41
4.541477617857062
 42
4.642223662015756
  0
LINE
  5
DD
330
1F
100
AcDbEntity
  8
0
  6
Continuous
 62
     1
370
    25
100
AcDbLine
 10
22.73205080756887
 20
-1.999999999999999
 30
0.0
 11
22.73205080756887
 21
-1.950331396710522
 31
0.0
  0
LINE
  5
DE
330
1F
100
AcDbEntity
  8
0
  6
Continuous
 62
     1
370
    25
100
AcDbLine
 10
21.36811066648247
 20
-1.455041168455516
 30
0.0
 11
21.36339151786795
 21
-1.458345551889333
 31
0.0
  0
LINE
  5
DF
330
1F
100
AcDbEntity
  8
0
  6
Continuous
 62
     1
370
    25
100
AcDbLine
 10
22.73205080756887
 20
1.950331396710525
 30
0.0
 11
22.73205080756887
 21
2.000000000000005
 31
0.0
  0
ELLIPSE
  5
E0
330
1F
100
AcDbEntity
  8
0
  6
Continuous
 62
     1
370
    25
100
AcDbEllipse
 10
23.44612481093992
 20
0.0000000000000018
 30
0.0
 11
2.856296013484222
 21
0.0
 31
0.0
210
0.0
220
0.0
230
1.0
 40
0.7002075382097123
 41
2.385497462061473
 42
2.387908688317154
  0
ELLIPSE
  5
E1
330
1F
100
AcDbEntity
  8
0
  6
Continuous
 62
     1
370
    25
100
AcDbEllipse
 10
22.48782311459077
 20
0.0000000000000018
 30
0.0
 11
2.838205131961562
 21
-1.944348140814812
 31
0.0
210
0.0
220
0.0
230
1.0
 40
0.1650759015746642
 41
1.987277305258133
 42
2.088023349418382
  0
LINE
  5
E2
330
1F
100
AcDbEntity
  8
0
  6
Continuous
 62
     1
370
    25
100
AcDbLine
 10
22.73205080756887
 20
-0.4429530934593344
 30
0.0
 11
22.73205080756887
 21
0.4429530934593386
 31
0.0
  0
LINE
  5
E3
330
1F
100
AcDbEntity
  8
0
  6
Continuous
 62
     1
370
    25
100
AcDbLine
 10
22.73205080756887
 20
0.4429530934593386
 30
0.0
 11
22.73205080756887
 21
1.428017363720413
 31
0.0
  0
LINE
  5
E4
330
1F
100
AcDbEntity
  8
0
  6
Continuous
 62
     1
370
    25
100
AcDbLine
 10
22.73205080756887
 20
-0.4999999999999972
 30
0.0
 11
22.73205080756887
 21
-1.718789664692074
 31
0.0
  0
LINE
  5
E5
330
1F
100
AcDbEntity
  8
중심선
100
AcDbLine
 10
-30.26794919243113
 20
-0.0000000000000026
 30
0.0
 11
25.73205080756886
 21
0.0000000000000043
 31
0.0
  0
CIRCLE
  5
E6
330
1F
100
AcDbEntity
  8
해칭선
100
AcDbCircle
 10
-0.0080058129541174
 20
-0.0000000000000041
 30
0.0
 40
3.000000000000001
  0
INSERT
  5
E7
330
1F
100
AcDbEntity
  8
0
  6
Continuous
 62
     7
100
AcDbBlockReference
 66
     1
  2
블럭10
 10
-11.44814782084245
 20
-52.04717430164393
 30
0.0
  0
ATTRIB
  5
E8
330
E7
100
AcDbEntity
  8
FORMAT
 62
     2
100
AcDbText
 10
-27.56740886027801
 20
-49.97180738881174
 30
0.0
 40
4.233333333333333
  1
SEME7104016E [ 4 FLUTE ]
 41
0.75
  7
SLDTEXTSTYLE0
 11
-27.56740886027801
 21
-52.08847405547841
 31
0.0
100
AcDbAttribute
  2
AUTOATTR0
 70
     0
 74
     1
  0
SEQEND
  5
E9
330
E7
100
AcDbEntity
  8
0
  6
Continuous
 62
     7
  0
HATCH
  5
EA
330
1F
100
AcDbEntity
  8
중심선
100
AcDbHatch
 10
0.0
 20
0.0
 30
0.0
210
0.0
220
0.0
230
1.0
  2
SOLID
 70
     1
 71
     0
 91
        1
 92
        0
 93
        4
 72
     1
 10
-5.733238516461597
 20
-35.8
 11
-9.17951376029888
 21
-35.8
 72
     1
 10
-9.17951376029888
 20
-35.8
 11
-11.3077436195029
 21
-38.33632558057259
 72
     1
 10
-11.3077436195029
 20
-38.33632558057259
 11
-7.861435290552443
 21
-38.3362861512701
 72
     1
 10
-7.861435290552443
 20
-38.3362861512701
 11
-5.733238516461597
 21
-35.8
 97
        0
 75
     0
 76
     1
 98
        1
 10
0.0
 20
0.0
  0
HATCH
  5
EB
330
1F
100
AcDbEntity
  8
중심선
100
AcDbHatch
 10
0.0
 20
0.0
 30
0.0
210
0.0
220
0.0
230
1.0
  2
SOLID
 70
     1
 71
     0
 91
        1
 92
        0
 93
        4
 72
     1
 10
-0.7204745254256462
 20
-35.8
 11
-4.166749769262928
 21
-35.8
 72
     1
 10
-4.166749769262928
 20
-35.8
 11
-8.697887777620316
 21
-41.20000000000002
 72
     1
 10
-8.697887777620316
 20
-41.20000000000002
 11
-5.251612533783034
 21
-41.20000000000002
 72
     1
 10
-5.251612533783034
 20
-41.20000000000002
 11
-0.7204745254256464
 21
-35.8
 97
        0
 75
     0
 76
     1
 98
        1
 10
0.0
 20
0.0
  0
HATCH
  5
EC
330
1F
100
AcDbEntity
  8
중심선
100
AcDbHatch
 10
0.0
 20
0.0
 30
0.0
210
0.0
220
0.0
230
1.0
  2
SOLID
 70
     1
 71
     0
 91
        1
 92
        0
 93
        4
 72
     1
 10
4.292289465610278
 20
-35.80000000000003
 11
0.8460142217731335
 21
-35.79999999999997
 72
     1
 10
0.8460142217731337
 20
-35.79999999999997
 11
-6.202422680116115
 21
-44.20000000000002
 72
     1
 10
-6.202422680116115
 20
-44.20000000000002
 11
-2.756147436278833
 21
-44.20000000000002
 72
     1
 10
-2.756147436278833
 20
-44.20000000000002
 11
4.292289465610278
 21
-35.80000000000003
 97
        0
 75
     0
 76
     1
 98
        1
 10
0.0
 20
0.0
  0
HATCH
  5
ED
330
1F
100
AcDbEntity
  8
중심선
100
AcDbHatch
 10
0.0
 20
0.0
 30
0.0
210
0.0
220
0.0
230
1.0
  2
SOLID
 70
     1
 71
     0
 91
        1
 92
        0
 93
        6
 72
     3
 10
9.092179896622449
 20
-40.00000000005127
 11
3.960054785062284
 21
1.540850780301639E-10
 40
0.3939339440162633
 50
17.09539180608434
 51
320.0019657685079
 73
     0
 72
     1
 10
10.77517955232304
 20
-38.5878940046383
 11
13.08048142602411
 21
-36.65356729459038
 72
     3
 10
9.092179896569602
 20
-40.00000000000015
 11
6.600054785286829
 21
-1.249000902703301E-13
 40
0.6363583540795982
 50
39.99873849337388
 51
368.4976242363725
 73
     1
 72
     1
 10
15.51751238847021
 20
-39.03999999993002
 11
7.772247203405525
 21
-39.03999999993002
 72
     1
 10
7.772247203405525
 20
-39.03999999993002
 11
7.772222158959591
 21
-40.95999999992991
 72
     1
 10
7.772222158959591
 20
-40.95999999992991
 11
12.21360192843163
 21
-40.95999999992988
 97
        0
 75
     0
 76
     1
 98
        1
 10
0.0
 20
0.0
  0
DIMENSION
  5
EE
330
1F
100
AcDbEntity
  8
치수문자_일반주서
100
AcDbDimension
  2
_D
 10
38.06241318474449
 20
2.000000000000064
 30
0.0
 11
38.06241318474446
 21
11.66650000000006
 31
0.0
 70
   160
  1
%%c<>
 71
     2
 42
4.000000000000013
 52
-270.0
  3
SLDDIMSTYLE0
100
AcDbAlignedDimension
 13
22.73205080756889
 23
-2.000000000000005
 33
0.0
 14
22.73205080756889
 24
2.000000000000008
 34
0.0
 50
90.0000000000002
100
AcDbRotatedDimension
  0
DIMENSION
  5
FC
330
1F
100
AcDbEntity
  8
치수문자_일반주서
100
AcDbDimension
  2
_D_1
 10
22.73205080756887
 20
20.38913260158165
 30
0.0
 11
-2.267949192431132
 21
20.38913260158165
 31
0.0
 70
   160
  1
<>
 71
     2
 42
50.00000000000001
  3
SLDDIMSTYLE1
100
AcDbAlignedDimension
 13
-27.26794919243114
 23
2.499999999999997
 33
0.0
 14
22.73205080756887
 24
2.000000000000005
 34
0.0
100
AcDbRotatedDimension
  0
DIMENSION
  5
107
330
1F
100
AcDbEntity
  8
치수문자_일반주서
100
AcDbDimension
  2
_D_2
 10
-39.29902614573295
 20
-3.000000000000048
 30
0.0
 11
-39.299026145733
 21
12.66649999999996
 31
0.0
 70
   160
  1
%%c<>
 71
     2
 42
6.000000000000005
 52
-270.0
  3
SLDDIMSTYLE2
100
AcDbAlignedDimension
 13
-26.76794919243114
 23
3.000000000000004
 33
0.0
 14
-26.76794919243114
 24
-3.000000000000001
 34
0.0
 50
90.0000000000002
100
AcDbRotatedDimension
  0
DIMENSION
  5
115
330
1F
100
AcDbEntity
  8
치수문자_일반주서
100
AcDbDimension
  2
_D_3
 10
22.73205080756887
 20
12.80985849860406
 30
0.0
 11
14.73205080756887
 21
12.80985849860406
 31
0.0
 70
   160
  1
<>
 71
     2
 42
16.0
  3
SLDDIMSTYLE2
100
AcDbAlignedDimension
 13
6.732050807568868
 23
2.000000000000004
 33
0.0
 14
22.73205080756887
 24
2.000000000000005
 34
0.0
100
AcDbRotatedDimension
  0
INSERT
  5
127
330
1F
100
AcDbEntity
  8
해칭선
100
AcDbBlockReference
  2
SW_DOWELSYMBOL_0
 10
-0.0080058129541174
 20
-0.0000000000000041
 30
0.0
  0
LINE
  5
157
330
1F
100
AcDbEntity
  8
0
  6
Continuous
 62
     4
370
    25
100
AcDbLine
 10
6.732050807568868
 20
2.000000000000002
 30
0.0
 11
6.732050807568868
 21
-2.0
 31
0.0
  0
ENDSEC
  0
SECTION
  2
OBJECTS
  0
DICTIONARY
  5
C
330
0
100
AcDbDictionary
281
     1
  3
ACAD_GROUP
350
D
  3
ACAD_IMAGE_VARS
350
14B
  3
ACAD_LAYOUT
350
1A
  3
ACAD_MLINESTYLE
350
17
  3
ACAD_PLOTSETTINGS
350
19
  3
ACAD_PLOTSTYLENAME
350
E
  3
ACAD_SCALELIST
350
47
  3
APPDATA
350
149
  3
DWGPROPS
350
159
  0
DICTIONARY
  5
D
102
{ACAD_REACTORS
330
C
102
}
330
C
100
AcDbDictionary
281
     1
  0
RASTERVARIABLES
  5
14B
102
{ACAD_REACTORS
330
C
102
}
330
C
100
AcDbRasterVariables
 90
        0
 70
     1
 71
     1
 72
     1
  0
DICTIONARY
  5
1A
102
{ACAD_REACTORS
330
C
102
}
330
C
100
AcDbDictionary
281
     1
  3
Layout1
350
1E
  3
Layout2
350
26
  3
Model
350
22
  0
DICTIONARY
  5
17
102
{ACAD_REACTORS
330
C
102
}
330
C
100
AcDbDictionary
281
     1
  3
Standard
350
18
  0
DICTIONARY
  5
19
102
{ACAD_REACTORS
330
C
102
}
330
C
100
AcDbDictionary
281
     1
  0
ACDBDICTIONARYWDFLT
  5
E
102
{ACAD_REACTORS
330
C
102
}
330
C
100
AcDbDictionary
281
     1
  3
Normal
350
F
100
AcDbDictionaryWithDefault
340
F
  0
DICTIONARY
  5
47
102
{ACAD_REACTORS
330
C
102
}
330
C
100
AcDbDictionary
281
     1
  3
A0
350
48
  3
A1
350
49
  3
A2
350
4A
  3
A3
350
4B
  3
A4
350
4C
  3
A5
350
4D
  3
A6
350
4E
  3
A7
350
4F
  3
A8
350
50
  3
A9
350
51
  3
B0
350
52
  3
B1
350
53
  3
B2
350
54
  3
B3
350
55
  3
B4
350
56
  3
B5
350
57
  3
B6
350
58
  3
B7
350
59
  3
B8
350
5A
  3
B9
350
5B
  3
C0
350
5C
  3
C1
350
5D
  3
C2
350
5E
  3
C3
350
5F
  3
C4
350
60
  3
C5
350
61
  3
C6
350
62
  3
C7
350
63
  3
C8
350
64
  3
C9
350
65
  3
D0
350
66
  3
D1
350
67
  3
D2
350
68
  0
DICTIONARY
  5
149
102
{ACAD_REACTORS
330
C
102
}
330
C
100
AcDbDictionary
281
     1
  0
XRECORD
  5
159
102
{ACAD_REACTORS
330
C
102
}
330
C
100
AcDbXrecord
280
     1
  1
DWGPROPS COOKIE
  2

  3

  4

  6

  7

  8
12014102
  9

300
=
301
=
302
=
303
=
304
=
305
=
306
=
307
=
308
=
309
=
 40
0.0
 41
2458260.116088565
 42
2458267.296077789
  1

 90
        0
  0
LAYOUT
  5
1E
102
{ACAD_REACTORS
330
1A
102
}
330
1A
100
AcDbPlotSettings
  1

  2
none_device
  4

  6

 40
0.0
 41
0.0
 42
0.0
 43
0.0
 44
0.0
 45
0.0
 46
0.0
 47
0.0
 48
0.0
 49
0.0
140
0.0
141
0.0
142
1.0
143
1.0
 70
   688
 72
     1
 73
     0
 74
     5
  7

 75
    16
147
1.0
148
0.0
149
0.0
100
AcDbLayout
  1
Layout1
 70
     1
 71
     1
 10
0.0
 20
0.0
 11
420.0
 21
297.0
 12
0.0
 22
0.0
 32
0.0
 14
1.000000000000000E+20
 24
1.000000000000000E+20
 34
1.000000000000000E+20
 15
-1.000000000000000E+20
 25
-1.000000000000000E+20
 35
-1.000000000000000E+20
146
0.0
 13
0.0
 23
0.0
 33
0.0
 16
1.0
 26
0.0
 36
0.0
 17
0.0
 27
1.0
 37
0.0
 76
     0
330
1B
  0
LAYOUT
  5
26
102
{ACAD_REACTORS
330
1A
102
}
330
1A
100
AcDbPlotSettings
  1

  2
none_device
  4

  6

 40
0.0
 41
0.0
 42
0.0
 43
0.0
 44
0.0
 45
0.0
 46
0.0
 47
0.0
 48
0.0
 49
0.0
140
0.0
141
0.0
142
1.0
143
1.0
 70
   688
 72
     1
 73
     0
 74
     5
  7

 75
    16
147
1.0
148
0.0
149
0.0
100
AcDbLayout
  1
Layout2
 70
     1
 71
     2
 10
0.0
 20
0.0
 11
0.0
 21
0.0
 12
0.0
 22
0.0
 32
0.0
 14
0.0
 24
0.0
 34
0.0
 15
0.0
 25
0.0
 35
0.0
146
0.0
 13
0.0
 23
0.0
 33
0.0
 16
1.0
 26
0.0
 36
0.0
 17
0.0
 27
1.0
 37
0.0
 76
     0
330
23
  0
LAYOUT
  5
22
102
{ACAD_REACTORS
330
1A
102
}
330
1A
100
AcDbPlotSettings
  1

  2
none_device
  4
ANSI_A_(11.00_x_8.50_Inches)
  6

 40
6.35
 41
19.05
 42
6.35000508
 43
19.05000254
 44
279.4
 45
215.9
 46
128.0765301100888
 47
125.3847137330092
 48
0.0
 49
0.0
140
0.0
141
0.0
142
0.1112850254374007
143
1.0
 70
  1696
 72
     0
 73
     0
 74
     0
  7

 75
     0
147
0.0235690232323232
148
0.0
149
0.0
100
AcDbLayout
  1
Model
 70
     1
 71
     0
 10
0.0
 20
0.0
 11
420.0
 21
297.0
 12
0.0
 22
0.0
 32
0.0
 14
-43.67402614573301
 24
-49.97180738881174
 34
0.0
 15
42.28259113972197
 25
24.76413260158165
 35
0.0
146
0.0
 13
0.0
 23
0.0
 33
0.0
 16
1.0
 26
0.0
 36
0.0
 17
0.0
 27
1.0
 37
0.0
 76
     0
330
1F
331
29
  0
MLINESTYLE
  5
18
102
{ACAD_REACTORS
330
17
102
}
330
17
100
AcDbMlineStyle
  2
Standard
 70
     0
  3

 62
   256
 51
90.0
 52
90.0
 71
     2
 49
0.5
 62
   256
  6
BYLAYER
 49
-0.5
 62
   256
  6
BYLAYER
  0
ACDBPLACEHOLDER
  5
F
102
{ACAD_REACTORS
330
E
102
}
330
E
  0
SCALE
  5
48
102
{ACAD_REACTORS
330
47
102
}
330
47
100
AcDbScale
 70
     0
300
1:1
140
1.0
141
1.0
290
     1
  0
SCALE
  5
49
102
{ACAD_REACTORS
330
47
102
}
330
47
100
AcDbScale
 70
     0
300
1:2
140
1.0
141
2.0
290
     0
  0
SCALE
  5
4A
102
{ACAD_REACTORS
330
47
102
}
330
47
100
AcDbScale
 70
     0
300
1:4
140
1.0
141
4.0
290
     0
  0
SCALE
  5
4B
102
{ACAD_REACTORS
330
47
102
}
330
47
100
AcDbScale
 70
     0
300
1:5
140
1.0
141
5.0
290
     0
  0
SCALE
  5
4C
102
{ACAD_REACTORS
330
47
102
}
330
47
100
AcDbScale
 70
     0
300
1:8
140
1.0
141
8.0
290
     0
  0
SCALE
  5
4D
102
{ACAD_REACTORS
330
47
102
}
330
47
100
AcDbScale
 70
     0
300
1:10
140
1.0
141
10.0
290
     0
  0
SCALE
  5
4E
102
{ACAD_REACTORS
330
47
102
}
330
47
100
AcDbScale
 70
     0
300
1:16
140
1.0
141
16.0
290
     0
  0
SCALE
  5
4F
102
{ACAD_REACTORS
330
47
102
}
330
47
100
AcDbScale
 70
     0
300
1:20
140
1.0
141
20.0
290
     0
  0
SCALE
  5
50
102
{ACAD_REACTORS
330
47
102
}
330
47
100
AcDbScale
 70
     0
300
1:30
140
1.0
141
30.0
290
     0
  0
SCALE
  5
51
102
{ACAD_REACTORS
330
47
102
}
330
47
100
AcDbScale
 70
     0
300
1:40
140
1.0
141
40.0
290
     0
  0
SCALE
  5
52
102
{ACAD_REACTORS
330
47
102
}
330
47
100
AcDbScale
 70
     0
300
1:50
140
1.0
141
50.0
290
     0
  0
SCALE
  5
53
102
{ACAD_REACTORS
330
47
102
}
330
47
100
AcDbScale
 70
     0
300
1:100
140
1.0
141
100.0
290
     0
  0
SCALE
  5
54
102
{ACAD_REACTORS
330
47
102
}
330
47
100
AcDbScale
 70
     0
300
2:1
140
2.0
141
1.0
290
     0
  0
SCALE
  5
55
102
{ACAD_REACTORS
330
47
102
}
330
47
100
AcDbScale
 70
     0
300
4:1
140
4.0
141
1.0
290
     0
  0
SCALE
  5
56
102
{ACAD_REACTORS
330
47
102
}
330
47
100
AcDbScale
 70
     0
300
8:1
140
8.0
141
1.0
290
     0
  0
SCALE
  5
57
102
{ACAD_REACTORS
330
47
102
}
330
47
100
AcDbScale
 70
     0
300
10:1
140
10.0
141
1.0
290
     0
  0
SCALE
  5
58
102
{ACAD_REACTORS
330
47
102
}
330
47
100
AcDbScale
 70
     0
300
100:1
140
100.0
141
1.0
290
     0
  0
SCALE
  5
59
102
{ACAD_REACTORS
330
47
102
}
330
47
100
AcDbScale
 70
     0
300
1/128" = 1'-0"
140
0.0078125
141
12.0
290
     0
  0
SCALE
  5
5A
102
{ACAD_REACTORS
330
47
102
}
330
47
100
AcDbScale
 70
     0
300
1/64" = 1'-0"
140
0.015625
141
12.0
290
     0
  0
SCALE
  5
5B
102
{ACAD_REACTORS
330
47
102
}
330
47
100
AcDbScale
 70
     0
300
1/32" = 1'-0"
140
0.03125
141
12.0
290
     0
  0
SCALE
  5
5C
102
{ACAD_REACTORS
330
47
102
}
330
47
100
AcDbScale
 70
     0
300
1/16" = 1'-0"
140
0.0625
141
12.0
290
     0
  0
SCALE
  5
5D
102
{ACAD_REACTORS
330
47
102
}
330
47
100
AcDbScale
 70
     0
300
3/32" = 1'-0"
140
0.09375
141
12.0
290
     0
  0
SCALE
  5
5E
102
{ACAD_REACTORS
330
47
102
}
330
47
100
AcDbScale
 70
     0
300
1/8" = 1'-0"
140
0.125
141
12.0
290
     0
  0
SCALE
  5
5F
102
{ACAD_REACTORS
330
47
102
}
330
47
100
AcDbScale
 70
     0
300
3/16" = 1'-0"
140
0.1875
141
12.0
290
     0
  0
SCALE
  5
60
102
{ACAD_REACTORS
330
47
102
}
330
47
100
AcDbScale
 70
     0
300
1/4" = 1'-0"
140
0.25
141
12.0
290
     0
  0
SCALE
  5
61
102
{ACAD_REACTORS
330
47
102
}
330
47
100
AcDbScale
 70
     0
300
3/8" = 1'-0"
140
0.375
141
12.0
290
     0
  0
SCALE
  5
62
102
{ACAD_REACTORS
330
47
102
}
330
47
100
AcDbScale
 70
     0
300
1/2" = 1'-0"
140
0.5
141
12.0
290
     0
  0
SCALE
  5
63
102
{ACAD_REACTORS
330
47
102
}
330
47
100
AcDbScale
 70
     0
300
3/4" = 1'-0"
140
0.75
141
12.0
290
     0
  0
SCALE
  5
64
102
{ACAD_REACTORS
330
47
102
}
330
47
100
AcDbScale
 70
     0
300
1" = 1'-0"
140
1.0
141
12.0
290
     0
  0
SCALE
  5
65
102
{ACAD_REACTORS
330
47
102
}
330
47
100
AcDbScale
 70
     0
300
1-1/2" = 1'-0"
140
1.5
141
12.0
290
     0
  0
SCALE
  5
66
102
{ACAD_REACTORS
330
47
102
}
330
47
100
AcDbScale
 70
     0
300
3" = 1'-0"
140
3.0
141
12.0
290
     0
  0
SCALE
  5
67
102
{ACAD_REACTORS
330
47
102
}
330
47
100
AcDbScale
 70
     0
300
6" = 1'-0"
140
6.0
141
12.0
290
     0
  0
SCALE
  5
68
102
{ACAD_REACTORS
330
47
102
}
330
47
100
AcDbScale
 70
     0
300
1'-0" = 1'-0"
140
12.0
141
12.0
290
     0
  0
ENDSEC
  0
EOF
