  0
SECTION
  2
HEADER
  9
$ACADVER
  1
AC1015
  9
$ACADMAINTVER
 70
     6
  9
$DWGCODEPAGE
  3
ANSI_949
  9
$INSBASE
 10
0.0
 20
0.0
 30
0.0
  9
$EXTMIN
 10
-39.66778005619439
 20
-49.97180738881174
 30
0.0
  9
$EXTMAX
 10
40.28259113972197
 20
24.76413260158165
 30
0.0
  9
$LIMMIN
 10
0.0
 20
0.0
  9
$LIMMAX
 10
420.0
 20
297.0
  9
$ORTHOMODE
 70
     0
  9
$REGENMODE
 70
     1
  9
$FILLMODE
 70
     1
  9
$QTEXTMODE
 70
     0
  9
$MIRRTEXT
 70
     1
  9
$LTSCALE
 40
1.0
  9
$ATTMODE
 70
     1
  9
$TEXTSIZE
 40
3.5
  9
$TRACEWID
 40
1.0
  9
$TEXTSTYLE
  7
Standard
  9
$CLAYER
  8
0
  9
$CELTYPE
  6
ByLayer
  9
$CECOLOR
 62
   256
  9
$CELTSCALE
 40
1.0
  9
$DISPSILH
 70
     0
  9
$DIMSCALE
 40
1.0
  9
$DIMASZ
 40
3.302
  9
$DIMEXO
 40
1.0
  9
$DIMDLI
 40
3.75
  9
$DIMRND
 40
0.0
  9
$DIMDLE
 40
0.0
  9
$DIMEXE
 40
1.0
  9
$DIMTP
 40
0.0
  9
$DIMTM
 40
0.0
  9
$DIMTXT
 40
3.5
  9
$DIMCEN
 40
2.5
  9
$DIMTSZ
 40
0.0
  9
$DIMTOL
 70
     0
  9
$DIMLIM
 70
     0
  9
$DIMTIH
 70
     1
  9
$DIMTOH
 70
     1
  9
$DIMSE1
 70
     0
  9
$DIMSE2
 70
     0
  9
$DIMTAD
 70
     1
  9
$DIMZIN
 70
     0
  9
$DIMBLK
  1

  9
$DIMASO
 70
     1
  9
$DIMSHO
 70
     1
  9
$DIMPOST
  1

  9
$DIMAPOST
  1

  9
$DIMALT
 70
     0
  9
$DIMALTD
 70
     3
  9
$DIMALTF
 40
0.0393700787401575
  9
$DIMLFAC
 40
1.0
  9
$DIMTOFL
 70
     1
  9
$DIMTVP
 40
0.0
  9
$DIMTIX
 70
     0
  9
$DIMSOXD
 70
     0
  9
$DIMSAH
 70
     0
  9
$DIMBLK1
  1

  9
$DIMBLK2
  1

  9
$DIMSTYLE
  2
ISO-25
  9
$DIMCLRD
 70
     0
  9
$DIMCLRE
 70
     0
  9
$DIMCLRT
 70
     0
  9
$DIMTFAC
 40
1.0
  9
$DIMGAP
 40
1.524
  9
$DIMJUST
 70
     0
  9
$DIMSD1
 70
     0
  9
$DIMSD2
 70
     0
  9
$DIMTOLJ
 70
     0
  9
$DIMTZIN
 70
     0
  9
$DIMALTZ
 70
     0
  9
$DIMALTTZ
 70
     0
  9
$DIMUPT
 70
     0
  9
$DIMDEC
 70
     2
  9
$DIMTDEC
 70
     2
  9
$DIMALTU
 70
     2
  9
$DIMALTTD
 70
     3
  9
$DIMTXSTY
  7
Standard
  9
$DIMAUNIT
 70
     0
  9
$DIMADEC
 70
     2
  9
$DIMALTRND
 40
0.0
  9
$DIMAZIN
 70
     0
  9
$DIMDSEP
 70
    44
  9
$DIMATFIT
 70
     3
  9
$DIMFRAC
 70
     0
  9
$DIMLDRBLK
  1

  9
$DIMLUNIT
 70
     2
  9
$DIMLWD
 70
    -2
  9
$DIMLWE
 70
    -2
  9
$DIMTMOVE
 70
     0
  9
$LUNITS
 70
     2
  9
$LUPREC
 70
     2
  9
$SKETCHINC
 40
1.0
  9
$FILLETRAD
 40
10.0
  9
$AUNITS
 70
     0
  9
$AUPREC
 70
     2
  9
$MENU
  1
.
  9
$ELEVATION
 40
0.0
  9
$PELEVATION
 40
0.0
  9
$THICKNESS
 40
0.0
  9
$LIMCHECK
 70
     0
  9
$CHAMFERA
 40
0.0
  9
$CHAMFERB
 40
0.0
  9
$CHAMFERC
 40
0.0
  9
$CHAMFERD
 40
0.0
  9
$SKPOLY
 70
     0
  9
$TDCREATE
 40
2458260.489953588
  9
$TDUCREATE
 40
2458260.114953588
  9
$TDUPDATE
 40
2458266.822363009
  9
$TDUUPDATE
 40
2458266.447363009
  9
$TDINDWG
 40
0.0008813542
  9
$TDUSRTIMER
 40
2458266.446481678
  9
$USRTIMER
 70
     1
  9
$ANGBASE
 50
0.0
  9
$ANGDIR
 70
     0
  9
$PDMODE
 70
     0
  9
$PDSIZE
 40
-1.0
  9
$PLINEWID
 40
0.0
  9
$SPLFRAME
 70
     0
  9
$SPLINETYPE
 70
     6
  9
$SPLINESEGS
 70
     8
  9
$HANDSEED
  5
157
  9
$SURFTAB1
 70
     6
  9
$SURFTAB2
 70
     6
  9
$SURFTYPE
 70
     6
  9
$SURFU
 70
     6
  9
$SURFV
 70
     6
  9
$UCSBASE
  2

  9
$UCSNAME
  2

  9
$UCSORG
 10
0.0
 20
0.0
 30
0.0
  9
$UCSXDIR
 10
1.0
 20
0.0
 30
0.0
  9
$UCSYDIR
 10
0.0
 20
1.0
 30
0.0
  9
$UCSORTHOREF
  2

  9
$UCSORTHOVIEW
 70
     0
  9
$UCSORGTOP
 10
0.0
 20
0.0
 30
0.0
  9
$UCSORGBOTTOM
 10
0.0
 20
0.0
 30
0.0
  9
$UCSORGLEFT
 10
0.0
 20
0.0
 30
0.0
  9
$UCSORGRIGHT
 10
0.0
 20
0.0
 30
0.0
  9
$UCSORGFRONT
 10
0.0
 20
0.0
 30
0.0
  9
$UCSORGBACK
 10
0.0
 20
0.0
 30
0.0
  9
$PUCSBASE
  2

  9
$PUCSNAME
  2

  9
$PUCSORG
 10
0.0
 20
0.0
 30
0.0
  9
$PUCSXDIR
 10
1.0
 20
0.0
 30
0.0
  9
$PUCSYDIR
 10
0.0
 20
1.0
 30
0.0
  9
$PUCSORTHOREF
  2

  9
$PUCSORTHOVIEW
 70
     0
  9
$PUCSORGTOP
 10
0.0
 20
0.0
 30
0.0
  9
$PUCSORGBOTTOM
 10
0.0
 20
0.0
 30
0.0
  9
$PUCSORGLEFT
 10
0.0
 20
0.0
 30
0.0
  9
$PUCSORGRIGHT
 10
0.0
 20
0.0
 30
0.0
  9
$PUCSORGFRONT
 10
0.0
 20
0.0
 30
0.0
  9
$PUCSORGBACK
 10
0.0
 20
0.0
 30
0.0
  9
$USERI1
 70
     0
  9
$USERI2
 70
     0
  9
$USERI3
 70
     0
  9
$USERI4
 70
     0
  9
$USERI5
 70
     0
  9
$USERR1
 40
0.0
  9
$USERR2
 40
0.0
  9
$USERR3
 40
0.0
  9
$USERR4
 40
0.0
  9
$USERR5
 40
0.0
  9
$WORLDVIEW
 70
     1
  9
$SHADEDGE
 70
     3
  9
$SHADEDIF
 70
    70
  9
$TILEMODE
 70
     1
  9
$MAXACTVP
 70
    64
  9
$PINSBASE
 10
0.0
 20
0.0
 30
0.0
  9
$PLIMCHECK
 70
     0
  9
$PEXTMIN
 10
1.000000000000000E+20
 20
1.000000000000000E+20
 30
1.000000000000000E+20
  9
$PEXTMAX
 10
-1.000000000000000E+20
 20
-1.000000000000000E+20
 30
-1.000000000000000E+20
  9
$PLIMMIN
 10
0.0
 20
0.0
  9
$PLIMMAX
 10
0.0
 20
0.0
  9
$UNITMODE
 70
     0
  9
$VISRETAIN
 70
     1
  9
$PLINEGEN
 70
     0
  9
$PSLTSCALE
 70
     1
  9
$TREEDEPTH
 70
  3020
  9
$CMLSTYLE
  2
Standard
  9
$CMLJUST
 70
     0
  9
$CMLSCALE
 40
20.0
  9
$PROXYGRAPHICS
 70
     1
  9
$MEASUREMENT
 70
     1
  9
$CELWEIGHT
370
    -1
  9
$ENDCAPS
280
     0
  9
$JOINSTYLE
280
     0
  9
$LWDISPLAY
290
     1
  9
$INSUNITS
 70
     4
  9
$HYPERLINKBASE
  1

  9
$STYLESHEET
  1

  9
$XEDIT
290
     1
  9
$CEPSNTYPE
380
     0
  9
$PSTYLEMODE
290
     1
  9
$FINGERPRINTGUID
  2
{9B03C81E-3B87-4884-A91E-C2EB3AF2B964}
  9
$VERSIONGUID
  2
{FAEB1C32-E019-11D5-929B-00C0DF256EC4}
  9
$EXTNAMES
290
     1
  9
$PSVPSCALE
 40
0.0
  9
$OLESTARTUP
290
     0
  0
ENDSEC
  0
SECTION
  2
CLASSES
  0
CLASS
  1
ACDBDICTIONARYWDFLT
  2
AcDbDictionaryWithDefault
  3
ObjectDBX Classes
 90
        0
280
     0
281
     0
  0
CLASS
  1
VISUALSTYLE
  2
AcDbVisualStyle
  3
ObjectDBX Classes
 90
     4095
280
     0
281
     0
  0
CLASS
  1
MATERIAL
  2
AcDbMaterial
  3
ObjectDBX Classes
 90
     1153
280
     0
281
     0
  0
CLASS
  1
SCALE
  2
AcDbScale
  3
ObjectDBX Classes
 90
     1153
280
     0
281
     0
  0
CLASS
  1
TABLESTYLE
  2
AcDbTableStyle
  3
ObjectDBX Classes
 90
     4095
280
     0
281
     0
  0
CLASS
  1
MLEADERSTYLE
  2
AcDbMLeaderStyle
  3
ACDB_MLEADERSTYLE_CLASS
 90
     4095
280
     0
281
     0
  0
CLASS
  1
SUN
  2
AcDbSun
  3
SCENEOE
 90
     1153
280
     0
281
     0
  0
CLASS
  1
ACDBPLACEHOLDER
  2
AcDbPlaceHolder
  3
ObjectDBX Classes
 90
        0
280
     0
281
     0
  0
CLASS
  1
LAYOUT
  2
AcDbLayout
  3
ObjectDBX Classes
 90
        0
280
     0
281
     0
  0
CLASS
  1
RASTERVARIABLES
  2
AcDbRasterVariables
  3
ISM
 90
        0
280
     0
281
     0
  0
ENDSEC
  0
SECTION
  2
TABLES
  0
TABLE
  2
VPORT
  5
8
330
0
100
AcDbSymbolTable
 70
     1
  0
VPORT
  5
29
330
8
100
AcDbSymbolTableRecord
100
AcDbViewportTableRecord
  2
*Active
 70
     0
 10
0.0
 20
0.0
 11
1.0
 21
1.0
 12
0.3074055417637922
 22
-12.60383739361504
 13
0.0
 23
0.0
 14
10.0
 24
10.0
 15
10.0
 25
10.0
 16
0.0
 26
0.0
 36
1.0
 17
0.0
 27
0.0
 37
0.0
 40
76.23065879020126
 41
1.74031007751938
 42
50.0
 43
0.0
 44
0.0
 50
0.0
 51
0.0
 71
    16
 72
  2000
 73
     1
 74
     3
 75
     0
 76
     0
 77
     0
 78
     0
281
     0
 65
     1
110
0.0
120
0.0
130
0.0
111
1.0
121
0.0
131
0.0
112
0.0
122
1.0
132
0.0
 79
     0
146
0.0
  0
ENDTAB
  0
TABLE
  2
LTYPE
  5
5
330
0
100
AcDbSymbolTable
 70
     6
  0
LTYPE
  5
14
330
5
100
AcDbSymbolTableRecord
100
AcDbLinetypeTableRecord
  2
ByBlock
 70
     0
  3

 72
    65
 73
     0
 40
0.0
  0
LTYPE
  5
15
330
5
100
AcDbSymbolTableRecord
100
AcDbLinetypeTableRecord
  2
ByLayer
 70
     0
  3

 72
    65
 73
     0
 40
0.0
  0
LTYPE
  5
16
330
5
100
AcDbSymbolTableRecord
100
AcDbLinetypeTableRecord
  2
Continuous
 70
     0
  3
Solid line
 72
    65
 73
     0
 40
0.0
  0
LTYPE
  5
6E
330
5
100
AcDbSymbolTableRecord
100
AcDbLinetypeTableRecord
  2
HIDDEN
 70
     0
  3
Hidden __ __ __ __ __ __ __ __ __ __ __ __ __ __
 72
    65
 73
     2
 40
1.905
 49
1.27
 74
     0
 49
-0.635
 74
     0
  0
LTYPE
  5
6F
330
5
100
AcDbSymbolTableRecord
100
AcDbLinetypeTableRecord
  2
PHANTOM
 70
     0
  3
Phantom ______  __  __  ______  __  __  ______
 72
    65
 73
     6
 40
12.7
 49
6.35
 74
     0
 49
-1.27
 74
     0
 49
1.27
 74
     0
 49
-1.27
 74
     0
 49
1.27
 74
     0
 49
-1.27
 74
     0
  0
LTYPE
  5
70
330
5
100
AcDbSymbolTableRecord
100
AcDbLinetypeTableRecord
  2
CENTER
 70
     0
  3
Center ____ _ ____ _ ____ _ ____ _ ____ _ ____
 72
    65
 73
     4
 40
10.16
 49
6.35
 74
     0
 49
-1.27
 74
     0
 49
1.27
 74
     0
 49
-1.27
 74
     0
  0
LTYPE
  5
71
330
5
100
AcDbSymbolTableRecord
100
AcDbLinetypeTableRecord
  2
CENTERX2
 70
     0
  3
Center (2x) ________  __  ________  __  _____
 72
    65
 73
     4
 40
20.32
 49
12.7
 74
     0
 49
-2.54
 74
     0
 49
2.54
 74
     0
 49
-2.54
 74
     0
  0
LTYPE
  5
72
330
5
100
AcDbSymbolTableRecord
100
AcDbLinetypeTableRecord
  2
DOT2
 70
     0
  3
Dot (.5x) ........................................
 72
    65
 73
     2
 40
0.635
 49
0.0
 74
     0
 49
-0.635
 74
     0
  0
ENDTAB
  0
TABLE
  2
LAYER
  5
2
330
0
100
AcDbSymbolTable
 70
    17
  0
LAYER
  5
10
330
2
100
AcDbSymbolTableRecord
100
AcDbLayerTableRecord
  2
0
 70
     0
 62
     7
  6
Continuous
370
    -3
390
F
  0
LAYER
  5
73
330
2
100
AcDbSymbolTableRecord
100
AcDbLayerTableRecord
  2
FORMAT
 70
     0
 62
     2
  6
Continuous
370
    -3
390
F
  0
LAYER
  5
74
330
2
100
AcDbSymbolTableRecord
100
AcDbLayerTableRecord
  2
외형선
 70
     0
 62
   100
  6
Continuous
370
    35
390
F
  0
LAYER
  5
75
330
2
100
AcDbSymbolTableRecord
100
AcDbLayerTableRecord
  2
숨은선
 70
     0
 62
     2
  6
HIDDEN
370
    25
390
F
  0
LAYER
  5
76
330
2
100
AcDbSymbolTableRecord
100
AcDbLayerTableRecord
  2
중심선
 70
     0
 62
     1
  6
CENTERX2
370
    -3
390
F
  0
LAYER
  5
77
330
2
100
AcDbSymbolTableRecord
100
AcDbLayerTableRecord
  2
파단선
 70
     0
 62
     4
  6
Continuous
370
    -3
390
F
  0
LAYER
  5
78
330
2
100
AcDbSymbolTableRecord
100
AcDbLayerTableRecord
  2
해칭선
 70
     0
 62
   100
  6
Continuous
370
    -3
390
F
  0
LAYER
  5
79
330
2
100
AcDbSymbolTableRecord
100
AcDbLayerTableRecord
  2
가는실선
 70
     0
 62
     4
  6
Continuous
370
    -3
390
F
  0
LAYER
  5
7A
330
2
100
AcDbSymbolTableRecord
100
AcDbLayerTableRecord
  2
치수_보조선
 70
     0
 62
     4
  6
Continuous
370
    -3
390
F
  0
LAYER
  5
7B
330
2
100
AcDbSymbolTableRecord
100
AcDbLayerTableRecord
  2
치수문자_일반주서
 70
     0
 62
     7
  6
Continuous
370
    25
390
F
  0
LAYER
  5
7C
330
2
100
AcDbSymbolTableRecord
100
AcDbLayerTableRecord
  2
개별주서
 70
     0
 62
   100
  6
Continuous
370
    35
390
F
  0
LAYER
  5
7D
330
2
100
AcDbSymbolTableRecord
100
AcDbLayerTableRecord
  2
중간선
 70
     0
 62
     2
  6
Continuous
370
    25
390
F
  0
LAYER
  5
7E
330
2
100
AcDbSymbolTableRecord
100
AcDbLayerTableRecord
  2
윤곽선
 70
     0
 62
     3
  6
Continuous
370
    50
390
F
  0
LAYER
  5
7F
330
2
100
AcDbSymbolTableRecord
100
AcDbLayerTableRecord
  2
중심마크
 70
     0
 62
   100
  6
Continuous
370
    35
390
F
  0
LAYER
  5
80
330
2
100
AcDbSymbolTableRecord
100
AcDbLayerTableRecord
  2
가상선
 70
     0
 62
     4
  6
PHANTOM
370
    -3
390
F
  0
LAYER
  5
81
330
2
100
AcDbSymbolTableRecord
100
AcDbLayerTableRecord
  2
특수지정선
 70
     0
 62
     5
  6
CENTERX2
370
    70
390
F
  0
LAYER
  5
148
330
2
100
AcDbSymbolTableRecord
100
AcDbLayerTableRecord
  2
Defpoints
 70
     0
 62
     7
  6
Continuous
290
     0
370
    -3
390
F
  0
ENDTAB
  0
TABLE
  2
STYLE
  5
3
330
0
100
AcDbSymbolTable
 70
     2
  0
STYLE
  5
11
330
3
100
AcDbSymbolTableRecord
100
AcDbTextStyleTableRecord
  2
Standard
 70
     0
 40
0.0
 41
1.0
 50
0.0
 71
     0
 42
3.5
  3
txt
  4

  0
STYLE
  5
97
330
3
100
AcDbSymbolTableRecord
100
AcDbTextStyleTableRecord
  2
SLDTEXTSTYLE0
 70
     0
 40
0.0
 41
0.75
 50
0.0
 71
     0
 42
3.5
  3
TXT
  4

  0
ENDTAB
  0
TABLE
  2
VIEW
  5
6
330
0
100
AcDbSymbolTable
 70
     0
  0
ENDTAB
  0
TABLE
  2
UCS
  5
7
330
0
100
AcDbSymbolTable
 70
     0
  0
ENDTAB
  0
TABLE
  2
APPID
  5
9
330
0
100
AcDbSymbolTable
 70
     1
  0
APPID
  5
12
330
9
100
AcDbSymbolTableRecord
100
AcDbRegAppTableRecord
  2
ACAD
 70
     0
  0
ENDTAB
  0
TABLE
  2
DIMSTYLE
  5
A
330
0
100
AcDbSymbolTable
 70
     4
100
AcDbDimStyleTable
  0
DIMSTYLE
105
27
330
A
100
AcDbSymbolTableRecord
100
AcDbDimStyleTableRecord
  2
ISO-25
 70
     0
 41
2.5
 42
0.625
 43
3.75
 44
1.25
 73
     0
 74
     0
 77
     1
 78
     8
140
2.5
141
2.5
143
0.03937007874016
147
0.625
171
     3
172
     1
178
     0
271
     2
272
     2
274
     3
278
    44
283
     0
284
     8
340
11
  0
DIMSTYLE
105
EB
102
{ACAD_REACTORS
330
EA
102
}
330
A
100
AcDbSymbolTableRecord
100
AcDbDimStyleTableRecord
  2
SLDDIMSTYLE0
 70
     0
 41
3.302
 44
0.0
 45
0.000000001
 73
     0
 74
     0
 77
     1
 78
    12
 79
     3
140
3.5
147
0.875
172
     1
173
     1
178
     0
271
     1
272
     1
276
     2
284
    12
289
     0
340
97
  0
DIMSTYLE
105
F9
102
{ACAD_REACTORS
330
F8
102
}
330
A
100
AcDbSymbolTableRecord
100
AcDbDimStyleTableRecord
  2
SLDDIMSTYLE1
 70
     0
 41
3.302
 44
0.0
 45
0.000000001
 73
     0
 74
     0
 77
     1
 78
    12
 79
     3
140
3.5
147
0.875
173
     1
178
     0
271
     2
272
     2
276
     2
284
    12
340
97
  0
DIMSTYLE
105
104
102
{ACAD_REACTORS
330
103
330
111
102
}
330
A
100
AcDbSymbolTableRecord
100
AcDbDimStyleTableRecord
  2
SLDDIMSTYLE2
 70
     0
 41
3.302
 44
0.0
 45
0.000000001
 73
     0
 74
     0
 77
     1
 78
    12
 79
     3
140
3.5
147
0.875
172
     1
173
     1
178
     0
271
     2
272
     2
276
     2
284
    12
289
     0
340
97
  0
ENDTAB
  0
TABLE
  2
BLOCK_RECORD
  5
1
330
0
100
AcDbSymbolTable
 70
     7
  0
BLOCK_RECORD
  5
1F
330
1
100
AcDbSymbolTableRecord
100
AcDbBlockTableRecord
  2
*Model_Space
340
22
  0
BLOCK_RECORD
  5
1B
330
1
100
AcDbSymbolTableRecord
100
AcDbBlockTableRecord
  2
*Paper_Space
340
1E
  0
BLOCK_RECORD
  5
23
330
1
100
AcDbSymbolTableRecord
100
AcDbBlockTableRecord
  2
*Paper_Space0
340
26
  0
BLOCK_RECORD
  5
82
330
1
100
AcDbSymbolTableRecord
100
AcDbBlockTableRecord
  2
블럭10
340
0
102
{BLKREFS
331
E3
102
}
  0
BLOCK_RECORD
  5
EC
330
1
100
AcDbSymbolTableRecord
100
AcDbBlockTableRecord
  2
_D
340
0
  0
BLOCK_RECORD
  5
FA
330
1
100
AcDbSymbolTableRecord
100
AcDbBlockTableRecord
  2
_D_1
340
0
  0
BLOCK_RECORD
  5
105
330
1
100
AcDbSymbolTableRecord
100
AcDbBlockTableRecord
  2
_D_2
340
0
  0
BLOCK_RECORD
  5
112
330
1
100
AcDbSymbolTableRecord
100
AcDbBlockTableRecord
  2
_D_3
340
0
  0
BLOCK_RECORD
  5
11D
330
1
100
AcDbSymbolTableRecord
100
AcDbBlockTableRecord
  2
SW_DOWELSYMBOL_0
340
0
102
{BLKREFS
331
123
102
}
  0
ENDTAB
  0
ENDSEC
  0
SECTION
  2
BLOCKS
  0
BLOCK
  5
20
330
1F
100
AcDbEntity
  8
0
100
AcDbBlockBegin
  2
*Model_Space
 70
     0
 10
0.0
 20
0.0
 30
0.0
  3
*Model_Space
  1

  0
ENDBLK
  5
21
330
1F
100
AcDbEntity
  8
0
100
AcDbBlockEnd
  0
BLOCK
  5
1C
330
1B
100
AcDbEntity
 67
     1
  8
0
100
AcDbBlockBegin
  2
*Paper_Space
 70
     0
 10
0.0
 20
0.0
 30
0.0
  3
*Paper_Space
  1

  0
ENDBLK
  5
1D
330
1B
100
AcDbEntity
 67
     1
  8
0
100
AcDbBlockEnd
  0
BLOCK
  5
24
330
23
100
AcDbEntity
  8
0
100
AcDbBlockBegin
  2
*Paper_Space0
 70
     0
 10
0.0
 20
0.0
 30
0.0
  3
*Paper_Space0
  1

  0
ENDBLK
  5
25
330
23
100
AcDbEntity
  8
0
100
AcDbBlockEnd
  0
BLOCK
  5
83
330
82
100
AcDbEntity
  8
0
100
AcDbBlockBegin
  2
블럭10
 70
     2
 10
0.0
 20
0.0
 30
0.0
  3
블럭10
  1

  0
ELLIPSE
  5
85
330
82
100
AcDbEntity
  8
중심선
100
AcDbEllipse
 10
20.54032771741204
 20
12.0471743016438
 30
0.0
 11
6.600054785286829
 21
-1.261213355974178E-13
 31
0.0
210
0.0
220
0.0
230
1.0
 40
0.636358354079598
 41
0.9219305317359503
 42
6.513795318482858
  0
ELLIPSE
  5
86
330
82
100
AcDbEntity
  8
중심선
100
AcDbEllipse
 10
20.54032771746488
 20
12.04717430159265
 30
0.0
 11
3.960054785062283
 21
1.540847449632565E-10
 31
0.0
210
0.0
220
0.0
230
1.0
 40
0.3939339440162632
 41
1.131841032648279
 42
5.62031148352944
  0
LINE
  5
87
330
82
100
AcDbEntity
  8
중심선
100
AcDbLine
 10
2.268634060543552
 20
16.24717430164393
 30
0.0
 11
5.714909304380834
 21
16.24717430164393
 31
0.0
  0
LINE
  5
88
330
82
100
AcDbEntity
  8
중심선
100
AcDbLine
 10
5.245725140726316
 20
7.84717430164391
 30
0.0
 11
8.692000384563599
 21
7.84717430164391
 31
0.0
  0
LINE
  5
89
330
82
100
AcDbEntity
  8
중심선
100
AcDbLine
 10
15.74043728645272
 20
16.24717430164393
 30
0.0
 11
8.692000384563599
 21
7.84717430164391
 31
0.0
  0
LINE
  5
8A
330
82
100
AcDbEntity
  8
중심선
100
AcDbLine
 10
0.1404042013395286
 20
13.71084872107135
 30
0.0
 11
3.58671253028996
 21
13.71088815037384
 31
0.0
  0
LINE
  5
8B
330
82
100
AcDbEntity
  8
중심선
100
AcDbLine
 10
2.750260043222114
 20
10.84717430164391
 30
0.0
 11
6.196535287059397
 21
10.84717430164391
 31
0.0
  0
LINE
  5
8C
330
82
100
AcDbEntity
  8
중심선
100
AcDbLine
 10
12.29416204261559
 20
16.24717430164393
 30
0.0
 11
5.245725140726316
 21
7.84717430164391
 31
0.0
  0
LINE
  5
8D
330
82
100
AcDbEntity
  8
중심선
100
AcDbLine
 10
10.72767329541681
 20
16.24717430164393
 30
0.0
 11
6.196535287059397
 21
10.84717430164391
 31
0.0
  0
LINE
  5
8E
330
82
100
AcDbEntity
  8
중심선
100
AcDbLine
 10
7.28139805157953
 20
16.24717430164393
 30
0.0
 11
2.750260043222114
 21
10.84717430164391
 31
0.0
  0
LINE
  5
8F
330
82
100
AcDbEntity
  8
중심선
100
AcDbLine
 10
5.714909304380834
 20
16.24717430164393
 30
0.0
 11
3.58671253028996
 21
13.71088815037384
 31
0.0
  0
LINE
  5
90
330
82
100
AcDbEntity
  8
중심선
100
AcDbLine
 10
2.268634060543552
 20
16.24717430164393
 30
0.0
 11
0.1404042013395286
 21
13.71084872107135
 31
0.0
  0
LINE
  5
91
330
82
100
AcDbEntity
  8
중심선
100
AcDbLine
 10
7.28139805157953
 20
16.24717430164393
 30
0.0
 11
10.72767329541681
 21
16.24717430164393
 31
0.0
  0
LINE
  5
92
330
82
100
AcDbEntity
  8
중심선
100
AcDbLine
 10
12.29416204261559
 20
16.24717430164393
 30
0.0
 11
15.74043728645272
 21
16.24717430164393
 31
0.0
  0
LINE
  5
93
330
82
100
AcDbEntity
  8
중심선
100
AcDbLine
 10
19.22036997980202
 20
11.08717430171403
 30
0.0
 11
23.66174974927406
 21
11.08717430171406
 31
0.0
  0
LINE
  5
94
330
82
100
AcDbEntity
  8
중심선
100
AcDbLine
 10
19.22039502424796
 20
13.00717430171391
 30
0.0
 11
19.22036997980202
 21
11.08717430171403
 31
0.0
  0
LINE
  5
95
330
82
100
AcDbEntity
  8
중심선
100
AcDbLine
 10
19.22039502424796
 20
13.00717430171391
 30
0.0
 11
26.96566020931264
 21
13.00717430171391
 31
0.0
  0
LINE
  5
96
330
82
100
AcDbEntity
  8
중심선
100
AcDbLine
 10
22.22332737316547
 20
13.45928029700563
 30
0.0
 11
24.52862924686651
 21
15.39360700705356
 31
0.0
  0
ATTDEF
  5
98
330
82
100
AcDbEntity
  8
FORMAT
 62
     2
100
AcDbText
 10
-16.11926103943555
 20
2.075366912832191
 30
0.0
 40
4.233333333333333
  1
SEME7103014E [ 4 FLUTE ]
 41
0.75
  7
SLDTEXTSTYLE0
 11
-16.11926103943555
 21
-0.0412997538344756
 31
0.0
100
AcDbAttributeDefinition
  3

  2
AUTOATTR0
 70
     0
 74
     1
  0
ENDBLK
  5
84
330
82
100
AcDbEntity
  8
0
100
AcDbBlockEnd
  0
BLOCK
  5
ED
330
EC
100
AcDbEntity
  8
0
100
AcDbBlockBegin
  2
_D
 70
     0
 10
0.0
 20
0.0
 30
0.0
  3
_D
  1

  0
LINE
  5
EF
330
EC
100
AcDbEntity
  8
치수문자_일반주서
 62
     0
370
    -2
100
AcDbLine
 10
22.66057621135332
 20
-1.500000000000003
 30
0.0
 11
34.34773398503803
 21
-1.499999999999959
 31
0.0
  0
LINE
  5
F0
330
EC
100
AcDbEntity
  8
치수문자_일반주서
 62
     0
370
    -2
100
AcDbLine
 10
22.66057621135332
 20
1.500000000000006
 30
0.0
 11
34.34773398503803
 21
1.50000000000005
 31
0.0
  0
LINE
  5
F1
330
EC
100
AcDbEntity
  8
치수문자_일반주서
 62
     0
370
    -2
100
AcDbLine
 10
34.34773398503803
 20
-1.499999999999959
 30
0.0
 11
34.347733985038
 21
14.22900000000005
 31
0.0
  0
LINE
  5
F2
330
EC
100
AcDbEntity
  8
치수문자_일반주서
 62
     0
370
    -2
100
AcDbLine
 10
34.34773398503803
 20
-1.499999999999959
 30
0.0
 11
34.34773398503803
 21
1.50000000000005
 31
0.0
  0
LINE
  5
F3
330
EC
100
AcDbEntity
  8
치수문자_일반주서
 62
     0
370
    -2
100
AcDbLine
 10
34.34773398503804
 20
-4.801999999999959
 30
0.0
 11
34.34773398503805
 21
-8.103999999999958
 31
0.0
  0
LINE
  5
F4
330
EC
100
AcDbEntity
  8
치수문자_일반주서
 62
     0
370
    -2
100
AcDbLine
 10
34.34773398503802
 20
4.802000000000049
 30
0.0
 11
34.34773398503801
 21
8.104000000000049
 31
0.0
  0
SOLID
  5
F5
330
EC
100
AcDbEntity
  8
치수문자_일반주서
 62
     0
100
AcDbTrace
 10
34.89806731837137
 20
-4.801999999999958
 30
0.0
 11
33.79740065170471
 21
-4.80199999999996
 31
0.0
 12
34.34773398503803
 22
-1.499999999999959
 32
0.0
 13
34.34773398503803
 23
-1.499999999999959
 33
0.0
  0
SOLID
  5
F6
330
EC
100
AcDbEntity
  8
치수문자_일반주서
 62
     0
100
AcDbTrace
 10
33.79740065170468
 20
4.802000000000048
 30
0.0
 11
34.89806731837135
 21
4.80200000000005
 31
0.0
 12
34.34773398503803
 22
1.50000000000005
 32
0.0
 13
34.34773398503803
 23
1.50000000000005
 33
0.0
  0
MTEXT
  5
F7
330
EC
100
AcDbEntity
  8
치수문자_일반주서
 62
     0
100
AcDbMText
 10
29.972733985038
 20
11.16650000000004
 30
0.0
 40
3.5
 41
0.0
 71
     2
 72
     1
  1
\A1;%%c3
  7
SLDTEXTSTYLE0
 11
-2.368475785866994E-15
 21
1.0
 31
0.0
 73
     1
 44
1.0
  0
POINT
  5
150
330
EC
100
AcDbEntity
  8
Defpoints
 62
     0
100
AcDbPoint
 10
22.59807621135332
 20
-1.500000000000003
 30
0.0
  0
POINT
  5
151
330
EC
100
AcDbEntity
  8
Defpoints
 62
     0
100
AcDbPoint
 10
22.59807621135332
 20
1.500000000000006
 30
0.0
  0
POINT
  5
152
330
EC
100
AcDbEntity
  8
Defpoints
 62
     0
100
AcDbPoint
 10
34.34773398503802
 20
1.50000000000005
 30
0.0
  0
ENDBLK
  5
EE
330
EC
100
AcDbEntity
  8
0
100
AcDbBlockEnd
  0
BLOCK
  5
FB
330
FA
100
AcDbEntity
  8
0
100
AcDbBlockBegin
  2
_D_1
 70
     0
 10
0.0
 20
0.0
 30
0.0
  3
_D_1
  1

  0
LINE
  5
FD
330
FA
100
AcDbEntity
  8
치수문자_일반주서
 62
     0
370
    -2
100
AcDbLine
 10
-27.4019237886467
 20
2.562499999999998
 30
0.0
 11
-27.40192378864669
 21
20.38913260158165
 31
0.0
  0
LINE
  5
FE
330
FA
100
AcDbEntity
  8
치수문자_일반주서
 62
     0
370
    -2
100
AcDbLine
 10
22.59807621135331
 20
1.562500000000003
 30
0.0
 11
22.59807621135331
 21
20.38913260158165
 31
0.0
  0
LINE
  5
FF
330
FA
100
AcDbEntity
  8
치수문자_일반주서
 62
     0
370
    -2
100
AcDbLine
 10
-24.0999237886467
 20
20.38913260158165
 30
0.0
 11
19.29607621135331
 21
20.38913260158165
 31
0.0
  0
SOLID
  5
100
330
FA
100
AcDbEntity
  8
치수문자_일반주서
 62
     0
100
AcDbTrace
 10
-24.0999237886467
 20
20.93946593491498
 30
0.0
 11
-24.0999237886467
 21
19.83879926824831
 31
0.0
 12
-27.40192378864669
 22
20.38913260158165
 32
0.0
 13
-27.40192378864669
 23
20.38913260158165
 33
0.0
  0
SOLID
  5
101
330
FA
100
AcDbEntity
  8
치수문자_일반주서
 62
     0
100
AcDbTrace
 10
19.29607621135331
 20
19.83879926824831
 30
0.0
 11
19.29607621135331
 21
20.93946593491498
 31
0.0
 12
22.59807621135331
 22
20.38913260158165
 32
0.0
 13
22.59807621135331
 23
20.38913260158165
 33
0.0
  0
MTEXT
  5
102
330
FA
100
AcDbEntity
  8
치수문자_일반주서
 62
     0
100
AcDbMText
 10
-2.401923788646697
 20
24.76413260158165
 30
0.0
 40
3.5
 41
0.0
 71
     2
 72
     1
  1
\A1;50
  7
SLDTEXTSTYLE0
 73
     1
 44
1.0
  0
POINT
  5
149
330
FA
100
AcDbEntity
  8
Defpoints
 62
     0
100
AcDbPoint
 10
-27.4019237886467
 20
2.499999999999998
 30
0.0
  0
POINT
  5
14A
330
FA
100
AcDbEntity
  8
Defpoints
 62
     0
100
AcDbPoint
 10
22.59807621135331
 20
1.500000000000003
 30
0.0
  0
POINT
  5
14B
330
FA
100
AcDbEntity
  8
Defpoints
 62
     0
100
AcDbPoint
 10
22.59807621135331
 20
20.38913260158165
 30
0.0
  0
ENDBLK
  5
FC
330
FA
100
AcDbEntity
  8
0
100
AcDbBlockEnd
  0
BLOCK
  5
106
330
105
100
AcDbEntity
  8
0
100
AcDbBlockBegin
  2
_D_2
 70
     0
 10
0.0
 20
0.0
 30
0.0
  3
_D_2
  1

  0
LINE
  5
108
330
105
100
AcDbEntity
  8
치수문자_일반주서
 62
     0
370
    -2
100
AcDbLine
 10
-26.9644237886467
 20
3.000000000000004
 30
0.0
 11
-35.29278005619435
 21
2.999999999999975
 31
0.0
  0
LINE
  5
109
330
105
100
AcDbEntity
  8
치수문자_일반주서
 62
     0
370
    -2
100
AcDbLine
 10
-26.9644237886467
 20
-3.000000000000001
 30
0.0
 11
-35.29278005619433
 21
-3.000000000000032
 31
0.0
  0
LINE
  5
10A
330
105
100
AcDbEntity
  8
치수문자_일반주서
 62
     0
370
    -2
100
AcDbLine
 10
-35.29278005619435
 20
2.999999999999975
 30
0.0
 11
-35.2927800561944
 21
15.72899999999997
 31
0.0
  0
LINE
  5
10B
330
105
100
AcDbEntity
  8
치수문자_일반주서
 62
     0
370
    -2
100
AcDbLine
 10
-35.29278005619435
 20
2.999999999999975
 30
0.0
 11
-35.29278005619433
 21
-3.000000000000032
 31
0.0
  0
LINE
  5
10C
330
105
100
AcDbEntity
  8
치수문자_일반주서
 62
     0
370
    -2
100
AcDbLine
 10
-35.29278005619437
 20
6.301999999999975
 30
0.0
 11
-35.29278005619438
 21
9.603999999999974
 31
0.0
  0
LINE
  5
10D
330
105
100
AcDbEntity
  8
치수문자_일반주서
 62
     0
370
    -2
100
AcDbLine
 10
-35.29278005619432
 20
-6.302000000000032
 30
0.0
 11
-35.2927800561943
 21
-9.604000000000031
 31
0.0
  0
SOLID
  5
10E
330
105
100
AcDbEntity
  8
치수문자_일반주서
 62
     0
100
AcDbTrace
 10
-35.8431133895277
 20
6.301999999999973
 30
0.0
 11
-34.74244672286103
 21
6.301999999999977
 31
0.0
 12
-35.29278005619435
 22
2.999999999999975
 32
0.0
 13
-35.29278005619435
 23
2.999999999999975
 33
0.0
  0
SOLID
  5
10F
330
105
100
AcDbEntity
  8
치수문자_일반주서
 62
     0
100
AcDbTrace
 10
-34.74244672286098
 20
-6.30200000000003
 30
0.0
 11
-35.84311338952765
 21
-6.302000000000033
 31
0.0
 12
-35.29278005619433
 22
-3.000000000000032
 32
0.0
 13
-35.29278005619433
 23
-3.000000000000032
 33
0.0
  0
MTEXT
  5
110
330
105
100
AcDbEntity
  8
치수문자_일반주서
 62
     0
100
AcDbMText
 10
-39.66778005619439
 20
12.66649999999996
 30
0.0
 40
3.5
 41
0.0
 71
     2
 72
     1
  1
\A1;%%c6
  7
SLDTEXTSTYLE0
 11
-3.552713678800497E-15
 21
1.0
 31
0.0
 73
     1
 44
1.0
  0
POINT
  5
14D
330
105
100
AcDbEntity
  8
Defpoints
 62
     0
100
AcDbPoint
 10
-26.9019237886467
 20
3.000000000000004
 30
0.0
  0
POINT
  5
14E
330
105
100
AcDbEntity
  8
Defpoints
 62
     0
100
AcDbPoint
 10
-26.9019237886467
 20
-3.000000000000001
 30
0.0
  0
POINT
  5
14F
330
105
100
AcDbEntity
  8
Defpoints
 62
     0
100
AcDbPoint
 10
-35.29278005619434
 20
-3.000000000000032
 30
0.0
  0
ENDBLK
  5
107
330
105
100
AcDbEntity
  8
0
100
AcDbBlockEnd
  0
BLOCK
  5
113
330
112
100
AcDbEntity
  8
0
100
AcDbBlockBegin
  2
_D_3
 70
     0
 10
0.0
 20
0.0
 30
0.0
  3
_D_3
  1

  0
LINE
  5
115
330
112
100
AcDbEntity
  8
치수문자_일반주서
 62
     0
370
    -2
100
AcDbLine
 10
8.598076211353302
 20
1.477219077314715
 30
0.0
 11
8.598076211353302
 21
12.26063737990238
 31
0.0
  0
LINE
  5
116
330
112
100
AcDbEntity
  8
치수문자_일반주서
 62
     0
370
    -2
100
AcDbLine
 10
22.59807621135331
 20
1.562500000000003
 30
0.0
 11
22.59807621135331
 21
12.26063737990238
 31
0.0
  0
LINE
  5
117
330
112
100
AcDbEntity
  8
치수문자_일반주서
 62
     0
370
    -2
100
AcDbLine
 10
11.9000762113533
 20
12.26063737990238
 30
0.0
 11
19.29607621135331
 21
12.26063737990238
 31
0.0
  0
SOLID
  5
118
330
112
100
AcDbEntity
  8
치수문자_일반주서
 62
     0
100
AcDbTrace
 10
11.9000762113533
 20
12.81097071323571
 30
0.0
 11
11.9000762113533
 21
11.71030404656904
 31
0.0
 12
8.598076211353302
 22
12.26063737990238
 32
0.0
 13
8.598076211353302
 23
12.26063737990238
 33
0.0
  0
SOLID
  5
119
330
112
100
AcDbEntity
  8
치수문자_일반주서
 62
     0
100
AcDbTrace
 10
19.29607621135331
 20
11.71030404656904
 30
0.0
 11
19.29607621135331
 21
12.81097071323571
 31
0.0
 12
22.59807621135331
 22
12.26063737990238
 32
0.0
 13
22.59807621135331
 23
12.26063737990238
 33
0.0
  0
MTEXT
  5
11A
330
112
100
AcDbEntity
  8
치수문자_일반주서
 62
     0
100
AcDbMText
 10
15.59807621135329
 20
16.63563737990238
 30
0.0
 40
3.5
 41
0.0
 71
     2
 72
     1
  1
\A1;14
  7
SLDTEXTSTYLE0
 73
     1
 44
1.0
  0
POINT
  5
11B
330
112
100
AcDbEntity
  8
Defpoints
 62
     0
100
AcDbPoint
 10
8.598076211353302
 20
1.414719077314715
 30
0.0
  0
POINT
  5
11C
330
112
100
AcDbEntity
  8
Defpoints
 62
     0
100
AcDbPoint
 10
22.59807621135331
 20
1.500000000000003
 30
0.0
  0
POINT
  5
14C
330
112
100
AcDbEntity
  8
Defpoints
 62
     0
100
AcDbPoint
 10
22.59807621135331
 20
12.26063737990238
 30
0.0
  0
ENDBLK
  5
114
330
112
100
AcDbEntity
  8
0
100
AcDbBlockEnd
  0
BLOCK
  5
11E
330
11D
100
AcDbEntity
  8
0
100
AcDbBlockBegin
  2
SW_DOWELSYMBOL_0
 70
     0
 10
0.0
 20
0.0
 30
0.0
  3
SW_DOWELSYMBOL_0
  1

  0
CIRCLE
  5
120
330
11D
100
AcDbEntity
  8
해칭선
 62
     0
100
AcDbCircle
 10
0.0
 20
0.0
 30
0.0
 40
3.000000000000001
  0
HATCH
  5
121
330
11D
100
AcDbEntity
  8
0
  6
Continuous
 62
     0
370
    18
100
AcDbHatch
 10
0.0
 20
0.0
 30
0.0
210
0.0
220
0.0
230
1.0
  2
SOLID
 70
     1
 71
     0
 91
        1
 92
        0
 93
        3
 72
     2
 10
0.0
 20
0.0
 40
3.000000000000001
 50
0.0
 51
90.0
 73
     1
 72
     1
 10
0.0
 20
3.000000000000001
 11
0.0
 21
0.0
 72
     1
 10
0.0
 20
0.0
 11
3.000000000000001
 21
0.0
 97
        0
 75
     0
 76
     1
 98
        1
 10
0.0
 20
0.0
  0
HATCH
  5
122
330
11D
100
AcDbEntity
  8
0
  6
Continuous
 62
     0
370
    18
100
AcDbHatch
 10
0.0
 20
0.0
 30
0.0
210
0.0
220
0.0
230
1.0
  2
SOLID
 70
     1
 71
     0
 91
        1
 92
        0
 93
        3
 72
     2
 10
0.0
 20
0.0
 40
3.000000000000001
 50
180.0
 51
270.0000000000008
 73
     1
 72
     1
 10
0.0
 20
-3.000000000000001
 11
0.0
 21
0.0
 72
     1
 10
0.0
 20
0.0
 11
-3.000000000000001
 21
0.0
 97
        0
 75
     0
 76
     1
 98
        1
 10
0.0
 20
0.0
  0
ENDBLK
  5
11F
330
11D
100
AcDbEntity
  8
0
100
AcDbBlockEnd
  0
ENDSEC
  0
SECTION
  2
ENTITIES
  0
LINE
  5
99
330
1F
100
AcDbEntity
  8
0
  6
Continuous
 62
     4
370
    25
100
AcDbLine
 10
2.0
 20
-2.999999999999999
 30
0.0
 11
7.598076211353303
 21
-1.499999999999998
 31
0.0
  0
LINE
  5
9A
330
1F
100
AcDbEntity
  8
0
  6
Continuous
 62
     4
370
    25
100
AcDbLine
 10
7.598076211353303
 20
1.500000000000002
 30
0.0
 11
2.0
 21
3.000000000000001
 31
0.0
  0
LINE
  5
9B
330
1F
100
AcDbEntity
  8
0
  6
Continuous
 62
     4
370
    25
100
AcDbLine
 10
2.0
 20
3.0
 30
0.0
 11
-26.9019237886467
 21
2.999999999999999
 31
0.0
  0
LINE
  5
9C
330
1F
100
AcDbEntity
  8
0
  6
Continuous
 62
     4
370
    25
100
AcDbLine
 10
-26.9019237886467
 20
-3.0
 30
0.0
 11
2.0
 21
-2.999999999999998
 31
0.0
  0
LINE
  5
9D
330
1F
100
AcDbEntity
  8
0
  6
Continuous
 62
     4
370
    25
100
AcDbLine
 10
-26.9019237886467
 20
2.999999999999997
 30
0.0
 11
-27.4019237886467
 21
2.499999999999998
 31
0.0
  0
LINE
  5
9E
330
1F
100
AcDbEntity
  8
0
  6
Continuous
 62
     4
370
    25
100
AcDbLine
 10
-27.4019237886467
 20
-2.5
 30
0.0
 11
-26.9019237886467
 21
-2.999999999999998
 31
0.0
  0
LINE
  5
9F
330
1F
100
AcDbEntity
  8
0
  6
Continuous
 62
     4
370
    25
100
AcDbLine
 10
7.948556832946379
 20
1.500000000000002
 30
0.0
 11
7.598076211353303
 21
1.500000000000002
 31
0.0
  0
LINE
  5
A0
330
1F
100
AcDbEntity
  8
0
  6
Continuous
 62
     4
370
    25
100
AcDbLine
 10
7.598076211353303
 20
-1.499999999999998
 30
0.0
 11
7.948556832946379
 21
-1.499999999999998
 31
0.0
  0
LINE
  5
A1
330
1F
100
AcDbEntity
  8
0
  6
Continuous
 62
     1
370
    25
100
AcDbLine
 10
16.13832729262812
 20
-1.5
 30
0.0
 11
16.99492839197394
 21
-1.5
 31
0.0
  0
LINE
  5
A2
330
1F
100
AcDbEntity
  8
0
  6
Continuous
 62
     1
370
    25
100
AcDbLine
 10
10.96410680743782
 20
1.500000000000003
 30
0.0
 11
10.10533940039892
 21
1.500000000000003
 31
0.0
  0
LINE
  5
A3
330
1F
100
AcDbEntity
  8
0
  6
Continuous
 62
     1
370
    25
100
AcDbLine
 10
22.59807621135331
 20
1.500000000000003
 30
0.0
 11
22.16850508656343
 21
1.500000000000003
 31
0.0
  0
LINE
  5
A4
330
1F
100
AcDbEntity
  8
0
  6
Continuous
 62
     1
370
    25
100
AcDbLine
 10
19.15381766063197
 20
-1.5
 30
0.0
 11
20.01156535270018
 21
-1.5
 31
0.0
  0
LINE
  5
A5
330
1F
100
AcDbEntity
  8
0
  6
Continuous
 62
     1
370
    25
100
AcDbLine
 10
13.97886021049314
 20
1.500000000000003
 30
0.0
 11
13.12176688265038
 21
1.500000000000003
 31
0.0
  0
LINE
  5
A6
330
1F
100
AcDbEntity
  8
0
  6
Continuous
 62
     1
370
    25
100
AcDbLine
 10
22.16850508656343
 20
-1.5
 30
0.0
 11
22.59807621135331
 21
-1.5
 31
0.0
  0
LINE
  5
A7
330
1F
100
AcDbEntity
  8
0
  6
Continuous
 62
     1
370
    25
100
AcDbLine
 10
10.10533940039891
 20
-1.5
 30
0.0
 11
10.96410680743783
 21
-1.5
 31
0.0
  0
LINE
  5
A8
330
1F
100
AcDbEntity
  8
0
  6
Continuous
 62
     1
370
    25
100
AcDbLine
 10
16.99492839197395
 20
1.500000000000003
 30
0.0
 11
16.13832729262811
 21
1.500000000000003
 31
0.0
  0
LINE
  5
A9
330
1F
100
AcDbEntity
  8
0
  6
Continuous
 62
     1
370
    25
100
AcDbLine
 10
13.12176688265039
 20
-1.5
 30
0.0
 11
13.97886021049313
 21
-1.5
 31
0.0
  0
LINE
  5
AA
330
1F
100
AcDbEntity
  8
0
  6
Continuous
 62
     1
370
    25
100
AcDbLine
 10
20.01156535270018
 20
1.500000000000003
 30
0.0
 11
19.15381766063198
 21
1.500000000000003
 31
0.0
  0
LINE
  5
AB
330
1F
100
AcDbEntity
  8
0
  6
Continuous
 62
     4
370
    25
100
AcDbLine
 10
7.598076211353303
 20
1.500000000000002
 30
0.0
 11
7.598076211353303
 21
1.447705069841537
 31
0.0
  0
SPLINE
  5
AC
330
1F
100
AcDbEntity
  8
0
  6
Continuous
 62
     4
370
    25
100
AcDbSpline
210
0.0
220
0.0
230
1.0
 70
     8
 71
     3
 72
     8
 73
     4
 74
     0
 42
0.000000001
 43
0.00000001
 40
0.0
 40
0.0
 40
0.0
 40
0.0
 40
1.0
 40
1.0
 40
1.0
 40
1.0
 10
7.582671313141309
 20
1.454969337040168
 30
0.0
 10
7.587802499157509
 20
1.45256422109846
 30
0.0
 10
7.592937458659182
 20
1.450142782892327
 30
0.0
 10
7.598076211353303
 20
1.447705069841541
 30
0.0
  0
SPLINE
  5
AD
330
1F
100
AcDbEntity
  8
0
  6
Continuous
 62
     4
370
    25
100
AcDbSpline
210
0.0
220
0.0
230
1.0
 70
     8
 71
     3
 72
    14
 73
    10
 74
     0
 42
0.000000001
 43
0.00000001
 40
0.0
 40
0.0
 40
0.0
 40
0.0
 40
0.25
 40
0.25
 40
0.5
 40
0.5
 40
0.75
 40
0.75
 40
1.0
 40
1.0
 40
1.0
 40
1.0
 10
7.097978020562432
 20
1.507646284306105
 30
0.0
 10
7.097978020562432
 20
1.529877008824667
 30
0.0
 10
7.114524006434356
 20
1.544435014868186
 30
0.0
 10
7.175942792530363
 20
1.556527192076986
 30
0.0
 10
7.220224282369796
 20
1.554125572449865
 30
0.0
 10
7.320635534360734
 20
1.538478033080898
 30
0.0
 10
7.377599262632923
 20
1.52524655778705
 30
0.0
 10
7.486677990786121
 20
1.493718191981693
 30
0.0
 10
7.539196188014933
 20
1.47534722164211
 30
0.0
 10
7.582671313141309
 20
1.454969337040169
 30
0.0
  0
LINE
  5
AE
330
1F
100
AcDbEntity
  8
0
  6
Continuous
 62
     4
370
    25
100
AcDbLine
 10
7.097978020562432
 20
1.507646284306105
 30
0.0
 11
7.097978020562432
 21
0.8145783627249312
 31
0.0
  0
SPLINE
  5
AF
330
1F
100
AcDbEntity
  8
0
  6
Continuous
 62
     4
370
    25
100
AcDbSpline
210
0.0
220
0.0
230
1.0
 70
     8
 71
     3
 72
     8
 73
     4
 74
     0
 42
0.000000001
 43
0.00000001
 40
0.0
 40
0.0
 40
0.0
 40
0.0
 40
1.0
 40
1.0
 40
1.0
 40
1.0
 10
7.206309442935916
 20
0.5958513797957281
 30
0.0
 10
7.138956745064076
 20
0.653907895103131
 30
0.0
 10
7.097978020562279
 20
0.7373738675388563
 30
0.0
 10
7.097978020562354
 20
0.814578362724922
 30
0.0
  0
SPLINE
  5
B0
330
1F
100
AcDbEntity
  8
0
  6
Continuous
 62
     4
370
    25
100
AcDbSpline
210
0.0
220
0.0
230
1.0
 70
     8
 71
     3
 72
     8
 73
     4
 74
     0
 42
0.000000001
 43
0.00000001
 40
0.0
 40
0.0
 40
0.0
 40
0.0
 40
1.0
 40
1.0
 40
1.0
 40
1.0
 10
7.598076211353303
 20
0.2712380409584907
 30
0.0
 10
7.464571103956529
 20
0.3757910081427628
 30
0.0
 10
7.334860453830706
 20
0.4850432909221232
 30
0.0
 10
7.206309442937301
 20
0.5958513797972766
 30
0.0
  0
LINE
  5
B1
330
1F
100
AcDbEntity
  8
0
  6
Continuous
 62
     4
370
    25
100
AcDbLine
 10
7.598076211353303
 20
0.271238040958477
 30
0.0
 11
7.598076211353303
 21
-0.3926194477545595
 31
0.0
  0
SPLINE
  5
B2
330
1F
100
AcDbEntity
  8
0
  6
Continuous
 62
     4
370
    25
100
AcDbSpline
210
0.0
220
0.0
230
1.0
 70
     8
 71
     3
 72
     8
 73
     4
 74
     0
 42
0.000000001
 43
0.00000001
 40
0.0
 40
0.0
 40
0.0
 40
0.0
 40
1.0
 40
1.0
 40
1.0
 40
1.0
 10
7.582671313141309
 20
-0.3813980290120805
 30
0.0
 10
7.587802499157509
 20
-0.3851509299454685
 30
0.0
 10
7.592937458659182
 20
-0.3888914037183477
 30
0.0
 10
7.598076211353303
 20
-0.39261944775456
 30
0.0
  0
SPLINE
  5
B3
330
1F
100
AcDbEntity
  8
0
  6
Continuous
 62
     4
370
    25
100
AcDbSpline
210
0.0
220
0.0
230
1.0
 70
     8
 71
     3
 72
    14
 73
    10
 74
     0
 42
0.000000001
 43
0.00000001
 40
0.0
 40
0.0
 40
0.0
 40
0.0
 40
0.2500000000000002
 40
0.2500000000000002
 40
0.5000000000000001
 40
0.5000000000000001
 40
0.75
 40
0.75
 40
1.0
 40
1.0
 40
1.0
 40
1.0
 10
7.097978020562432
 20
-0.6300489214330716
 30
0.0
 10
7.097978020562432
 20
-0.5768529423944784
 30
0.0
 10
7.114524006434356
 20
-0.5219915888643689
 30
0.0
 10
7.175942792530363
 20
-0.4261604355082194
 30
0.0
 10
7.220224282369796
 20
-0.386289490946005
 30
0.0
 10
7.320635534360734
 20
-0.3349204802140512
 30
0.0
 10
7.377599262632923
 20
-0.3230972723603523
 30
0.0
 10
7.486677990786121
 20
-0.3305951005896096
 30
0.0
 10
7.539196188014933
 20
-0.3496007335815842
 30
0.0
 10
7.582671313141309
 20
-0.3813980290120795
 30
0.0
  0
LINE
  5
B4
330
1F
100
AcDbEntity
  8
0
  6
Continuous
 62
     4
370
    25
100
AcDbLine
 10
7.097978020562432
 20
-0.6300489214330716
 30
0.0
 11
7.097978020562432
 21
-1.416481928215587
 31
0.0
  0
SPLINE
  5
B5
330
1F
100
AcDbEntity
  8
0
  6
Continuous
 62
     4
370
    25
100
AcDbSpline
210
0.0
220
0.0
230
1.0
 70
     8
 71
     3
 72
     8
 73
     4
 74
     0
 42
0.000000001
 43
0.00000001
 40
0.0
 40
0.0
 40
0.0
 40
0.0
 40
1.0
 40
1.0
 40
1.0
 40
1.0
 10
7.206309442935916
 20
-1.490268886899024
 30
0.0
 10
7.13895154247763
 20
-1.486492139592617
 30
0.0
 10
7.097978020562294
 20
-1.460884566955786
 30
0.0
 10
7.09797802056237
 20
-1.41648192821561
 30
0.0
  0
SPLINE
  5
B6
330
1F
100
AcDbEntity
  8
0
  6
Continuous
 62
     4
370
    25
100
AcDbSpline
210
0.0
220
0.0
230
1.0
 70
     8
 71
     3
 72
     8
 73
     4
 74
     0
 42
0.000000001
 43
0.00000001
 40
0.0
 40
0.0
 40
0.0
 40
0.0
 40
1.0
 40
1.0
 40
1.0
 40
1.0
 10
7.598076211353303
 20
-1.475272830745891
 30
0.0
 10
7.464571103956529
 20
-1.492422293574636
 30
0.0
 10
7.334860453830706
 20
-1.497476722674167
 30
0.0
 10
7.206309442937301
 20
-1.490268886906764
 30
0.0
  0
LINE
  5
B7
330
1F
100
AcDbEntity
  8
0
  6
Continuous
 62
     4
370
    25
100
AcDbLine
 10
7.598076211353303
 20
-1.475272830745531
 30
0.0
 11
7.598076211353303
 21
-1.499999999999998
 31
0.0
  0
LINE
  5
B8
330
1F
100
AcDbEntity
  8
0
  6
Continuous
 62
     4
370
    25
100
AcDbLine
 10
2.0
 20
3.000000000000002
 30
0.0
 11
2.0
 21
-3.000000000000001
 31
0.0
  0
LINE
  5
B9
330
1F
100
AcDbEntity
  8
0
  6
Continuous
 62
     4
370
    25
100
AcDbLine
 10
-26.9019237886467
 20
2.999999999999997
 30
0.0
 11
-26.9019237886467
 21
-3.0
 31
0.0
  0
LINE
  5
BA
330
1F
100
AcDbEntity
  8
0
  6
Continuous
 62
     4
370
    25
100
AcDbLine
 10
-27.4019237886467
 20
2.499999999999998
 30
0.0
 11
-27.4019237886467
 21
-2.5
 31
0.0
  0
SPLINE
  5
BB
330
1F
100
AcDbEntity
  8
0
  6
Continuous
 62
     4
370
    25
100
AcDbSpline
210
0.0
220
0.0
230
1.0
 70
     8
 71
     3
 72
    12
 73
     8
 74
     0
 42
0.000000001
 43
0.00000001
 40
0.0
 40
0.0
 40
0.0
 40
0.0
 40
0.2499999999999999
 40
0.2499999999999999
 40
0.4999999999999998
 40
0.4999999999999998
 40
1.0
 40
1.0
 40
1.0
 40
1.0
 10
8.598076211351678
 20
1.06057214706743
 30
0.0
 10
8.514030334011618
 20
1.106726240547854
 30
0.0
 10
8.430210356626326
 20
1.149813277273429
 30
0.0
 10
8.265122500886793
 20
1.228878402734439
 30
0.0
 10
8.18364529861245
 20
1.264927044943817
 30
0.0
 10
7.933485062676787
 20
1.362897398631164
 30
0.0
 10
7.763252814033
 20
1.413736884879519
 30
0.0
 10
7.598076211353306
 20
1.447705069841537
 30
0.0
  0
SPLINE
  5
BC
330
1F
100
AcDbEntity
  8
0
  6
Continuous
 62
     4
370
    25
100
AcDbSpline
210
0.0
220
0.0
230
1.0
 70
     8
 71
     3
 72
    12
 73
     8
 74
     0
 42
0.000000001
 43
0.00000001
 40
0.0
 40
0.0
 40
0.0
 40
0.0
 40
0.2500000000000001
 40
0.2500000000000001
 40
0.5000000000000001
 40
0.5000000000000001
 40
1.0
 40
1.0
 40
1.0
 40
1.0
 10
8.598076211353305
 20
-0.4985678813177254
 30
0.0
 10
8.514030334013103
 20
-0.4370122008946268
 30
0.0
 10
8.430210356627668
 20
-0.3740916988331923
 30
0.0
 10
8.265122500887845
 20
-0.2471521642563346
 30
0.0
 10
8.183645298613385
 20
-0.1830871537015934
 30
0.0
 10
7.933485062677334
 20
0.0115919539671943
 30
0.0
 10
7.763252814033268
 20
0.1436021312477287
 30
0.0
 10
7.598076211353306
 20
0.271238040958475
 30
0.0
  0
SPLINE
  5
BD
330
1F
100
AcDbEntity
  8
0
  6
Continuous
 62
     4
370
    25
100
AcDbSpline
210
0.0
220
0.0
230
1.0
 70
    24
 71
     3
 72
     9
 73
     5
 74
     0
 42
0.000000001
 43
0.00000001
 40
0.0
 40
0.0
 40
0.0
 40
0.0
 40
0.7024213351940489
 40
1.0
 40
1.0
 40
1.0
 40
1.0
 10
7.097978020562432
 20
0.8145783627249312
 30
0.0
 10
7.097978020562432
 20
0.8120445486602013
 30
0.0
 10
7.097978020562432
 20
0.8084372919642898
 30
0.0
 10
7.097978020562432
 20
0.8069659421994144
 30
0.0
 10
7.097978020562432
 20
0.8065280999009202
 30
0.0
  0
SPLINE
  5
BE
330
1F
100
AcDbEntity
  8
0
  6
Continuous
 62
     4
370
    25
100
AcDbSpline
210
0.0
220
0.0
230
1.0
 70
     8
 71
     3
 72
    12
 73
     8
 74
     0
 42
0.000000001
 43
0.00000001
 40
0.0
 40
0.0
 40
0.0
 40
0.0
 40
0.25
 40
0.25
 40
0.5
 40
0.5
 40
1.0
 40
1.0
 40
1.0
 40
1.0
 10
8.598076211351678
 20
-1.060748189187594
 30
0.0
 10
8.514030334011618
 20
-1.014601755455783
 30
0.0
 10
8.430210356626326
 20
-0.9654731107597765
 30
0.0
 10
8.265122500886793
 20
-0.8625930509152494
 30
0.0
 10
8.18364529861245
 20
-0.8088244472288009
 30
0.0
 10
7.933485062676787
 20
-0.6398908834055709
 30
0.0
 10
7.763252814033
 20
-0.5178702825363608
 30
0.0
 10
7.598076211353306
 20
-0.3926194477545615
 30
0.0
  0
SPLINE
  5
BF
330
1F
100
AcDbEntity
  8
0
  6
Continuous
 62
     4
370
    25
100
AcDbSpline
210
0.0
220
0.0
230
1.0
 70
     8
 71
     3
 72
    12
 73
     8
 74
     0
 42
0.000000001
 43
0.00000001
 40
0.0
 40
0.0
 40
0.0
 40
0.0
 40
0.25
 40
0.25
 40
0.5
 40
0.5
 40
1.0
 40
1.0
 40
1.0
 40
1.0
 10
8.598076211353305
 20
-1.414719077314392
 30
0.0
 10
8.514030334013107
 20
-1.436412207536311
 30
0.0
 10
8.430210356627668
 20
-1.4540509967183
 30
0.0
 10
8.265122500887845
 20
-1.480920223339797
 30
0.0
 10
8.183645298613385
 20
-1.490206868060164
 30
0.0
 10
7.933485062677334
 20
-1.505594662737408
 30
0.0
 10
7.763252814033268
 20
-1.498739482733151
 30
0.0
 10
7.598076211353306
 20
-1.475272830745531
 30
0.0
  0
SPLINE
  5
C0
330
1F
100
AcDbEntity
  8
0
  6
Continuous
 62
     4
370
    25
100
AcDbSpline
210
0.0
220
0.0
230
1.0
 70
     8
 71
     3
 72
     9
 73
     5
 74
     0
 42
0.000000001
 43
0.00000001
 40
0.0
 40
0.0
 40
0.0
 40
0.0
 40
0.7668343837688184
 40
0.9999999999999999
 40
0.9999999999999999
 40
0.9999999999999999
 40
0.9999999999999999
 10
8.598076211353757
 20
1.414719077314279
 30
0.0
 10
8.432277387587689
 20
1.454442278389611
 30
0.0
 10
8.21606535109657
 20
1.50624381717834
 30
0.0
 10
7.99913705320277
 20
1.49248369821727
 30
0.0
 10
7.948556832946383
 20
1.489275311600298
 30
0.0
  0
LINE
  5
C1
330
1F
100
AcDbEntity
  8
0
  6
Continuous
 62
     1
370
    25
100
AcDbLine
 10
22.59807621135331
 20
1.462748547532895
 30
0.0
 11
22.59807621135331
 21
1.500000000000005
 31
0.0
  0
SPLINE
  5
C2
330
1F
100
AcDbEntity
  8
0
  6
Continuous
 62
     1
370
    25
100
AcDbSpline
210
0.0
220
0.0
230
1.0
 70
     8
 71
     3
 72
    23
 73
    19
 74
     0
 42
0.000000001
 43
0.00000001
 40
0.0
 40
0.0
 40
0.0
 40
0.0
 40
0.0021625356159989
 40
0.0703363018090175
 40
0.1381487593110319
 40
0.2064050783799977
 40
0.2744388210565827
 40
0.3422805835303608
 40
0.4106067464758319
 40
0.478533394492797
 40
0.5464393040380181
 40
0.6147730130054196
 40
0.6826271108131596
 40
0.750631784536706
 40
0.8189107094139817
 40
0.8867270558166233
 40
0.9548647651726815
 40
1.0
 40
1.0
 40
1.0
 40
1.0
 10
9.020299935579718
 20
1.265414843953218
 30
0.0
 10
9.025430691362079
 20
1.267912875530423
 30
0.0
 10
9.192308121979462
 20
1.349161157243278
 30
0.0
 10
9.520791272027061
 20
1.440683458309056
 30
0.0
 10
10.00398225681506
 20
1.515314145640677
 30
0.0
 10
10.48934797611338
 20
1.485613267973626
 30
0.0
 10
10.97361315032027
 20
1.36432045075408
 30
0.0
 10
11.45701231627686
 20
1.154888875097985
 30
0.0
 10
11.94267276116273
 20
0.8747825252516831
 30
0.0
 10
12.42644539190849
 20
0.537333148624519
 30
0.0
 10
12.9101232887281
 20
0.1654735651415841
 30
0.0
 10
13.39581893689947
 20
-0.2139475564268495
 30
0.0
 10
13.87926837585777
 20
-0.5831752181516401
 30
0.0
 10
14.36340136998772
 20
-0.9139295334033262
 30
0.0
 10
14.84885342800087
 20
-1.186715506705786
 30
0.0
 10
15.33212268380343
 20
-1.382657976916038
 30
0.0
 10
15.76231669944135
 20
-1.489916859892602
 30
0.0
 10
16.03119061239459
 20
-1.489493248998243
 30
0.0
 10
16.13832729262812
 20
-1.489324455140803
 30
0.0
  0
SPLINE
  5
C3
330
1F
100
AcDbEntity
  8
0
  6
Continuous
 62
     1
370
    25
100
AcDbSpline
210
0.0
220
0.0
230
1.0
 70
     8
 71
     3
 72
    12
 73
     8
 74
     0
 42
0.000000001
 43
0.00000001
 40
0.0
 40
0.0
 40
0.0
 40
0.0
 40
0.0101766001790667
 40
0.3305499274400875
 40
0.649225333726968
 40
0.9699866069827474
 40
1.0
 40
1.0
 40
1.0
 40
1.0
 10
21.08344432793356
 20
1.265404522095994
 30
0.0
 10
21.08858216218221
 20
1.267906014748581
 30
0.0
 10
21.25546606330886
 20
1.349157926021039
 30
0.0
 10
21.58407418703663
 20
1.440740412688945
 30
0.0
 10
22.06673702067933
 20
1.515115882064987
 30
0.0
 10
22.40686196419406
 20
1.495041220239704
 30
0.0
 10
22.58300486599341
 20
1.465293828704089
 30
0.0
 10
22.59807621135331
 20
1.462748547532895
 30
0.0
  0
SPLINE
  5
C4
330
1F
100
AcDbEntity
  8
0
  6
Continuous
 62
     1
370
    25
100
AcDbSpline
210
0.0
220
0.0
230
1.0
 70
     8
 71
     3
 72
    23
 73
    19
 74
     0
 42
0.000000001
 43
0.00000001
 40
0.0
 40
0.0
 40
0.0
 40
0.0
 40
0.0448512866755581
 40
0.1129523910996456
 40
0.1812941966219479
 40
0.2491847582064702
 40
0.317424234094389
 40
0.3856393469529726
 40
0.4535327317942359
 40
0.5218892205929305
 40
0.58997114669235
 40
0.6579023258237895
 40
0.7263136609465842
 40
0.7942967106729271
 40
0.8623005224296333
 40
0.9307043029583205
 40
0.9986231327430284
 40
1.0
 40
1.0
 40
1.0
 40
1.0
 10
18.07352389592784
 20
-1.260210903932077
 30
0.0
 10
17.96734686329738
 20
-1.304769216921588
 30
0.0
 10
17.69995320294981
 20
-1.41698379020549
 30
0.0
 10
17.27050657156326
 20
-1.498507693816078
 30
0.0
 10
16.78509696262561
 20
-1.507631288259358
 30
0.0
 10
16.30181058925743
 20
-1.417672105806476
 30
0.0
 10
15.81691940938939
 20
-1.239340090228247
 30
0.0
 10
15.33214920963684
 20
-0.9827500064805779
 30
0.0
 10
14.84884628799957
 20
-0.66188966771405
 30
0.0
 10
14.36340324918522
 20
-0.3020540376808426
 30
0.0
 10
13.87926798946333
 20
0.0785802840739317
 30
0.0
 10
13.39581861215532
 20
0.455268885347315
 30
0.0
 10
12.91012498693432
 20
0.8002750915639051
 30
0.0
 10
12.42643897254805
 20
1.096509693605981
 30
0.0
 10
11.94269682501041
 20
1.325528682497375
 30
0.0
 10
11.45692218201072
 20
1.459134175327125
 30
0.0
 10
11.13160683440656
 20
1.514113639304788
 30
0.0
 10
10.96737010069686
 20
1.499412882305092
 30
0.0
 10
10.96410680743782
 20
1.499120786376634
 30
0.0
  0
SPLINE
  5
C5
330
1F
100
AcDbEntity
  8
0
  6
Continuous
 62
     1
370
    25
100
AcDbSpline
210
0.0
220
0.0
230
1.0
 70
     8
 71
     3
 72
    22
 73
    18
 74
     0
 42
0.000000001
 43
0.00000001
 40
0.0
 40
0.0
 40
0.0
 40
0.0
 40
0.053831859448449
 40
0.1218118952575567
 40
0.1902201974757841
 40
0.258148364989586
 40
0.3262272727882477
 40
0.394580731113897
 40
0.4624711060130705
 40
0.5306831946662793
 40
0.5989196452687289
 40
0.6668071970363257
 40
0.7351459727365416
 40
0.8032440580096318
 40
0.87116376604626
 40
0.9395674382149792
 40
1.0
 40
1.0
 40
1.0
 40
1.0
 10
12.04396153717261
 20
1.262596732485875
 30
0.0
 10
12.17149202276595
 20
1.313616979674789
 30
0.0
 10
12.46007076242695
 20
1.429066697932101
 30
0.0
 10
12.91009508305402
 20
1.505345420447307
 30
0.0
 10
13.39582658205779
 20
1.501206015985592
 30
0.0
 10
13.87926585780474
 20
1.399336100320141
 30
0.0
 10
14.36340381414082
 20
1.209349119647218
 30
0.0
 10
14.84884617286123
 20
0.944171299126571
 30
0.0
 10
15.33214910961157
 20
0.6166307892320214
 30
0.0
 10
15.81691992815804
 20
0.252032831595518
 30
0.0
 10
16.3018086186524
 20
-0.1282412150242999
 30
0.0
 10
16.78510430570827
 20
-0.5029888186278433
 30
0.0
 10
17.27047899761695
 20
-0.842607003753521
 30
0.0
 10
17.75470679283606
 20
-1.131164918140914
 30
0.0
 10
18.23811195412925
 20
-1.346143705993282
 30
0.0
 10
18.70584242473004
 20
-1.478334226365557
 30
0.0
 10
19.0107814511177
 20
-1.48988799209854
 30
0.0
 10
19.15381766063197
 20
-1.495307458657605
 30
0.0
  0
SPLINE
  5
C6
330
1F
100
AcDbEntity
  8
0
  6
Continuous
 62
     1
370
    25
100
AcDbSpline
210
0.0
220
0.0
230
1.0
 70
     8
 71
     3
 72
    22
 73
    18
 74
     0
 42
0.000000001
 43
0.00000001
 40
0.0
 40
0.0
 40
0.0
 40
0.0
 40
0.059595627933994
 40
0.1275712307432846
 40
0.196029567205235
 40
0.2640681244203146
 40
0.3321136073334423
 40
0.400569423766069
 40
0.4685409071397241
 40
0.5366909037271856
 40
0.6050817742205943
 40
0.6730210768124265
 40
0.74130954420543
 40
0.8095736310780282
 40
0.877515758953516
 40
0.9459213232649545
 40
1.0
 40
1.0
 40
1.0
 40
1.0
 10
21.08344432793356
 20
-1.265404522095988
 30
0.0
 10
20.94227862850979
 20
-1.320517255713751
 30
0.0
 10
20.64009736725733
 20
-1.43849234048057
 30
0.0
 10
20.17694635388654
 20
-1.508995098039485
 30
0.0
 10
19.69123570191598
 20
-1.495583227942552
 30
0.0
 10
19.20753398813278
 20
-1.385118545506934
 30
0.0
 10
18.72379241559744
 20
-1.186947517530104
 30
0.0
 10
18.23811843266887
 20
-0.9155102504959045
 30
0.0
 10
17.7547050637043
 20
-0.5836169052717298
 30
0.0
 10
17.2704794391392
 20
-0.2157345821323629
 30
0.0
 10
16.785104278705
 20
0.1641300950707327
 30
0.0
 10
16.30180829002592
 20
0.5368810023107893
 30
0.0
 10
15.81692127835121
 20
0.8728690216533852
 30
0.0
 10
15.33214405239324
 20
1.154869988654912
 30
0.0
 10
14.84886500997048
 20
1.362073330818532
 30
0.0
 10
14.39669970754339
 20
1.483380661962123
 30
0.0
 10
14.10683842569274
 20
1.48950615385068
 30
0.0
 10
13.97886021049314
 20
1.492210652754818
 30
0.0
  0
LINE
  5
C7
330
1F
100
AcDbEntity
  8
0
  6
Continuous
 62
     1
370
    25
100
AcDbLine
 10
9.020299935579725
 20
-1.265414843953218
 30
0.0
 11
8.598076211353757
 21
-1.414719077314595
 31
0.0
  0
LINE
  5
C8
330
1F
100
AcDbEntity
  8
0
  6
Continuous
 62
     1
370
    25
100
AcDbLine
 10
22.59807621135331
 20
-1.499999999999999
 30
0.0
 11
22.59807621135331
 21
-1.462748547532891
 31
0.0
  0
SPLINE
  5
C9
330
1F
100
AcDbEntity
  8
0
  6
Continuous
 62
     1
370
    25
100
AcDbSpline
210
0.0
220
0.0
230
1.0
 70
     8
 71
     3
 72
    11
 73
     7
 74
     0
 42
0.000000001
 43
0.00000001
 40
0.0
 40
0.0
 40
0.0
 40
0.0
 40
0.2903053363254345
 40
0.6122104201629939
 40
0.9324094649922398
 40
0.9999999999999999
 40
0.9999999999999999
 40
0.9999999999999999
 40
0.9999999999999999
 10
8.59807621135213
 20
-1.060748189187842
 30
0.0
 10
8.743897154216516
 20
-1.136305974176095
 30
0.0
 10
9.051411655429458
 20
-1.295646012081527
 30
0.0
 10
9.520802514928398
 20
-1.439804849570229
 30
0.0
 10
9.876226147118587
 20
-1.508633847817839
 30
0.0
 10
10.07133289273253
 20
-1.494543997050733
 30
0.0
 10
10.10533940039891
 20
-1.49208817925406
 30
0.0
  0
SPLINE
  5
CA
330
1F
100
AcDbEntity
  8
0
  6
Continuous
 62
     1
370
    25
100
AcDbSpline
210
0.0
220
0.0
230
1.0
 70
     8
 71
     3
 72
    24
 73
    20
 74
     0
 42
0.000000001
 43
0.00000001
 40
0.0
 40
0.0
 40
0.0
 40
0.0
 40
0.0383985843963777
 40
0.1066123171281878
 40
0.1748504123964214
 40
0.2427396004204848
 40
0.3110800232527704
 40
0.3791797498567008
 40
0.4471010949248405
 40
0.5155064157897934
 40
0.5835017058125805
 40
0.6514900752459736
 40
0.7198979142813822
 40
0.7878233757465076
 40
0.7879815100001565
 40
0.849531609046772
 40
0.9177814388452846
 40
0.9856695568293737
 40
1.0
 40
1.0
 40
1.0
 40
1.0
 10
15.05898558765355
 20
1.259350564802247
 30
0.0
 10
15.1498579055832
 20
1.29870853219099
 30
0.0
 10
15.40216169567304
 20
1.407984542406757
 30
0.0
 10
15.81690529317154
 20
1.49246650305493
 30
0.0
 10
16.30181255279576
 20
1.511239450386816
 30
0.0
 10
16.78510311481735
 20
1.429982252256666
 30
0.0
 10
17.27047980923754
 20
1.260145085480442
 30
0.0
 10
17.75470474769582
 20
1.00986475460604
 30
0.0
 10
18.23811932867324
 20
0.6943124839008922
 30
0.0
 10
18.72378913036852
 20
0.337815247137661
 30
0.0
 10
19.20754614339302
 20
-0.0426063779543051
 30
0.0
 10
19.69119022184476
 20
-0.4204835186979954
 30
0.0
 10
20.17711674576942
 20
-0.7687073819660227
 30
0.0
 10
20.49930213371089
 20
-0.9718093483648497
 30
0.0
 10
20.80692695903151
 20
-1.140759891928699
 30
0.0
 10
21.11445376295331
 20
-1.29324026722631
 30
0.0
 10
21.58400394974698
 20
-1.440500780033052
 30
0.0
 10
21.9393903600759
 20
-1.508605168422749
 30
0.0
 10
22.13449836023387
 20
-1.49453974026482
 30
0.0
 10
22.16850508656343
 20
-1.492088179254059
 30
0.0
  0
SPLINE
  5
CB
330
1F
100
AcDbEntity
  8
0
  6
Continuous
 62
     1
370
    25
100
AcDbSpline
210
0.0
220
0.0
230
1.0
 70
     8
 71
     3
 72
    17
 73
    13
 74
     0
 42
0.000000001
 43
0.00000001
 40
0.0
 40
0.0
 40
0.0
 40
0.0
 40
0.1088656443498834
 40
0.2172449925966701
 40
0.3203836876712358
 40
0.4242548296377195
 40
0.5274890447958731
 40
0.6307337682456732
 40
0.7346010865971353
 40
0.837733531293649
 40
0.9411368322851368
 40
1.0
 40
1.0
 40
1.0
 40
1.0
 10
21.6779394439933
 20
-1.144286700689396
 30
0.0
 10
21.50774546012995
 20
-1.050901749834919
 30
0.0
 10
21.16811773840757
 20
-0.8645489929282524
 30
0.0
 10
20.66811431123387
 20
-0.5086378604175344
 30
0.0
 10
20.17693114775104
 20
-0.1294647192436526
 30
0.0
 10
19.69123986172248
 20
0.2500189851330191
 30
0.0
 10
19.2075325022087
 20
0.6162083050196776
 30
0.0
 10
18.72379421739003
 20
0.9428348975402432
 30
0.0
 10
18.23811269964131
 20
1.209052053339172
 30
0.0
 10
17.75472604290268
 20
1.39647865476618
 30
0.0
 10
17.34048980054842
 20
1.494301487883573
 30
0.0
 10
17.08691443001888
 20
1.489872205588115
 30
0.0
 10
16.99492839197395
 20
1.488265455970078
 30
0.0
  0
SPLINE
  5
CC
330
1F
100
AcDbEntity
  8
0
  6
Continuous
 62
     1
370
    25
100
AcDbSpline
210
0.0
220
0.0
230
1.0
 70
     8
 71
     3
 72
    15
 73
    11
 74
     0
 42
0.000000001
 43
0.00000001
 40
0.0
 40
0.0
 40
0.0
 40
0.0
 40
0.0292380507598116
 40
0.1703851582962141
 40
0.3105315989940107
 40
0.442148000650076
 40
0.5739352354068622
 40
0.7050946104094395
 40
0.8530403547585752
 40
1.0
 40
1.0
 40
1.0
 40
1.0
 10
12.04396153717262
 20
-1.26259673248587
 30
0.0
 10
12.01041006164658
 20
-1.278582141738831
 30
0.0
 10
11.81488835893323
 20
-1.371737342417914
 30
0.0
 10
11.4569285420819
 20
-1.461569403000452
 30
0.0
 10
10.98391000288559
 20
-1.516031920095361
 30
0.0
 10
10.52026407638722
 20
-1.4733501714913
 30
0.0
 10
10.06645431365919
 20
-1.352376836436716
 30
0.0
 10
9.595989014215682
 20
-1.145777589276731
 30
0.0
 10
9.10514187089855
 20
-0.8628987587692858
 30
0.0
 10
8.766720895966891
 20
-0.6197404844436643
 30
0.0
 10
8.598076211353757
 20
-0.4985678813182235
 30
0.0
  0
LINE
  5
CD
330
1F
100
AcDbEntity
  8
0
  6
Continuous
 62
     1
370
    25
100
AcDbLine
 10
21.67793944399329
 20
-1.144286700689399
 30
0.0
 11
21.65096339748067
 21
-1.163175531808626
 31
0.0
  0
ELLIPSE
  5
CE
330
1F
100
AcDbEntity
  8
0
  6
Continuous
 62
     1
370
    25
100
AcDbEllipse
 10
22.3538485183752
 20
0.0000000000000027
 30
0.0
 11
2.08398495848995
 21
-0.8255115090626439
 31
0.0
210
0.0
220
0.0
230
1.0
 40
0.600968817488726
 41
4.611793293069586
 42
4.962701336978756
  0
SPLINE
  5
CF
330
1F
100
AcDbEntity
  8
0
  6
Continuous
 62
     1
370
    25
100
AcDbSpline
210
0.0
220
0.0
230
1.0
 70
     8
 71
     3
 72
     8
 73
     4
 74
     0
 42
0.000000001
 43
0.00000001
 40
0.0
 40
0.0
 40
0.0
 40
0.0
 40
1.0
 40
1.0
 40
1.0
 40
1.0
 10
22.59807621135331
 20
-1.462748547532889
 30
0.0
 10
22.52943559319603
 20
-1.450716191886354
 30
0.0
 10
22.45968165179196
 20
-1.435732330482081
 30
0.0
 10
22.38941977445691
 20
-1.417863383418269
 30
0.0
  0
SPLINE
  5
D0
330
1F
100
AcDbEntity
  8
0
  6
Continuous
 62
     1
370
    25
100
AcDbSpline
210
0.0
220
0.0
230
1.0
 70
     8
 71
     3
 72
    11
 73
     7
 74
     0
 42
0.000000001
 43
0.00000001
 40
0.0
 40
0.0
 40
0.0
 40
0.0
 40
0.3059701921023857
 40
0.6105736342721212
 40
0.9004480619081847
 40
1.0
 40
1.0
 40
1.0
 40
1.0
 10
21.67793944399331
 20
0.969849445339514
 30
0.0
 10
21.50774740835765
 20
1.064668803968706
 30
0.0
 10
21.16812357438801
 20
1.25388396901395
 30
0.0
 10
20.66809155658467
 20
1.423638693134631
 30
0.0
 10
20.28359293381174
 20
1.503758981751073
 30
0.0
 10
20.06694791814846
 20
1.492205259754254
 30
0.0
 10
20.01156535270017
 20
1.489251696466859
 30
0.0
  0
SPLINE
  5
D1
330
1F
100
AcDbEntity
  8
0
  6
Continuous
 62
     1
370
    25
100
AcDbSpline
210
0.0
220
0.0
230
1.0
 70
     8
 71
     3
 72
    21
 73
    17
 74
     0
 42
0.000000001
 43
0.00000001
 40
0.0
 40
0.0
 40
0.0
 40
0.0
 40
0.0324566745068397
 40
0.1076795176575644
 40
0.1826002185065767
 40
0.2573550299758522
 40
0.3326382287198451
 40
0.4074501211435861
 40
0.4822848611269513
 40
0.5575597464239314
 40
0.6323009680645227
 40
0.7024930514219963
 40
0.7727762414431922
 40
0.8427245888182607
 40
0.9216252416933863
 40
1.0
 40
1.0
 40
1.0
 40
1.0
 10
15.05898558765355
 20
-1.259350564802243
 30
0.0
 10
14.98919823342508
 20
-1.290792624758424
 30
0.0
 10
14.75766901004961
 20
-1.39510601797215
 30
0.0
 10
14.36338559962696
 20
-1.482591360905471
 30
0.0
 10
13.87927260069858
 20
-1.514823343564585
 30
0.0
 10
13.39581773070525
 20
-1.44577041193155
 30
0.0
 10
12.9101238588183
 20
-1.287634724691879
 30
0.0
 10
12.42644432078793
 20
-1.046473688869406
 30
0.0
 10
11.94267648950844
 20
-0.7387537906546159
 30
0.0
 10
11.45699842868584
 20
-0.3868415417911345
 30
0.0
 10
10.98389259517847
 20
-0.0150990298304048
 30
0.0
 10
10.52026862229776
 20
0.3467708601272462
 30
0.0
 10
10.06645310665503
 20
0.6813523887680437
 30
0.0
 10
9.595989381734217
 20
0.9908758401504124
 30
0.0
 10
9.105141775205897
 20
1.253891623415603
 30
0.0
 10
8.766720864140272
 20
1.361229564212396
 30
0.0
 10
8.598076211353302
 20
1.414719077314715
 30
0.0
  0
LINE
  5
D2
330
1F
100
AcDbEntity
  8
0
  6
Continuous
 62
     1
370
    25
100
AcDbLine
 10
22.59807621135331
 20
0.8043077700777025
 30
0.0
 11
22.59807621135331
 21
1.462748547532895
 31
0.0
  0
SPLINE
  5
D3
330
1F
100
AcDbEntity
  8
0
  6
Continuous
 62
     1
370
    25
100
AcDbSpline
210
0.0
220
0.0
230
1.0
 70
     8
 71
     3
 72
    11
 73
     7
 74
     0
 42
0.000000001
 43
0.00000001
 40
0.0
 40
0.0
 40
0.0
 40
0.0
 40
0.2824092703460846
 40
0.5644956037683146
 40
0.8618444513903832
 40
1.0
 40
1.0
 40
1.0
 40
1.0
 10
22.59807621135331
 20
0.8043077700777025
 30
0.0
 10
22.56465750110842
 20
0.7642097412827067
 30
0.0
 10
22.49785829514139
 20
0.6840595360617109
 30
0.0
 10
22.36169439070371
 20
0.6272882782907597
 30
0.0
 10
22.24198404373171
 20
0.6091291113637972
 30
0.0
 10
22.17299857130227
 20
0.6331049571000805
 30
0.0
 10
22.15111423242521
 20
0.6407108415635604
 30
0.0
  0
LINE
  5
D4
330
1F
100
AcDbEntity
  8
0
  6
Continuous
 62
     1
370
    25
100
AcDbLine
 10
21.7408940254711
 20
0.8939942232334388
 30
0.0
 11
21.67793944399332
 21
0.9698494453395098
 31
0.0
  0
SPLINE
  5
D5
330
1F
100
AcDbEntity
  8
0
  6
Continuous
 62
     1
370
    25
100
AcDbSpline
210
0.0
220
0.0
230
1.0
 70
     8
 71
     3
 72
    17
 73
    13
 74
     0
 42
0.000000001
 43
0.00000001
 40
0.0
 40
0.0
 40
0.0
 40
0.0
 40
0.0967386769913062
 40
0.2040073628562883
 40
0.3107075439922536
 40
0.4181061234953861
 40
0.5251544879752257
 40
0.6319007793084991
 40
0.7394092553490655
 40
0.846289110678801
 40
0.9531363348553077
 40
1.0
 40
1.0
 40
1.0
 40
1.0
 10
8.59807621135213
 20
1.060572147067183
 30
0.0
 10
8.743901165685621
 20
0.9746158052325463
 30
0.0
 10
9.051424126485344
 20
0.7933467703042132
 30
0.0
 10
9.520746358018826
 20
0.4555495371710885
 30
0.0
 10
10.00399435359938
 20
0.0793462655325375
 30
0.0
 10
10.48934473653034
 20
-0.2998432086545944
 30
0.0
 10
10.97361401746543
 20
-0.6613948829020795
 30
0.0
 10
11.4570120703162
 20
-0.9817725402808308
 30
0.0
 10
11.94267287191133
 20
-1.23901691480538
 30
0.0
 10
12.4264451954187
 20
-1.41419314246709
 30
0.0
 10
12.81879763064181
 20
-1.499932279088982
 30
0.0
 10
13.0509789922668
 20
-1.490968171237708
 30
0.0
 10
13.12176688265039
 20
-1.488235177169961
 30
0.0
  0
SPLINE
  5
D6
330
1F
100
AcDbEntity
  8
0
  6
Continuous
 62
     1
370
    25
100
AcDbSpline
210
0.0
220
0.0
230
1.0
 70
     8
 71
     3
 72
    19
 73
    15
 74
     0
 42
0.000000001
 43
0.00000001
 40
0.0
 40
0.0
 40
0.0
 40
0.0
 40
0.0362542560899156
 40
0.1437479795685189
 40
0.2505973709775089
 40
0.3574358872102228
 40
0.4649335678008636
 40
0.571673228978736
 40
0.5719217248489297
 40
0.6686429921909753
 40
0.7758923733656758
 40
0.882573352122744
 40
0.9899526035591882
 40
0.9999999999999999
 40
0.9999999999999999
 40
0.9999999999999999
 40
0.9999999999999999
 10
18.07352389592785
 20
1.260210903932083
 30
0.0
 10
18.12812360084463
 20
1.285441259428843
 30
0.0
 10
18.34461121121952
 20
1.385479517487698
 30
0.0
 10
18.72383228870507
 20
1.47438943610457
 30
0.0
 10
19.20753460827314
 20
1.516419960774983
 30
0.0
 10
19.69119334854415
 20
1.456163320779619
 30
0.0
 10
20.17711585972814
 20
1.306796122383356
 30
0.0
 10
20.49930212804001
 20
1.14947476437503
 30
0.0
 10
20.80692696421308
 20
0.9805932559754269
 30
0.0
 10
21.11444029287749
 20
0.7903543411263357
 30
0.0
 10
21.58405651247046
 20
0.4564618237957317
 30
0.0
 10
22.06674203340284
 20
0.0788027635357659
 30
0.0
 10
22.40686187906364
 20
-0.1845942112812733
 30
0.0
 10
22.58300485928351
 20
-0.3205794884666778
 30
0.0
 10
22.59807621135331
 20
-0.3322148200945003
 30
0.0
  0
LINE
  5
D7
330
1F
100
AcDbEntity
  8
0
  6
Continuous
 62
     1
370
    25
100
AcDbLine
 10
22.59807621135331
 20
-0.4999999999999999
 30
0.0
 11
22.59807621135331
 21
-0.3333766702685017
 31
0.0
  0
SPLINE
  5
D8
330
1F
100
AcDbEntity
  8
0
  6
Continuous
 62
     1
370
    25
100
AcDbSpline
210
0.0
220
0.0
230
1.0
 70
    24
 71
     3
 72
    14
 73
    10
 74
     0
 42
0.000000001
 43
0.00000001
 40
0.0
 40
0.0
 40
0.0
 40
0.0
 40
0.2500000000000001
 40
0.2500000000000001
 40
0.5000000000000001
 40
0.5000000000000001
 40
0.7500000000000002
 40
0.7500000000000002
 40
1.0
 40
1.0
 40
1.0
 40
1.0
 10
22.59807621135331
 20
-0.4999999999999998
 30
0.0
 10
22.54120210056247
 20
-0.5398236811047192
 30
0.0
 10
22.46345357244381
 20
-0.5942637865781114
 30
0.0
 10
22.29268271025236
 20
-0.7138388315911356
 30
0.0
 10
22.20221345952764
 20
-0.7771860829248138
 30
0.0
 10
22.03245423116043
 20
-0.8960527743082065
 30
0.0
 10
21.95065801972593
 20
-0.9533270981515182
 30
0.0
 10
21.80392724131956
 20
-1.056069095279037
 30
0.0
 10
21.73686893998198
 20
-1.103023823375216
 30
0.0
 10
21.67793944399331
 20
-1.144286700689386
 30
0.0
  0
LINE
  5
D9
330
1F
100
AcDbEntity
  8
0
  6
Continuous
 62
     1
370
    25
100
AcDbLine
 10
22.59807621135331
 20
-0.3322148200945003
 30
0.0
 11
22.59807621135331
 21
0.3322148200945046
 31
0.0
  0
ELLIPSE
  5
DA
330
1F
100
AcDbEntity
  8
0
  6
Continuous
 62
     1
370
    25
100
AcDbEllipse
 10
23.31215021472435
 20
0.0000000000000018
 30
0.0
 11
2.142222010113166
 21
0.0
 31
0.0
210
0.0
220
0.0
230
1.0
 40
0.7002075382097125
 41
2.438517955908444
 42
2.45822436352968
  0
ELLIPSE
  5
DB
330
1F
100
AcDbEntity
  8
0
  6
Continuous
 62
     1
370
    25
100
AcDbEllipse
 10
22.3538485183752
 20
0.0000000000000018
 30
0.0
 11
2.128653848971179
 21
-1.458261105611108
 31
0.0
210
0.0
220
0.0
230
1.0
 40
0.1650759015746655
 41
1.666799630296686
 42
2.017707674205857
  0
SPLINE
  5
DC
330
1F
100
AcDbEntity
  8
0
  6
Continuous
 62
     1
370
    25
100
AcDbSpline
210
0.0
220
0.0
230
1.0
 70
     8
 71
     3
 72
     8
 73
     4
 74
     0
 42
0.000000001
 43
0.00000001
 40
0.0
 40
0.0
 40
0.0
 40
0.0
 40
1.0
 40
1.0
 40
1.0
 40
1.0
 10
22.59807621135331
 20
0.3322148200945046
 30
0.0
 10
22.52943559319744
 20
0.3851935244762016
 30
0.0
 10
22.45968165179485
 20
0.4378016785180048
 30
0.0
 10
22.38941977446127
 20
0.4895543135940688
 30
0.0
  0
LINE
  5
DD
330
1F
100
AcDbEntity
  8
0
  6
Continuous
 62
     1
370
    25
100
AcDbLine
 10
22.59807621135331
 20
0.3322148200945046
 30
0.0
 11
22.59807621135331
 21
0.8043077700777025
 31
0.0
  0
SPLINE
  5
DE
330
1F
100
AcDbEntity
  8
0
  6
Continuous
 62
     1
370
    25
100
AcDbSpline
210
0.0
220
0.0
230
1.0
 70
     8
 71
     3
 72
     8
 73
     4
 74
     0
 42
0.000000001
 43
0.00000001
 40
0.0
 40
0.0
 40
0.0
 40
0.0
 40
1.0
 40
1.0
 40
1.0
 40
1.0
 10
22.59807621135331
 20
-1.404383063753669
 30
0.0
 10
22.52754511494953
 20
-1.404405622966352
 30
0.0
 10
22.45654077609372
 20
-1.402266877857451
 30
0.0
 10
22.38941977446014
 20
-1.417863383412844
 30
0.0
  0
LINE
  5
DF
330
1F
100
AcDbEntity
  8
0
  6
Continuous
 62
     1
370
    25
100
AcDbLine
 10
22.59807621135331
 20
-0.4999999999999974
 30
0.0
 11
22.59807621135331
 21
-1.404383063753668
 31
0.0
  0
LINE
  5
E0
330
1F
100
AcDbEntity
  8
0
  6
Continuous
 62
     1
370
    25
100
AcDbLine
 10
22.59807621135331
 20
-1.462748547532891
 30
0.0
 11
22.59807621135331
 21
-1.404383063753669
 31
0.0
  0
LINE
  5
E1
330
1F
100
AcDbEntity
  8
중심선
100
AcDbLine
 10
-30.40192378864669
 20
-0.0000000000000026
 30
0.0
 11
25.59807621135332
 21
0.0000000000000043
 31
0.0
  0
CIRCLE
  5
E2
330
1F
100
AcDbEntity
  8
해칭선
100
AcDbCircle
 10
-0.0079730795081185
 20
-0.0000000000000041
 30
0.0
 40
3.000000000000001
  0
INSERT
  5
E3
330
1F
100
AcDbEntity
  8
0
  6
Continuous
 62
     7
100
AcDbBlockReference
 66
     1
  2
블럭10
 10
-13.44814782084245
 20
-52.04717430164393
 30
0.0
  0
ATTRIB
  5
E4
330
E3
100
AcDbEntity
  8
FORMAT
 62
     2
100
AcDbText
 10
-29.56740886027801
 20
-49.97180738881174
 30
0.0
 40
4.233333333333333
  1
SEME7103014E [ 4 FLUTE ]
 41
0.75
  7
SLDTEXTSTYLE0
 11
-29.56740886027801
 21
-52.08847405547841
 31
0.0
100
AcDbAttribute
  2
AUTOATTR0
 70
     0
 74
     1
  0
SEQEND
  5
E5
330
E3
100
AcDbEntity
  8
0
  6
Continuous
 62
     7
  0
HATCH
  5
E6
330
1F
100
AcDbEntity
  8
중심선
100
AcDbHatch
 10
0.0
 20
0.0
 30
0.0
210
0.0
220
0.0
230
1.0
  2
SOLID
 70
     1
 71
     0
 91
        1
 92
        0
 93
        4
 72
     1
 10
-7.733238516461599
 20
-35.8
 11
-11.17951376029888
 21
-35.8
 72
     1
 10
-11.17951376029888
 20
-35.8
 11
-13.3077436195029
 21
-38.33632558057259
 72
     1
 10
-13.3077436195029
 20
-38.33632558057259
 11
-9.861435290552473
 21
-38.3362861512701
 72
     1
 10
-9.861435290552473
 20
-38.3362861512701
 11
-7.733238516461599
 21
-35.8
 97
        0
 75
     0
 76
     1
 98
        1
 10
0.0
 20
0.0
  0
HATCH
  5
E7
330
1F
100
AcDbEntity
  8
중심선
100
AcDbHatch
 10
0.0
 20
0.0
 30
0.0
210
0.0
220
0.0
230
1.0
  2
SOLID
 70
     1
 71
     0
 91
        1
 92
        0
 93
        4
 72
     1
 10
-2.720474525425592
 20
-35.8
 11
-6.16674976926293
 21
-35.80000000000003
 72
     1
 10
-6.16674976926293
 20
-35.80000000000003
 11
-10.69788777762032
 21
-41.20000000000002
 72
     1
 10
-10.69788777762032
 20
-41.20000000000002
 11
-7.251612533783036
 21
-41.20000000000002
 72
     1
 10
-7.251612533783036
 20
-41.20000000000002
 11
-2.720474525425592
 21
-35.8
 97
        0
 75
     0
 76
     1
 98
        1
 10
0.0
 20
0.0
  0
HATCH
  5
E8
330
1F
100
AcDbEntity
  8
중심선
100
AcDbHatch
 10
0.0
 20
0.0
 30
0.0
210
0.0
220
0.0
230
1.0
  2
SOLID
 70
     1
 71
     0
 91
        1
 92
        0
 93
        4
 72
     1
 10
2.292289465610275
 20
-35.8
 11
-1.153985778226813
 21
-35.8
 72
     1
 10
-1.153985778226813
 20
-35.8
 11
-8.202422680116117
 21
-44.20000000000002
 72
     1
 10
-8.202422680116117
 20
-44.20000000000002
 11
-4.756147436278835
 21
-44.20000000000002
 72
     1
 10
-4.756147436278835
 20
-44.20000000000002
 11
2.292289465610275
 21
-35.8
 97
        0
 75
     0
 76
     1
 98
        1
 10
0.0
 20
0.0
  0
HATCH
  5
E9
330
1F
100
AcDbEntity
  8
중심선
100
AcDbHatch
 10
0.0
 20
0.0
 30
0.0
210
0.0
220
0.0
230
1.0
  2
SOLID
 70
     1
 71
     0
 91
        1
 92
        0
 93
        6
 72
     3
 10
7.092179896622447
 20
-40.00000000005127
 11
3.960054785062284
 21
1.540850780301639E-10
 40
0.3939339440162633
 50
17.09539180608434
 51
320.0019657685081
 73
     0
 72
     1
 10
8.775179552323015
 20
-38.58789400463833
 11
11.08048142602408
 21
-36.65356729459038
 72
     3
 10
7.092179896569601
 20
-40.00000000000015
 11
6.600054785286829
 21
-1.249000902703301E-13
 40
0.6363583540795982
 50
39.99873849337408
 51
368.4976242363725
 73
     1
 72
     1
 10
13.51751238847021
 20
-39.03999999993002
 11
5.772247203405523
 21
-39.03999999993002
 72
     1
 10
5.772247203405523
 20
-39.03999999993002
 11
5.772222158959589
 21
-40.95999999992991
 72
     1
 10
5.772222158959589
 20
-40.95999999992991
 11
10.21360192843163
 21
-40.95999999992988
 97
        0
 75
     0
 76
     1
 98
        1
 10
0.0
 20
0.0
  0
DIMENSION
  5
EA
330
1F
100
AcDbEntity
  8
치수문자_일반주서
100
AcDbDimension
  2
_D
 10
34.34773398503803
 20
1.50000000000005
 30
0.0
 11
34.347733985038
 21
11.16650000000005
 31
0.0
 70
   160
  1
%%c<>
 71
     2
 42
3.000000000000008
 52
-270.0
  3
SLDDIMSTYLE0
100
AcDbAlignedDimension
 13
22.59807621135332
 23
-1.500000000000003
 33
0.0
 14
22.59807621135332
 24
1.500000000000006
 34
0.0
 50
90.0000000000002
100
AcDbRotatedDimension
  0
DIMENSION
  5
F8
330
1F
100
AcDbEntity
  8
치수문자_일반주서
100
AcDbDimension
  2
_D_1
 10
22.59807621135331
 20
20.38913260158165
 30
0.0
 11
-2.401923788646697
 21
20.38913260158165
 31
0.0
 70
   160
  1
<>
 71
     2
 42
50.0
  3
SLDDIMSTYLE1
100
AcDbAlignedDimension
 13
-27.4019237886467
 23
2.499999999999998
 33
0.0
 14
22.59807621135331
 24
1.500000000000003
 34
0.0
100
AcDbRotatedDimension
  0
DIMENSION
  5
103
330
1F
100
AcDbEntity
  8
치수문자_일반주서
100
AcDbDimension
  2
_D_2
 10
-35.29278005619433
 20
-3.000000000000032
 30
0.0
 11
-35.29278005619439
 21
12.66649999999997
 31
0.0
 70
   160
  1
%%c<>
 71
     2
 42
6.000000000000005
 52
-270.0
  3
SLDDIMSTYLE2
100
AcDbAlignedDimension
 13
-26.9019237886467
 23
3.000000000000004
 33
0.0
 14
-26.9019237886467
 24
-3.000000000000001
 34
0.0
 50
90.0000000000002
100
AcDbRotatedDimension
  0
DIMENSION
  5
111
330
1F
100
AcDbEntity
  8
치수문자_일반주서
100
AcDbDimension
  2
_D_3
 10
22.59807621135331
 20
12.26063737990238
 30
0.0
 11
15.59807621135329
 21
12.26063737990238
 31
0.0
 70
   160
  1
<>
 71
     2
 42
14.0
  3
SLDDIMSTYLE2
100
AcDbAlignedDimension
 13
8.598076211353302
 23
1.414719077314715
 33
0.0
 14
22.59807621135331
 24
1.500000000000003
 34
0.0
 50
0.00000000000008
100
AcDbRotatedDimension
  0
INSERT
  5
123
330
1F
100
AcDbEntity
  8
해칭선
100
AcDbBlockReference
  2
SW_DOWELSYMBOL_0
 10
-0.0079730795081185
 20
-0.000000000000004
 30
0.0
  0
LINE
  5
153
330
1F
100
AcDbEntity
  8
0
  6
Continuous
 62
     4
370
    25
100
AcDbLine
 10
8.598076211353757
 20
1.414719077314279
 30
0.0
 11
8.598076211353757
 21
-1.414719077314595
 31
0.0
  0
ENDSEC
  0
SECTION
  2
OBJECTS
  0
DICTIONARY
  5
C
330
0
100
AcDbDictionary
281
     1
  3
ACAD_GROUP
350
D
  3
ACAD_IMAGE_VARS
350
147
  3
ACAD_LAYOUT
350
1A
  3
ACAD_MLINESTYLE
350
17
  3
ACAD_PLOTSETTINGS
350
19
  3
ACAD_PLOTSTYLENAME
350
E
  3
ACAD_SCALELIST
350
47
  3
APPDATA
350
145
  3
DWGPROPS
350
156
  0
DICTIONARY
  5
D
102
{ACAD_REACTORS
330
C
102
}
330
C
100
AcDbDictionary
281
     1
  0
RASTERVARIABLES
  5
147
102
{ACAD_REACTORS
330
C
102
}
330
C
100
AcDbRasterVariables
 90
        0
 70
     1
 71
     1
 72
     1
  0
DICTIONARY
  5
1A
102
{ACAD_REACTORS
330
C
102
}
330
C
100
AcDbDictionary
281
     1
  3
Layout1
350
1E
  3
Layout2
350
26
  3
Model
350
22
  0
DICTIONARY
  5
17
102
{ACAD_REACTORS
330
C
102
}
330
C
100
AcDbDictionary
281
     1
  3
Standard
350
18
  0
DICTIONARY
  5
19
102
{ACAD_REACTORS
330
C
102
}
330
C
100
AcDbDictionary
281
     1
  0
ACDBDICTIONARYWDFLT
  5
E
102
{ACAD_REACTORS
330
C
102
}
330
C
100
AcDbDictionary
281
     1
  3
Normal
350
F
100
AcDbDictionaryWithDefault
340
F
  0
DICTIONARY
  5
47
102
{ACAD_REACTORS
330
C
102
}
330
C
100
AcDbDictionary
281
     1
  3
A0
350
48
  3
A1
350
49
  3
A2
350
4A
  3
A3
350
4B
  3
A4
350
4C
  3
A5
350
4D
  3
A6
350
4E
  3
A7
350
4F
  3
A8
350
50
  3
A9
350
51
  3
B0
350
52
  3
B1
350
53
  3
B2
350
54
  3
B3
350
55
  3
B4
350
56
  3
B5
350
57
  3
B6
350
58
  3
B7
350
59
  3
B8
350
5A
  3
B9
350
5B
  3
C0
350
5C
  3
C1
350
5D
  3
C2
350
5E
  3
C3
350
5F
  3
C4
350
60
  3
C5
350
61
  3
C6
350
62
  3
C7
350
63
  3
C8
350
64
  3
C9
350
65
  3
D0
350
66
  3
D1
350
67
  3
D2
350
68
  0
DICTIONARY
  5
145
102
{ACAD_REACTORS
330
C
102
}
330
C
100
AcDbDictionary
281
     1
  0
XRECORD
  5
156
102
{ACAD_REACTORS
330
C
102
}
330
C
100
AcDbXrecord
280
     1
  1
DWGPROPS COOKIE
  2

  3

  4

  6

  7

  8
12014102
  9

300
=
301
=
302
=
303
=
304
=
305
=
306
=
307
=
308
=
309
=
 40
0.0
 41
2458260.114953588
 42
2458266.447363009
  1

 90
        0
  0
LAYOUT
  5
1E
102
{ACAD_REACTORS
330
1A
102
}
330
1A
100
AcDbPlotSettings
  1

  2
none_device
  4

  6

 40
0.0
 41
0.0
 42
0.0
 43
0.0
 44
0.0
 45
0.0
 46
0.0
 47
0.0
 48
0.0
 49
0.0
140
0.0
141
0.0
142
1.0
143
1.0
 70
   688
 72
     1
 73
     0
 74
     5
  7

 75
    16
147
1.0
148
0.0
149
0.0
100
AcDbLayout
  1
Layout1
 70
     1
 71
     1
 10
0.0
 20
0.0
 11
420.0
 21
297.0
 12
0.0
 22
0.0
 32
0.0
 14
1.000000000000000E+20
 24
1.000000000000000E+20
 34
1.000000000000000E+20
 15
-1.000000000000000E+20
 25
-1.000000000000000E+20
 35
-1.000000000000000E+20
146
0.0
 13
0.0
 23
0.0
 33
0.0
 16
1.0
 26
0.0
 36
0.0
 17
0.0
 27
1.0
 37
0.0
 76
     0
330
1B
  0
LAYOUT
  5
26
102
{ACAD_REACTORS
330
1A
102
}
330
1A
100
AcDbPlotSettings
  1

  2
none_device
  4

  6

 40
0.0
 41
0.0
 42
0.0
 43
0.0
 44
0.0
 45
0.0
 46
0.0
 47
0.0
 48
0.0
 49
0.0
140
0.0
141
0.0
142
1.0
143
1.0
 70
   688
 72
     1
 73
     0
 74
     5
  7

 75
    16
147
1.0
148
0.0
149
0.0
100
AcDbLayout
  1
Layout2
 70
     1
 71
     2
 10
0.0
 20
0.0
 11
0.0
 21
0.0
 12
0.0
 22
0.0
 32
0.0
 14
0.0
 24
0.0
 34
0.0
 15
0.0
 25
0.0
 35
0.0
146
0.0
 13
0.0
 23
0.0
 33
0.0
 16
1.0
 26
0.0
 36
0.0
 17
0.0
 27
1.0
 37
0.0
 76
     0
330
23
  0
LAYOUT
  5
22
102
{ACAD_REACTORS
330
1A
102
}
330
1A
100
AcDbPlotSettings
  1

  2
none_device
  4
ANSI_A_(11.00_x_8.50_Inches)
  6

 40
6.35
 41
19.05
 42
6.35000508
 43
19.05000254
 44
279.4
 45
215.9
 46
133.7298094023088
 47
125.3847137330092
 48
0.0
 49
0.0
140
0.0
141
0.0
142
0.1112850254374007
143
1.0
 70
  1696
 72
     0
 73
     0
 74
     0
  7

 75
     0
147
0.0235690232323232
148
0.0
149
0.0
100
AcDbLayout
  1
Model
 70
     1
 71
     0
 10
0.0
 20
0.0
 11
420.0
 21
297.0
 12
0.0
 22
0.0
 32
0.0
 14
-39.66778005619439
 24
-49.97180738881174
 34
0.0
 15
40.28259113972197
 25
24.76413260158165
 35
0.0
146
0.0
 13
0.0
 23
0.0
 33
0.0
 16
1.0
 26
0.0
 36
0.0
 17
0.0
 27
1.0
 37
0.0
 76
     0
330
1F
331
29
  0
MLINESTYLE
  5
18
102
{ACAD_REACTORS
330
17
102
}
330
17
100
AcDbMlineStyle
  2
Standard
 70
     0
  3

 62
   256
 51
90.0
 52
90.0
 71
     2
 49
0.5
 62
   256
  6
BYLAYER
 49
-0.5
 62
   256
  6
BYLAYER
  0
ACDBPLACEHOLDER
  5
F
102
{ACAD_REACTORS
330
E
102
}
330
E
  0
SCALE
  5
48
102
{ACAD_REACTORS
330
47
102
}
330
47
100
AcDbScale
 70
     0
300
1:1
140
1.0
141
1.0
290
     1
  0
SCALE
  5
49
102
{ACAD_REACTORS
330
47
102
}
330
47
100
AcDbScale
 70
     0
300
1:2
140
1.0
141
2.0
290
     0
  0
SCALE
  5
4A
102
{ACAD_REACTORS
330
47
102
}
330
47
100
AcDbScale
 70
     0
300
1:4
140
1.0
141
4.0
290
     0
  0
SCALE
  5
4B
102
{ACAD_REACTORS
330
47
102
}
330
47
100
AcDbScale
 70
     0
300
1:5
140
1.0
141
5.0
290
     0
  0
SCALE
  5
4C
102
{ACAD_REACTORS
330
47
102
}
330
47
100
AcDbScale
 70
     0
300
1:8
140
1.0
141
8.0
290
     0
  0
SCALE
  5
4D
102
{ACAD_REACTORS
330
47
102
}
330
47
100
AcDbScale
 70
     0
300
1:10
140
1.0
141
10.0
290
     0
  0
SCALE
  5
4E
102
{ACAD_REACTORS
330
47
102
}
330
47
100
AcDbScale
 70
     0
300
1:16
140
1.0
141
16.0
290
     0
  0
SCALE
  5
4F
102
{ACAD_REACTORS
330
47
102
}
330
47
100
AcDbScale
 70
     0
300
1:20
140
1.0
141
20.0
290
     0
  0
SCALE
  5
50
102
{ACAD_REACTORS
330
47
102
}
330
47
100
AcDbScale
 70
     0
300
1:30
140
1.0
141
30.0
290
     0
  0
SCALE
  5
51
102
{ACAD_REACTORS
330
47
102
}
330
47
100
AcDbScale
 70
     0
300
1:40
140
1.0
141
40.0
290
     0
  0
SCALE
  5
52
102
{ACAD_REACTORS
330
47
102
}
330
47
100
AcDbScale
 70
     0
300
1:50
140
1.0
141
50.0
290
     0
  0
SCALE
  5
53
102
{ACAD_REACTORS
330
47
102
}
330
47
100
AcDbScale
 70
     0
300
1:100
140
1.0
141
100.0
290
     0
  0
SCALE
  5
54
102
{ACAD_REACTORS
330
47
102
}
330
47
100
AcDbScale
 70
     0
300
2:1
140
2.0
141
1.0
290
     0
  0
SCALE
  5
55
102
{ACAD_REACTORS
330
47
102
}
330
47
100
AcDbScale
 70
     0
300
4:1
140
4.0
141
1.0
290
     0
  0
SCALE
  5
56
102
{ACAD_REACTORS
330
47
102
}
330
47
100
AcDbScale
 70
     0
300
8:1
140
8.0
141
1.0
290
     0
  0
SCALE
  5
57
102
{ACAD_REACTORS
330
47
102
}
330
47
100
AcDbScale
 70
     0
300
10:1
140
10.0
141
1.0
290
     0
  0
SCALE
  5
58
102
{ACAD_REACTORS
330
47
102
}
330
47
100
AcDbScale
 70
     0
300
100:1
140
100.0
141
1.0
290
     0
  0
SCALE
  5
59
102
{ACAD_REACTORS
330
47
102
}
330
47
100
AcDbScale
 70
     0
300
1/128" = 1'-0"
140
0.0078125
141
12.0
290
     0
  0
SCALE
  5
5A
102
{ACAD_REACTORS
330
47
102
}
330
47
100
AcDbScale
 70
     0
300
1/64" = 1'-0"
140
0.015625
141
12.0
290
     0
  0
SCALE
  5
5B
102
{ACAD_REACTORS
330
47
102
}
330
47
100
AcDbScale
 70
     0
300
1/32" = 1'-0"
140
0.03125
141
12.0
290
     0
  0
SCALE
  5
5C
102
{ACAD_REACTORS
330
47
102
}
330
47
100
AcDbScale
 70
     0
300
1/16" = 1'-0"
140
0.0625
141
12.0
290
     0
  0
SCALE
  5
5D
102
{ACAD_REACTORS
330
47
102
}
330
47
100
AcDbScale
 70
     0
300
3/32" = 1'-0"
140
0.09375
141
12.0
290
     0
  0
SCALE
  5
5E
102
{ACAD_REACTORS
330
47
102
}
330
47
100
AcDbScale
 70
     0
300
1/8" = 1'-0"
140
0.125
141
12.0
290
     0
  0
SCALE
  5
5F
102
{ACAD_REACTORS
330
47
102
}
330
47
100
AcDbScale
 70
     0
300
3/16" = 1'-0"
140
0.1875
141
12.0
290
     0
  0
SCALE
  5
60
102
{ACAD_REACTORS
330
47
102
}
330
47
100
AcDbScale
 70
     0
300
1/4" = 1'-0"
140
0.25
141
12.0
290
     0
  0
SCALE
  5
61
102
{ACAD_REACTORS
330
47
102
}
330
47
100
AcDbScale
 70
     0
300
3/8" = 1'-0"
140
0.375
141
12.0
290
     0
  0
SCALE
  5
62
102
{ACAD_REACTORS
330
47
102
}
330
47
100
AcDbScale
 70
     0
300
1/2" = 1'-0"
140
0.5
141
12.0
290
     0
  0
SCALE
  5
63
102
{ACAD_REACTORS
330
47
102
}
330
47
100
AcDbScale
 70
     0
300
3/4" = 1'-0"
140
0.75
141
12.0
290
     0
  0
SCALE
  5
64
102
{ACAD_REACTORS
330
47
102
}
330
47
100
AcDbScale
 70
     0
300
1" = 1'-0"
140
1.0
141
12.0
290
     0
  0
SCALE
  5
65
102
{ACAD_REACTORS
330
47
102
}
330
47
100
AcDbScale
 70
     0
300
1-1/2" = 1'-0"
140
1.5
141
12.0
290
     0
  0
SCALE
  5
66
102
{ACAD_REACTORS
330
47
102
}
330
47
100
AcDbScale
 70
     0
300
3" = 1'-0"
140
3.0
141
12.0
290
     0
  0
SCALE
  5
67
102
{ACAD_REACTORS
330
47
102
}
330
47
100
AcDbScale
 70
     0
300
6" = 1'-0"
140
6.0
141
12.0
290
     0
  0
SCALE
  5
68
102
{ACAD_REACTORS
330
47
102
}
330
47
100
AcDbScale
 70
     0
300
1'-0" = 1'-0"
140
12.0
141
12.0
290
     0
  0
ENDSEC
  0
EOF
