  0
SECTION
  2
HEADER
  9
$ACADVER
  1
AC1015
  9
$ACADMAINTVER
 70
     6
  9
$DWGCODEPAGE
  3
ANSI_949
  9
$INSBASE
 10
0.0
 20
0.0
 30
0.0
  9
$EXTMIN
 10
-39.44439435212833
 20
-49.97180738881174
 30
0.0
  9
$EXTMAX
 10
38.28259113972197
 20
24.76413260158165
 30
0.0
  9
$LIMMIN
 10
0.0
 20
0.0
  9
$LIMMAX
 10
420.0
 20
297.0
  9
$ORTHOMODE
 70
     0
  9
$REGENMODE
 70
     1
  9
$FILLMODE
 70
     1
  9
$QTEXTMODE
 70
     0
  9
$MIRRTEXT
 70
     1
  9
$LTSCALE
 40
1.0
  9
$ATTMODE
 70
     1
  9
$TEXTSIZE
 40
3.5
  9
$TRACEWID
 40
1.0
  9
$TEXTSTYLE
  7
Standard
  9
$CLAYER
  8
0
  9
$CELTYPE
  6
ByLayer
  9
$CECOLOR
 62
   256
  9
$CELTSCALE
 40
1.0
  9
$DISPSILH
 70
     0
  9
$DIMSCALE
 40
1.0
  9
$DIMASZ
 40
3.302
  9
$DIMEXO
 40
1.0
  9
$DIMDLI
 40
3.75
  9
$DIMRND
 40
0.0
  9
$DIMDLE
 40
0.0
  9
$DIMEXE
 40
1.0
  9
$DIMTP
 40
0.0
  9
$DIMTM
 40
0.0
  9
$DIMTXT
 40
3.5
  9
$DIMCEN
 40
2.5
  9
$DIMTSZ
 40
0.0
  9
$DIMTOL
 70
     0
  9
$DIMLIM
 70
     0
  9
$DIMTIH
 70
     1
  9
$DIMTOH
 70
     1
  9
$DIMSE1
 70
     0
  9
$DIMSE2
 70
     0
  9
$DIMTAD
 70
     1
  9
$DIMZIN
 70
     0
  9
$DIMBLK
  1

  9
$DIMASO
 70
     1
  9
$DIMSHO
 70
     1
  9
$DIMPOST
  1

  9
$DIMAPOST
  1

  9
$DIMALT
 70
     0
  9
$DIMALTD
 70
     3
  9
$DIMALTF
 40
0.0393700787401575
  9
$DIMLFAC
 40
1.0
  9
$DIMTOFL
 70
     1
  9
$DIMTVP
 40
0.0
  9
$DIMTIX
 70
     0
  9
$DIMSOXD
 70
     0
  9
$DIMSAH
 70
     0
  9
$DIMBLK1
  1

  9
$DIMBLK2
  1

  9
$DIMSTYLE
  2
ISO-25
  9
$DIMCLRD
 70
     0
  9
$DIMCLRE
 70
     0
  9
$DIMCLRT
 70
     0
  9
$DIMTFAC
 40
1.0
  9
$DIMGAP
 40
1.524
  9
$DIMJUST
 70
     0
  9
$DIMSD1
 70
     0
  9
$DIMSD2
 70
     0
  9
$DIMTOLJ
 70
     0
  9
$DIMTZIN
 70
     0
  9
$DIMALTZ
 70
     0
  9
$DIMALTTZ
 70
     0
  9
$DIMUPT
 70
     0
  9
$DIMDEC
 70
     2
  9
$DIMTDEC
 70
     2
  9
$DIMALTU
 70
     2
  9
$DIMALTTD
 70
     3
  9
$DIMTXSTY
  7
Standard
  9
$DIMAUNIT
 70
     0
  9
$DIMADEC
 70
     2
  9
$DIMALTRND
 40
0.0
  9
$DIMAZIN
 70
     0
  9
$DIMDSEP
 70
    44
  9
$DIMATFIT
 70
     3
  9
$DIMFRAC
 70
     0
  9
$DIMLDRBLK
  1

  9
$DIMLUNIT
 70
     2
  9
$DIMLWD
 70
    -2
  9
$DIMLWE
 70
    -2
  9
$DIMTMOVE
 70
     0
  9
$LUNITS
 70
     2
  9
$LUPREC
 70
     2
  9
$SKETCHINC
 40
1.0
  9
$FILLETRAD
 40
10.0
  9
$AUNITS
 70
     0
  9
$AUPREC
 70
     2
  9
$MENU
  1
.
  9
$ELEVATION
 40
0.0
  9
$PELEVATION
 40
0.0
  9
$THICKNESS
 40
0.0
  9
$LIMCHECK
 70
     0
  9
$CHAMFERA
 40
0.0
  9
$CHAMFERB
 40
0.0
  9
$CHAMFERC
 40
0.0
  9
$CHAMFERD
 40
0.0
  9
$SKPOLY
 70
     0
  9
$TDCREATE
 40
2458260.489764907
  9
$TDUCREATE
 40
2458260.114764907
  9
$TDUPDATE
 40
2458266.82138728
  9
$TDUUPDATE
 40
2458266.44638728
  9
$TDINDWG
 40
0.0012566667
  9
$TDUSRTIMER
 40
2458266.445130648
  9
$USRTIMER
 70
     1
  9
$ANGBASE
 50
0.0
  9
$ANGDIR
 70
     0
  9
$PDMODE
 70
     0
  9
$PDSIZE
 40
-1.0
  9
$PLINEWID
 40
0.0
  9
$SPLFRAME
 70
     0
  9
$SPLINETYPE
 70
     6
  9
$SPLINESEGS
 70
     8
  9
$HANDSEED
  5
158
  9
$SURFTAB1
 70
     6
  9
$SURFTAB2
 70
     6
  9
$SURFTYPE
 70
     6
  9
$SURFU
 70
     6
  9
$SURFV
 70
     6
  9
$UCSBASE
  2

  9
$UCSNAME
  2

  9
$UCSORG
 10
0.0
 20
0.0
 30
0.0
  9
$UCSXDIR
 10
1.0
 20
0.0
 30
0.0
  9
$UCSYDIR
 10
0.0
 20
1.0
 30
0.0
  9
$UCSORTHOREF
  2

  9
$UCSORTHOVIEW
 70
     0
  9
$UCSORGTOP
 10
0.0
 20
0.0
 30
0.0
  9
$UCSORGBOTTOM
 10
0.0
 20
0.0
 30
0.0
  9
$UCSORGLEFT
 10
0.0
 20
0.0
 30
0.0
  9
$UCSORGRIGHT
 10
0.0
 20
0.0
 30
0.0
  9
$UCSORGFRONT
 10
0.0
 20
0.0
 30
0.0
  9
$UCSORGBACK
 10
0.0
 20
0.0
 30
0.0
  9
$PUCSBASE
  2

  9
$PUCSNAME
  2

  9
$PUCSORG
 10
0.0
 20
0.0
 30
0.0
  9
$PUCSXDIR
 10
1.0
 20
0.0
 30
0.0
  9
$PUCSYDIR
 10
0.0
 20
1.0
 30
0.0
  9
$PUCSORTHOREF
  2

  9
$PUCSORTHOVIEW
 70
     0
  9
$PUCSORGTOP
 10
0.0
 20
0.0
 30
0.0
  9
$PUCSORGBOTTOM
 10
0.0
 20
0.0
 30
0.0
  9
$PUCSORGLEFT
 10
0.0
 20
0.0
 30
0.0
  9
$PUCSORGRIGHT
 10
0.0
 20
0.0
 30
0.0
  9
$PUCSORGFRONT
 10
0.0
 20
0.0
 30
0.0
  9
$PUCSORGBACK
 10
0.0
 20
0.0
 30
0.0
  9
$USERI1
 70
     0
  9
$USERI2
 70
     0
  9
$USERI3
 70
     0
  9
$USERI4
 70
     0
  9
$USERI5
 70
     0
  9
$USERR1
 40
0.0
  9
$USERR2
 40
0.0
  9
$USERR3
 40
0.0
  9
$USERR4
 40
0.0
  9
$USERR5
 40
0.0
  9
$WORLDVIEW
 70
     1
  9
$SHADEDGE
 70
     3
  9
$SHADEDIF
 70
    70
  9
$TILEMODE
 70
     1
  9
$MAXACTVP
 70
    64
  9
$PINSBASE
 10
0.0
 20
0.0
 30
0.0
  9
$PLIMCHECK
 70
     0
  9
$PEXTMIN
 10
1.000000000000000E+20
 20
1.000000000000000E+20
 30
1.000000000000000E+20
  9
$PEXTMAX
 10
-1.000000000000000E+20
 20
-1.000000000000000E+20
 30
-1.000000000000000E+20
  9
$PLIMMIN
 10
0.0
 20
0.0
  9
$PLIMMAX
 10
0.0
 20
0.0
  9
$UNITMODE
 70
     0
  9
$VISRETAIN
 70
     1
  9
$PLINEGEN
 70
     0
  9
$PSLTSCALE
 70
     1
  9
$TREEDEPTH
 70
  3020
  9
$CMLSTYLE
  2
Standard
  9
$CMLJUST
 70
     0
  9
$CMLSCALE
 40
20.0
  9
$PROXYGRAPHICS
 70
     1
  9
$MEASUREMENT
 70
     1
  9
$CELWEIGHT
370
    -1
  9
$ENDCAPS
280
     0
  9
$JOINSTYLE
280
     0
  9
$LWDISPLAY
290
     1
  9
$INSUNITS
 70
     4
  9
$HYPERLINKBASE
  1

  9
$STYLESHEET
  1

  9
$XEDIT
290
     1
  9
$CEPSNTYPE
380
     0
  9
$PSTYLEMODE
290
     1
  9
$FINGERPRINTGUID
  2
{D50408CF-106A-476B-AD99-415311BF9BD2}
  9
$VERSIONGUID
  2
{FAEB1C32-E019-11D5-929B-00C0DF256EC4}
  9
$EXTNAMES
290
     1
  9
$PSVPSCALE
 40
0.0
  9
$OLESTARTUP
290
     0
  0
ENDSEC
  0
SECTION
  2
CLASSES
  0
CLASS
  1
ACDBDICTIONARYWDFLT
  2
AcDbDictionaryWithDefault
  3
ObjectDBX Classes
 90
        0
280
     0
281
     0
  0
CLASS
  1
VISUALSTYLE
  2
AcDbVisualStyle
  3
ObjectDBX Classes
 90
     4095
280
     0
281
     0
  0
CLASS
  1
MATERIAL
  2
AcDbMaterial
  3
ObjectDBX Classes
 90
     1153
280
     0
281
     0
  0
CLASS
  1
SCALE
  2
AcDbScale
  3
ObjectDBX Classes
 90
     1153
280
     0
281
     0
  0
CLASS
  1
TABLESTYLE
  2
AcDbTableStyle
  3
ObjectDBX Classes
 90
     4095
280
     0
281
     0
  0
CLASS
  1
MLEADERSTYLE
  2
AcDbMLeaderStyle
  3
ACDB_MLEADERSTYLE_CLASS
 90
     4095
280
     0
281
     0
  0
CLASS
  1
SUN
  2
AcDbSun
  3
SCENEOE
 90
     1153
280
     0
281
     0
  0
CLASS
  1
ACDBPLACEHOLDER
  2
AcDbPlaceHolder
  3
ObjectDBX Classes
 90
        0
280
     0
281
     0
  0
CLASS
  1
LAYOUT
  2
AcDbLayout
  3
ObjectDBX Classes
 90
        0
280
     0
281
     0
  0
CLASS
  1
RASTERVARIABLES
  2
AcDbRasterVariables
  3
ISM
 90
        0
280
     0
281
     0
  0
ENDSEC
  0
SECTION
  2
TABLES
  0
TABLE
  2
VPORT
  5
8
330
0
100
AcDbSymbolTable
 70
     1
  0
VPORT
  5
29
330
8
100
AcDbSymbolTableRecord
100
AcDbViewportTableRecord
  2
*Active
 70
     0
 10
0.0
 20
0.0
 11
1.0
 21
1.0
 12
-0.5809016062031773
 22
-12.60383739361504
 13
0.0
 23
0.0
 14
10.0
 24
10.0
 15
10.0
 25
10.0
 16
0.0
 26
0.0
 36
1.0
 17
0.0
 27
0.0
 37
0.0
 40
76.23065879020126
 41
1.74031007751938
 42
50.0
 43
0.0
 44
0.0
 50
0.0
 51
0.0
 71
    16
 72
  2000
 73
     1
 74
     3
 75
     0
 76
     0
 77
     0
 78
     0
281
     0
 65
     1
110
0.0
120
0.0
130
0.0
111
1.0
121
0.0
131
0.0
112
0.0
122
1.0
132
0.0
 79
     0
146
0.0
  0
ENDTAB
  0
TABLE
  2
LTYPE
  5
5
330
0
100
AcDbSymbolTable
 70
     6
  0
LTYPE
  5
14
330
5
100
AcDbSymbolTableRecord
100
AcDbLinetypeTableRecord
  2
ByBlock
 70
     0
  3

 72
    65
 73
     0
 40
0.0
  0
LTYPE
  5
15
330
5
100
AcDbSymbolTableRecord
100
AcDbLinetypeTableRecord
  2
ByLayer
 70
     0
  3

 72
    65
 73
     0
 40
0.0
  0
LTYPE
  5
16
330
5
100
AcDbSymbolTableRecord
100
AcDbLinetypeTableRecord
  2
Continuous
 70
     0
  3
Solid line
 72
    65
 73
     0
 40
0.0
  0
LTYPE
  5
6E
330
5
100
AcDbSymbolTableRecord
100
AcDbLinetypeTableRecord
  2
HIDDEN
 70
     0
  3
Hidden __ __ __ __ __ __ __ __ __ __ __ __ __ __
 72
    65
 73
     2
 40
1.905
 49
1.27
 74
     0
 49
-0.635
 74
     0
  0
LTYPE
  5
6F
330
5
100
AcDbSymbolTableRecord
100
AcDbLinetypeTableRecord
  2
PHANTOM
 70
     0
  3
Phantom ______  __  __  ______  __  __  ______
 72
    65
 73
     6
 40
12.7
 49
6.35
 74
     0
 49
-1.27
 74
     0
 49
1.27
 74
     0
 49
-1.27
 74
     0
 49
1.27
 74
     0
 49
-1.27
 74
     0
  0
LTYPE
  5
70
330
5
100
AcDbSymbolTableRecord
100
AcDbLinetypeTableRecord
  2
CENTER
 70
     0
  3
Center ____ _ ____ _ ____ _ ____ _ ____ _ ____
 72
    65
 73
     4
 40
10.16
 49
6.35
 74
     0
 49
-1.27
 74
     0
 49
1.27
 74
     0
 49
-1.27
 74
     0
  0
LTYPE
  5
71
330
5
100
AcDbSymbolTableRecord
100
AcDbLinetypeTableRecord
  2
CENTERX2
 70
     0
  3
Center (2x) ________  __  ________  __  _____
 72
    65
 73
     4
 40
20.32
 49
12.7
 74
     0
 49
-2.54
 74
     0
 49
2.54
 74
     0
 49
-2.54
 74
     0
  0
LTYPE
  5
72
330
5
100
AcDbSymbolTableRecord
100
AcDbLinetypeTableRecord
  2
DOT2
 70
     0
  3
Dot (.5x) ........................................
 72
    65
 73
     2
 40
0.635
 49
0.0
 74
     0
 49
-0.635
 74
     0
  0
ENDTAB
  0
TABLE
  2
LAYER
  5
2
330
0
100
AcDbSymbolTable
 70
    17
  0
LAYER
  5
10
330
2
100
AcDbSymbolTableRecord
100
AcDbLayerTableRecord
  2
0
 70
     0
 62
     7
  6
Continuous
370
    -3
390
F
  0
LAYER
  5
73
330
2
100
AcDbSymbolTableRecord
100
AcDbLayerTableRecord
  2
FORMAT
 70
     0
 62
     2
  6
Continuous
370
    -3
390
F
  0
LAYER
  5
74
330
2
100
AcDbSymbolTableRecord
100
AcDbLayerTableRecord
  2
외형선
 70
     0
 62
   100
  6
Continuous
370
    35
390
F
  0
LAYER
  5
75
330
2
100
AcDbSymbolTableRecord
100
AcDbLayerTableRecord
  2
숨은선
 70
     0
 62
     2
  6
HIDDEN
370
    25
390
F
  0
LAYER
  5
76
330
2
100
AcDbSymbolTableRecord
100
AcDbLayerTableRecord
  2
중심선
 70
     0
 62
     1
  6
CENTERX2
370
    -3
390
F
  0
LAYER
  5
77
330
2
100
AcDbSymbolTableRecord
100
AcDbLayerTableRecord
  2
파단선
 70
     0
 62
     4
  6
Continuous
370
    -3
390
F
  0
LAYER
  5
78
330
2
100
AcDbSymbolTableRecord
100
AcDbLayerTableRecord
  2
해칭선
 70
     0
 62
   100
  6
Continuous
370
    -3
390
F
  0
LAYER
  5
79
330
2
100
AcDbSymbolTableRecord
100
AcDbLayerTableRecord
  2
가는실선
 70
     0
 62
     4
  6
Continuous
370
    -3
390
F
  0
LAYER
  5
7A
330
2
100
AcDbSymbolTableRecord
100
AcDbLayerTableRecord
  2
치수_보조선
 70
     0
 62
     4
  6
Continuous
370
    -3
390
F
  0
LAYER
  5
7B
330
2
100
AcDbSymbolTableRecord
100
AcDbLayerTableRecord
  2
치수문자_일반주서
 70
     0
 62
     7
  6
Continuous
370
    25
390
F
  0
LAYER
  5
7C
330
2
100
AcDbSymbolTableRecord
100
AcDbLayerTableRecord
  2
개별주서
 70
     0
 62
   100
  6
Continuous
370
    35
390
F
  0
LAYER
  5
7D
330
2
100
AcDbSymbolTableRecord
100
AcDbLayerTableRecord
  2
중간선
 70
     0
 62
     2
  6
Continuous
370
    25
390
F
  0
LAYER
  5
7E
330
2
100
AcDbSymbolTableRecord
100
AcDbLayerTableRecord
  2
윤곽선
 70
     0
 62
     3
  6
Continuous
370
    50
390
F
  0
LAYER
  5
7F
330
2
100
AcDbSymbolTableRecord
100
AcDbLayerTableRecord
  2
중심마크
 70
     0
 62
   100
  6
Continuous
370
    35
390
F
  0
LAYER
  5
80
330
2
100
AcDbSymbolTableRecord
100
AcDbLayerTableRecord
  2
가상선
 70
     0
 62
     4
  6
PHANTOM
370
    -3
390
F
  0
LAYER
  5
81
330
2
100
AcDbSymbolTableRecord
100
AcDbLayerTableRecord
  2
특수지정선
 70
     0
 62
     5
  6
CENTERX2
370
    70
390
F
  0
LAYER
  5
149
330
2
100
AcDbSymbolTableRecord
100
AcDbLayerTableRecord
  2
Defpoints
 70
     0
 62
     7
  6
Continuous
290
     0
370
    -3
390
F
  0
ENDTAB
  0
TABLE
  2
STYLE
  5
3
330
0
100
AcDbSymbolTable
 70
     2
  0
STYLE
  5
11
330
3
100
AcDbSymbolTableRecord
100
AcDbTextStyleTableRecord
  2
Standard
 70
     0
 40
0.0
 41
1.0
 50
0.0
 71
     0
 42
3.5
  3
txt
  4

  0
STYLE
  5
97
330
3
100
AcDbSymbolTableRecord
100
AcDbTextStyleTableRecord
  2
SLDTEXTSTYLE0
 70
     0
 40
0.0
 41
0.75
 50
0.0
 71
     0
 42
3.5
  3
TXT
  4

  0
ENDTAB
  0
TABLE
  2
VIEW
  5
6
330
0
100
AcDbSymbolTable
 70
     0
  0
ENDTAB
  0
TABLE
  2
UCS
  5
7
330
0
100
AcDbSymbolTable
 70
     0
  0
ENDTAB
  0
TABLE
  2
APPID
  5
9
330
0
100
AcDbSymbolTable
 70
     1
  0
APPID
  5
12
330
9
100
AcDbSymbolTableRecord
100
AcDbRegAppTableRecord
  2
ACAD
 70
     0
  0
ENDTAB
  0
TABLE
  2
DIMSTYLE
  5
A
330
0
100
AcDbSymbolTable
 70
     4
100
AcDbDimStyleTable
  0
DIMSTYLE
105
27
330
A
100
AcDbSymbolTableRecord
100
AcDbDimStyleTableRecord
  2
ISO-25
 70
     0
 41
2.5
 42
0.625
 43
3.75
 44
1.25
 73
     0
 74
     0
 77
     1
 78
     8
140
2.5
141
2.5
143
0.03937007874016
147
0.625
171
     3
172
     1
178
     0
271
     2
272
     2
274
     3
278
    44
283
     0
284
     8
340
11
  0
DIMSTYLE
105
EC
102
{ACAD_REACTORS
330
EB
102
}
330
A
100
AcDbSymbolTableRecord
100
AcDbDimStyleTableRecord
  2
SLDDIMSTYLE0
 70
     0
 41
3.302
 44
0.0
 45
0.000000001
 73
     0
 74
     0
 77
     1
 78
    12
 79
     3
140
3.5
147
0.875
172
     1
173
     1
178
     0
271
     1
272
     1
276
     2
284
    12
289
     0
340
97
  0
DIMSTYLE
105
FA
102
{ACAD_REACTORS
330
F9
102
}
330
A
100
AcDbSymbolTableRecord
100
AcDbDimStyleTableRecord
  2
SLDDIMSTYLE1
 70
     0
 41
3.302
 44
0.0
 45
0.000000001
 73
     0
 74
     0
 77
     1
 78
    12
 79
     3
140
3.5
147
0.875
173
     1
178
     0
271
     2
272
     2
276
     2
284
    12
340
97
  0
DIMSTYLE
105
105
102
{ACAD_REACTORS
330
104
330
112
102
}
330
A
100
AcDbSymbolTableRecord
100
AcDbDimStyleTableRecord
  2
SLDDIMSTYLE2
 70
     0
 41
3.302
 44
0.0
 45
0.000000001
 73
     0
 74
     0
 77
     1
 78
    12
 79
     3
140
3.5
147
0.875
172
     1
173
     1
178
     0
271
     2
272
     2
276
     2
284
    12
289
     0
340
97
  0
ENDTAB
  0
TABLE
  2
BLOCK_RECORD
  5
1
330
0
100
AcDbSymbolTable
 70
     7
  0
BLOCK_RECORD
  5
1F
330
1
100
AcDbSymbolTableRecord
100
AcDbBlockTableRecord
  2
*Model_Space
340
22
  0
BLOCK_RECORD
  5
1B
330
1
100
AcDbSymbolTableRecord
100
AcDbBlockTableRecord
  2
*Paper_Space
340
1E
  0
BLOCK_RECORD
  5
23
330
1
100
AcDbSymbolTableRecord
100
AcDbBlockTableRecord
  2
*Paper_Space0
340
26
  0
BLOCK_RECORD
  5
82
330
1
100
AcDbSymbolTableRecord
100
AcDbBlockTableRecord
  2
블럭10
340
0
102
{BLKREFS
331
E4
102
}
  0
BLOCK_RECORD
  5
ED
330
1
100
AcDbSymbolTableRecord
100
AcDbBlockTableRecord
  2
_D
340
0
  0
BLOCK_RECORD
  5
FB
330
1
100
AcDbSymbolTableRecord
100
AcDbBlockTableRecord
  2
_D_1
340
0
  0
BLOCK_RECORD
  5
106
330
1
100
AcDbSymbolTableRecord
100
AcDbBlockTableRecord
  2
_D_2
340
0
  0
BLOCK_RECORD
  5
113
330
1
100
AcDbSymbolTableRecord
100
AcDbBlockTableRecord
  2
_D_3
340
0
  0
BLOCK_RECORD
  5
11E
330
1
100
AcDbSymbolTableRecord
100
AcDbBlockTableRecord
  2
SW_DOWELSYMBOL_0
340
0
102
{BLKREFS
331
124
102
}
  0
ENDTAB
  0
ENDSEC
  0
SECTION
  2
BLOCKS
  0
BLOCK
  5
20
330
1F
100
AcDbEntity
  8
0
100
AcDbBlockBegin
  2
*Model_Space
 70
     0
 10
0.0
 20
0.0
 30
0.0
  3
*Model_Space
  1

  0
ENDBLK
  5
21
330
1F
100
AcDbEntity
  8
0
100
AcDbBlockEnd
  0
BLOCK
  5
1C
330
1B
100
AcDbEntity
 67
     1
  8
0
100
AcDbBlockBegin
  2
*Paper_Space
 70
     0
 10
0.0
 20
0.0
 30
0.0
  3
*Paper_Space
  1

  0
ENDBLK
  5
1D
330
1B
100
AcDbEntity
 67
     1
  8
0
100
AcDbBlockEnd
  0
BLOCK
  5
24
330
23
100
AcDbEntity
  8
0
100
AcDbBlockBegin
  2
*Paper_Space0
 70
     0
 10
0.0
 20
0.0
 30
0.0
  3
*Paper_Space0
  1

  0
ENDBLK
  5
25
330
23
100
AcDbEntity
  8
0
100
AcDbBlockEnd
  0
BLOCK
  5
83
330
82
100
AcDbEntity
  8
0
100
AcDbBlockBegin
  2
블럭10
 70
     2
 10
0.0
 20
0.0
 30
0.0
  3
블럭10
  1

  0
ELLIPSE
  5
85
330
82
100
AcDbEntity
  8
중심선
100
AcDbEllipse
 10
20.54032771741204
 20
12.0471743016438
 30
0.0
 11
6.600054785286829
 21
-1.261213355974178E-13
 31
0.0
210
0.0
220
0.0
230
1.0
 40
0.636358354079598
 41
0.9219305317359503
 42
6.513795318482858
  0
ELLIPSE
  5
86
330
82
100
AcDbEntity
  8
중심선
100
AcDbEllipse
 10
20.54032771746488
 20
12.04717430159265
 30
0.0
 11
3.960054785062283
 21
1.540847449632565E-10
 31
0.0
210
0.0
220
0.0
230
1.0
 40
0.3939339440162632
 41
1.131841032648279
 42
5.62031148352944
  0
LINE
  5
87
330
82
100
AcDbEntity
  8
중심선
100
AcDbLine
 10
2.268634060543552
 20
16.24717430164393
 30
0.0
 11
5.714909304380834
 21
16.24717430164393
 31
0.0
  0
LINE
  5
88
330
82
100
AcDbEntity
  8
중심선
100
AcDbLine
 10
5.245725140726316
 20
7.84717430164391
 30
0.0
 11
8.692000384563599
 21
7.84717430164391
 31
0.0
  0
LINE
  5
89
330
82
100
AcDbEntity
  8
중심선
100
AcDbLine
 10
15.74043728645272
 20
16.24717430164393
 30
0.0
 11
8.692000384563599
 21
7.84717430164391
 31
0.0
  0
LINE
  5
8A
330
82
100
AcDbEntity
  8
중심선
100
AcDbLine
 10
0.1404042013395286
 20
13.71084872107135
 30
0.0
 11
3.58671253028996
 21
13.71088815037384
 31
0.0
  0
LINE
  5
8B
330
82
100
AcDbEntity
  8
중심선
100
AcDbLine
 10
2.750260043222114
 20
10.84717430164391
 30
0.0
 11
6.196535287059397
 21
10.84717430164391
 31
0.0
  0
LINE
  5
8C
330
82
100
AcDbEntity
  8
중심선
100
AcDbLine
 10
12.29416204261559
 20
16.24717430164393
 30
0.0
 11
5.245725140726316
 21
7.84717430164391
 31
0.0
  0
LINE
  5
8D
330
82
100
AcDbEntity
  8
중심선
100
AcDbLine
 10
10.72767329541681
 20
16.24717430164393
 30
0.0
 11
6.196535287059397
 21
10.84717430164391
 31
0.0
  0
LINE
  5
8E
330
82
100
AcDbEntity
  8
중심선
100
AcDbLine
 10
7.28139805157953
 20
16.24717430164393
 30
0.0
 11
2.750260043222114
 21
10.84717430164391
 31
0.0
  0
LINE
  5
8F
330
82
100
AcDbEntity
  8
중심선
100
AcDbLine
 10
5.714909304380834
 20
16.24717430164393
 30
0.0
 11
3.58671253028996
 21
13.71088815037384
 31
0.0
  0
LINE
  5
90
330
82
100
AcDbEntity
  8
중심선
100
AcDbLine
 10
2.268634060543552
 20
16.24717430164393
 30
0.0
 11
0.1404042013395286
 21
13.71084872107135
 31
0.0
  0
LINE
  5
91
330
82
100
AcDbEntity
  8
중심선
100
AcDbLine
 10
7.28139805157953
 20
16.24717430164393
 30
0.0
 11
10.72767329541681
 21
16.24717430164393
 31
0.0
  0
LINE
  5
92
330
82
100
AcDbEntity
  8
중심선
100
AcDbLine
 10
12.29416204261559
 20
16.24717430164393
 30
0.0
 11
15.74043728645272
 21
16.24717430164393
 31
0.0
  0
LINE
  5
93
330
82
100
AcDbEntity
  8
중심선
100
AcDbLine
 10
19.22036997980202
 20
11.08717430171403
 30
0.0
 11
23.66174974927406
 21
11.08717430171406
 31
0.0
  0
LINE
  5
94
330
82
100
AcDbEntity
  8
중심선
100
AcDbLine
 10
19.22039502424796
 20
13.00717430171391
 30
0.0
 11
19.22036997980202
 21
11.08717430171403
 31
0.0
  0
LINE
  5
95
330
82
100
AcDbEntity
  8
중심선
100
AcDbLine
 10
19.22039502424796
 20
13.00717430171391
 30
0.0
 11
26.96566020931264
 21
13.00717430171391
 31
0.0
  0
LINE
  5
96
330
82
100
AcDbEntity
  8
중심선
100
AcDbLine
 10
22.22332737316547
 20
13.45928029700563
 30
0.0
 11
24.52862924686651
 21
15.39360700705356
 31
0.0
  0
ATTDEF
  5
98
330
82
100
AcDbEntity
  8
FORMAT
 62
     2
100
AcDbText
 10
-16.11926103943555
 20
2.075366912832191
 30
0.0
 40
4.233333333333333
  1
SEME7103012E [ 4 FLUTE ]
 41
0.75
  7
SLDTEXTSTYLE0
 11
-16.11926103943555
 21
-0.0412997538344756
 31
0.0
100
AcDbAttributeDefinition
  3

  2
AUTOATTR0
 70
     0
 74
     1
  0
ENDBLK
  5
84
330
82
100
AcDbEntity
  8
0
100
AcDbBlockEnd
  0
BLOCK
  5
EE
330
ED
100
AcDbEntity
  8
0
100
AcDbBlockBegin
  2
_D
 70
     0
 10
0.0
 20
0.0
 30
0.0
  3
_D
  1

  0
LINE
  5
F0
330
ED
100
AcDbEntity
  8
치수문자_일반주서
 62
     0
370
    -2
100
AcDbLine
 10
20.66057621135332
 20
-1.500000000000003
 30
0.0
 11
28.74745199393113
 21
-1.499999999999973
 31
0.0
  0
LINE
  5
F1
330
ED
100
AcDbEntity
  8
치수문자_일반주서
 62
     0
370
    -2
100
AcDbLine
 10
20.66057621135332
 20
1.500000000000005
 30
0.0
 11
28.74745199393112
 21
1.500000000000036
 31
0.0
  0
LINE
  5
F2
330
ED
100
AcDbEntity
  8
치수문자_일반주서
 62
     0
370
    -2
100
AcDbLine
 10
28.74745199393113
 20
-1.499999999999973
 30
0.0
 11
28.74745199393108
 21
14.22900000000003
 31
0.0
  0
LINE
  5
F3
330
ED
100
AcDbEntity
  8
치수문자_일반주서
 62
     0
370
    -2
100
AcDbLine
 10
28.74745199393113
 20
-1.499999999999973
 30
0.0
 11
28.74745199393112
 21
1.500000000000036
 31
0.0
  0
LINE
  5
F4
330
ED
100
AcDbEntity
  8
치수문자_일반주서
 62
     0
370
    -2
100
AcDbLine
 10
28.74745199393114
 20
-4.801999999999973
 30
0.0
 11
28.74745199393115
 21
-8.103999999999973
 31
0.0
  0
LINE
  5
F5
330
ED
100
AcDbEntity
  8
치수문자_일반주서
 62
     0
370
    -2
100
AcDbLine
 10
28.74745199393111
 20
4.802000000000035
 30
0.0
 11
28.7474519939311
 21
8.104000000000035
 31
0.0
  0
SOLID
  5
F6
330
ED
100
AcDbEntity
  8
치수문자_일반주서
 62
     0
100
AcDbTrace
 10
29.29778532726448
 20
-4.801999999999971
 30
0.0
 11
28.19711866059781
 21
-4.801999999999975
 31
0.0
 12
28.74745199393113
 22
-1.499999999999973
 32
0.0
 13
28.74745199393113
 23
-1.499999999999973
 33
0.0
  0
SOLID
  5
F7
330
ED
100
AcDbEntity
  8
치수문자_일반주서
 62
     0
100
AcDbTrace
 10
28.19711866059778
 20
4.802000000000033
 30
0.0
 11
29.29778532726445
 21
4.802000000000037
 31
0.0
 12
28.74745199393112
 22
1.500000000000036
 32
0.0
 13
28.74745199393112
 23
1.500000000000036
 33
0.0
  0
MTEXT
  5
F8
330
ED
100
AcDbEntity
  8
치수문자_일반주서
 62
     0
100
AcDbMText
 10
24.37245199393109
 20
11.16650000000002
 30
0.0
 40
3.5
 41
0.0
 71
     2
 72
     1
  1
\A1;%%c3
  7
SLDTEXTSTYLE0
 11
-3.552713678800491E-15
 21
1.0
 31
0.0
 73
     1
 44
1.0
  0
POINT
  5
151
330
ED
100
AcDbEntity
  8
Defpoints
 62
     0
100
AcDbPoint
 10
20.59807621135332
 20
-1.500000000000003
 30
0.0
  0
POINT
  5
152
330
ED
100
AcDbEntity
  8
Defpoints
 62
     0
100
AcDbPoint
 10
20.59807621135332
 20
1.500000000000005
 30
0.0
  0
POINT
  5
153
330
ED
100
AcDbEntity
  8
Defpoints
 62
     0
100
AcDbPoint
 10
28.74745199393112
 20
1.500000000000036
 30
0.0
  0
ENDBLK
  5
EF
330
ED
100
AcDbEntity
  8
0
100
AcDbBlockEnd
  0
BLOCK
  5
FC
330
FB
100
AcDbEntity
  8
0
100
AcDbBlockBegin
  2
_D_1
 70
     0
 10
0.0
 20
0.0
 30
0.0
  3
_D_1
  1

  0
LINE
  5
FE
330
FB
100
AcDbEntity
  8
치수문자_일반주서
 62
     0
370
    -2
100
AcDbLine
 10
-29.40192378864669
 20
2.562499999999997
 30
0.0
 11
-29.40192378864669
 21
20.38913260158165
 31
0.0
  0
LINE
  5
FF
330
FB
100
AcDbEntity
  8
치수문자_일반주서
 62
     0
370
    -2
100
AcDbLine
 10
20.59807621135331
 20
1.562500000000002
 30
0.0
 11
20.59807621135331
 21
20.38913260158165
 31
0.0
  0
LINE
  5
100
330
FB
100
AcDbEntity
  8
치수문자_일반주서
 62
     0
370
    -2
100
AcDbLine
 10
-26.0999237886467
 20
20.38913260158165
 30
0.0
 11
17.29607621135331
 21
20.38913260158165
 31
0.0
  0
SOLID
  5
101
330
FB
100
AcDbEntity
  8
치수문자_일반주서
 62
     0
100
AcDbTrace
 10
-26.0999237886467
 20
20.93946593491498
 30
0.0
 11
-26.0999237886467
 21
19.83879926824831
 31
0.0
 12
-29.40192378864669
 22
20.38913260158165
 32
0.0
 13
-29.40192378864669
 23
20.38913260158165
 33
0.0
  0
SOLID
  5
102
330
FB
100
AcDbEntity
  8
치수문자_일반주서
 62
     0
100
AcDbTrace
 10
17.29607621135331
 20
19.83879926824831
 30
0.0
 11
17.29607621135331
 21
20.93946593491498
 31
0.0
 12
20.59807621135331
 22
20.38913260158165
 32
0.0
 13
20.59807621135331
 23
20.38913260158165
 33
0.0
  0
MTEXT
  5
103
330
FB
100
AcDbEntity
  8
치수문자_일반주서
 62
     0
100
AcDbMText
 10
-4.401923788646692
 20
24.76413260158165
 30
0.0
 40
3.5
 41
0.0
 71
     2
 72
     1
  1
\A1;50
  7
SLDTEXTSTYLE0
 73
     1
 44
1.0
  0
POINT
  5
14A
330
FB
100
AcDbEntity
  8
Defpoints
 62
     0
100
AcDbPoint
 10
-29.40192378864669
 20
2.499999999999997
 30
0.0
  0
POINT
  5
14B
330
FB
100
AcDbEntity
  8
Defpoints
 62
     0
100
AcDbPoint
 10
20.59807621135331
 20
1.500000000000002
 30
0.0
  0
POINT
  5
14C
330
FB
100
AcDbEntity
  8
Defpoints
 62
     0
100
AcDbPoint
 10
20.59807621135331
 20
20.38913260158165
 30
0.0
  0
ENDBLK
  5
FD
330
FB
100
AcDbEntity
  8
0
100
AcDbBlockEnd
  0
BLOCK
  5
107
330
106
100
AcDbEntity
  8
0
100
AcDbBlockBegin
  2
_D_2
 70
     0
 10
0.0
 20
0.0
 30
0.0
  3
_D_2
  1

  0
LINE
  5
109
330
106
100
AcDbEntity
  8
치수문자_일반주서
 62
     0
370
    -2
100
AcDbLine
 10
-28.9644237886467
 20
3.000000000000004
 30
0.0
 11
-35.06939435212829
 21
2.99999999999998
 31
0.0
  0
LINE
  5
10A
330
106
100
AcDbEntity
  8
치수문자_일반주서
 62
     0
370
    -2
100
AcDbLine
 10
-28.9644237886467
 20
-3.000000000000002
 30
0.0
 11
-35.06939435212827
 21
-3.000000000000025
 31
0.0
  0
LINE
  5
10B
330
106
100
AcDbEntity
  8
치수문자_일반주서
 62
     0
370
    -2
100
AcDbLine
 10
-35.06939435212829
 20
2.99999999999998
 30
0.0
 11
-35.06939435212834
 21
15.72899999999998
 31
0.0
  0
LINE
  5
10C
330
106
100
AcDbEntity
  8
치수문자_일반주서
 62
     0
370
    -2
100
AcDbLine
 10
-35.06939435212829
 20
2.99999999999998
 30
0.0
 11
-35.06939435212827
 21
-3.000000000000025
 31
0.0
  0
LINE
  5
10D
330
106
100
AcDbEntity
  8
치수문자_일반주서
 62
     0
370
    -2
100
AcDbLine
 10
-35.06939435212831
 20
6.30199999999998
 30
0.0
 11
-35.06939435212832
 21
9.60399999999998
 31
0.0
  0
LINE
  5
10E
330
106
100
AcDbEntity
  8
치수문자_일반주서
 62
     0
370
    -2
100
AcDbLine
 10
-35.06939435212826
 20
-6.302000000000024
 30
0.0
 11
-35.06939435212824
 21
-9.604000000000024
 31
0.0
  0
SOLID
  5
10F
330
106
100
AcDbEntity
  8
치수문자_일반주서
 62
     0
100
AcDbTrace
 10
-35.61972768546164
 20
6.301999999999978
 30
0.0
 11
-34.51906101879497
 21
6.301999999999982
 31
0.0
 12
-35.06939435212829
 22
2.99999999999998
 32
0.0
 13
-35.06939435212829
 23
2.99999999999998
 33
0.0
  0
SOLID
  5
110
330
106
100
AcDbEntity
  8
치수문자_일반주서
 62
     0
100
AcDbTrace
 10
-34.51906101879492
 20
-6.302000000000023
 30
0.0
 11
-35.61972768546159
 21
-6.302000000000026
 31
0.0
 12
-35.06939435212827
 22
-3.000000000000025
 32
0.0
 13
-35.06939435212827
 23
-3.000000000000025
 33
0.0
  0
MTEXT
  5
111
330
106
100
AcDbEntity
  8
치수문자_일반주서
 62
     0
100
AcDbMText
 10
-39.44439435212833
 20
12.66649999999997
 30
0.0
 40
3.5
 41
0.0
 71
     2
 72
     1
  1
\A1;%%c6
  7
SLDTEXTSTYLE0
 11
-3.552713678800498E-15
 21
1.0
 31
0.0
 73
     1
 44
1.0
  0
POINT
  5
14E
330
106
100
AcDbEntity
  8
Defpoints
 62
     0
100
AcDbPoint
 10
-28.9019237886467
 20
3.000000000000004
 30
0.0
  0
POINT
  5
14F
330
106
100
AcDbEntity
  8
Defpoints
 62
     0
100
AcDbPoint
 10
-28.9019237886467
 20
-3.000000000000001
 30
0.0
  0
POINT
  5
150
330
106
100
AcDbEntity
  8
Defpoints
 62
     0
100
AcDbPoint
 10
-35.06939435212828
 20
-3.000000000000024
 30
0.0
  0
ENDBLK
  5
108
330
106
100
AcDbEntity
  8
0
100
AcDbBlockEnd
  0
BLOCK
  5
114
330
113
100
AcDbEntity
  8
0
100
AcDbBlockBegin
  2
_D_3
 70
     0
 10
0.0
 20
0.0
 30
0.0
  3
_D_3
  1

  0
LINE
  5
116
330
113
100
AcDbEntity
  8
치수문자_일반주서
 62
     0
370
    -2
100
AcDbLine
 10
8.598076211353305
 20
1.535477361176282
 30
0.0
 11
8.598076211353305
 21
12.31889566376393
 31
0.0
  0
LINE
  5
117
330
113
100
AcDbEntity
  8
치수문자_일반주서
 62
     0
370
    -2
100
AcDbLine
 10
20.59807621135331
 20
1.562500000000002
 30
0.0
 11
20.59807621135331
 21
12.31889566376393
 31
0.0
  0
LINE
  5
118
330
113
100
AcDbEntity
  8
치수문자_일반주서
 62
     0
370
    -2
100
AcDbLine
 10
11.9000762113533
 20
12.31889566376393
 30
0.0
 11
17.29607621135331
 21
12.31889566376393
 31
0.0
  0
SOLID
  5
119
330
113
100
AcDbEntity
  8
치수문자_일반주서
 62
     0
100
AcDbTrace
 10
11.9000762113533
 20
12.86922899709726
 30
0.0
 11
11.9000762113533
 21
11.7685623304306
 31
0.0
 12
8.598076211353305
 22
12.31889566376393
 32
0.0
 13
8.598076211353305
 23
12.31889566376393
 33
0.0
  0
SOLID
  5
11A
330
113
100
AcDbEntity
  8
치수문자_일반주서
 62
     0
100
AcDbTrace
 10
17.29607621135331
 20
11.7685623304306
 30
0.0
 11
17.29607621135331
 21
12.86922899709726
 31
0.0
 12
20.59807621135331
 22
12.31889566376393
 32
0.0
 13
20.59807621135331
 23
12.31889566376393
 33
0.0
  0
MTEXT
  5
11B
330
113
100
AcDbEntity
  8
치수문자_일반주서
 62
     0
100
AcDbMText
 10
14.59807621135331
 20
16.69389566376393
 30
0.0
 40
3.5
 41
0.0
 71
     2
 72
     1
  1
\A1;12
  7
SLDTEXTSTYLE0
 73
     1
 44
1.0
  0
POINT
  5
11C
330
113
100
AcDbEntity
  8
Defpoints
 62
     0
100
AcDbPoint
 10
8.598076211353305
 20
1.472977361176282
 30
0.0
  0
POINT
  5
11D
330
113
100
AcDbEntity
  8
Defpoints
 62
     0
100
AcDbPoint
 10
20.59807621135331
 20
1.500000000000002
 30
0.0
  0
POINT
  5
14D
330
113
100
AcDbEntity
  8
Defpoints
 62
     0
100
AcDbPoint
 10
20.59807621135331
 20
12.31889566376393
 30
0.0
  0
ENDBLK
  5
115
330
113
100
AcDbEntity
  8
0
100
AcDbBlockEnd
  0
BLOCK
  5
11F
330
11E
100
AcDbEntity
  8
0
100
AcDbBlockBegin
  2
SW_DOWELSYMBOL_0
 70
     0
 10
0.0
 20
0.0
 30
0.0
  3
SW_DOWELSYMBOL_0
  1

  0
CIRCLE
  5
121
330
11E
100
AcDbEntity
  8
해칭선
 62
     0
100
AcDbCircle
 10
0.0
 20
0.0
 30
0.0
 40
3.000000000000001
  0
HATCH
  5
122
330
11E
100
AcDbEntity
  8
0
  6
Continuous
 62
     0
370
    18
100
AcDbHatch
 10
0.0
 20
0.0
 30
0.0
210
0.0
220
0.0
230
1.0
  2
SOLID
 70
     1
 71
     0
 91
        1
 92
        0
 93
        3
 72
     2
 10
0.0
 20
0.0
 40
3.000000000000001
 50
0.0
 51
90.0
 73
     1
 72
     1
 10
0.0
 20
3.000000000000001
 11
0.0
 21
0.0
 72
     1
 10
0.0
 20
0.0
 11
3.000000000000001
 21
0.0
 97
        0
 75
     0
 76
     1
 98
        1
 10
0.0
 20
0.0
  0
HATCH
  5
123
330
11E
100
AcDbEntity
  8
0
  6
Continuous
 62
     0
370
    18
100
AcDbHatch
 10
0.0
 20
0.0
 30
0.0
210
0.0
220
0.0
230
1.0
  2
SOLID
 70
     1
 71
     0
 91
        1
 92
        0
 93
        3
 72
     2
 10
0.0
 20
0.0
 40
3.000000000000001
 50
180.0
 51
270.0000000000008
 73
     1
 72
     1
 10
0.0
 20
-3.000000000000001
 11
0.0
 21
0.0
 72
     1
 10
0.0
 20
0.0
 11
-3.000000000000001
 21
0.0
 97
        0
 75
     0
 76
     1
 98
        1
 10
0.0
 20
0.0
  0
ENDBLK
  5
120
330
11E
100
AcDbEntity
  8
0
100
AcDbBlockEnd
  0
ENDSEC
  0
SECTION
  2
ENTITIES
  0
LINE
  5
99
330
1F
100
AcDbEntity
  8
0
  6
Continuous
 62
     4
370
    25
100
AcDbLine
 10
2.0
 20
-2.999999999999999
 30
0.0
 11
7.097836695746509
 21
-1.634038774228975
 31
0.0
  0
LINE
  5
9A
330
1F
100
AcDbEntity
  8
0
  6
Continuous
 62
     4
370
    25
100
AcDbLine
 10
7.097836695746509
 20
1.634038774228978
 30
0.0
 11
2.0
 21
3.000000000000001
 31
0.0
  0
LINE
  5
9B
330
1F
100
AcDbEntity
  8
0
  6
Continuous
 62
     4
370
    25
100
AcDbLine
 10
2.0
 20
3.0
 30
0.0
 11
-28.90192378864669
 21
2.999999999999998
 31
0.0
  0
LINE
  5
9C
330
1F
100
AcDbEntity
  8
0
  6
Continuous
 62
     4
370
    25
100
AcDbLine
 10
-28.90192378864669
 20
-3.0
 30
0.0
 11
2.0
 21
-2.999999999999998
 31
0.0
  0
LINE
  5
9D
330
1F
100
AcDbEntity
  8
0
  6
Continuous
 62
     4
370
    25
100
AcDbLine
 10
-28.90192378864669
 20
2.999999999999996
 30
0.0
 11
-29.40192378864669
 21
2.499999999999996
 31
0.0
  0
LINE
  5
9E
330
1F
100
AcDbEntity
  8
0
  6
Continuous
 62
     4
370
    25
100
AcDbLine
 10
-29.40192378864669
 20
-2.499999999999999
 30
0.0
 11
-28.90192378864669
 21
-2.999999999999998
 31
0.0
  0
LINE
  5
9F
330
1F
100
AcDbEntity
  8
0
  6
Continuous
 62
     4
370
    25
100
AcDbLine
 10
8.105710713381946
 20
-1.499999999999999
 30
0.0
 11
8.598076211353305
 21
-1.499999999999999
 31
0.0
  0
LINE
  5
A0
330
1F
100
AcDbEntity
  8
0
  6
Continuous
 62
     4
370
    25
100
AcDbLine
 10
8.598076211353305
 20
1.500000000000001
 30
0.0
 11
8.105710713381946
 21
1.500000000000001
 31
0.0
  0
LINE
  5
A1
330
1F
100
AcDbEntity
  8
0
  6
Continuous
 62
     1
370
    25
100
AcDbLine
 10
17.15405988574674
 20
-1.5
 30
0.0
 11
18.01027579170003
 21
-1.5
 31
0.0
  0
LINE
  5
A2
330
1F
100
AcDbEntity
  8
0
  6
Continuous
 62
     1
370
    25
100
AcDbLine
 10
11.98025214434889
 20
1.500000000000002
 30
0.0
 11
11.12083793199452
 21
1.500000000000002
 31
0.0
  0
LINE
  5
A3
330
1F
100
AcDbEntity
  8
0
  6
Continuous
 62
     1
370
    25
100
AcDbLine
 10
14.13803872544924
 20
-1.5
 30
0.0
 11
14.9952785959056
 21
-1.5
 31
0.0
  0
LINE
  5
A4
330
1F
100
AcDbEntity
  8
0
  6
Continuous
 62
     4
370
    25
100
AcDbLine
 10
8.962678395631357
 20
1.500000000000002
 30
0.0
 11
8.598076211353305
 21
1.500000000000002
 31
0.0
  0
LINE
  5
A5
330
1F
100
AcDbEntity
  8
0
  6
Continuous
 62
     1
370
    25
100
AcDbLine
 10
20.59807621135331
 20
1.500000000000002
 30
0.0
 11
20.16906181404375
 21
1.500000000000002
 31
0.0
  0
LINE
  5
A6
330
1F
100
AcDbEntity
  8
0
  6
Continuous
 62
     1
370
    25
100
AcDbLine
 10
20.16906181404376
 20
-1.5
 30
0.0
 11
20.59807621135331
 21
-1.5
 31
0.0
  0
LINE
  5
A7
330
1F
100
AcDbEntity
  8
0
  6
Continuous
 62
     4
370
    25
100
AcDbLine
 10
8.598076211353305
 20
-1.5
 30
0.0
 11
8.962678395631375
 21
-1.5
 31
0.0
  0
LINE
  5
A8
330
1F
100
AcDbEntity
  8
0
  6
Continuous
 62
     1
370
    25
100
AcDbLine
 10
14.9952785959056
 20
1.500000000000002
 30
0.0
 11
14.13803872544924
 21
1.500000000000002
 31
0.0
  0
LINE
  5
A9
330
1F
100
AcDbEntity
  8
0
  6
Continuous
 62
     1
370
    25
100
AcDbLine
 10
17.45728000040797
 20
-0.2342427586497461
 30
0.0
 11
17.42981297517037
 21
-0.2144012787968521
 31
0.0
  0
LINE
  5
AA
330
1F
100
AcDbEntity
  8
0
  6
Continuous
 62
     4
370
    25
100
AcDbLine
 10
14.69250058329621
 20
0.2339267406027441
 30
0.0
 11
14.71896518291121
 21
0.2144012787981241
 31
0.0
  0
LINE
  5
AB
330
1F
100
AcDbEntity
  8
0
  6
Continuous
 62
     1
370
    25
100
AcDbLine
 10
11.12083793199454
 20
-1.5
 30
0.0
 11
11.98025214434889
 21
-1.5
 31
0.0
  0
LINE
  5
AC
330
1F
100
AcDbEntity
  8
0
  6
Continuous
 62
     1
370
    25
100
AcDbLine
 10
18.01027579170003
 20
1.500000000000002
 30
0.0
 11
17.15405988574676
 21
1.500000000000002
 31
0.0
  0
SPLINE
  5
AD
330
1F
100
AcDbEntity
  8
0
  6
Continuous
 62
     4
370
    25
100
AcDbSpline
210
0.0
220
0.0
230
1.0
 70
     8
 71
     3
 72
     8
 73
     4
 74
     0
 42
0.000000001
 43
0.00000001
 40
0.0
 40
0.0
 40
0.0
 40
0.0
 40
1.0
 40
1.0
 40
1.0
 40
1.0
 10
7.581515412653503
 20
1.448260613848558
 30
0.0
 10
7.587033719240169
 20
1.448061106927574
 30
0.0
 10
7.592553978505239
 20
1.447839803256262
 30
0.0
 10
7.598076211353303
 20
1.447596675045804
 30
0.0
  0
SPLINE
  5
AE
330
1F
100
AcDbEntity
  8
0
  6
Continuous
 62
     4
370
    25
100
AcDbSpline
210
0.0
220
0.0
230
1.0
 70
     8
 71
     3
 72
    14
 73
    10
 74
     0
 42
0.000000001
 43
0.00000001
 40
0.0
 40
0.0
 40
0.0
 40
0.0
 40
0.25
 40
0.25
 40
0.5
 40
0.5
 40
0.75
 40
0.75
 40
1.0
 40
1.0
 40
1.0
 40
1.0
 10
7.097836695746509
 20
1.619358721886823
 30
0.0
 10
7.097836695746509
 20
1.611663195054318
 30
0.0
 10
7.114315901907744
 20
1.596535203195094
 30
0.0
 10
7.175499072486802
 20
1.558630652279773
 30
0.0
 10
7.219640021594057
 20
1.536447742382878
 30
0.0
 10
7.31975034568248
 20
1.497028052136679
 30
0.0
 10
7.376568142795464
 20
1.479628938266496
 30
0.0
 10
7.48549254509292
 20
1.456140624009794
 30
0.0
 10
7.537981897396297
 20
1.44983450929134
 30
0.0
 10
7.581515412653691
 20
1.448260613848552
 30
0.0
  0
LINE
  5
AF
330
1F
100
AcDbEntity
  8
0
  6
Continuous
 62
     4
370
    25
100
AcDbLine
 10
7.097836695746509
 20
1.634038774228978
 30
0.0
 11
7.097836695746509
 21
1.417689341533004
 31
0.0
  0
SPLINE
  5
B0
330
1F
100
AcDbEntity
  8
0
  6
Continuous
 62
     4
370
    25
100
AcDbSpline
210
0.0
220
0.0
230
1.0
 70
     8
 71
     3
 72
     8
 73
     4
 74
     0
 42
0.000000001
 43
0.00000001
 40
0.0
 40
0.0
 40
0.0
 40
0.0
 40
1.0
 40
1.0
 40
1.0
 40
1.0
 10
7.205616192872582
 20
1.266399550934706
 30
0.0
 10
7.138579942337913
 20
1.314565006420971
 30
0.0
 10
7.097836695746282
 20
1.373525677648885
 30
0.0
 10
7.097836695746436
 20
1.417689341533009
 30
0.0
  0
SPLINE
  5
B1
330
1F
100
AcDbEntity
  8
0
  6
Continuous
 62
     4
370
    25
100
AcDbSpline
210
0.0
220
0.0
230
1.0
 70
     8
 71
     3
 72
     8
 73
     4
 74
     0
 42
0.000000001
 43
0.00000001
 40
0.0
 40
0.0
 40
0.0
 40
0.0
 40
1.0
 40
1.0
 40
1.0
 40
1.0
 10
7.598076211353303
 20
0.979755533829825
 30
0.0
 10
7.464372253576491
 20
1.078231582597331
 30
0.0
 10
7.333802484026873
 20
1.17429787384247
 30
0.0
 10
7.205616192873751
 20
1.266399550939136
 30
0.0
  0
LINE
  5
B2
330
1F
100
AcDbEntity
  8
0
  6
Continuous
 62
     4
370
    25
100
AcDbLine
 10
7.598076211353303
 20
0.9797555338298255
 30
0.0
 11
7.598076211353303
 21
0.3930189135351274
 31
0.0
  0
SPLINE
  5
B3
330
1F
100
AcDbEntity
  8
0
  6
Continuous
 62
     4
370
    25
100
AcDbSpline
210
0.0
220
0.0
230
1.0
 70
     8
 71
     3
 72
     8
 73
     4
 74
     0
 42
0.000000001
 43
0.00000001
 40
0.0
 40
0.0
 40
0.0
 40
0.0
 40
1.0
 40
1.0
 40
1.0
 40
1.0
 10
7.581515412653292
 20
0.4072753899684278
 30
0.0
 10
7.587033719240027
 20
0.4025229250417378
 30
0.0
 10
7.592553978505168
 20
0.3977707590436307
 30
0.0
 10
7.598076211353303
 20
0.3930189135351291
 30
0.0
  0
SPLINE
  5
B4
330
1F
100
AcDbEntity
  8
0
  6
Continuous
 62
     4
370
    25
100
AcDbSpline
210
0.0
220
0.0
230
1.0
 70
     8
 71
     3
 72
    14
 73
    10
 74
     0
 42
0.000000001
 43
0.00000001
 40
0.0
 40
0.0
 40
0.0
 40
0.0
 40
0.25
 40
0.25
 40
0.5
 40
0.5
 40
0.75
 40
0.75
 40
1.0
 40
1.0
 40
1.0
 40
1.0
 10
7.097836695746509
 20
0.2185407182490541
 30
0.0
 10
7.097836695746509
 20
0.2755635860952383
 30
0.0
 10
7.114315901907729
 20
0.3301600520843626
 30
0.0
 10
7.175499072486734
 20
0.4188526517842526
 30
0.0
 10
7.219640021593963
 20
0.4520600330865444
 30
0.0
 10
7.31975034568232
 20
0.4886133099517576
 30
0.0
 10
7.376568142795274
 20
0.4922663144685328
 30
0.0
 10
7.485492545092694
 20
0.4702244653016295
 30
0.0
 10
7.537981897395912
 20
0.4447672366326661
 30
0.0
 10
7.581515412653292
 20
0.4072753899684283
 30
0.0
  0
LINE
  5
B5
330
1F
100
AcDbEntity
  8
0
  6
Continuous
 62
     4
370
    25
100
AcDbLine
 10
7.097836695746509
 20
0.2185407182490541
 30
0.0
 11
7.097836695746509
 21
-0.812551319356177
 31
0.0
  0
SPLINE
  5
B6
330
1F
100
AcDbEntity
  8
0
  6
Continuous
 62
     4
370
    25
100
AcDbSpline
210
0.0
220
0.0
230
1.0
 70
     8
 71
     3
 72
     8
 73
     4
 74
     0
 42
0.000000001
 43
0.00000001
 40
0.0
 40
0.0
 40
0.0
 40
0.0
 40
1.0
 40
1.0
 40
1.0
 40
1.0
 10
7.205616192872582
 20
-0.9862903731935133
 30
0.0
 10
7.138579942337913
 20
-0.9536789398759804
 30
0.0
 10
7.097836695746282
 20
-0.8896053516125855
 30
0.0
 10
7.097836695746436
 20
-0.8125513193562065
 30
0.0
  0
SPLINE
  5
B7
330
1F
100
AcDbEntity
  8
0
  6
Continuous
 62
     4
370
    25
100
AcDbSpline
210
0.0
220
0.0
230
1.0
 70
     8
 71
     3
 72
     8
 73
     4
 74
     0
 42
0.000000001
 43
0.00000001
 40
0.0
 40
0.0
 40
0.0
 40
0.0
 40
1.0
 40
1.0
 40
1.0
 40
1.0
 10
7.598076211353303
 20
-1.13581648778746
 30
0.0
 10
7.464372253576491
 20
-1.098183953903214
 30
0.0
 10
7.333802484026873
 20
-1.048649748206061
 30
0.0
 10
7.205616192873751
 20
-0.9862903731985063
 30
0.0
  0
LINE
  5
B8
330
1F
100
AcDbEntity
  8
0
  6
Continuous
 62
     4
370
    25
100
AcDbLine
 10
7.598076211353303
 20
-1.135816487787157
 30
0.0
 11
7.598076211353303
 21
-1.447596675045797
 31
0.0
  0
SPLINE
  5
B9
330
1F
100
AcDbEntity
  8
0
  6
Continuous
 62
     4
370
    25
100
AcDbSpline
210
0.0
220
0.0
230
1.0
 70
     8
 71
     3
 72
     8
 73
     4
 74
     0
 42
0.000000001
 43
0.00000001
 40
0.0
 40
0.0
 40
0.0
 40
0.0
 40
1.0
 40
1.0
 40
1.0
 40
1.0
 10
7.581515412653503
 20
-1.448260613848556
 30
0.0
 10
7.587033719240169
 20
-1.448061106927572
 30
0.0
 10
7.592553978505239
 20
-1.447839803256259
 30
0.0
 10
7.598076211353303
 20
-1.447596675045801
 30
0.0
  0
SPLINE
  5
BA
330
1F
100
AcDbEntity
  8
0
  6
Continuous
 62
     4
370
    25
100
AcDbSpline
210
0.0
220
0.0
230
1.0
 70
     8
 71
     3
 72
    14
 73
    10
 74
     0
 42
0.000000001
 43
0.00000001
 40
0.0
 40
0.0
 40
0.0
 40
0.0
 40
0.25
 40
0.25
 40
0.5
 40
0.5
 40
0.75
 40
0.75
 40
1.0
 40
1.0
 40
1.0
 40
1.0
 10
7.097836695746509
 20
-1.619358721886821
 30
0.0
 10
7.097836695746509
 20
-1.611663195054315
 30
0.0
 10
7.114315901907744
 20
-1.596535203195092
 30
0.0
 10
7.175499072486802
 20
-1.55863065227977
 30
0.0
 10
7.219640021594057
 20
-1.536447742382875
 30
0.0
 10
7.31975034568248
 20
-1.497028052136677
 30
0.0
 10
7.376568142795464
 20
-1.479628938266493
 30
0.0
 10
7.48549254509292
 20
-1.456140624009791
 30
0.0
 10
7.537981897396297
 20
-1.449834509291338
 30
0.0
 10
7.581515412653691
 20
-1.448260613848549
 30
0.0
  0
LINE
  5
BB
330
1F
100
AcDbEntity
  8
0
  6
Continuous
 62
     4
370
    25
100
AcDbLine
 10
7.097836695746509
 20
-1.619358721886821
 30
0.0
 11
7.097836695746509
 21
-1.634038774228975
 31
0.0
  0
LINE
  5
BC
330
1F
100
AcDbEntity
  8
0
  6
Continuous
 62
     4
370
    25
100
AcDbLine
 10
2.0
 20
3.000000000000001
 30
0.0
 11
2.0
 21
-3.000000000000001
 31
0.0
  0
LINE
  5
BD
330
1F
100
AcDbEntity
  8
0
  6
Continuous
 62
     4
370
    25
100
AcDbLine
 10
-28.90192378864669
 20
2.999999999999996
 30
0.0
 11
-28.90192378864669
 21
-3.0
 31
0.0
  0
LINE
  5
BE
330
1F
100
AcDbEntity
  8
0
  6
Continuous
 62
     4
370
    25
100
AcDbLine
 10
-29.40192378864669
 20
2.499999999999997
 30
0.0
 11
-29.40192378864669
 21
-2.499999999999999
 31
0.0
  0
SPLINE
  5
BF
330
1F
100
AcDbEntity
  8
0
  6
Continuous
 62
     4
370
    25
100
AcDbSpline
210
0.0
220
0.0
230
1.0
 70
     8
 71
     3
 72
    12
 73
     8
 74
     0
 42
0.000000001
 43
0.00000001
 40
0.0
 40
0.0
 40
0.0
 40
0.0
 40
0.2499999999999999
 40
0.2499999999999999
 40
0.4999999999999999
 40
0.4999999999999999
 40
1.0
 40
1.0
 40
1.0
 40
1.0
 10
8.598076211353288
 20
1.450905051501417
 30
0.0
 10
8.5154116048137
 20
1.467407332400567
 30
0.0
 10
8.433520510022166
 20
1.479790417427322
 30
0.0
 10
8.266095763335851
 20
1.496261108409514
 30
0.0
 10
8.181562972805246
 20
1.500274211381107
 30
0.0
 10
7.928740276554742
 20
1.499407767122319
 30
0.0
 10
7.765471932524558
 20
1.481816999071768
 30
0.0
 10
7.598076211353299
 20
1.447596675045799
 30
0.0
  0
SPLINE
  5
C0
330
1F
100
AcDbEntity
  8
0
  6
Continuous
 62
     4
370
    25
100
AcDbSpline
210
0.0
220
0.0
230
1.0
 70
     8
 71
     3
 72
    12
 73
     8
 74
     0
 42
0.000000001
 43
0.00000001
 40
0.0
 40
0.0
 40
0.0
 40
0.0
 40
0.25
 40
0.25
 40
0.5
 40
0.5
 40
1.0
 40
1.0
 40
1.0
 40
1.0
 10
8.598076211353305
 20
0.2834390471727099
 30
0.0
 10
8.515411604813714
 20
0.3473012691578267
 30
0.0
 10
8.433520510022177
 20
0.4101723190545543
 30
0.0
 10
8.266095763335866
 20
0.5341460403391354
 30
0.0
 10
8.181562972805256
 20
0.5949864523214988
 30
0.0
 10
7.928740276554749
 20
0.7717038508256706
 30
0.0
 10
7.765471932524561
 20
0.8808595089629435
 30
0.0
 10
7.598076211353299
 20
0.979755533829827
 30
0.0
  0
SPLINE
  5
C1
330
1F
100
AcDbEntity
  8
0
  6
Continuous
 62
     4
370
    25
100
AcDbSpline
210
0.0
220
0.0
230
1.0
 70
     8
 71
     3
 72
    12
 73
     8
 74
     0
 42
0.000000001
 43
0.00000001
 40
0.0
 40
0.0
 40
0.0
 40
0.0
 40
0.25
 40
0.25
 40
0.5
 40
0.5
 40
1.0
 40
1.0
 40
1.0
 40
1.0
 10
8.598076211353288
 20
-0.3806238714632358
 30
0.0
 10
8.5154116048137
 20
-0.317718613771892
 30
0.0
 10
8.433520510022166
 20
-0.2539395022286645
 30
0.0
 10
8.266095763335851
 20
-0.1243689903593359
 30
0.0
 10
8.181562972805246
 20
-0.0588326943603338
 30
0.0
 10
7.928740276554742
 20
0.1375221034484491
 30
0.0
 10
7.765471932524558
 20
0.2669760551052258
 30
0.0
 10
7.598076211353299
 20
0.3930189135351295
 30
0.0
  0
SPLINE
  5
C2
330
1F
100
AcDbEntity
  8
0
  6
Continuous
 62
     4
370
    25
100
AcDbSpline
210
0.0
220
0.0
230
1.0
 70
     8
 71
     3
 72
    12
 73
     8
 74
     0
 42
0.000000001
 43
0.00000001
 40
0.0
 40
0.0
 40
0.0
 40
0.0
 40
0.2500000000000001
 40
0.2500000000000001
 40
0.5
 40
0.5
 40
1.0
 40
1.0
 40
1.0
 40
1.0
 10
8.598076211353309
 20
-1.472977361176277
 30
0.0
 10
8.515411604813714
 20
-1.460688613346956
 30
0.0
 10
8.433520510022174
 20
-1.44430731459177
 30
0.0
 10
8.266095763335858
 20
-1.403193841880693
 30
0.0
 10
8.18156297280525
 20
-1.3785046669543
 30
0.0
 10
7.928740276554731
 20
-1.292907246350047
 30
0.0
 10
7.765471932524545
 20
-1.221124218991325
 30
0.0
 10
7.598076211353276
 20
-1.135816487787447
 30
0.0
  0
SPLINE
  5
C3
330
1F
100
AcDbEntity
  8
0
  6
Continuous
 62
     4
370
    25
100
AcDbSpline
210
0.0
220
0.0
230
1.0
 70
     8
 71
     3
 72
     9
 73
     5
 74
     0
 42
0.000000001
 43
0.00000001
 40
0.0
 40
0.0
 40
0.0
 40
0.0
 40
0.9834224047355296
 40
1.0
 40
1.0
 40
1.0
 40
1.0
 10
7.598076211349587
 20
-1.447596675045037
 30
0.0
 10
7.764415001244555
 20
-1.481671850234968
 30
0.0
 10
7.933557771527181
 20
-1.516321432170307
 30
0.0
 10
8.102903370581014
 20
-1.499439846047575
 30
0.0
 10
8.105710713381946
 20
-1.49915998994541
 30
0.0
  0
SPLINE
  5
C4
330
1F
100
AcDbEntity
  8
0
  6
Continuous
 62
     1
370
    25
100
AcDbSpline
210
0.0
220
0.0
230
1.0
 70
     8
 71
     3
 72
    20
 73
    16
 74
     0
 42
0.000000001
 43
0.00000001
 40
0.0
 40
0.0
 40
0.0
 40
0.0
 40
0.0604761871811031
 40
0.1394112469693848
 40
0.218563674957236
 40
0.2978995023106517
 40
0.3769057377546477
 40
0.4558455483613947
 40
0.5350214765346704
 40
0.6143418209360494
 40
0.6933350240851821
 40
0.7722807726954968
 40
0.8514813474876354
 40
0.9307827720419852
 40
1.0
 40
1.0
 40
1.0
 40
1.0
 10
10.04435328547219
 20
1.259490245524754
 30
0.0
 10
10.1876432565278
 20
1.317031984076341
 30
0.0
 10
10.5179589472847
 20
1.449678665326935
 30
0.0
 10
11.03536445099398
 20
1.517908347666121
 30
0.0
 10
11.59813668771633
 20
1.475451518808397
 30
0.0
 10
12.16189882389824
 20
1.304241625066338
 30
0.0
 10
12.72378462709447
 20
1.022257155514908
 30
0.0
 10
13.2852174111167
 20
0.6528419969741402
 30
0.0
 10
13.84809755712411
 20
0.2281444513072241
 30
0.0
 10
14.41178074993136
 20
-0.2153194238671095
 30
0.0
 10
14.97358178209721
 20
-0.6414295691463804
 30
0.0
 10
15.53505928203675
 20
-1.013504571837597
 30
0.0
 10
16.09807239109509
 20
-1.29553885661521
 30
0.0
 10
16.63849853633967
 20
-1.471801063787884
 30
0.0
 10
16.99016532059212
 20
-1.486308261704257
 30
0.0
 10
17.15405988574674
 20
-1.493069352033474
 30
0.0
  0
SPLINE
  5
C5
330
1F
100
AcDbEntity
  8
0
  6
Continuous
 62
     1
370
    25
100
AcDbSpline
210
0.0
220
0.0
230
1.0
 70
     8
 71
     3
 72
    21
 73
    17
 74
     0
 42
0.000000001
 43
0.00000001
 40
0.0
 40
0.0
 40
0.0
 40
0.0
 40
0.0253445512553836
 40
0.1046017505735227
 40
0.1838062563980636
 40
0.2627373468263269
 40
0.341696905412793
 40
0.4209764514649874
 40
0.5001551755784529
 40
0.5790791438141926
 40
0.6580505534964984
 40
0.7373490141759184
 40
0.8165030984702861
 40
0.8954211303406966
 40
0.9744055687223807
 40
1.0
 40
1.0
 40
1.0
 40
1.0
 10
19.09185158553641
 20
-1.262322985250713
 30
0.0
 10
19.03194695032334
 20
-1.288634626966706
 30
0.0
 10
18.78470920491542
 20
-1.397227742552901
 30
0.0
 10
18.34791659845454
 20
-1.495270372890646
 30
0.0
 10
17.78494765236163
 20
-1.511963676903014
 30
0.0
 10
17.22336859392764
 20
-1.395112391839218
 30
0.0
 10
16.66165788971592
 20
-1.160290264883291
 30
0.0
 10
16.09807586410427
 20
-0.8270447304746364
 30
0.0
 10
15.53505838036627
 20
-0.4231153990726435
 30
0.0
 10
14.97358193030733
 20
0.0173277825582037
 30
0.0
 10
14.41178105870236
 20
0.4565989632111194
 30
0.0
 10
13.84809616748924
 20
0.8551678886154935
 30
0.0
 10
13.28522264147754
 20
1.184024819917456
 30
0.0
 10
12.72376514748458
 20
1.403141261978703
 30
0.0
 10
12.28919423664498
 20
1.505941645287224
 30
0.0
 10
12.04099576145873
 20
1.489864349309552
 30
0.0
 10
11.98025214434889
 20
1.485929622835925
 30
0.0
  0
LINE
  5
C6
330
1F
100
AcDbEntity
  8
0
  6
Continuous
 62
     1
370
    25
100
AcDbLine
 10
20.59807621135331
 20
1.462748547532894
 30
0.0
 11
20.59807621135331
 21
1.500000000000004
 31
0.0
  0
SPLINE
  5
C7
330
1F
100
AcDbEntity
  8
0
  6
Continuous
 62
     1
370
    25
100
AcDbSpline
210
0.0
220
0.0
230
1.0
 70
     8
 71
     3
 72
    18
 73
    14
 74
     0
 42
0.000000001
 43
0.00000001
 40
0.0
 40
0.0
 40
0.0
 40
0.0
 40
0.0338200274962338
 40
0.1353767934440791
 40
0.2372130770066544
 40
0.3386291358815662
 40
0.4399356120940422
 40
0.5415210620147551
 40
0.6433418895169227
 40
0.7447397136664482
 40
0.846052287152799
 40
0.9476678975748414
 40
1.0
 40
1.0
 40
1.0
 40
1.0
 10
8.598076211353288
 20
1.450905051501418
 30
0.0
 10
8.660431494034157
 20
1.437116256927583
 30
0.0
 10
8.910030883761891
 20
1.381921659730027
 30
0.0
 10
9.348226899258687
 20
1.212860615189449
 30
0.0
 10
9.911999764942923
 20
0.8978629146003795
 30
0.0
 10
10.47398883219235
 20
0.5040744888886779
 30
0.0
 10
11.03538328887739
 20
0.0677799266808637
 30
0.0
 10
11.59813181750026
 20
-0.3742944212776597
 30
0.0
 10
12.1618993881837
 20
-0.783166195266246
 30
0.0
 10
12.72378720761682
 20
-1.128233405075679
 30
0.0
 10
13.28520651976222
 20
-1.370359963113299
 30
0.0
 10
13.75675391521018
 20
-1.495457006899204
 30
0.0
 10
14.04130877775057
 20
-1.486839950601893
 30
0.0
 10
14.13803872544924
 20
-1.483910717913637
 30
0.0
  0
SPLINE
  5
C8
330
1F
100
AcDbEntity
  8
0
  6
Continuous
 62
     1
370
    25
100
AcDbSpline
210
0.0
220
0.0
230
1.0
 70
     8
 71
     3
 72
    11
 73
     7
 74
     0
 42
0.000000001
 43
0.00000001
 40
0.0
 40
0.0
 40
0.0
 40
0.0
 40
0.1592635924904585
 40
0.4404622771895227
 40
0.7197300654699361
 40
1.0
 40
1.0
 40
1.0
 40
1.0
 10
19.09185158553641
 20
1.262322985250717
 30
0.0
 10
19.17163949366825
 20
1.296715849642302
 30
0.0
 10
19.3923023781253
 20
1.391833378589765
 30
0.0
 10
19.75500403290078
 20
1.474080585443311
 30
0.0
 10
20.17606245668921
 20
1.515742971971386
 30
0.0
 10
20.45723709616228
 20
1.480434435173959
 30
0.0
 10
20.59807621135331
 20
1.462748547532887
 30
0.0
  0
SPLINE
  5
C9
330
1F
100
AcDbEntity
  8
0
  6
Continuous
 62
     1
370
    25
100
AcDbSpline
210
0.0
220
0.0
230
1.0
 70
     8
 71
     3
 72
    20
 73
    16
 74
     0
 42
0.000000001
 43
0.00000001
 40
0.0
 40
0.0
 40
0.0
 40
0.0
 40
0.0757966191932295
 40
0.1547307784535438
 40
0.2337123852862813
 40
0.313021085346457
 40
0.3921853903790398
 40
0.4711136125074941
 40
0.5501082497219354
 40
0.6294324304612278
 40
0.7085732387582474
 40
0.7874967107656636
 40
0.8665055538620225
 40
0.9458417757461316
 40
0.9999999999999999
 40
0.9999999999999999
 40
0.9999999999999999
 40
0.9999999999999999
 10
16.07378470980293
 20
-1.267009142675976
 30
0.0
 10
15.89400395346152
 20
-1.333022028953622
 30
0.0
 10
15.52700056101789
 20
-1.467780351823749
 30
0.0
 10
14.97358873132643
 20
-1.520083381760097
 30
0.0
 10
14.41177888592321
 20
-1.451905176247935
 30
0.0
 10
13.84809802942833
 20
-1.258159780434485
 30
0.0
 10
13.28521738571061
 20
-0.9576326872572041
 30
0.0
 10
12.72378425954588
 20
-0.575002832700282
 30
0.0
 10
12.1619003239275
 20
-0.1431798675178173
 30
0.0
 10
11.59813103557237
 20
0.2996280514311507
 30
0.0
 10
11.03538547236542
 20
0.7174974015180773
 30
0.0
 10
10.47398089722251
 20
1.075634122773105
 30
0.0
 10
9.912029417039847
 20
1.33727735565609
 30
0.0
 10
9.407389884417043
 20
1.484955821913165
 30
0.0
 10
9.091026073751976
 20
1.485791581931075
 30
0.0
 10
8.962678395631361
 20
1.486130646811913
 30
0.0
  0
LINE
  5
CA
330
1F
100
AcDbEntity
  8
0
  6
Continuous
 62
     1
370
    25
100
AcDbLine
 10
20.59807621135331
 20
-1.499999999999999
 30
0.0
 11
20.59807621135331
 21
-1.462748547532891
 31
0.0
  0
SPLINE
  5
CB
330
1F
100
AcDbEntity
  8
0
  6
Continuous
 62
     1
370
    25
100
AcDbSpline
210
0.0
220
0.0
230
1.0
 70
     8
 71
     3
 72
    21
 73
    17
 74
     0
 42
0.000000001
 43
0.00000001
 40
0.0
 40
0.0
 40
0.0
 40
0.0
 40
0.0319311469521284
 40
0.1110848233726787
 40
0.1903828754343224
 40
0.2693538781841166
 40
0.348277439731806
 40
0.4274557558444869
 40
0.506734893376371
 40
0.5856940450913928
 40
0.6646247287949058
 40
0.7438288264858112
 40
0.8230856173987906
 40
0.8821714881144262
 40
0.9417645465346869
 40
1.0
 40
1.0
 40
1.0
 40
1.0
 10
13.0578493662
 20
1.25616039063515
 30
0.0
 10
13.13348220573734
 20
1.290902286259414
 30
0.0
 10
13.39660024010599
 20
1.41176538412556
 30
0.0
 10
13.8481110160931
 20
1.500228746164151
 30
0.0
 10
14.41177709346196
 20
1.507409147673664
 30
0.0
 10
14.97358299654092
 20
1.37946576479261
 30
0.0
 10
15.53505806969788
 20
1.135526399427917
 30
0.0
 10
16.09807603766087
 20
0.794622782077157
 30
0.0
 10
16.66165750732079
 20
0.3867082704936143
 30
0.0
 10
17.22336994393998
 20
-0.0552561561721122
 30
0.0
 10
17.78494262696971
 20
-0.492416974982369
 30
0.0
 10
18.3479354264028
 20
-0.8869228573757038
 30
0.0
 10
18.86482921301882
 20
-1.179387261264021
 30
0.0
 10
19.33209171266727
 20
-1.37037054087138
 30
0.0
 10
19.75268504637329
 20
-1.479518494741495
 30
0.0
 10
20.03133976609723
 20
-1.492845796426166
 30
0.0
 10
20.16906181404376
 20
-1.499432669540795
 30
0.0
  0
SPLINE
  5
CC
330
1F
100
AcDbEntity
  8
0
  6
Continuous
 62
     1
370
    25
100
AcDbSpline
210
0.0
220
0.0
230
1.0
 70
     8
 71
     3
 72
    16
 73
    12
 74
     0
 42
0.000000001
 43
0.00000001
 40
0.0
 40
0.0
 40
0.0
 40
0.0
 40
0.0822667914479462
 40
0.1636658156536844
 40
0.2840324811518575
 40
0.404319121867772
 40
0.5241905309097323
 40
0.6441051740970475
 40
0.7645057772297339
 40
0.8847532636654106
 40
1.0
 40
1.0
 40
1.0
 40
1.0
 10
19.67793944399354
 20
-1.144286700689218
 30
0.0
 10
19.54924048052806
 20
-1.075386492823659
 30
0.0
 10
19.29320009705583
 20
-0.9383128508285122
 30
0.0
 10
18.85187602848956
 20
-0.640666841518255
 30
0.0
 10
18.34790880634174
 20
-0.2662898690098639
 30
0.0
 10
17.78494972690133
 20
0.1779300957219147
 30
0.0
 10
17.22336805618535
 20
0.6068551372153345
 30
0.0
 10
16.66165796915189
 20
0.9849120692875069
 30
0.0
 10
16.09807608771198
 20
1.275476697592263
 30
0.0
 10
15.54226302601421
 20
1.46551156686167
 30
0.0
 10
15.17500716412511
 20
1.487081160220284
 30
0.0
 10
14.9952785959056
 20
1.497636940355364
 30
0.0
  0
SPLINE
  5
CD
330
1F
100
AcDbEntity
  8
0
  6
Continuous
 62
     1
370
    25
100
AcDbSpline
210
0.0
220
0.0
230
1.0
 70
     8
 71
     3
 72
    11
 73
     7
 74
     0
 42
0.000000001
 43
0.00000001
 40
0.0
 40
0.0
 40
0.0
 40
0.0
 40
0.0911831192489074
 40
0.4813409248070954
 40
0.8704278352445778
 40
1.0
 40
1.0
 40
1.0
 40
1.0
 10
10.04435328547221
 20
-1.25949024552475
 30
0.0
 10
10.00042777930556
 20
-1.280668003786379
 30
0.0
 10
9.768552143387044
 20
-1.392461961165347
 30
0.0
 10
9.348181790618334
 20
-1.484612462596387
 30
0.0
 10
8.910034008934502
 20
-1.512233054480829
 30
0.0
 10
8.660432118711501
 20
-1.480824013492296
 30
0.0
 10
8.598076211353263
 20
-1.472977361175912
 30
0.0
  0
LINE
  5
CE
330
1F
100
AcDbEntity
  8
0
  6
Continuous
 62
     1
370
    25
100
AcDbLine
 10
19.67793944399315
 20
-1.144286700689495
 30
0.0
 11
19.65096339748068
 21
-1.163175531808627
 31
0.0
  0
ELLIPSE
  5
CF
330
1F
100
AcDbEntity
  8
0
  6
Continuous
 62
     1
370
    25
100
AcDbEllipse
 10
20.35384851837521
 20
0.0000000000000021
 30
0.0
 11
2.083984958489946
 21
-0.8255115090626443
 31
0.0
210
0.0
220
0.0
230
1.0
 40
0.6009688174887261
 41
4.611793293069587
 42
4.96270133697907
  0
SPLINE
  5
D0
330
1F
100
AcDbEntity
  8
0
  6
Continuous
 62
     1
370
    25
100
AcDbSpline
210
0.0
220
0.0
230
1.0
 70
     8
 71
     3
 72
     8
 73
     4
 74
     0
 42
0.000000001
 43
0.00000001
 40
0.0
 40
0.0
 40
0.0
 40
0.0
 40
1.0
 40
1.0
 40
1.0
 40
1.0
 10
20.59807621135331
 20
-1.462748547532531
 30
0.0
 10
20.52943559319625
 20
-1.450716191886036
 30
0.0
 10
20.45968165179242
 20
-1.435732330481823
 30
0.0
 10
20.3894197744576
 20
-1.41786338341809
 30
0.0
  0
SPLINE
  5
D1
330
1F
100
AcDbEntity
  8
0
  6
Continuous
 62
     1
370
    25
100
AcDbSpline
210
0.0
220
0.0
230
1.0
 70
     8
 71
     3
 72
    11
 73
     7
 74
     0
 42
0.000000001
 43
0.00000001
 40
0.0
 40
0.0
 40
0.0
 40
0.0
 40
0.2310138071427617
 40
0.4595908325561284
 40
0.7975930951994425
 40
1.0
 40
1.0
 40
1.0
 40
1.0
 10
19.67793944399357
 20
0.969849445339173
 30
0.0
 10
19.54923932271435
 20
1.042431578050477
 30
0.0
 10
19.2931966358275
 20
1.186830232027348
 30
0.0
 10
18.85189242797247
 20
1.370021297012923
 30
0.0
 10
18.42326776191643
 20
1.490518315237349
 30
0.0
 10
18.12281027974148
 20
1.486177524737487
 30
0.0
 10
18.01027579170003
 20
1.48455170855524
 30
0.0
  0
SPLINE
  5
D2
330
1F
100
AcDbEntity
  8
0
  6
Continuous
 62
     1
370
    25
100
AcDbSpline
210
0.0
220
0.0
230
1.0
 70
     8
 71
     3
 72
    16
 73
    12
 74
     0
 42
0.000000001
 43
0.00000001
 40
0.0
 40
0.0
 40
0.0
 40
0.0
 40
0.074926262953802
 40
0.200876930540149
 40
0.3273530290724107
 40
0.4535367548267775
 40
0.5793739551493988
 40
0.7053472728848482
 40
0.8318425700650388
 40
0.9579906662034645
 40
1.0
 40
1.0
 40
1.0
 40
1.0
 10
13.0578493662
 20
-1.256160390635147
 30
0.0
 10
12.94653985028041
 20
-1.304039465784099
 30
0.0
 10
12.64811960327539
 20
-1.432403023151864
 30
0.0
 10
12.16191004429702
 20
-1.511822502162476
 30
0.0
 10
11.59812896428504
 20
-1.492623784476076
 30
0.0
 10
11.03538405028501
 20
-1.341499230510564
 30
0.0
 10
10.47398862816116
 20
-1.077155962375569
 30
0.0
 10
9.911999820011768
 20
-0.7202598922149752
 30
0.0
 10
9.348226884085857
 20
-0.3037326803276478
 30
0.0
 10
8.910030884813075
 20
0.0425905359816426
 30
0.0
 10
8.660431494244257
 20
0.2352968703537919
 30
0.0
 10
8.598076211353263
 20
0.2834390471727259
 30
0.0
  0
LINE
  5
D3
330
1F
100
AcDbEntity
  8
0
  6
Continuous
 62
     1
370
    25
100
AcDbLine
 10
20.59807621135331
 20
0.8043077700777034
 30
0.0
 11
20.59807621135331
 21
1.462748547532894
 31
0.0
  0
SPLINE
  5
D4
330
1F
100
AcDbEntity
  8
0
  6
Continuous
 62
     1
370
    25
100
AcDbSpline
210
0.0
220
0.0
230
1.0
 70
     8
 71
     3
 72
    11
 73
     7
 74
     0
 42
0.000000001
 43
0.00000001
 40
0.0
 40
0.0
 40
0.0
 40
0.0
 40
0.2824092703459841
 40
0.5644956037681034
 40
0.861844451390056
 40
1.0
 40
1.0
 40
1.0
 40
1.0
 10
20.59807621135331
 20
0.8043077700777034
 30
0.0
 10
20.56465750110841
 20
0.7642097412827075
 30
0.0
 10
20.49785829514139
 20
0.684059536061713
 30
0.0
 10
20.36169439070371
 20
0.6272882782907542
 30
0.0
 10
20.24198404373164
 20
0.6091291113638
 30
0.0
 10
20.17299857130214
 20
0.6331049571001108
 30
0.0
 10
20.15111423242503
 20
0.6407108415636138
 30
0.0
  0
LINE
  5
D5
330
1F
100
AcDbEntity
  8
0
  6
Continuous
 62
     1
370
    25
100
AcDbLine
 10
19.7408940254711
 20
0.8939942232334395
 30
0.0
 11
19.67793944399357
 21
0.9698494453391677
 31
0.0
  0
SPLINE
  5
D6
330
1F
100
AcDbEntity
  8
0
  6
Continuous
 62
     1
370
    25
100
AcDbSpline
210
0.0
220
0.0
230
1.0
 70
     8
 71
     3
 72
    13
 73
     9
 74
     0
 42
0.000000001
 43
0.00000001
 40
0.0
 40
0.0
 40
0.0
 40
0.0
 40
0.0742590664018046
 40
0.2972485547135275
 40
0.5208517834225648
 40
0.7435323194168084
 40
0.9659722433592964
 40
1.0
 40
1.0
 40
1.0
 40
1.0
 10
8.598076211353288
 20
-0.3806238714632357
 30
0.0
 10
8.660431451672789
 20
-0.4274065738244235
 30
0.0
 10
8.910030671833958
 20
-0.6146711239496895
 30
0.0
 10
9.348229958219658
 20
-0.9170901223276122
 30
0.0
 10
9.911988662632865
 20
-1.230682971043322
 30
0.0
 10
10.47402996647529
 20
-1.428126912574834
 30
0.0
 10
10.87646753798585
 20
-1.514309879179649
 30
0.0
 10
11.09221312336764
 20
-1.494357509050089
 30
0.0
 10
11.12083793199454
 20
-1.49171025777215
 30
0.0
  0
SPLINE
  5
D7
330
1F
100
AcDbEntity
  8
0
  6
Continuous
 62
     1
370
    25
100
AcDbSpline
210
0.0
220
0.0
230
1.0
 70
     8
 71
     3
 72
    17
 73
    13
 74
     0
 42
0.000000001
 43
0.00000001
 40
0.0
 40
0.0
 40
0.0
 40
0.0
 40
0.0053307810824956
 40
0.1299285117655241
 40
0.2540233420907407
 40
0.3780734311417526
 40
0.5025532267136306
 40
0.6271158367067697
 40
0.7199771572986875
 40
0.8136355909646619
 40
0.9066509037912355
 40
1.0
 40
1.0
 40
1.0
 40
1.0
 10
16.07378470980294
 20
1.267009142675981
 30
0.0
 10
16.08182857650075
 20
1.271049216981289
 30
0.0
 10
16.27788382857605
 20
1.369518997260676
 30
0.0
 10
16.66169997189629
 20
1.464319086743479
 30
0.0
 10
17.22335847367621
 20
1.522582311099973
 30
0.0
 10
17.78494614986326
 20
1.439237952173339
 30
0.0
 10
18.34793283787772
 20
1.236370332207076
 30
0.0
 10
18.86483524083521
 20
0.9540753246580375
 30
0.0
 10
19.33207582100598
 20
0.6371893329827136
 30
0.0
 10
19.75499991408179
 20
0.3254100151604996
 30
0.0
 10
20.17606348773671
 20
-0.0067370166644679
 30
0.0
 10
20.45723744025489
 20
-0.223592754242898
 30
0.0
 10
20.59807621135331
 20
-0.3322148200945005
 30
0.0
  0
LINE
  5
D8
330
1F
100
AcDbEntity
  8
0
  6
Continuous
 62
     1
370
    25
100
AcDbLine
 10
20.59807621135331
 20
-0.5000000000000003
 30
0.0
 11
20.59807621135331
 21
-0.3333766702694372
 31
0.0
  0
SPLINE
  5
D9
330
1F
100
AcDbEntity
  8
0
  6
Continuous
 62
     1
370
    25
100
AcDbSpline
210
0.0
220
0.0
230
1.0
 70
    24
 71
     3
 72
    14
 73
    10
 74
     0
 42
0.000000001
 43
0.00000001
 40
0.0
 40
0.0
 40
0.0
 40
0.0
 40
0.2500000000000001
 40
0.2500000000000001
 40
0.5000000000000001
 40
0.5000000000000001
 40
0.7500000000000002
 40
0.7500000000000002
 40
1.0
 40
1.0
 40
1.0
 40
1.0
 10
20.59807621135331
 20
-0.5000000000000006
 30
0.0
 10
20.54120210056249
 20
-0.5398236811047058
 30
0.0
 10
20.46345357244386
 20
-0.5942637865780749
 30
0.0
 10
20.29268271025249
 20
-0.7138388315910476
 30
0.0
 10
20.20221345952778
 20
-0.777186082924704
 30
0.0
 10
20.03245423116062
 20
-0.8960527743080622
 30
0.0
 10
19.95065801972616
 20
-0.9533270981513636
 30
0.0
 10
19.80392724131982
 20
-1.056069095278866
 30
0.0
 10
19.73686893998224
 20
-1.103023823375038
 30
0.0
 10
19.67793944399356
 20
-1.14428670068921
 30
0.0
  0
ELLIPSE
  5
DA
330
1F
100
AcDbEntity
  8
0
  6
Continuous
 62
     1
370
    25
100
AcDbEllipse
 10
21.31215021472436
 20
0.0000000000000013
 30
0.0
 11
2.142222010113166
 21
-3.944304526105059E-31
 31
0.0
210
0.0
220
0.0
230
1.0
 40
0.7002075382097123
 41
2.438517955908543
 42
2.458224363529681
  0
ELLIPSE
  5
DB
330
1F
100
AcDbEntity
  8
0
  6
Continuous
 62
     1
370
    25
100
AcDbEllipse
 10
20.35384851837521
 20
0.0000000000000013
 30
0.0
 11
2.128653848971173
 21
-1.45826110561111
 31
0.0
210
0.0
220
0.0
230
1.0
 40
0.1650759015746642
 41
1.666799630296373
 42
2.017707674205857
  0
SPLINE
  5
DC
330
1F
100
AcDbEntity
  8
0
  6
Continuous
 62
     1
370
    25
100
AcDbSpline
210
0.0
220
0.0
230
1.0
 70
     8
 71
     3
 72
     8
 73
     4
 74
     0
 42
0.000000001
 43
0.00000001
 40
0.0
 40
0.0
 40
0.0
 40
0.0
 40
1.0
 40
1.0
 40
1.0
 40
1.0
 10
20.59807621135331
 20
0.3322148200944755
 30
0.0
 10
20.52943559319766
 20
0.3851935244759928
 30
0.0
 10
20.45968165179529
 20
0.4378016785176185
 30
0.0
 10
20.38941977446193
 20
0.4895543135935122
 30
0.0
  0
LINE
  5
DD
330
1F
100
AcDbEntity
  8
0
  6
Continuous
 62
     1
370
    25
100
AcDbLine
 10
20.59807621135331
 20
-0.3322148200945009
 30
0.0
 11
20.59807621135331
 21
0.3322148200945043
 31
0.0
  0
LINE
  5
DE
330
1F
100
AcDbEntity
  8
0
  6
Continuous
 62
     1
370
    25
100
AcDbLine
 10
20.59807621135331
 20
0.3322148200944754
 30
0.0
 11
20.59807621135331
 21
0.8043077700777034
 31
0.0
  0
SPLINE
  5
DF
330
1F
100
AcDbEntity
  8
0
  6
Continuous
 62
     1
370
    25
100
AcDbSpline
210
0.0
220
0.0
230
1.0
 70
     8
 71
     3
 72
     8
 73
     4
 74
     0
 42
0.000000001
 43
0.00000001
 40
0.0
 40
0.0
 40
0.0
 40
0.0
 40
1.0
 40
1.0
 40
1.0
 40
1.0
 10
20.59807621135331
 20
-1.40438306375367
 30
0.0
 10
20.52754511494976
 20
-1.404405622966354
 30
0.0
 10
20.45654077609422
 20
-1.402266877857513
 30
0.0
 10
20.38941977446082
 20
-1.41786338341269
 30
0.0
  0
LINE
  5
E0
330
1F
100
AcDbEntity
  8
0
  6
Continuous
 62
     1
370
    25
100
AcDbLine
 10
20.59807621135331
 20
-0.4999999999999979
 30
0.0
 11
20.59807621135331
 21
-1.404383063753669
 31
0.0
  0
LINE
  5
E1
330
1F
100
AcDbEntity
  8
0
  6
Continuous
 62
     1
370
    25
100
AcDbLine
 10
20.59807621135331
 20
-1.462748547532891
 30
0.0
 11
20.59807621135331
 21
-1.40438306375367
 31
0.0
  0
LINE
  5
E2
330
1F
100
AcDbEntity
  8
중심선
100
AcDbLine
 10
-32.40192378864669
 20
-0.000000000000003
 30
0.0
 11
23.59807621135331
 21
0.0000000000000038
 31
0.0
  0
CIRCLE
  5
E3
330
1F
100
AcDbEntity
  8
해칭선
100
AcDbCircle
 10
-0.0081144043240413
 20
-0.0000000000000041
 30
0.0
 40
3.000000000000001
  0
INSERT
  5
E4
330
1F
100
AcDbEntity
  8
0
  6
Continuous
 62
     7
100
AcDbBlockReference
 66
     1
  2
블럭10
 10
-15.44814782084245
 20
-52.04717430164393
 30
0.0
  0
ATTRIB
  5
E5
330
E4
100
AcDbEntity
  8
FORMAT
 62
     2
100
AcDbText
 10
-31.56740886027801
 20
-49.97180738881174
 30
0.0
 40
4.233333333333333
  1
SEME7103012E [ 4 FLUTE ]
 41
0.75
  7
SLDTEXTSTYLE0
 11
-31.56740886027801
 21
-52.08847405547841
 31
0.0
100
AcDbAttribute
  2
AUTOATTR0
 70
     0
 74
     1
  0
SEQEND
  5
E6
330
E4
100
AcDbEntity
  8
0
  6
Continuous
 62
     7
  0
HATCH
  5
E7
330
1F
100
AcDbEntity
  8
중심선
100
AcDbHatch
 10
0.0
 20
0.0
 30
0.0
210
0.0
220
0.0
230
1.0
  2
SOLID
 70
     1
 71
     0
 91
        1
 92
        0
 93
        4
 72
     1
 10
-9.7332385164616
 20
-35.8
 11
-13.17951376029888
 21
-35.8
 72
     1
 10
-13.17951376029888
 20
-35.8
 11
-15.30774361950291
 21
-38.33632558057259
 72
     1
 10
-15.30774361950291
 20
-38.33632558057259
 11
-11.86143529055247
 21
-38.3362861512701
 72
     1
 10
-11.86143529055247
 20
-38.3362861512701
 11
-9.7332385164616
 21
-35.8
 97
        0
 75
     0
 76
     1
 98
        1
 10
0.0
 20
0.0
  0
HATCH
  5
E8
330
1F
100
AcDbEntity
  8
중심선
100
AcDbHatch
 10
0.0
 20
0.0
 30
0.0
210
0.0
220
0.0
230
1.0
  2
SOLID
 70
     1
 71
     0
 91
        1
 92
        0
 93
        4
 72
     1
 10
-4.72047452542565
 20
-35.80000000000003
 11
-8.166749769262932
 21
-35.8
 72
     1
 10
-8.166749769262932
 20
-35.8
 11
-12.69788777762032
 21
-41.20000000000002
 72
     1
 10
-12.69788777762032
 20
-41.20000000000002
 11
-9.251612533783039
 21
-41.20000000000002
 72
     1
 10
-9.251612533783039
 20
-41.20000000000002
 11
-4.72047452542565
 21
-35.80000000000003
 97
        0
 75
     0
 76
     1
 98
        1
 10
0.0
 20
0.0
  0
HATCH
  5
E9
330
1F
100
AcDbEntity
  8
중심선
100
AcDbHatch
 10
0.0
 20
0.0
 30
0.0
210
0.0
220
0.0
230
1.0
  2
SOLID
 70
     1
 71
     0
 91
        1
 92
        0
 93
        4
 72
     1
 10
0.2922894656102459
 20
-35.8
 11
-3.153985778226843
 21
-35.8
 72
     1
 10
-3.153985778226842
 20
-35.8
 11
-10.20242268011612
 21
-44.20000000000002
 72
     1
 10
-10.20242268011612
 20
-44.20000000000002
 11
-6.756147436278837
 21
-44.20000000000002
 72
     1
 10
-6.756147436278837
 20
-44.20000000000002
 11
0.2922894656102457
 21
-35.8
 97
        0
 75
     0
 76
     1
 98
        1
 10
0.0
 20
0.0
  0
HATCH
  5
EA
330
1F
100
AcDbEntity
  8
중심선
100
AcDbHatch
 10
0.0
 20
0.0
 30
0.0
210
0.0
220
0.0
230
1.0
  2
SOLID
 70
     1
 71
     0
 91
        1
 92
        0
 93
        6
 72
     3
 10
5.092179896622445
 20
-40.00000000005127
 11
3.960054785062284
 21
1.540850780301639E-10
 40
0.3939339440162633
 50
17.09539180608434
 51
320.0019657685079
 73
     0
 72
     1
 10
6.77517955232304
 20
-38.5878940046383
 11
9.080481426024106
 21
-36.65356729459035
 72
     3
 10
5.092179896569599
 20
-40.00000000000015
 11
6.600054785286829
 21
-1.249000902703301E-13
 40
0.6363583540795982
 50
39.99873849337413
 51
368.4976242363725
 73
     1
 72
     1
 10
11.51751238847021
 20
-39.03999999993002
 11
3.772247203405549
 21
-39.03999999993002
 72
     1
 10
3.772247203405549
 20
-39.03999999993002
 11
3.772222158959587
 21
-40.95999999992991
 72
     1
 10
3.772222158959587
 20
-40.95999999992991
 11
8.213601928431624
 21
-40.95999999992988
 97
        0
 75
     0
 76
     1
 98
        1
 10
0.0
 20
0.0
  0
DIMENSION
  5
EB
330
1F
100
AcDbEntity
  8
치수문자_일반주서
100
AcDbDimension
  2
_D
 10
28.74745199393112
 20
1.500000000000036
 30
0.0
 11
28.74745199393109
 21
11.16650000000003
 31
0.0
 70
   160
  1
%%c<>
 71
     2
 42
3.000000000000008
 52
-270.0
  3
SLDDIMSTYLE0
100
AcDbAlignedDimension
 13
20.59807621135332
 23
-1.500000000000003
 33
0.0
 14
20.59807621135332
 24
1.500000000000005
 34
0.0
 50
90.0000000000002
100
AcDbRotatedDimension
  0
DIMENSION
  5
F9
330
1F
100
AcDbEntity
  8
치수문자_일반주서
100
AcDbDimension
  2
_D_1
 10
20.59807621135331
 20
20.38913260158165
 30
0.0
 11
-4.401923788646692
 21
20.38913260158165
 31
0.0
 70
   160
  1
<>
 71
     2
 42
50.0
  3
SLDDIMSTYLE1
100
AcDbAlignedDimension
 13
-29.40192378864669
 23
2.499999999999997
 33
0.0
 14
20.59807621135331
 24
1.500000000000002
 34
0.0
100
AcDbRotatedDimension
  0
DIMENSION
  5
104
330
1F
100
AcDbEntity
  8
치수문자_일반주서
100
AcDbDimension
  2
_D_2
 10
-35.06939435212827
 20
-3.000000000000025
 30
0.0
 11
-35.06939435212833
 21
12.66649999999998
 31
0.0
 70
   160
  1
%%c<>
 71
     2
 42
6.000000000000005
 52
-270.0
  3
SLDDIMSTYLE2
100
AcDbAlignedDimension
 13
-28.9019237886467
 23
3.000000000000004
 33
0.0
 14
-28.9019237886467
 24
-3.000000000000001
 34
0.0
 50
90.0000000000002
100
AcDbRotatedDimension
  0
DIMENSION
  5
112
330
1F
100
AcDbEntity
  8
치수문자_일반주서
100
AcDbDimension
  2
_D_3
 10
20.59807621135331
 20
12.31889566376393
 30
0.0
 11
14.59807621135331
 21
12.31889566376393
 31
0.0
 70
   160
  1
<>
 71
     2
 42
12.0
  3
SLDDIMSTYLE2
100
AcDbAlignedDimension
 13
8.598076211353305
 23
1.472977361176282
 33
0.0
 14
20.59807621135331
 24
1.500000000000002
 34
0.0
100
AcDbRotatedDimension
  0
INSERT
  5
124
330
1F
100
AcDbEntity
  8
해칭선
100
AcDbBlockReference
  2
SW_DOWELSYMBOL_0
 10
-0.0081144043240413
 20
-0.000000000000004
 30
0.0
  0
LINE
  5
155
330
1F
100
AcDbEntity
  8
0
  6
Continuous
 62
     4
370
    25
100
AcDbLine
 10
8.598076211353305
 20
1.500000000000001
 30
0.0
 11
8.598076211353305
 21
-1.5
 31
0.0
  0
ENDSEC
  0
SECTION
  2
OBJECTS
  0
DICTIONARY
  5
C
330
0
100
AcDbDictionary
281
     1
  3
ACAD_GROUP
350
D
  3
ACAD_IMAGE_VARS
350
148
  3
ACAD_LAYOUT
350
1A
  3
ACAD_MLINESTYLE
350
17
  3
ACAD_PLOTSETTINGS
350
19
  3
ACAD_PLOTSTYLENAME
350
E
  3
ACAD_SCALELIST
350
47
  3
APPDATA
350
146
  3
DWGPROPS
350
157
  0
DICTIONARY
  5
D
102
{ACAD_REACTORS
330
C
102
}
330
C
100
AcDbDictionary
281
     1
  0
RASTERVARIABLES
  5
148
102
{ACAD_REACTORS
330
C
102
}
330
C
100
AcDbRasterVariables
 90
        0
 70
     1
 71
     1
 72
     1
  0
DICTIONARY
  5
1A
102
{ACAD_REACTORS
330
C
102
}
330
C
100
AcDbDictionary
281
     1
  3
Layout1
350
1E
  3
Layout2
350
26
  3
Model
350
22
  0
DICTIONARY
  5
17
102
{ACAD_REACTORS
330
C
102
}
330
C
100
AcDbDictionary
281
     1
  3
Standard
350
18
  0
DICTIONARY
  5
19
102
{ACAD_REACTORS
330
C
102
}
330
C
100
AcDbDictionary
281
     1
  0
ACDBDICTIONARYWDFLT
  5
E
102
{ACAD_REACTORS
330
C
102
}
330
C
100
AcDbDictionary
281
     1
  3
Normal
350
F
100
AcDbDictionaryWithDefault
340
F
  0
DICTIONARY
  5
47
102
{ACAD_REACTORS
330
C
102
}
330
C
100
AcDbDictionary
281
     1
  3
A0
350
48
  3
A1
350
49
  3
A2
350
4A
  3
A3
350
4B
  3
A4
350
4C
  3
A5
350
4D
  3
A6
350
4E
  3
A7
350
4F
  3
A8
350
50
  3
A9
350
51
  3
B0
350
52
  3
B1
350
53
  3
B2
350
54
  3
B3
350
55
  3
B4
350
56
  3
B5
350
57
  3
B6
350
58
  3
B7
350
59
  3
B8
350
5A
  3
B9
350
5B
  3
C0
350
5C
  3
C1
350
5D
  3
C2
350
5E
  3
C3
350
5F
  3
C4
350
60
  3
C5
350
61
  3
C6
350
62
  3
C7
350
63
  3
C8
350
64
  3
C9
350
65
  3
D0
350
66
  3
D1
350
67
  3
D2
350
68
  0
DICTIONARY
  5
146
102
{ACAD_REACTORS
330
C
102
}
330
C
100
AcDbDictionary
281
     1
  0
XRECORD
  5
157
102
{ACAD_REACTORS
330
C
102
}
330
C
100
AcDbXrecord
280
     1
  1
DWGPROPS COOKIE
  2

  3

  4

  6

  7

  8
12014102
  9

300
=
301
=
302
=
303
=
304
=
305
=
306
=
307
=
308
=
309
=
 40
0.0
 41
2458260.114764907
 42
2458266.44638728
  1

 90
        0
  0
LAYOUT
  5
1E
102
{ACAD_REACTORS
330
1A
102
}
330
1A
100
AcDbPlotSettings
  1

  2
none_device
  4

  6

 40
0.0
 41
0.0
 42
0.0
 43
0.0
 44
0.0
 45
0.0
 46
0.0
 47
0.0
 48
0.0
 49
0.0
140
0.0
141
0.0
142
1.0
143
1.0
 70
   688
 72
     1
 73
     0
 74
     5
  7

 75
    16
147
1.0
148
0.0
149
0.0
100
AcDbLayout
  1
Layout1
 70
     1
 71
     1
 10
0.0
 20
0.0
 11
420.0
 21
297.0
 12
0.0
 22
0.0
 32
0.0
 14
1.000000000000000E+20
 24
1.000000000000000E+20
 34
1.000000000000000E+20
 15
-1.000000000000000E+20
 25
-1.000000000000000E+20
 35
-1.000000000000000E+20
146
0.0
 13
0.0
 23
0.0
 33
0.0
 16
1.0
 26
0.0
 36
0.0
 17
0.0
 27
1.0
 37
0.0
 76
     0
330
1B
  0
LAYOUT
  5
26
102
{ACAD_REACTORS
330
1A
102
}
330
1A
100
AcDbPlotSettings
  1

  2
none_device
  4

  6

 40
0.0
 41
0.0
 42
0.0
 43
0.0
 44
0.0
 45
0.0
 46
0.0
 47
0.0
 48
0.0
 49
0.0
140
0.0
141
0.0
142
1.0
143
1.0
 70
   688
 72
     1
 73
     0
 74
     5
  7

 75
    16
147
1.0
148
0.0
149
0.0
100
AcDbLayout
  1
Layout2
 70
     1
 71
     2
 10
0.0
 20
0.0
 11
0.0
 21
0.0
 12
0.0
 22
0.0
 32
0.0
 14
0.0
 24
0.0
 34
0.0
 15
0.0
 25
0.0
 35
0.0
146
0.0
 13
0.0
 23
0.0
 33
0.0
 16
1.0
 26
0.0
 36
0.0
 17
0.0
 27
1.0
 37
0.0
 76
     0
330
23
  0
LAYOUT
  5
22
102
{ACAD_REACTORS
330
1A
102
}
330
1A
100
AcDbPlotSettings
  1

  2
none_device
  4
ANSI_A_(11.00_x_8.50_Inches)
  6

 40
6.35
 41
19.05
 42
6.35000508
 43
19.05000254
 44
279.4
 45
215.9
 46
139.3830886945288
 47
125.3847137330092
 48
0.0
 49
0.0
140
0.0
141
0.0
142
0.1112850254374007
143
1.0
 70
  1696
 72
     0
 73
     0
 74
     0
  7

 75
     0
147
0.0235690232323232
148
0.0
149
0.0
100
AcDbLayout
  1
Model
 70
     1
 71
     0
 10
0.0
 20
0.0
 11
420.0
 21
297.0
 12
0.0
 22
0.0
 32
0.0
 14
-39.44439435212833
 24
-49.97180738881174
 34
0.0
 15
38.28259113972197
 25
24.76413260158165
 35
0.0
146
0.0
 13
0.0
 23
0.0
 33
0.0
 16
1.0
 26
0.0
 36
0.0
 17
0.0
 27
1.0
 37
0.0
 76
     0
330
1F
331
29
  0
MLINESTYLE
  5
18
102
{ACAD_REACTORS
330
17
102
}
330
17
100
AcDbMlineStyle
  2
Standard
 70
     0
  3

 62
   256
 51
90.0
 52
90.0
 71
     2
 49
0.5
 62
   256
  6
BYLAYER
 49
-0.5
 62
   256
  6
BYLAYER
  0
ACDBPLACEHOLDER
  5
F
102
{ACAD_REACTORS
330
E
102
}
330
E
  0
SCALE
  5
48
102
{ACAD_REACTORS
330
47
102
}
330
47
100
AcDbScale
 70
     0
300
1:1
140
1.0
141
1.0
290
     1
  0
SCALE
  5
49
102
{ACAD_REACTORS
330
47
102
}
330
47
100
AcDbScale
 70
     0
300
1:2
140
1.0
141
2.0
290
     0
  0
SCALE
  5
4A
102
{ACAD_REACTORS
330
47
102
}
330
47
100
AcDbScale
 70
     0
300
1:4
140
1.0
141
4.0
290
     0
  0
SCALE
  5
4B
102
{ACAD_REACTORS
330
47
102
}
330
47
100
AcDbScale
 70
     0
300
1:5
140
1.0
141
5.0
290
     0
  0
SCALE
  5
4C
102
{ACAD_REACTORS
330
47
102
}
330
47
100
AcDbScale
 70
     0
300
1:8
140
1.0
141
8.0
290
     0
  0
SCALE
  5
4D
102
{ACAD_REACTORS
330
47
102
}
330
47
100
AcDbScale
 70
     0
300
1:10
140
1.0
141
10.0
290
     0
  0
SCALE
  5
4E
102
{ACAD_REACTORS
330
47
102
}
330
47
100
AcDbScale
 70
     0
300
1:16
140
1.0
141
16.0
290
     0
  0
SCALE
  5
4F
102
{ACAD_REACTORS
330
47
102
}
330
47
100
AcDbScale
 70
     0
300
1:20
140
1.0
141
20.0
290
     0
  0
SCALE
  5
50
102
{ACAD_REACTORS
330
47
102
}
330
47
100
AcDbScale
 70
     0
300
1:30
140
1.0
141
30.0
290
     0
  0
SCALE
  5
51
102
{ACAD_REACTORS
330
47
102
}
330
47
100
AcDbScale
 70
     0
300
1:40
140
1.0
141
40.0
290
     0
  0
SCALE
  5
52
102
{ACAD_REACTORS
330
47
102
}
330
47
100
AcDbScale
 70
     0
300
1:50
140
1.0
141
50.0
290
     0
  0
SCALE
  5
53
102
{ACAD_REACTORS
330
47
102
}
330
47
100
AcDbScale
 70
     0
300
1:100
140
1.0
141
100.0
290
     0
  0
SCALE
  5
54
102
{ACAD_REACTORS
330
47
102
}
330
47
100
AcDbScale
 70
     0
300
2:1
140
2.0
141
1.0
290
     0
  0
SCALE
  5
55
102
{ACAD_REACTORS
330
47
102
}
330
47
100
AcDbScale
 70
     0
300
4:1
140
4.0
141
1.0
290
     0
  0
SCALE
  5
56
102
{ACAD_REACTORS
330
47
102
}
330
47
100
AcDbScale
 70
     0
300
8:1
140
8.0
141
1.0
290
     0
  0
SCALE
  5
57
102
{ACAD_REACTORS
330
47
102
}
330
47
100
AcDbScale
 70
     0
300
10:1
140
10.0
141
1.0
290
     0
  0
SCALE
  5
58
102
{ACAD_REACTORS
330
47
102
}
330
47
100
AcDbScale
 70
     0
300
100:1
140
100.0
141
1.0
290
     0
  0
SCALE
  5
59
102
{ACAD_REACTORS
330
47
102
}
330
47
100
AcDbScale
 70
     0
300
1/128" = 1'-0"
140
0.0078125
141
12.0
290
     0
  0
SCALE
  5
5A
102
{ACAD_REACTORS
330
47
102
}
330
47
100
AcDbScale
 70
     0
300
1/64" = 1'-0"
140
0.015625
141
12.0
290
     0
  0
SCALE
  5
5B
102
{ACAD_REACTORS
330
47
102
}
330
47
100
AcDbScale
 70
     0
300
1/32" = 1'-0"
140
0.03125
141
12.0
290
     0
  0
SCALE
  5
5C
102
{ACAD_REACTORS
330
47
102
}
330
47
100
AcDbScale
 70
     0
300
1/16" = 1'-0"
140
0.0625
141
12.0
290
     0
  0
SCALE
  5
5D
102
{ACAD_REACTORS
330
47
102
}
330
47
100
AcDbScale
 70
     0
300
3/32" = 1'-0"
140
0.09375
141
12.0
290
     0
  0
SCALE
  5
5E
102
{ACAD_REACTORS
330
47
102
}
330
47
100
AcDbScale
 70
     0
300
1/8" = 1'-0"
140
0.125
141
12.0
290
     0
  0
SCALE
  5
5F
102
{ACAD_REACTORS
330
47
102
}
330
47
100
AcDbScale
 70
     0
300
3/16" = 1'-0"
140
0.1875
141
12.0
290
     0
  0
SCALE
  5
60
102
{ACAD_REACTORS
330
47
102
}
330
47
100
AcDbScale
 70
     0
300
1/4" = 1'-0"
140
0.25
141
12.0
290
     0
  0
SCALE
  5
61
102
{ACAD_REACTORS
330
47
102
}
330
47
100
AcDbScale
 70
     0
300
3/8" = 1'-0"
140
0.375
141
12.0
290
     0
  0
SCALE
  5
62
102
{ACAD_REACTORS
330
47
102
}
330
47
100
AcDbScale
 70
     0
300
1/2" = 1'-0"
140
0.5
141
12.0
290
     0
  0
SCALE
  5
63
102
{ACAD_REACTORS
330
47
102
}
330
47
100
AcDbScale
 70
     0
300
3/4" = 1'-0"
140
0.75
141
12.0
290
     0
  0
SCALE
  5
64
102
{ACAD_REACTORS
330
47
102
}
330
47
100
AcDbScale
 70
     0
300
1" = 1'-0"
140
1.0
141
12.0
290
     0
  0
SCALE
  5
65
102
{ACAD_REACTORS
330
47
102
}
330
47
100
AcDbScale
 70
     0
300
1-1/2" = 1'-0"
140
1.5
141
12.0
290
     0
  0
SCALE
  5
66
102
{ACAD_REACTORS
330
47
102
}
330
47
100
AcDbScale
 70
     0
300
3" = 1'-0"
140
3.0
141
12.0
290
     0
  0
SCALE
  5
67
102
{ACAD_REACTORS
330
47
102
}
330
47
100
AcDbScale
 70
     0
300
6" = 1'-0"
140
6.0
141
12.0
290
     0
  0
SCALE
  5
68
102
{ACAD_REACTORS
330
47
102
}
330
47
100
AcDbScale
 70
     0
300
1'-0" = 1'-0"
140
12.0
141
12.0
290
     0
  0
ENDSEC
  0
EOF
