  0
SECTION
  2
HEADER
  9
$ACADVER
  1
AC1015
  9
$ACADMAINTVER
 70
     6
  9
$DWGCODEPAGE
  3
ANSI_949
  9
$INSBASE
 10
0.0
 20
0.0
 30
0.0
  9
$EXTMIN
 10
-42.88847733966667
 20
-49.97180738881174
 30
0.0
  9
$EXTMAX
 10
35.7534244730553
 20
24.76413260158165
 30
0.0
  9
$LIMMIN
 10
0.0
 20
0.0
  9
$LIMMAX
 10
420.0
 20
297.0
  9
$ORTHOMODE
 70
     0
  9
$REGENMODE
 70
     1
  9
$FILLMODE
 70
     1
  9
$QTEXTMODE
 70
     0
  9
$MIRRTEXT
 70
     1
  9
$LTSCALE
 40
1.0
  9
$ATTMODE
 70
     1
  9
$TEXTSIZE
 40
3.5
  9
$TRACEWID
 40
1.0
  9
$TEXTSTYLE
  7
Standard
  9
$CLAYER
  8
0
  9
$CELTYPE
  6
ByLayer
  9
$CECOLOR
 62
   256
  9
$CELTSCALE
 40
1.0
  9
$DISPSILH
 70
     0
  9
$DIMSCALE
 40
1.0
  9
$DIMASZ
 40
3.302
  9
$DIMEXO
 40
1.0
  9
$DIMDLI
 40
3.75
  9
$DIMRND
 40
0.0
  9
$DIMDLE
 40
0.0
  9
$DIMEXE
 40
1.0
  9
$DIMTP
 40
0.0
  9
$DIMTM
 40
0.0
  9
$DIMTXT
 40
3.5
  9
$DIMCEN
 40
2.5
  9
$DIMTSZ
 40
0.0
  9
$DIMTOL
 70
     0
  9
$DIMLIM
 70
     0
  9
$DIMTIH
 70
     1
  9
$DIMTOH
 70
     1
  9
$DIMSE1
 70
     0
  9
$DIMSE2
 70
     0
  9
$DIMTAD
 70
     1
  9
$DIMZIN
 70
     0
  9
$DIMBLK
  1

  9
$DIMASO
 70
     1
  9
$DIMSHO
 70
     1
  9
$DIMPOST
  1

  9
$DIMAPOST
  1

  9
$DIMALT
 70
     0
  9
$DIMALTD
 70
     3
  9
$DIMALTF
 40
0.0393700787401575
  9
$DIMLFAC
 40
1.0
  9
$DIMTOFL
 70
     1
  9
$DIMTVP
 40
0.0
  9
$DIMTIX
 70
     0
  9
$DIMSOXD
 70
     0
  9
$DIMSAH
 70
     0
  9
$DIMBLK1
  1

  9
$DIMBLK2
  1

  9
$DIMSTYLE
  2
ISO-25
  9
$DIMCLRD
 70
     0
  9
$DIMCLRE
 70
     0
  9
$DIMCLRT
 70
     0
  9
$DIMTFAC
 40
1.0
  9
$DIMGAP
 40
1.524
  9
$DIMJUST
 70
     0
  9
$DIMSD1
 70
     0
  9
$DIMSD2
 70
     0
  9
$DIMTOLJ
 70
     0
  9
$DIMTZIN
 70
     0
  9
$DIMALTZ
 70
     0
  9
$DIMALTTZ
 70
     0
  9
$DIMUPT
 70
     0
  9
$DIMDEC
 70
     2
  9
$DIMTDEC
 70
     2
  9
$DIMALTU
 70
     2
  9
$DIMALTTD
 70
     3
  9
$DIMTXSTY
  7
Standard
  9
$DIMAUNIT
 70
     0
  9
$DIMADEC
 70
     2
  9
$DIMALTRND
 40
0.0
  9
$DIMAZIN
 70
     0
  9
$DIMDSEP
 70
    44
  9
$DIMATFIT
 70
     3
  9
$DIMFRAC
 70
     0
  9
$DIMLDRBLK
  1

  9
$DIMLUNIT
 70
     2
  9
$DIMLWD
 70
    -2
  9
$DIMLWE
 70
    -2
  9
$DIMTMOVE
 70
     0
  9
$LUNITS
 70
     2
  9
$LUPREC
 70
     2
  9
$SKETCHINC
 40
1.0
  9
$FILLETRAD
 40
10.0
  9
$AUNITS
 70
     0
  9
$AUPREC
 70
     2
  9
$MENU
  1
.
  9
$ELEVATION
 40
0.0
  9
$PELEVATION
 40
0.0
  9
$THICKNESS
 40
0.0
  9
$LIMCHECK
 70
     0
  9
$CHAMFERA
 40
0.0
  9
$CHAMFERB
 40
0.0
  9
$CHAMFERC
 40
0.0
  9
$CHAMFERD
 40
0.0
  9
$SKPOLY
 70
     0
  9
$TDCREATE
 40
2458260.489575498
  9
$TDUCREATE
 40
2458260.114575498
  9
$TDUPDATE
 40
2458266.820043727
  9
$TDUUPDATE
 40
2458266.445043727
  9
$TDINDWG
 40
0.0009934259
  9
$TDUSRTIMER
 40
2458266.444050359
  9
$USRTIMER
 70
     1
  9
$ANGBASE
 50
0.0
  9
$ANGDIR
 70
     0
  9
$PDMODE
 70
     0
  9
$PDSIZE
 40
-1.0
  9
$PLINEWID
 40
0.0
  9
$SPLFRAME
 70
     0
  9
$SPLINETYPE
 70
     6
  9
$SPLINESEGS
 70
     8
  9
$HANDSEED
  5
150
  9
$SURFTAB1
 70
     6
  9
$SURFTAB2
 70
     6
  9
$SURFTYPE
 70
     6
  9
$SURFU
 70
     6
  9
$SURFV
 70
     6
  9
$UCSBASE
  2

  9
$UCSNAME
  2

  9
$UCSORG
 10
0.0
 20
0.0
 30
0.0
  9
$UCSXDIR
 10
1.0
 20
0.0
 30
0.0
  9
$UCSYDIR
 10
0.0
 20
1.0
 30
0.0
  9
$UCSORTHOREF
  2

  9
$UCSORTHOVIEW
 70
     0
  9
$UCSORGTOP
 10
0.0
 20
0.0
 30
0.0
  9
$UCSORGBOTTOM
 10
0.0
 20
0.0
 30
0.0
  9
$UCSORGLEFT
 10
0.0
 20
0.0
 30
0.0
  9
$UCSORGRIGHT
 10
0.0
 20
0.0
 30
0.0
  9
$UCSORGFRONT
 10
0.0
 20
0.0
 30
0.0
  9
$UCSORGBACK
 10
0.0
 20
0.0
 30
0.0
  9
$PUCSBASE
  2

  9
$PUCSNAME
  2

  9
$PUCSORG
 10
0.0
 20
0.0
 30
0.0
  9
$PUCSXDIR
 10
1.0
 20
0.0
 30
0.0
  9
$PUCSYDIR
 10
0.0
 20
1.0
 30
0.0
  9
$PUCSORTHOREF
  2

  9
$PUCSORTHOVIEW
 70
     0
  9
$PUCSORGTOP
 10
0.0
 20
0.0
 30
0.0
  9
$PUCSORGBOTTOM
 10
0.0
 20
0.0
 30
0.0
  9
$PUCSORGLEFT
 10
0.0
 20
0.0
 30
0.0
  9
$PUCSORGRIGHT
 10
0.0
 20
0.0
 30
0.0
  9
$PUCSORGFRONT
 10
0.0
 20
0.0
 30
0.0
  9
$PUCSORGBACK
 10
0.0
 20
0.0
 30
0.0
  9
$USERI1
 70
     0
  9
$USERI2
 70
     0
  9
$USERI3
 70
     0
  9
$USERI4
 70
     0
  9
$USERI5
 70
     0
  9
$USERR1
 40
0.0
  9
$USERR2
 40
0.0
  9
$USERR3
 40
0.0
  9
$USERR4
 40
0.0
  9
$USERR5
 40
0.0
  9
$WORLDVIEW
 70
     1
  9
$SHADEDGE
 70
     3
  9
$SHADEDIF
 70
    70
  9
$TILEMODE
 70
     1
  9
$MAXACTVP
 70
    64
  9
$PINSBASE
 10
0.0
 20
0.0
 30
0.0
  9
$PLIMCHECK
 70
     0
  9
$PEXTMIN
 10
1.000000000000000E+20
 20
1.000000000000000E+20
 30
1.000000000000000E+20
  9
$PEXTMAX
 10
-1.000000000000000E+20
 20
-1.000000000000000E+20
 30
-1.000000000000000E+20
  9
$PLIMMIN
 10
0.0
 20
0.0
  9
$PLIMMAX
 10
0.0
 20
0.0
  9
$UNITMODE
 70
     0
  9
$VISRETAIN
 70
     1
  9
$PLINEGEN
 70
     0
  9
$PSLTSCALE
 70
     1
  9
$TREEDEPTH
 70
  3020
  9
$CMLSTYLE
  2
Standard
  9
$CMLJUST
 70
     0
  9
$CMLSCALE
 40
20.0
  9
$PROXYGRAPHICS
 70
     1
  9
$MEASUREMENT
 70
     1
  9
$CELWEIGHT
370
    -1
  9
$ENDCAPS
280
     0
  9
$JOINSTYLE
280
     0
  9
$LWDISPLAY
290
     1
  9
$INSUNITS
 70
     4
  9
$HYPERLINKBASE
  1

  9
$STYLESHEET
  1

  9
$XEDIT
290
     1
  9
$CEPSNTYPE
380
     0
  9
$PSTYLEMODE
290
     1
  9
$FINGERPRINTGUID
  2
{8A7EFF9C-DB11-4219-B852-F76E0146A555}
  9
$VERSIONGUID
  2
{FAEB1C32-E019-11D5-929B-00C0DF256EC4}
  9
$EXTNAMES
290
     1
  9
$PSVPSCALE
 40
0.0
  9
$OLESTARTUP
290
     0
  0
ENDSEC
  0
SECTION
  2
CLASSES
  0
CLASS
  1
ACDBDICTIONARYWDFLT
  2
AcDbDictionaryWithDefault
  3
ObjectDBX Classes
 90
        0
280
     0
281
     0
  0
CLASS
  1
VISUALSTYLE
  2
AcDbVisualStyle
  3
ObjectDBX Classes
 90
     4095
280
     0
281
     0
  0
CLASS
  1
MATERIAL
  2
AcDbMaterial
  3
ObjectDBX Classes
 90
     1153
280
     0
281
     0
  0
CLASS
  1
SCALE
  2
AcDbScale
  3
ObjectDBX Classes
 90
     1153
280
     0
281
     0
  0
CLASS
  1
TABLESTYLE
  2
AcDbTableStyle
  3
ObjectDBX Classes
 90
     4095
280
     0
281
     0
  0
CLASS
  1
MLEADERSTYLE
  2
AcDbMLeaderStyle
  3
ACDB_MLEADERSTYLE_CLASS
 90
     4095
280
     0
281
     0
  0
CLASS
  1
SUN
  2
AcDbSun
  3
SCENEOE
 90
     1153
280
     0
281
     0
  0
CLASS
  1
ACDBPLACEHOLDER
  2
AcDbPlaceHolder
  3
ObjectDBX Classes
 90
        0
280
     0
281
     0
  0
CLASS
  1
LAYOUT
  2
AcDbLayout
  3
ObjectDBX Classes
 90
        0
280
     0
281
     0
  0
CLASS
  1
RASTERVARIABLES
  2
AcDbRasterVariables
  3
ISM
 90
        0
280
     0
281
     0
  0
ENDSEC
  0
SECTION
  2
TABLES
  0
TABLE
  2
VPORT
  5
8
330
0
100
AcDbSymbolTable
 70
     1
  0
VPORT
  5
29
330
8
100
AcDbSymbolTableRecord
100
AcDbViewportTableRecord
  2
*Active
 70
     0
 10
0.0
 20
0.0
 11
1.0
 21
1.0
 12
-3.56752643330568
 22
-12.60383739361504
 13
0.0
 23
0.0
 14
10.0
 24
10.0
 15
10.0
 25
10.0
 16
0.0
 26
0.0
 36
1.0
 17
0.0
 27
0.0
 37
0.0
 40
76.23065879020126
 41
1.74031007751938
 42
50.0
 43
0.0
 44
0.0
 50
0.0
 51
0.0
 71
    16
 72
  2000
 73
     1
 74
     3
 75
     0
 76
     0
 77
     0
 78
     0
281
     0
 65
     1
110
0.0
120
0.0
130
0.0
111
1.0
121
0.0
131
0.0
112
0.0
122
1.0
132
0.0
 79
     0
146
0.0
  0
ENDTAB
  0
TABLE
  2
LTYPE
  5
5
330
0
100
AcDbSymbolTable
 70
     6
  0
LTYPE
  5
14
330
5
100
AcDbSymbolTableRecord
100
AcDbLinetypeTableRecord
  2
ByBlock
 70
     0
  3

 72
    65
 73
     0
 40
0.0
  0
LTYPE
  5
15
330
5
100
AcDbSymbolTableRecord
100
AcDbLinetypeTableRecord
  2
ByLayer
 70
     0
  3

 72
    65
 73
     0
 40
0.0
  0
LTYPE
  5
16
330
5
100
AcDbSymbolTableRecord
100
AcDbLinetypeTableRecord
  2
Continuous
 70
     0
  3
Solid line
 72
    65
 73
     0
 40
0.0
  0
LTYPE
  5
6E
330
5
100
AcDbSymbolTableRecord
100
AcDbLinetypeTableRecord
  2
HIDDEN
 70
     0
  3
Hidden __ __ __ __ __ __ __ __ __ __ __ __ __ __
 72
    65
 73
     2
 40
1.905
 49
1.27
 74
     0
 49
-0.635
 74
     0
  0
LTYPE
  5
6F
330
5
100
AcDbSymbolTableRecord
100
AcDbLinetypeTableRecord
  2
PHANTOM
 70
     0
  3
Phantom ______  __  __  ______  __  __  ______
 72
    65
 73
     6
 40
12.7
 49
6.35
 74
     0
 49
-1.27
 74
     0
 49
1.27
 74
     0
 49
-1.27
 74
     0
 49
1.27
 74
     0
 49
-1.27
 74
     0
  0
LTYPE
  5
70
330
5
100
AcDbSymbolTableRecord
100
AcDbLinetypeTableRecord
  2
CENTER
 70
     0
  3
Center ____ _ ____ _ ____ _ ____ _ ____ _ ____
 72
    65
 73
     4
 40
10.16
 49
6.35
 74
     0
 49
-1.27
 74
     0
 49
1.27
 74
     0
 49
-1.27
 74
     0
  0
LTYPE
  5
71
330
5
100
AcDbSymbolTableRecord
100
AcDbLinetypeTableRecord
  2
CENTERX2
 70
     0
  3
Center (2x) ________  __  ________  __  _____
 72
    65
 73
     4
 40
20.32
 49
12.7
 74
     0
 49
-2.54
 74
     0
 49
2.54
 74
     0
 49
-2.54
 74
     0
  0
LTYPE
  5
72
330
5
100
AcDbSymbolTableRecord
100
AcDbLinetypeTableRecord
  2
DOT2
 70
     0
  3
Dot (.5x) ........................................
 72
    65
 73
     2
 40
0.635
 49
0.0
 74
     0
 49
-0.635
 74
     0
  0
ENDTAB
  0
TABLE
  2
LAYER
  5
2
330
0
100
AcDbSymbolTable
 70
    17
  0
LAYER
  5
10
330
2
100
AcDbSymbolTableRecord
100
AcDbLayerTableRecord
  2
0
 70
     0
 62
     7
  6
Continuous
370
    -3
390
F
  0
LAYER
  5
73
330
2
100
AcDbSymbolTableRecord
100
AcDbLayerTableRecord
  2
FORMAT
 70
     0
 62
     2
  6
Continuous
370
    -3
390
F
  0
LAYER
  5
74
330
2
100
AcDbSymbolTableRecord
100
AcDbLayerTableRecord
  2
외형선
 70
     0
 62
   100
  6
Continuous
370
    35
390
F
  0
LAYER
  5
75
330
2
100
AcDbSymbolTableRecord
100
AcDbLayerTableRecord
  2
숨은선
 70
     0
 62
     2
  6
HIDDEN
370
    25
390
F
  0
LAYER
  5
76
330
2
100
AcDbSymbolTableRecord
100
AcDbLayerTableRecord
  2
중심선
 70
     0
 62
     1
  6
CENTERX2
370
    -3
390
F
  0
LAYER
  5
77
330
2
100
AcDbSymbolTableRecord
100
AcDbLayerTableRecord
  2
파단선
 70
     0
 62
     4
  6
Continuous
370
    -3
390
F
  0
LAYER
  5
78
330
2
100
AcDbSymbolTableRecord
100
AcDbLayerTableRecord
  2
해칭선
 70
     0
 62
   100
  6
Continuous
370
    -3
390
F
  0
LAYER
  5
79
330
2
100
AcDbSymbolTableRecord
100
AcDbLayerTableRecord
  2
가는실선
 70
     0
 62
     4
  6
Continuous
370
    -3
390
F
  0
LAYER
  5
7A
330
2
100
AcDbSymbolTableRecord
100
AcDbLayerTableRecord
  2
치수_보조선
 70
     0
 62
     4
  6
Continuous
370
    -3
390
F
  0
LAYER
  5
7B
330
2
100
AcDbSymbolTableRecord
100
AcDbLayerTableRecord
  2
치수문자_일반주서
 70
     0
 62
     7
  6
Continuous
370
    25
390
F
  0
LAYER
  5
7C
330
2
100
AcDbSymbolTableRecord
100
AcDbLayerTableRecord
  2
개별주서
 70
     0
 62
   100
  6
Continuous
370
    35
390
F
  0
LAYER
  5
7D
330
2
100
AcDbSymbolTableRecord
100
AcDbLayerTableRecord
  2
중간선
 70
     0
 62
     2
  6
Continuous
370
    25
390
F
  0
LAYER
  5
7E
330
2
100
AcDbSymbolTableRecord
100
AcDbLayerTableRecord
  2
윤곽선
 70
     0
 62
     3
  6
Continuous
370
    50
390
F
  0
LAYER
  5
7F
330
2
100
AcDbSymbolTableRecord
100
AcDbLayerTableRecord
  2
중심마크
 70
     0
 62
   100
  6
Continuous
370
    35
390
F
  0
LAYER
  5
80
330
2
100
AcDbSymbolTableRecord
100
AcDbLayerTableRecord
  2
가상선
 70
     0
 62
     4
  6
PHANTOM
370
    -3
390
F
  0
LAYER
  5
81
330
2
100
AcDbSymbolTableRecord
100
AcDbLayerTableRecord
  2
특수지정선
 70
     0
 62
     5
  6
CENTERX2
370
    70
390
F
  0
LAYER
  5
142
330
2
100
AcDbSymbolTableRecord
100
AcDbLayerTableRecord
  2
Defpoints
 70
     0
 62
     7
  6
Continuous
290
     0
370
    -3
390
F
  0
ENDTAB
  0
TABLE
  2
STYLE
  5
3
330
0
100
AcDbSymbolTable
 70
     2
  0
STYLE
  5
11
330
3
100
AcDbSymbolTableRecord
100
AcDbTextStyleTableRecord
  2
Standard
 70
     0
 40
0.0
 41
1.0
 50
0.0
 71
     0
 42
3.5
  3
txt
  4

  0
STYLE
  5
97
330
3
100
AcDbSymbolTableRecord
100
AcDbTextStyleTableRecord
  2
SLDTEXTSTYLE0
 70
     0
 40
0.0
 41
0.75
 50
0.0
 71
     0
 42
3.5
  3
TXT
  4

  0
ENDTAB
  0
TABLE
  2
VIEW
  5
6
330
0
100
AcDbSymbolTable
 70
     0
  0
ENDTAB
  0
TABLE
  2
UCS
  5
7
330
0
100
AcDbSymbolTable
 70
     0
  0
ENDTAB
  0
TABLE
  2
APPID
  5
9
330
0
100
AcDbSymbolTable
 70
     1
  0
APPID
  5
12
330
9
100
AcDbSymbolTableRecord
100
AcDbRegAppTableRecord
  2
ACAD
 70
     0
  0
ENDTAB
  0
TABLE
  2
DIMSTYLE
  5
A
330
0
100
AcDbSymbolTable
 70
     4
100
AcDbDimStyleTable
  0
DIMSTYLE
105
27
330
A
100
AcDbSymbolTableRecord
100
AcDbDimStyleTableRecord
  2
ISO-25
 70
     0
 41
2.5
 42
0.625
 43
3.75
 44
1.25
 73
     0
 74
     0
 77
     1
 78
     8
140
2.5
141
2.5
143
0.03937007874016
147
0.625
171
     3
172
     1
178
     0
271
     2
272
     2
274
     3
278
    44
283
     0
284
     8
340
11
  0
DIMSTYLE
105
E5
102
{ACAD_REACTORS
330
E4
102
}
330
A
100
AcDbSymbolTableRecord
100
AcDbDimStyleTableRecord
  2
SLDDIMSTYLE0
 70
     0
 41
3.302
 44
0.0
 45
0.000000001
 73
     0
 74
     0
 77
     1
 78
    12
 79
     3
140
3.5
147
0.875
172
     1
173
     1
178
     0
271
     1
272
     1
276
     2
284
    12
289
     0
340
97
  0
DIMSTYLE
105
F3
102
{ACAD_REACTORS
330
F2
102
}
330
A
100
AcDbSymbolTableRecord
100
AcDbDimStyleTableRecord
  2
SLDDIMSTYLE1
 70
     0
 41
3.302
 44
0.0
 45
0.000000001
 73
     0
 74
     0
 77
     1
 78
    12
 79
     3
140
3.5
147
0.875
173
     1
178
     0
271
     2
272
     2
276
     2
284
    12
340
97
  0
DIMSTYLE
105
FE
102
{ACAD_REACTORS
330
FD
330
10B
102
}
330
A
100
AcDbSymbolTableRecord
100
AcDbDimStyleTableRecord
  2
SLDDIMSTYLE2
 70
     0
 41
3.302
 44
0.0
 45
0.000000001
 73
     0
 74
     0
 77
     1
 78
    12
 79
     3
140
3.5
147
0.875
172
     1
173
     1
178
     0
271
     2
272
     2
276
     2
284
    12
289
     0
340
97
  0
ENDTAB
  0
TABLE
  2
BLOCK_RECORD
  5
1
330
0
100
AcDbSymbolTable
 70
     7
  0
BLOCK_RECORD
  5
1F
330
1
100
AcDbSymbolTableRecord
100
AcDbBlockTableRecord
  2
*Model_Space
340
22
  0
BLOCK_RECORD
  5
1B
330
1
100
AcDbSymbolTableRecord
100
AcDbBlockTableRecord
  2
*Paper_Space
340
1E
  0
BLOCK_RECORD
  5
23
330
1
100
AcDbSymbolTableRecord
100
AcDbBlockTableRecord
  2
*Paper_Space0
340
26
  0
BLOCK_RECORD
  5
82
330
1
100
AcDbSymbolTableRecord
100
AcDbBlockTableRecord
  2
블럭10
340
0
102
{BLKREFS
331
DD
102
}
  0
BLOCK_RECORD
  5
E6
330
1
100
AcDbSymbolTableRecord
100
AcDbBlockTableRecord
  2
_D
340
0
  0
BLOCK_RECORD
  5
F4
330
1
100
AcDbSymbolTableRecord
100
AcDbBlockTableRecord
  2
_D_1
340
0
  0
BLOCK_RECORD
  5
FF
330
1
100
AcDbSymbolTableRecord
100
AcDbBlockTableRecord
  2
_D_2
340
0
  0
BLOCK_RECORD
  5
10C
330
1
100
AcDbSymbolTableRecord
100
AcDbBlockTableRecord
  2
_D_3
340
0
  0
BLOCK_RECORD
  5
117
330
1
100
AcDbSymbolTableRecord
100
AcDbBlockTableRecord
  2
SW_DOWELSYMBOL_0
340
0
102
{BLKREFS
331
11D
102
}
  0
ENDTAB
  0
ENDSEC
  0
SECTION
  2
BLOCKS
  0
BLOCK
  5
20
330
1F
100
AcDbEntity
  8
0
100
AcDbBlockBegin
  2
*Model_Space
 70
     0
 10
0.0
 20
0.0
 30
0.0
  3
*Model_Space
  1

  0
ENDBLK
  5
21
330
1F
100
AcDbEntity
  8
0
100
AcDbBlockEnd
  0
BLOCK
  5
1C
330
1B
100
AcDbEntity
 67
     1
  8
0
100
AcDbBlockBegin
  2
*Paper_Space
 70
     0
 10
0.0
 20
0.0
 30
0.0
  3
*Paper_Space
  1

  0
ENDBLK
  5
1D
330
1B
100
AcDbEntity
 67
     1
  8
0
100
AcDbBlockEnd
  0
BLOCK
  5
24
330
23
100
AcDbEntity
  8
0
100
AcDbBlockBegin
  2
*Paper_Space0
 70
     0
 10
0.0
 20
0.0
 30
0.0
  3
*Paper_Space0
  1

  0
ENDBLK
  5
25
330
23
100
AcDbEntity
  8
0
100
AcDbBlockEnd
  0
BLOCK
  5
83
330
82
100
AcDbEntity
  8
0
100
AcDbBlockBegin
  2
블럭10
 70
     2
 10
0.0
 20
0.0
 30
0.0
  3
블럭10
  1

  0
ELLIPSE
  5
85
330
82
100
AcDbEntity
  8
중심선
100
AcDbEllipse
 10
20.54032771741204
 20
12.0471743016438
 30
0.0
 11
6.600054785286829
 21
-1.261213355974178E-13
 31
0.0
210
0.0
220
0.0
230
1.0
 40
0.636358354079598
 41
0.9219305317359503
 42
6.513795318482858
  0
ELLIPSE
  5
86
330
82
100
AcDbEntity
  8
중심선
100
AcDbEllipse
 10
20.54032771746488
 20
12.04717430159265
 30
0.0
 11
3.960054785062283
 21
1.540847449632565E-10
 31
0.0
210
0.0
220
0.0
230
1.0
 40
0.3939339440162632
 41
1.131841032648279
 42
5.62031148352944
  0
LINE
  5
87
330
82
100
AcDbEntity
  8
중심선
100
AcDbLine
 10
2.268634060543552
 20
16.24717430164393
 30
0.0
 11
5.714909304380834
 21
16.24717430164393
 31
0.0
  0
LINE
  5
88
330
82
100
AcDbEntity
  8
중심선
100
AcDbLine
 10
5.245725140726316
 20
7.84717430164391
 30
0.0
 11
8.692000384563599
 21
7.84717430164391
 31
0.0
  0
LINE
  5
89
330
82
100
AcDbEntity
  8
중심선
100
AcDbLine
 10
15.74043728645272
 20
16.24717430164393
 30
0.0
 11
8.692000384563599
 21
7.84717430164391
 31
0.0
  0
LINE
  5
8A
330
82
100
AcDbEntity
  8
중심선
100
AcDbLine
 10
0.1404042013395286
 20
13.71084872107135
 30
0.0
 11
3.58671253028996
 21
13.71088815037384
 31
0.0
  0
LINE
  5
8B
330
82
100
AcDbEntity
  8
중심선
100
AcDbLine
 10
2.750260043222114
 20
10.84717430164391
 30
0.0
 11
6.196535287059397
 21
10.84717430164391
 31
0.0
  0
LINE
  5
8C
330
82
100
AcDbEntity
  8
중심선
100
AcDbLine
 10
12.29416204261559
 20
16.24717430164393
 30
0.0
 11
5.245725140726316
 21
7.84717430164391
 31
0.0
  0
LINE
  5
8D
330
82
100
AcDbEntity
  8
중심선
100
AcDbLine
 10
10.72767329541681
 20
16.24717430164393
 30
0.0
 11
6.196535287059397
 21
10.84717430164391
 31
0.0
  0
LINE
  5
8E
330
82
100
AcDbEntity
  8
중심선
100
AcDbLine
 10
7.28139805157953
 20
16.24717430164393
 30
0.0
 11
2.750260043222114
 21
10.84717430164391
 31
0.0
  0
LINE
  5
8F
330
82
100
AcDbEntity
  8
중심선
100
AcDbLine
 10
5.714909304380834
 20
16.24717430164393
 30
0.0
 11
3.58671253028996
 21
13.71088815037384
 31
0.0
  0
LINE
  5
90
330
82
100
AcDbEntity
  8
중심선
100
AcDbLine
 10
2.268634060543552
 20
16.24717430164393
 30
0.0
 11
0.1404042013395286
 21
13.71084872107135
 31
0.0
  0
LINE
  5
91
330
82
100
AcDbEntity
  8
중심선
100
AcDbLine
 10
7.28139805157953
 20
16.24717430164393
 30
0.0
 11
10.72767329541681
 21
16.24717430164393
 31
0.0
  0
LINE
  5
92
330
82
100
AcDbEntity
  8
중심선
100
AcDbLine
 10
12.29416204261559
 20
16.24717430164393
 30
0.0
 11
15.74043728645272
 21
16.24717430164393
 31
0.0
  0
LINE
  5
93
330
82
100
AcDbEntity
  8
중심선
100
AcDbLine
 10
19.22036997980202
 20
11.08717430171403
 30
0.0
 11
23.66174974927406
 21
11.08717430171406
 31
0.0
  0
LINE
  5
94
330
82
100
AcDbEntity
  8
중심선
100
AcDbLine
 10
19.22039502424796
 20
13.00717430171391
 30
0.0
 11
19.22036997980202
 21
11.08717430171403
 31
0.0
  0
LINE
  5
95
330
82
100
AcDbEntity
  8
중심선
100
AcDbLine
 10
19.22039502424796
 20
13.00717430171391
 30
0.0
 11
26.96566020931264
 21
13.00717430171391
 31
0.0
  0
LINE
  5
96
330
82
100
AcDbEntity
  8
중심선
100
AcDbLine
 10
22.22332737316547
 20
13.45928029700563
 30
0.0
 11
24.52862924686651
 21
15.39360700705356
 31
0.0
  0
ATTDEF
  5
98
330
82
100
AcDbEntity
  8
FORMAT
 62
     2
100
AcDbText
 10
-16.11926103943555
 20
2.075366912832191
 30
0.0
 40
4.233333333333333
  1
SEME7103010E [ 4 FLUTE ]
 41
0.75
  7
SLDTEXTSTYLE0
 11
-16.11926103943555
 21
-0.0412997538344756
 31
0.0
100
AcDbAttributeDefinition
  3

  2
AUTOATTR0
 70
     0
 74
     1
  0
ENDBLK
  5
84
330
82
100
AcDbEntity
  8
0
100
AcDbBlockEnd
  0
BLOCK
  5
E7
330
E6
100
AcDbEntity
  8
0
100
AcDbBlockBegin
  2
_D
 70
     0
 10
0.0
 20
0.0
 30
0.0
  3
_D
  1

  0
LINE
  5
E9
330
E6
100
AcDbEntity
  8
치수문자_일반주서
 62
     0
370
    -2
100
AcDbLine
 10
18.66057621135331
 20
-1.500000000000003
 30
0.0
 11
28.9254062314394
 21
-1.499999999999964
 31
0.0
  0
LINE
  5
EA
330
E6
100
AcDbEntity
  8
치수문자_일반주서
 62
     0
370
    -2
100
AcDbLine
 10
18.66057621135331
 20
1.500000000000006
 30
0.0
 11
28.92540623143939
 21
1.500000000000044
 31
0.0
  0
LINE
  5
EB
330
E6
100
AcDbEntity
  8
치수문자_일반주서
 62
     0
370
    -2
100
AcDbLine
 10
28.9254062314394
 20
-1.499999999999964
 30
0.0
 11
28.92540623143934
 21
14.22900000000004
 31
0.0
  0
LINE
  5
EC
330
E6
100
AcDbEntity
  8
치수문자_일반주서
 62
     0
370
    -2
100
AcDbLine
 10
28.9254062314394
 20
-1.499999999999964
 30
0.0
 11
28.92540623143939
 21
1.500000000000044
 31
0.0
  0
LINE
  5
ED
330
E6
100
AcDbEntity
  8
치수문자_일반주서
 62
     0
370
    -2
100
AcDbLine
 10
28.92540623143941
 20
-4.801999999999964
 30
0.0
 11
28.92540623143942
 21
-8.103999999999964
 31
0.0
  0
LINE
  5
EE
330
E6
100
AcDbEntity
  8
치수문자_일반주서
 62
     0
370
    -2
100
AcDbLine
 10
28.92540623143937
 20
4.802000000000044
 30
0.0
 11
28.92540623143936
 21
8.104000000000044
 31
0.0
  0
SOLID
  5
EF
330
E6
100
AcDbEntity
  8
치수문자_일반주서
 62
     0
100
AcDbTrace
 10
29.47573956477274
 20
-4.801999999999962
 30
0.0
 11
28.37507289810607
 21
-4.801999999999966
 31
0.0
 12
28.9254062314394
 22
-1.499999999999964
 32
0.0
 13
28.9254062314394
 23
-1.499999999999964
 33
0.0
  0
SOLID
  5
F0
330
E6
100
AcDbEntity
  8
치수문자_일반주서
 62
     0
100
AcDbTrace
 10
28.37507289810604
 20
4.802000000000042
 30
0.0
 11
29.47573956477271
 21
4.802000000000046
 31
0.0
 12
28.92540623143939
 22
1.500000000000044
 32
0.0
 13
28.92540623143939
 23
1.500000000000044
 33
0.0
  0
MTEXT
  5
F1
330
E6
100
AcDbEntity
  8
치수문자_일반주서
 62
     0
100
AcDbMText
 10
24.55040623143935
 20
11.16650000000003
 30
0.0
 40
3.5
 41
0.0
 71
     2
 72
     1
  1
\A1;%%c3
  7
SLDTEXTSTYLE0
 11
-3.552713678800491E-15
 21
1.0
 31
0.0
 73
     1
 44
1.0
  0
POINT
  5
14A
330
E6
100
AcDbEntity
  8
Defpoints
 62
     0
100
AcDbPoint
 10
18.59807621135331
 20
-1.500000000000003
 30
0.0
  0
POINT
  5
14B
330
E6
100
AcDbEntity
  8
Defpoints
 62
     0
100
AcDbPoint
 10
18.59807621135331
 20
1.500000000000006
 30
0.0
  0
POINT
  5
14C
330
E6
100
AcDbEntity
  8
Defpoints
 62
     0
100
AcDbPoint
 10
28.92540623143939
 20
1.500000000000044
 30
0.0
  0
ENDBLK
  5
E8
330
E6
100
AcDbEntity
  8
0
100
AcDbBlockEnd
  0
BLOCK
  5
F5
330
F4
100
AcDbEntity
  8
0
100
AcDbBlockBegin
  2
_D_1
 70
     0
 10
0.0
 20
0.0
 30
0.0
  3
_D_1
  1

  0
LINE
  5
F7
330
F4
100
AcDbEntity
  8
치수문자_일반주서
 62
     0
370
    -2
100
AcDbLine
 10
-31.4019237886467
 20
2.562499999999996
 30
0.0
 11
-31.4019237886467
 21
20.38913260158165
 31
0.0
  0
LINE
  5
F8
330
F4
100
AcDbEntity
  8
치수문자_일반주서
 62
     0
370
    -2
100
AcDbLine
 10
18.5980762113533
 20
1.562500000000003
 30
0.0
 11
18.59807621135329
 21
20.38913260158165
 31
0.0
  0
LINE
  5
F9
330
F4
100
AcDbEntity
  8
치수문자_일반주서
 62
     0
370
    -2
100
AcDbLine
 10
-28.0999237886467
 20
20.38913260158165
 30
0.0
 11
15.2960762113533
 21
20.38913260158165
 31
0.0
  0
SOLID
  5
FA
330
F4
100
AcDbEntity
  8
치수문자_일반주서
 62
     0
100
AcDbTrace
 10
-28.0999237886467
 20
20.93946593491498
 30
0.0
 11
-28.0999237886467
 21
19.83879926824831
 31
0.0
 12
-31.4019237886467
 22
20.38913260158165
 32
0.0
 13
-31.4019237886467
 23
20.38913260158165
 33
0.0
  0
SOLID
  5
FB
330
F4
100
AcDbEntity
  8
치수문자_일반주서
 62
     0
100
AcDbTrace
 10
15.2960762113533
 20
19.83879926824831
 30
0.0
 11
15.2960762113533
 21
20.93946593491498
 31
0.0
 12
18.59807621135329
 22
20.38913260158165
 32
0.0
 13
18.59807621135329
 23
20.38913260158165
 33
0.0
  0
MTEXT
  5
FC
330
F4
100
AcDbEntity
  8
치수문자_일반주서
 62
     0
100
AcDbMText
 10
-6.401923788646696
 20
24.76413260158165
 30
0.0
 40
3.5
 41
0.0
 71
     2
 72
     1
  1
\A1;50
  7
SLDTEXTSTYLE0
 73
     1
 44
1.0
  0
POINT
  5
143
330
F4
100
AcDbEntity
  8
Defpoints
 62
     0
100
AcDbPoint
 10
-31.4019237886467
 20
2.499999999999996
 30
0.0
  0
POINT
  5
144
330
F4
100
AcDbEntity
  8
Defpoints
 62
     0
100
AcDbPoint
 10
18.5980762113533
 20
1.500000000000003
 30
0.0
  0
POINT
  5
145
330
F4
100
AcDbEntity
  8
Defpoints
 62
     0
100
AcDbPoint
 10
18.5980762113533
 20
20.38913260158165
 30
0.0
  0
ENDBLK
  5
F6
330
F4
100
AcDbEntity
  8
0
100
AcDbBlockEnd
  0
BLOCK
  5
100
330
FF
100
AcDbEntity
  8
0
100
AcDbBlockBegin
  2
_D_2
 70
     0
 10
0.0
 20
0.0
 30
0.0
  3
_D_2
  1

  0
LINE
  5
102
330
FF
100
AcDbEntity
  8
치수문자_일반주서
 62
     0
370
    -2
100
AcDbLine
 10
-30.96442378864671
 20
3.000000000000004
 30
0.0
 11
-38.51347733966663
 21
2.999999999999975
 31
0.0
  0
LINE
  5
103
330
FF
100
AcDbEntity
  8
치수문자_일반주서
 62
     0
370
    -2
100
AcDbLine
 10
-30.96442378864671
 20
-3.000000000000001
 30
0.0
 11
-38.51347733966661
 21
-3.000000000000028
 31
0.0
  0
LINE
  5
104
330
FF
100
AcDbEntity
  8
치수문자_일반주서
 62
     0
370
    -2
100
AcDbLine
 10
-38.51347733966663
 20
2.999999999999975
 30
0.0
 11
-38.51347733966668
 21
15.72899999999997
 31
0.0
  0
LINE
  5
105
330
FF
100
AcDbEntity
  8
치수문자_일반주서
 62
     0
370
    -2
100
AcDbLine
 10
-38.51347733966663
 20
2.999999999999975
 30
0.0
 11
-38.51347733966661
 21
-3.000000000000028
 31
0.0
  0
LINE
  5
106
330
FF
100
AcDbEntity
  8
치수문자_일반주서
 62
     0
370
    -2
100
AcDbLine
 10
-38.51347733966664
 20
6.301999999999975
 30
0.0
 11
-38.51347733966666
 21
9.603999999999974
 31
0.0
  0
LINE
  5
107
330
FF
100
AcDbEntity
  8
치수문자_일반주서
 62
     0
370
    -2
100
AcDbLine
 10
-38.51347733966659
 20
-6.302000000000028
 30
0.0
 11
-38.51347733966658
 21
-9.604000000000028
 31
0.0
  0
SOLID
  5
108
330
FF
100
AcDbEntity
  8
치수문자_일반주서
 62
     0
100
AcDbTrace
 10
-39.06381067299998
 20
6.301999999999973
 30
0.0
 11
-37.96314400633331
 21
6.301999999999977
 31
0.0
 12
-38.51347733966663
 22
2.999999999999975
 32
0.0
 13
-38.51347733966663
 23
2.999999999999975
 33
0.0
  0
SOLID
  5
109
330
FF
100
AcDbEntity
  8
치수문자_일반주서
 62
     0
100
AcDbTrace
 10
-37.96314400633326
 20
-6.302000000000026
 30
0.0
 11
-39.06381067299993
 21
-6.30200000000003
 31
0.0
 12
-38.51347733966661
 22
-3.000000000000028
 32
0.0
 13
-38.51347733966661
 23
-3.000000000000028
 33
0.0
  0
MTEXT
  5
10A
330
FF
100
AcDbEntity
  8
치수문자_일반주서
 62
     0
100
AcDbMText
 10
-42.88847733966666
 20
12.66649999999996
 30
0.0
 40
3.5
 41
0.0
 71
     2
 72
     1
  1
\A1;%%c6
  7
SLDTEXTSTYLE0
 11
-3.552713678800498E-15
 21
1.0
 31
0.0
 73
     1
 44
1.0
  0
POINT
  5
147
330
FF
100
AcDbEntity
  8
Defpoints
 62
     0
100
AcDbPoint
 10
-30.90192378864671
 20
3.000000000000004
 30
0.0
  0
POINT
  5
148
330
FF
100
AcDbEntity
  8
Defpoints
 62
     0
100
AcDbPoint
 10
-30.90192378864671
 20
-3.000000000000001
 30
0.0
  0
POINT
  5
149
330
FF
100
AcDbEntity
  8
Defpoints
 62
     0
100
AcDbPoint
 10
-38.51347733966661
 20
-3.000000000000029
 30
0.0
  0
ENDBLK
  5
101
330
FF
100
AcDbEntity
  8
0
100
AcDbBlockEnd
  0
BLOCK
  5
10D
330
10C
100
AcDbEntity
  8
0
100
AcDbBlockBegin
  2
_D_3
 70
     0
 10
0.0
 20
0.0
 30
0.0
  3
_D_3
  1

  0
LINE
  5
10F
330
10C
100
AcDbEntity
  8
치수문자_일반주서
 62
     0
370
    -2
100
AcDbLine
 10
8.598076211353302
 20
1.506821014972618
 30
0.0
 11
8.598076211353302
 21
12.29023931756027
 31
0.0
  0
LINE
  5
110
330
10C
100
AcDbEntity
  8
치수문자_일반주서
 62
     0
370
    -2
100
AcDbLine
 10
18.5980762113533
 20
1.562500000000003
 30
0.0
 11
18.5980762113533
 21
12.29023931756027
 31
0.0
  0
LINE
  5
111
330
10C
100
AcDbEntity
  8
치수문자_일반주서
 62
     0
370
    -2
100
AcDbLine
 10
11.9000762113533
 20
12.29023931756027
 30
0.0
 11
15.2960762113533
 21
12.29023931756027
 31
0.0
  0
SOLID
  5
112
330
10C
100
AcDbEntity
  8
치수문자_일반주서
 62
     0
100
AcDbTrace
 10
11.9000762113533
 20
12.8405726508936
 30
0.0
 11
11.9000762113533
 21
11.73990598422694
 31
0.0
 12
8.598076211353302
 22
12.29023931756027
 32
0.0
 13
8.598076211353302
 23
12.29023931756027
 33
0.0
  0
SOLID
  5
113
330
10C
100
AcDbEntity
  8
치수문자_일반주서
 62
     0
100
AcDbTrace
 10
15.2960762113533
 20
11.73990598422694
 30
0.0
 11
15.2960762113533
 21
12.8405726508936
 31
0.0
 12
18.5980762113533
 22
12.29023931756027
 32
0.0
 13
18.5980762113533
 23
12.29023931756027
 33
0.0
  0
MTEXT
  5
114
330
10C
100
AcDbEntity
  8
치수문자_일반주서
 62
     0
100
AcDbMText
 10
13.5980762113533
 20
16.66523931756027
 30
0.0
 40
3.5
 41
0.0
 71
     2
 72
     1
  1
\A1;10
  7
SLDTEXTSTYLE0
 73
     1
 44
1.0
  0
POINT
  5
115
330
10C
100
AcDbEntity
  8
Defpoints
 62
     0
100
AcDbPoint
 10
8.598076211353302
 20
1.444321014972618
 30
0.0
  0
POINT
  5
116
330
10C
100
AcDbEntity
  8
Defpoints
 62
     0
100
AcDbPoint
 10
18.5980762113533
 20
1.500000000000003
 30
0.0
  0
POINT
  5
146
330
10C
100
AcDbEntity
  8
Defpoints
 62
     0
100
AcDbPoint
 10
18.5980762113533
 20
12.29023931756027
 30
0.0
  0
ENDBLK
  5
10E
330
10C
100
AcDbEntity
  8
0
100
AcDbBlockEnd
  0
BLOCK
  5
118
330
117
100
AcDbEntity
  8
0
100
AcDbBlockBegin
  2
SW_DOWELSYMBOL_0
 70
     0
 10
0.0
 20
0.0
 30
0.0
  3
SW_DOWELSYMBOL_0
  1

  0
CIRCLE
  5
11A
330
117
100
AcDbEntity
  8
해칭선
 62
     0
100
AcDbCircle
 10
0.0
 20
0.0
 30
0.0
 40
3.000000000000001
  0
HATCH
  5
11B
330
117
100
AcDbEntity
  8
0
  6
Continuous
 62
     0
370
    18
100
AcDbHatch
 10
0.0
 20
0.0
 30
0.0
210
0.0
220
0.0
230
1.0
  2
SOLID
 70
     1
 71
     0
 91
        1
 92
        0
 93
        3
 72
     2
 10
0.0
 20
0.0
 40
3.000000000000001
 50
0.0
 51
90.0
 73
     1
 72
     1
 10
0.0
 20
3.000000000000001
 11
0.0
 21
0.0
 72
     1
 10
0.0
 20
0.0
 11
3.000000000000001
 21
0.0
 97
        0
 75
     0
 76
     1
 98
        1
 10
0.0
 20
0.0
  0
HATCH
  5
11C
330
117
100
AcDbEntity
  8
0
  6
Continuous
 62
     0
370
    18
100
AcDbHatch
 10
0.0
 20
0.0
 30
0.0
210
0.0
220
0.0
230
1.0
  2
SOLID
 70
     1
 71
     0
 91
        1
 92
        0
 93
        3
 72
     2
 10
0.0
 20
0.0
 40
3.000000000000001
 50
180.0
 51
270.0000000000008
 73
     1
 72
     1
 10
0.0
 20
-3.000000000000001
 11
0.0
 21
0.0
 72
     1
 10
0.0
 20
0.0
 11
-3.000000000000001
 21
0.0
 97
        0
 75
     0
 76
     1
 98
        1
 10
0.0
 20
0.0
  0
ENDBLK
  5
119
330
117
100
AcDbEntity
  8
0
100
AcDbBlockEnd
  0
ENDSEC
  0
SECTION
  2
ENTITIES
  0
LINE
  5
99
330
1F
100
AcDbEntity
  8
0
  6
Continuous
 62
     4
370
    25
100
AcDbLine
 10
2.0
 20
-2.999999999999998
 30
0.0
 11
7.099306493974368
 21
-1.633644942980784
 31
0.0
  0
LINE
  5
9A
330
1F
100
AcDbEntity
  8
0
  6
Continuous
 62
     4
370
    25
100
AcDbLine
 10
7.100237983893494
 20
1.6333953510092
 30
0.0
 11
2.0
 21
3.000000000000001
 31
0.0
  0
LINE
  5
9B
330
1F
100
AcDbEntity
  8
0
  6
Continuous
 62
     4
370
    25
100
AcDbLine
 10
2.0
 20
3.0
 30
0.0
 11
-30.9019237886467
 21
2.999999999999998
 31
0.0
  0
LINE
  5
9C
330
1F
100
AcDbEntity
  8
0
  6
Continuous
 62
     4
370
    25
100
AcDbLine
 10
-30.9019237886467
 20
-2.999999999999999
 30
0.0
 11
1.999999999999998
 21
-2.999999999999997
 31
0.0
  0
LINE
  5
9D
330
1F
100
AcDbEntity
  8
0
  6
Continuous
 62
     4
370
    25
100
AcDbLine
 10
-30.9019237886467
 20
2.999999999999997
 30
0.0
 11
-31.4019237886467
 21
2.499999999999996
 31
0.0
  0
LINE
  5
9E
330
1F
100
AcDbEntity
  8
0
  6
Continuous
 62
     4
370
    25
100
AcDbLine
 10
-31.4019237886467
 20
-2.499999999999998
 30
0.0
 11
-30.9019237886467
 21
-2.999999999999998
 31
0.0
  0
LINE
  5
9F
330
1F
100
AcDbEntity
  8
0
  6
Continuous
 62
     1
370
    25
100
AcDbLine
 10
12.13787069010781
 20
-1.499999999999999
 30
0.0
 11
12.99463460248772
 21
-1.499999999999999
 31
0.0
  0
LINE
  5
A0
330
1F
100
AcDbEntity
  8
0
  6
Continuous
 62
     1
370
    25
100
AcDbLine
 10
18.5980762113533
 20
1.500000000000003
 30
0.0
 11
18.16857092735003
 21
1.500000000000003
 31
0.0
  0
LINE
  5
A1
330
1F
100
AcDbEntity
  8
0
  6
Continuous
 62
     1
370
    25
100
AcDbLine
 10
15.15406758773272
 20
-1.499999999999999
 30
0.0
 11
16.01132236094635
 21
-1.499999999999999
 31
0.0
  0
LINE
  5
A2
330
1F
100
AcDbEntity
  8
0
  6
Continuous
 62
     1
370
    25
100
AcDbLine
 10
9.979705028500643
 20
1.500000000000003
 30
0.0
 11
9.121206831515174
 21
1.500000000000003
 31
0.0
  0
LINE
  5
A3
330
1F
100
AcDbEntity
  8
0
  6
Continuous
 62
     1
370
    25
100
AcDbLine
 10
18.16857092735003
 20
-1.499999999999999
 30
0.0
 11
18.5980762113533
 21
-1.499999999999999
 31
0.0
  0
LINE
  5
A4
330
1F
100
AcDbEntity
  8
0
  6
Continuous
 62
     1
370
    25
100
AcDbLine
 10
12.99463460248773
 20
1.500000000000003
 30
0.0
 11
12.13787069010782
 21
1.500000000000003
 31
0.0
  0
LINE
  5
A5
330
1F
100
AcDbEntity
  8
0
  6
Continuous
 62
     1
370
    25
100
AcDbLine
 10
9.121206831515192
 20
-1.499999999999999
 30
0.0
 11
9.979705028500646
 21
-1.499999999999999
 31
0.0
  0
LINE
  5
A6
330
1F
100
AcDbEntity
  8
0
  6
Continuous
 62
     1
370
    25
100
AcDbLine
 10
16.01132236094634
 20
1.500000000000003
 30
0.0
 11
15.15406758773273
 21
1.500000000000003
 31
0.0
  0
SPLINE
  5
A7
330
1F
100
AcDbEntity
  8
0
  6
Continuous
 62
     4
370
    25
100
AcDbSpline
210
0.0
220
0.0
230
1.0
 70
     8
 71
     3
 72
     8
 73
     4
 74
     0
 42
0.000000001
 43
0.00000001
 40
0.0
 40
0.0
 40
0.0
 40
0.0
 40
1.0
 40
1.0
 40
1.0
 40
1.0
 10
7.581692426121076
 20
1.081687158235491
 30
0.0
 10
7.58715052928284
 20
1.077537613826884
 30
0.0
 10
7.592611783014257
 20
1.073378406683054
 30
0.0
 10
7.598076211353301
 20
1.069209566228369
 30
0.0
  0
SPLINE
  5
A8
330
1F
100
AcDbEntity
  8
0
  6
Continuous
 62
     4
370
    25
100
AcDbSpline
210
0.0
220
0.0
230
1.0
 70
     8
 71
     3
 72
    14
 73
    10
 74
     0
 42
0.000000001
 43
0.00000001
 40
0.0
 40
0.0
 40
0.0
 40
0.0
 40
0.2500000000000001
 40
0.2500000000000001
 40
0.5000000000000001
 40
0.5000000000000001
 40
0.7500000000000002
 40
0.7500000000000002
 40
1.0
 40
1.0
 40
1.0
 40
1.0
 10
7.098395900378873
 20
1.004610089069282
 30
0.0
 10
7.098395900378873
 20
1.049954183160523
 30
0.0
 10
7.114848730825174
 20
1.089468438805998
 30
0.0
 10
7.175944001906402
 20
1.146966355269354
 30
0.0
 10
7.220033407916287
 20
1.164486628491048
 30
0.0
 10
7.320033277506258
 20
1.176249441396861
 30
0.0
 10
7.376796710316918
 20
1.170679778622745
 30
0.0
 10
7.4856618906926
 20
1.139905540113493
 30
0.0
 10
7.538138668277228
 20
1.114799074038197
 30
0.0
 10
7.581692426121076
 20
1.081687158235492
 30
0.0
  0
LINE
  5
A9
330
1F
100
AcDbEntity
  8
0
  6
Continuous
 62
     4
370
    25
100
AcDbLine
 10
7.098395900378873
 20
1.004610089069282
 30
0.0
 11
7.098395900378873
 21
0.015088081348557
 31
0.0
  0
SPLINE
  5
AA
330
1F
100
AcDbEntity
  8
0
  6
Continuous
 62
     4
370
    25
100
AcDbSpline
210
0.0
220
0.0
230
1.0
 70
     8
 71
     3
 72
     8
 73
     4
 74
     0
 42
0.000000001
 43
0.00000001
 40
0.0
 40
0.0
 40
0.0
 40
0.0
 40
1.0
 40
1.0
 40
1.0
 40
1.0
 10
7.205449922247818
 20
-0.210714580518494
 30
0.0
 10
7.138828548569674
 20
-0.1581965899452815
 30
0.0
 10
7.098395900378812
 20
-0.0733954842708741
 30
0.0
 10
7.098395900378805
 20
0.0150880813485393
 30
0.0
  0
SPLINE
  5
AB
330
1F
100
AcDbEntity
  8
0
  6
Continuous
 62
     4
370
    25
100
AcDbSpline
210
0.0
220
0.0
230
1.0
 70
     8
 71
     3
 72
     8
 73
     4
 74
     0
 42
0.000000001
 43
0.00000001
 40
0.0
 40
0.0
 40
0.0
 40
0.0
 40
1.0
 40
1.0
 40
1.0
 40
1.0
 10
7.598076211353217
 20
-0.4869842169757511
 30
0.0
 10
7.463664988707486
 20
-0.4048446845755098
 30
0.0
 10
7.333743153549267
 20
-0.3118488312868324
 30
0.0
 10
7.205449922247818
 20
-0.2107145805184938
 30
0.0
  0
LINE
  5
AC
330
1F
100
AcDbEntity
  8
0
  6
Continuous
 62
     4
370
    25
100
AcDbLine
 10
7.598076211353301
 20
-0.4869842169759862
 30
0.0
 11
7.598076211353301
 21
-1.052041303127279
 31
0.0
  0
SPLINE
  5
AD
330
1F
100
AcDbEntity
  8
0
  6
Continuous
 62
     4
370
    25
100
AcDbSpline
210
0.0
220
0.0
230
1.0
 70
     8
 71
     3
 72
     8
 73
     4
 74
     0
 42
0.000000001
 43
0.00000001
 40
0.0
 40
0.0
 40
0.0
 40
0.0
 40
1.0
 40
1.0
 40
1.0
 40
1.0
 10
7.581692426121076
 20
-1.045534423186347
 30
0.0
 10
7.58715052928284
 20
-1.047723109627114
 30
0.0
 10
7.592611783014257
 20
-1.049892071584099
 30
0.0
 10
7.598076211353301
 20
-1.052041303127281
 30
0.0
  0
SPLINE
  5
AE
330
1F
100
AcDbEntity
  8
0
  6
Continuous
 62
     4
370
    25
100
AcDbSpline
210
0.0
220
0.0
230
1.0
 70
     8
 71
     3
 72
    14
 73
    10
 74
     0
 42
0.000000001
 43
0.00000001
 40
0.0
 40
0.0
 40
0.0
 40
0.0
 40
0.2500000000000001
 40
0.2500000000000001
 40
0.5000000000000002
 40
0.5000000000000002
 40
0.7500000000000001
 40
0.7500000000000001
 40
1.0
 40
1.0
 40
1.0
 40
1.0
 10
7.098395900378873
 20
-1.288546321816832
 30
0.0
 10
7.098395900378873
 20
-1.253193976594553
 30
0.0
 10
7.114848730825174
 20
-1.2126504863835
 30
0.0
 10
7.175944001906402
 20
-1.135274533645763
 30
0.0
 10
7.220033407916287
 20
-1.099392621854397
 30
0.0
 10
7.320033277506258
 20
-1.046917077002445
 30
0.0
 10
7.376796710316918
 20
-1.030021782426282
 30
0.0
 10
7.4856618906926
 20
-1.020750781241058
 30
0.0
 10
7.538138668277228
 20
-1.028069469444708
 30
0.0
 10
7.581692426121076
 20
-1.045534423186347
 30
0.0
  0
LINE
  5
AF
330
1F
100
AcDbEntity
  8
0
  6
Continuous
 62
     4
370
    25
100
AcDbLine
 10
7.098395900378873
 20
-1.288546321816832
 30
0.0
 11
7.098395900378873
 21
-1.633819269175353
 31
0.0
  0
SPLINE
  5
B0
330
1F
100
AcDbEntity
  8
0
  6
Continuous
 62
     4
370
    25
100
AcDbSpline
210
0.0
220
0.0
230
1.0
 70
     8
 71
     3
 72
     8
 73
     4
 74
     0
 42
0.000000001
 43
0.00000001
 40
0.0
 40
0.0
 40
0.0
 40
0.0
 40
1.0
 40
1.0
 40
1.0
 40
1.0
 10
7.205449922247818
 20
-1.591313582170278
 30
0.0
 10
7.138828548569674
 20
-1.616274741021742
 30
0.0
 10
7.098395900378809
 20
-1.634636401927603
 30
0.0
 10
7.098395900378805
 20
-1.633819269175371
 30
0.0
  0
SPLINE
  5
B1
330
1F
100
AcDbEntity
  8
0
  6
Continuous
 62
     4
370
    25
100
AcDbSpline
210
0.0
220
0.0
230
1.0
 70
     8
 71
     3
 72
     8
 73
     4
 74
     0
 42
0.000000001
 43
0.00000001
 40
0.0
 40
0.0
 40
0.0
 40
0.0
 40
1.0
 40
1.0
 40
1.0
 40
1.0
 10
7.598076211353217
 20
-1.418748170894488
 30
0.0
 10
7.463664988707486
 20
-1.485020484501639
 30
0.0
 10
7.333743153549267
 20
-1.543245709214757
 30
0.0
 10
7.205449922247818
 20
-1.591313582170277
 30
0.0
  0
SPLINE
  5
B2
330
1F
100
AcDbEntity
  8
0
  6
Continuous
 62
     4
370
    25
100
AcDbSpline
210
0.0
220
0.0
230
1.0
 70
     8
 71
     3
 72
     8
 73
     4
 74
     0
 42
0.000000001
 43
0.00000001
 40
0.0
 40
0.0
 40
0.0
 40
0.0
 40
1.0
 40
1.0
 40
1.0
 40
1.0
 10
7.205449922247818
 20
1.59131358217028
 30
0.0
 10
7.138828548569674
 20
1.616274741021745
 30
0.0
 10
7.098395900378812
 20
1.634636401927606
 30
0.0
 10
7.098395900378805
 20
1.633819269175374
 30
0.0
  0
SPLINE
  5
B3
330
1F
100
AcDbEntity
  8
0
  6
Continuous
 62
     4
370
    25
100
AcDbSpline
210
0.0
220
0.0
230
1.0
 70
     8
 71
     3
 72
     8
 73
     4
 74
     0
 42
0.000000001
 43
0.00000001
 40
0.0
 40
0.0
 40
0.0
 40
0.0
 40
1.0
 40
1.0
 40
1.0
 40
1.0
 10
7.598076211353217
 20
1.418748170894488
 30
0.0
 10
7.463664988707486
 20
1.48502048450164
 30
0.0
 10
7.333743153549267
 20
1.543245709214759
 30
0.0
 10
7.205449922247818
 20
1.591313582170279
 30
0.0
  0
LINE
  5
B4
330
1F
100
AcDbEntity
  8
0
  6
Continuous
 62
     4
370
    25
100
AcDbLine
 10
7.598076211353301
 20
1.418748170894425
 30
0.0
 11
7.598076211353301
 21
1.069209566228366
 31
0.0
  0
LINE
  5
B5
330
1F
100
AcDbEntity
  8
0
  6
Continuous
 62
     4
370
    25
100
AcDbLine
 10
2.0
 20
3.000000000000001
 30
0.0
 11
2.0
 21
-3.0
 31
0.0
  0
LINE
  5
B6
330
1F
100
AcDbEntity
  8
0
  6
Continuous
 62
     4
370
    25
100
AcDbLine
 10
-30.9019237886467
 20
2.999999999999997
 30
0.0
 11
-30.9019237886467
 21
-3.0
 31
0.0
  0
LINE
  5
B7
330
1F
100
AcDbEntity
  8
0
  6
Continuous
 62
     4
370
    25
100
AcDbLine
 10
-31.4019237886467
 20
2.499999999999996
 30
0.0
 11
-31.4019237886467
 21
-2.499999999999998
 31
0.0
  0
SPLINE
  5
B8
330
1F
100
AcDbEntity
  8
0
  6
Continuous
 62
     4
370
    25
100
AcDbSpline
210
0.0
220
0.0
230
1.0
 70
     8
 71
     3
 72
    10
 73
     6
 74
     0
 42
0.000000001
 43
0.00000001
 40
0.0
 40
0.0
 40
0.0
 40
0.0
 40
0.5
 40
0.5
 40
1.0
 40
1.0
 40
1.0
 40
1.0
 10
8.59807621135328
 20
0.4048911035194842
 30
0.0
 10
8.431196820149513
 20
0.5301612395387388
 30
0.0
 10
8.261312557665832
 20
0.6515060791008537
 30
0.0
 10
7.9324586766693
 20
0.8744313986433303
 30
0.0
 10
7.765873929434021
 20
0.9777960510709554
 30
0.0
 10
7.598076211353301
 20
1.069209566228366
 30
0.0
  0
SPLINE
  5
B9
330
1F
100
AcDbEntity
  8
0
  6
Continuous
 62
     4
370
    25
100
AcDbSpline
210
0.0
220
0.0
230
1.0
 70
     8
 71
     3
 72
    10
 73
     6
 74
     0
 42
0.000000001
 43
0.00000001
 40
0.0
 40
0.0
 40
0.0
 40
0.0
 40
0.5
 40
0.5
 40
1.0
 40
1.0
 40
1.0
 40
1.0
 10
8.598076211353298
 20
-1.127733958081521
 30
0.0
 10
8.43119682014953
 20
-1.04195095887856
 30
0.0
 10
8.26131255766585
 20
-0.9427362092211565
 30
0.0
 10
7.932458676669307
 20
-0.7276637940149994
 30
0.0
 10
7.765873929434025
 20
-0.610261465729516
 30
0.0
 10
7.598076211353301
 20
-0.4869842169759861
 30
0.0
  0
SPLINE
  5
BA
330
1F
100
AcDbEntity
  8
0
  6
Continuous
 62
     4
370
    25
100
AcDbSpline
210
0.0
220
0.0
230
1.0
 70
     8
 71
     3
 72
    10
 73
     6
 74
     0
 42
0.000000001
 43
0.00000001
 40
0.0
 40
0.0
 40
0.0
 40
0.0
 40
0.5
 40
0.5
 40
1.0
 40
1.0
 40
1.0
 40
1.0
 10
8.598076211353298
 20
0.9890480877034055
 30
0.0
 10
8.43119682014953
 20
1.086859713275518
 30
0.0
 10
8.261312557665846
 20
1.173886088855072
 30
0.0
 10
7.932458676669307
 20
1.318053683528799
 30
0.0
 10
7.765873929434025
 20
1.376433350204756
 30
0.0
 10
7.598076211353301
 20
1.418748170894425
 30
0.0
  0
SPLINE
  5
BB
330
1F
100
AcDbEntity
  8
0
  6
Continuous
 62
     4
370
    25
100
AcDbSpline
210
0.0
220
0.0
230
1.0
 70
     8
 71
     3
 72
    10
 73
     6
 74
     0
 42
0.000000001
 43
0.00000001
 40
0.0
 40
0.0
 40
0.0
 40
0.0
 40
0.5
 40
0.5
 40
1.0
 40
1.0
 40
1.0
 40
1.0
 10
8.59807621135328
 20
-1.44432101497235
 30
0.0
 10
8.431196820149513
 20
-1.409203639343884
 30
0.0
 10
8.261312557665832
 20
-1.357313500514445
 30
0.0
 10
7.9324586766693
 20
-1.225614066030092
 30
0.0
 10
7.765873929434021
 20
-1.144946595531982
 30
0.0
 10
7.598076211353301
 20
-1.052041303127279
 30
0.0
  0
LINE
  5
BC
330
1F
100
AcDbEntity
  8
0
  6
Continuous
 62
     4
370
    25
100
AcDbLine
 10
8.041832871743352
 20
-1.265039131502217
 30
0.0
 11
7.598076211354171
 21
-1.418748170894206
 31
0.0
  0
SPLINE
  5
BD
330
1F
100
AcDbEntity
  8
0
  6
Continuous
 62
     4
370
    25
100
AcDbSpline
210
0.0
220
0.0
230
1.0
 70
     8
 71
     3
 72
     9
 73
     5
 74
     0
 42
0.000000001
 43
0.00000001
 40
0.0
 40
0.0
 40
0.0
 40
0.0
 40
0.0990794708293436
 40
1.0
 40
1.0
 40
1.0
 40
1.0
 10
8.041832871743338
 20
1.26503913150222
 30
0.0
 10
8.060182695369118
 20
1.274006107971285
 30
0.0
 10
8.245385780046334
 20
1.364508977980648
 30
0.0
 10
8.430922432365417
 20
1.406494971485874
 30
0.0
 10
8.59807621135328
 20
1.444321014972358
 30
0.0
  0
LINE
  5
BE
330
1F
100
AcDbEntity
  8
0
  6
Continuous
 62
     1
370
    25
100
AcDbLine
 10
18.5980762113533
 20
1.462748547532894
 30
0.0
 11
18.5980762113533
 21
1.500000000000004
 31
0.0
  0
SPLINE
  5
BF
330
1F
100
AcDbEntity
  8
0
  6
Continuous
 62
     1
370
    25
100
AcDbSpline
210
0.0
220
0.0
230
1.0
 70
     8
 71
     3
 72
    15
 73
    11
 74
     0
 42
0.000000001
 43
0.00000001
 40
0.0
 40
0.0
 40
0.0
 40
0.0
 40
0.1290282445416547
 40
0.2589038669362651
 40
0.3883935457347007
 40
0.523371369380635
 40
0.6593146887034039
 40
0.7943386861508334
 40
0.9295300916809802
 40
1.0
 40
1.0
 40
1.0
 40
1.0
 10
8.59807621135328
 20
0.404891103519483
 30
0.0
 10
8.750029105241971
 20
0.2877602284353411
 30
0.0
 10
9.054932825816401
 20
0.0527292349917092
 30
0.0
 10
9.514082159671737
 20
-0.3068005996898445
 30
0.0
 10
9.979349800844783
 20
-0.653773918180285
 30
0.0
 10
10.45081897141959
 20
-0.968336441862722
 30
0.0
 10
10.93139248231124
 20
-1.226031495990723
 30
0.0
 10
11.40978333235871
 20
-1.405259442734746
 30
0.0
 10
11.81152385167864
 20
-1.496517710250203
 30
0.0
 10
12.05458553458021
 20
-1.490405668775471
 30
0.0
 10
12.13787069010781
 20
-1.488311376006914
 30
0.0
  0
SPLINE
  5
C0
330
1F
100
AcDbEntity
  8
0
  6
Continuous
 62
     1
370
    25
100
AcDbSpline
210
0.0
220
0.0
230
1.0
 70
     8
 71
     3
 72
    11
 73
     7
 74
     0
 42
0.000000001
 43
0.00000001
 40
0.0
 40
0.0
 40
0.0
 40
0.0
 40
0.0478832535312268
 40
0.3662383100500358
 40
0.6823386743444667
 40
1.0
 40
1.0
 40
1.0
 40
1.0
 10
17.08713524409514
 20
1.263348645754734
 30
0.0
 10
17.11123495208705
 20
1.274968210181522
 30
0.0
 10
17.29556320208576
 20
1.363841236247077
 30
0.0
 10
17.64034782941089
 20
1.452411779323614
 30
0.0
 10
18.11840745724113
 20
1.520398773760226
 30
0.0
 10
18.4379243022576
 20
1.481996817742183
 30
0.0
 10
18.5980762113533
 20
1.462748547532887
 30
0.0
  0
SPLINE
  5
C1
330
1F
100
AcDbEntity
  8
0
  6
Continuous
 62
     1
370
    25
100
AcDbSpline
210
0.0
220
0.0
230
1.0
 70
     8
 71
     3
 72
    19
 73
    15
 74
     0
 42
0.000000001
 43
0.00000001
 40
0.0
 40
0.0
 40
0.0
 40
0.0
 40
0.0488304661014533
 40
0.1364813530907508
 40
0.2240868529701045
 40
0.3112882961364555
 40
0.3991187659503861
 40
0.4865112875211226
 40
0.5737955905670008
 40
0.6616741758936645
 40
0.7489286305558578
 40
0.8326353536511302
 40
0.9165915643815173
 40
0.9999999999999999
 40
0.9999999999999999
 40
0.9999999999999999
 40
0.9999999999999999
 10
14.07404066736505
 20
-1.259532693620862
 30
0.0
 10
13.98503628926118
 20
-1.298140030020194
 30
0.0
 10
13.7362686873018
 20
-1.40604769365099
 30
0.0
 10
13.3267135999097
 20
-1.490702338905098
 30
0.0
 10
12.84713148717436
 20
-1.51190807900894
 30
0.0
 10
12.36897672512185
 20
-1.435051228726508
 30
0.0
 10
11.88858659922207
 20
-1.271369163292699
 30
0.0
 10
11.40979843513604
 20
-1.027831245742358
 30
0.0
 10
10.93138840562708
 20
-0.7196820282984566
 30
0.0
 10
10.45082005971689
 20
-0.36999089478724
 30
0.0
 10
9.979349523370761
 20
0.0008933224297583
 30
0.0
 10
9.514082232622489
 20
0.3634058073251412
 30
0.0
 10
9.0549328076957
 20
0.7028961243708466
 30
0.0
 10
8.750029099215539
 20
0.8938724515323735
 30
0.0
 10
8.598076211354186
 20
0.9890480877028855
 30
0.0
  0
SPLINE
  5
C2
330
1F
100
AcDbEntity
  8
0
  6
Continuous
 62
     1
370
    25
100
AcDbSpline
210
0.0
220
0.0
230
1.0
 70
     8
 71
     3
 72
    21
 73
    17
 74
     0
 42
0.000000001
 43
0.00000001
 40
0.0
 40
0.0
 40
0.0
 40
0.0
 40
0.0696710097886104
 40
0.1397995757572468
 40
0.2097197448732215
 40
0.2826033317645031
 40
0.3560082545771604
 40
0.428916773803121
 40
0.5019156878896108
 40
0.5752804198470655
 40
0.6481197262717692
 40
0.7212965409952199
 40
0.7945112675408705
 40
0.8673448517520627
 40
0.9406906630189814
 40
1.0
 40
1.0
 40
1.0
 40
1.0
 10
8.59807621135328
 20
1.444321014972357
 30
0.0
 10
8.750029099244461
 20
1.468544057604334
 30
0.0
 10
9.054932807784478
 20
1.517149224857898
 30
0.0
 10
9.514082232262357
 20
1.481923756402778
 30
0.0
 10
9.979349524739302
 20
1.36700385016652
 30
0.0
 10
10.45082005434885
 20
1.165727008865651
 30
0.0
 10
10.93138842573534
 20
0.8921271327811371
 30
0.0
 10
11.40979836064153
 20
0.5607422218313325
 30
0.0
 10
11.88858687826929
 20
0.1949717522670537
 30
0.0
 10
12.36897568109142
 20
-0.1805231510604215
 30
0.0
 10
12.84713535941234
 20
-0.5484153963586976
 30
0.0
 10
13.32669906745765
 20
-0.8796991820451893
 30
0.0
 10
13.80643949439248
 20
-1.157380737424421
 30
0.0
 10
14.28456317327795
 20
-1.362040495490989
 30
0.0
 10
14.73489166606135
 20
-1.482794890207571
 30
0.0
 10
15.02455901762881
 20
-1.489776203962063
 30
0.0
 10
15.15406758773272
 20
-1.492897508302709
 30
0.0
  0
SPLINE
  5
C3
330
1F
100
AcDbEntity
  8
0
  6
Continuous
 62
     1
370
    25
100
AcDbSpline
210
0.0
220
0.0
230
1.0
 70
     8
 71
     3
 72
    22
 73
    18
 74
     0
 42
0.000000001
 43
0.00000001
 40
0.0
 40
0.0
 40
0.0
 40
0.0
 40
0.0545591600780428
 40
0.1231194174729022
 40
0.1921223841188108
 40
0.2593589599278763
 40
0.3267200281447749
 40
0.3943757759896679
 40
0.4615590346232077
 40
0.5290938671125375
 40
0.5965937289247581
 40
0.663782265850647
 40
0.7314554665458917
 40
0.7987912289988203
 40
0.8660436092955656
 40
0.9337538828967918
 40
1.0
 40
1.0
 40
1.0
 40
1.0
 10
17.08713524409514
 20
-1.26334864575473
 30
0.0
 10
16.95790941357884
 20
-1.314864323972842
 30
0.0
 10
16.66629552229348
 20
-1.43111575240141
 30
0.0
 10
16.21195103379985
 20
-1.506525301706968
 30
0.0
 10
15.72520064051352
 20
-1.49979407129532
 30
0.0
 10
15.2437923473461
 20
-1.396029644916819
 30
0.0
 10
14.76488990188508
 20
-1.206794891756839
 30
0.0
 10
14.28457984268685
 20
-0.9442629910263375
 30
0.0
 10
13.80643501121763
 20
-0.6204399745874896
 30
0.0
 10
13.32670028503913
 20
-0.2604570076513506
 30
0.0
 10
12.8471349821431
 20
0.1157754162124668
 30
0.0
 10
12.36897597942439
 20
0.4872343027156355
 30
0.0
 10
11.88858605934515
 20
0.8249828442586261
 30
0.0
 10
11.40980131821395
 20
1.114327110965646
 30
0.0
 10
10.93137739114172
 20
1.332663487832016
 30
0.0
 10
10.45319818154686
 20
1.473492952426932
 30
0.0
 10
10.13638180147296
 20
1.490781732956277
 30
0.0
 10
9.979705028500646
 20
1.499331639186922
 30
0.0
  0
LINE
  5
C4
330
1F
100
AcDbEntity
  8
0
  6
Continuous
 62
     1
370
    25
100
AcDbLine
 10
18.5980762113533
 20
-1.499999999999998
 30
0.0
 11
18.5980762113533
 21
-1.462748547532891
 31
0.0
  0
SPLINE
  5
C5
330
1F
100
AcDbEntity
  8
0
  6
Continuous
 62
     1
370
    25
100
AcDbSpline
210
0.0
220
0.0
230
1.0
 70
     8
 71
     3
 72
    23
 73
    19
 74
     0
 42
0.000000001
 43
0.00000001
 40
0.0
 40
0.0
 40
0.0
 40
0.0
 40
0.0492739390278282
 40
0.1165944329736086
 40
0.1842522886469672
 40
0.2514255904493651
 40
0.3189101465446084
 40
0.3864296653872954
 40
0.4535976900942066
 40
0.5212380968746795
 40
0.5885838908463019
 40
0.6558052206389717
 40
0.723500964039138
 40
0.7907299582525459
 40
0.8580628685991476
 40
0.9257124101232858
 40
0.9928828359803914
 40
1.0
 40
1.0
 40
1.0
 40
1.0
 10
11.05967012390607
 20
1.261523800992815
 30
0.0
 10
11.17634579019916
 20
1.309255063567653
 30
0.0
 10
11.45242952577343
 20
1.422199139174936
 30
0.0
 10
11.88855662881033
 20
1.501300043817597
 30
0.0
 10
12.36898381838211
 20
1.505321029892835
 30
0.0
 10
12.84713287505678
 20
1.41291767150006
 30
0.0
 10
13.32670085953783
 20
1.234078436011302
 30
0.0
 10
13.80643482692072
 20
0.9792320475185592
 30
0.0
 10
14.2845800085428
 20
0.6613945314333044
 30
0.0
 10
14.76488942067431
 20
0.3056861031768127
 30
0.0
 10
15.243794095368
 20
-0.0708275055466126
 30
0.0
 10
15.72213952821872
 20
-0.4438323664774688
 30
0.0
 10
16.20269923449379
 20
-0.7864189087124165
 30
0.0
 10
16.68108379230621
 20
-1.082538173822549
 30
0.0
 10
17.15990292086078
 20
-1.313057463949164
 30
0.0
 10
17.64035108195515
 20
-1.452051555798102
 30
0.0
 10
17.97554085379212
 20
-1.511988700527342
 30
0.0
 10
18.15169443514935
 20
-1.497036217457797
 30
0.0
 10
18.16857092735003
 20
-1.49560368647001
 30
0.0
  0
SPLINE
  5
C6
330
1F
100
AcDbEntity
  8
0
  6
Continuous
 62
     1
370
    25
100
AcDbSpline
210
0.0
220
0.0
230
1.0
 70
     8
 71
     3
 72
    17
 73
    13
 74
     0
 42
0.000000001
 43
0.00000001
 40
0.0
 40
0.0
 40
0.0
 40
0.0
 40
0.1047188675366927
 40
0.2088464997986004
 40
0.312911735446025
 40
0.4176489441035333
 40
0.5197050094038507
 40
0.6219500374101106
 40
0.7246423493982719
 40
0.8266174864079735
 40
0.929126265173708
 40
1.0
 40
1.0
 40
1.0
 40
1.0
 10
17.67793944399329
 20
-1.144286700689398
 30
0.0
 10
17.5141840746132
 20
-1.054792775925254
 30
0.0
 10
17.18759788701645
 20
-0.8763102027281956
 30
0.0
 10
16.69957658330811
 20
-0.531511116690377
 30
0.0
 10
16.21193126753344
 20
-0.1570967467411199
 30
0.0
 10
15.72520592989851
 20
0.2234040793899479
 30
0.0
 10
15.243790472446
 20
0.5901593368216792
 30
0.0
 10
14.76489217389014
 20
0.916752345702318
 30
0.0
 10
14.28457262710706
 20
1.186163133479852
 30
0.0
 10
13.80646144823875
 20
1.380751083672397
 30
0.0
 10
13.37597544401887
 20
1.488738267450454
 30
0.0
 10
13.10528499467269
 20
1.489665802905189
 30
0.0
 10
12.99463460248773
 20
1.49004495245435
 30
0.0
  0
LINE
  5
C7
330
1F
100
AcDbEntity
  8
0
  6
Continuous
 62
     1
370
    25
100
AcDbLine
 10
17.67793944399329
 20
-1.144286700689397
 30
0.0
 11
17.65096339748067
 21
-1.163175531808627
 31
0.0
  0
ELLIPSE
  5
C8
330
1F
100
AcDbEntity
  8
0
  6
Continuous
 62
     1
370
    25
100
AcDbEllipse
 10
18.3538485183752
 20
0.0000000000000024
 30
0.0
 11
2.083984958489943
 21
-0.8255115090626449
 31
0.0
210
0.0
220
0.0
230
1.0
 40
0.6009688174887272
 41
4.611793293069585
 42
4.962701336978731
  0
SPLINE
  5
C9
330
1F
100
AcDbEntity
  8
0
  6
Continuous
 62
     1
370
    25
100
AcDbSpline
210
0.0
220
0.0
230
1.0
 70
     8
 71
     3
 72
     8
 73
     4
 74
     0
 42
0.000000001
 43
0.00000001
 40
0.0
 40
0.0
 40
0.0
 40
0.0
 40
1.0
 40
1.0
 40
1.0
 40
1.0
 10
18.5980762113533
 20
-1.462748547532889
 30
0.0
 10
18.52943559319602
 20
-1.450716191886353
 30
0.0
 10
18.45968165179195
 20
-1.435732330482079
 30
0.0
 10
18.38941977445688
 20
-1.417863383418264
 30
0.0
  0
SPLINE
  5
CA
330
1F
100
AcDbEntity
  8
0
  6
Continuous
 62
     1
370
    25
100
AcDbSpline
210
0.0
220
0.0
230
1.0
 70
     8
 71
     3
 72
     9
 73
     5
 74
     0
 42
0.000000001
 43
0.00000001
 40
0.0
 40
0.0
 40
0.0
 40
0.0
 40
0.872206005226985
 40
0.9999999999999999
 40
0.9999999999999999
 40
0.9999999999999999
 40
0.9999999999999999
 10
8.598076211353284
 20
-1.44432101497235
 30
0.0
 10
8.749978483754177
 20
-1.474906119767304
 30
0.0
 10
8.92413719338306
 20
-1.509972496989729
 30
0.0
 10
9.09887623175841
 20
-1.496415318981989
 30
0.0
 10
9.121206831515192
 20
-1.494682793046531
 30
0.0
  0
SPLINE
  5
CB
330
1F
100
AcDbEntity
  8
0
  6
Continuous
 62
     1
370
    25
100
AcDbSpline
210
0.0
220
0.0
230
1.0
 70
     8
 71
     3
 72
    17
 73
    13
 74
     0
 42
0.000000001
 43
0.00000001
 40
0.0
 40
0.0
 40
0.0
 40
0.0
 40
0.046441803849207
 40
0.1527378111937495
 40
0.2585708383939681
 40
0.3642082717781557
 40
0.4705912398908741
 40
0.576240717811188
 40
0.6820534985645708
 40
0.7883638610383322
 40
0.8939212995590033
 40
1.0
 40
1.0
 40
1.0
 40
1.0
 10
14.07404066736507
 20
1.259532693620867
 30
0.0
 10
14.14395914583412
 20
1.290964437586118
 30
0.0
 10
14.37390704790172
 20
1.394337161669851
 30
0.0
 10
14.76490517830941
 20
1.481589647404926
 30
0.0
 10
15.24378998803903
 20
1.514844741432983
 30
0.0
 10
15.72214027254769
 20
1.448964766536806
 30
0.0
 10
16.20270040391532
 20
1.295742565524896
 30
0.0
 10
16.68107841743237
 20
1.060501919205459
 30
0.0
 10
17.15992334103652
 20
0.7596033441547629
 30
0.0
 10
17.6402746299633
 20
0.4141448052204675
 30
0.0
 10
18.11842580805748
 20
0.0381309770738924
 30
0.0
 10
18.4379304292322
 20
-0.20856368390184
 30
0.0
 10
18.5980762113533
 20
-0.3322148200945003
 30
0.0
  0
LINE
  5
CC
330
1F
100
AcDbEntity
  8
0
  6
Continuous
 62
     1
370
    25
100
AcDbLine
 10
18.5980762113533
 20
-0.5000000000000007
 30
0.0
 11
18.5980762113533
 21
-0.333369540318639
 31
0.0
  0
SPLINE
  5
CD
330
1F
100
AcDbEntity
  8
0
  6
Continuous
 62
     1
370
    25
100
AcDbSpline
210
0.0
220
0.0
230
1.0
 70
    24
 71
     3
 72
    14
 73
    10
 74
     0
 42
0.000000001
 43
0.00000001
 40
0.0
 40
0.0
 40
0.0
 40
0.0
 40
0.2500000000000001
 40
0.2500000000000001
 40
0.5000000000000001
 40
0.5000000000000001
 40
0.7500000000000002
 40
0.7500000000000002
 40
1.0
 40
1.0
 40
1.0
 40
1.0
 10
18.5980762113533
 20
-0.5000000000000006
 30
0.0
 10
18.54120210056246
 20
-0.5398236811047208
 30
0.0
 10
18.4634535724438
 20
-0.5942637865781141
 30
0.0
 10
18.29268271025235
 20
-0.7138388315911409
 30
0.0
 10
18.20221345952762
 20
-0.7771860829248182
 30
0.0
 10
18.0324542311604
 20
-0.8960527743082128
 30
0.0
 10
17.95065801972592
 20
-0.9533270981515268
 30
0.0
 10
17.80392724131955
 20
-1.056069095279046
 30
0.0
 10
17.73686893998196
 20
-1.103023823375224
 30
0.0
 10
17.67793944399329
 20
-1.144286700689394
 30
0.0
  0
SPLINE
  5
CE
330
1F
100
AcDbEntity
  8
0
  6
Continuous
 62
     1
370
    25
100
AcDbSpline
210
0.0
220
0.0
230
1.0
 70
     8
 71
     3
 72
    11
 73
     7
 74
     0
 42
0.000000001
 43
0.00000001
 40
0.0
 40
0.0
 40
0.0
 40
0.0
 40
0.2942934967253352
 40
0.5869254333087711
 40
0.8793820154571179
 40
1.0
 40
1.0
 40
1.0
 40
1.0
 10
17.67793944399329
 20
0.9698494453395241
 30
0.0
 10
17.51418440765034
 20
1.061226093235259
 30
0.0
 10
17.18759888424754
 20
1.243463482974663
 30
0.0
 10
16.69957262163318
 20
1.415351283278247
 30
0.0
 10
16.30827396889381
 20
1.501078523231255
 30
0.0
 10
16.07843535395059
 20
1.491136662100973
 30
0.0
 10
16.01132236094634
 20
1.48823363357093
 30
0.0
  0
SPLINE
  5
CF
330
1F
100
AcDbEntity
  8
0
  6
Continuous
 62
     1
370
    25
100
AcDbSpline
210
0.0
220
0.0
230
1.0
 70
     8
 71
     3
 72
    13
 73
     9
 74
     0
 42
0.000000001
 43
0.00000001
 40
0.0
 40
0.0
 40
0.0
 40
0.0
 40
0.0518750034339683
 40
0.247367780061773
 40
0.4414721292800748
 40
0.6276842725397875
 40
0.8144514205295105
 40
1.0
 40
1.0
 40
1.0
 40
1.0
 10
11.05967012390607
 20
-1.261523800992812
 30
0.0
 10
11.01715217419386
 20
-1.281498047023053
 30
0.0
 10
10.81440383420624
 20
-1.376745942383633
 30
0.0
 10
10.45075985402663
 20
-1.465956986597826
 30
0.0
 10
9.979364873515664
 20
-1.516234187918827
 30
0.0
 10
9.514078196931049
 20
-1.468817954295259
 30
0.0
 10
9.054933810184352
 20
-1.345596038369089
 30
0.0
 10
8.750029432648496
 20
-1.200196022809092
 30
0.0
 10
8.598076211354186
 20
-1.127733958081979
 30
0.0
  0
LINE
  5
D0
330
1F
100
AcDbEntity
  8
0
  6
Continuous
 62
     1
370
    25
100
AcDbLine
 10
18.5980762113533
 20
0.8043077700777032
 30
0.0
 11
18.5980762113533
 21
1.462748547532894
 31
0.0
  0
SPLINE
  5
D1
330
1F
100
AcDbEntity
  8
0
  6
Continuous
 62
     1
370
    25
100
AcDbSpline
210
0.0
220
0.0
230
1.0
 70
     8
 71
     3
 72
    11
 73
     7
 74
     0
 42
0.000000001
 43
0.00000001
 40
0.0
 40
0.0
 40
0.0
 40
0.0
 40
0.2824092703460993
 40
0.5644956037683295
 40
0.8618444513904093
 40
1.0
 40
1.0
 40
1.0
 40
1.0
 10
18.5980762113533
 20
0.8043077700777032
 30
0.0
 10
18.56465750110841
 20
0.764209741282707
 30
0.0
 10
18.49785829514138
 20
0.6840595360617122
 30
0.0
 10
18.36169439070371
 20
0.6272882782907573
 30
0.0
 10
18.2419840437317
 20
0.6091291113637977
 30
0.0
 10
18.17299857130227
 20
0.6331049571000794
 30
0.0
 10
18.15111423242521
 20
0.6407108415635577
 30
0.0
  0
LINE
  5
D2
330
1F
100
AcDbEntity
  8
0
  6
Continuous
 62
     1
370
    25
100
AcDbLine
 10
17.74089402547109
 20
0.8939942232334434
 30
0.0
 11
17.67793944399329
 21
0.9698494453395231
 31
0.0
  0
ELLIPSE
  5
D3
330
1F
100
AcDbEntity
  8
0
  6
Continuous
 62
     1
370
    25
100
AcDbEllipse
 10
19.31215021472435
 20
0.0000000000000018
 30
0.0
 11
2.142222010113166
 21
0.0
 31
0.0
210
0.0
220
0.0
230
1.0
 40
0.700207538209712
 41
2.438517955908445
 42
2.458224363529681
  0
ELLIPSE
  5
D4
330
1F
100
AcDbEntity
  8
0
  6
Continuous
 62
     1
370
    25
100
AcDbEllipse
 10
18.3538485183752
 20
0.0000000000000018
 30
0.0
 11
2.128653848971172
 21
-1.458261105611107
 31
0.0
210
0.0
220
0.0
230
1.0
 40
0.165075901574665
 41
1.666799630296712
 42
2.017707674205861
  0
SPLINE
  5
D5
330
1F
100
AcDbEntity
  8
0
  6
Continuous
 62
     1
370
    25
100
AcDbSpline
210
0.0
220
0.0
230
1.0
 70
     8
 71
     3
 72
     8
 73
     4
 74
     0
 42
0.000000001
 43
0.00000001
 40
0.0
 40
0.0
 40
0.0
 40
0.0
 40
1.0
 40
1.0
 40
1.0
 40
1.0
 10
18.5980762113533
 20
0.3322148200945046
 30
0.0
 10
18.52943559319743
 20
0.3851935244762146
 30
0.0
 10
18.45968165179481
 20
0.4378016785180305
 30
0.0
 10
18.38941977446121
 20
0.489554313594107
 30
0.0
  0
LINE
  5
D6
330
1F
100
AcDbEntity
  8
0
  6
Continuous
 62
     1
370
    25
100
AcDbLine
 10
18.5980762113533
 20
-0.3322148200945006
 30
0.0
 11
18.5980762113533
 21
0.3322148200945047
 31
0.0
  0
LINE
  5
D7
330
1F
100
AcDbEntity
  8
0
  6
Continuous
 62
     1
370
    25
100
AcDbLine
 10
18.5980762113533
 20
0.3322148200945045
 30
0.0
 11
18.5980762113533
 21
0.8043077700777032
 31
0.0
  0
SPLINE
  5
D8
330
1F
100
AcDbEntity
  8
0
  6
Continuous
 62
     1
370
    25
100
AcDbSpline
210
0.0
220
0.0
230
1.0
 70
     8
 71
     3
 72
     8
 73
     4
 74
     0
 42
0.000000001
 43
0.00000001
 40
0.0
 40
0.0
 40
0.0
 40
0.0
 40
1.0
 40
1.0
 40
1.0
 40
1.0
 10
18.5980762113533
 20
-1.404383063753668
 30
0.0
 10
18.52754511494951
 20
-1.40440562296634
 30
0.0
 10
18.45654077609369
 20
-1.402266877857449
 30
0.0
 10
18.38941977446009
 20
-1.417863383412856
 30
0.0
  0
LINE
  5
D9
330
1F
100
AcDbEntity
  8
0
  6
Continuous
 62
     1
370
    25
100
AcDbLine
 10
18.5980762113533
 20
-0.4999999999999976
 30
0.0
 11
18.5980762113533
 21
-1.404383063753669
 31
0.0
  0
LINE
  5
DA
330
1F
100
AcDbEntity
  8
0
  6
Continuous
 62
     1
370
    25
100
AcDbLine
 10
18.5980762113533
 20
-1.462748547532891
 30
0.0
 11
18.5980762113533
 21
-1.404383063753667
 31
0.0
  0
LINE
  5
DB
330
1F
100
AcDbEntity
  8
중심선
100
AcDbLine
 10
-34.40192378864669
 20
-0.0000000000000026
 30
0.0
 11
21.59807621135329
 21
0.0000000000000043
 31
0.0
  0
CIRCLE
  5
DC
330
1F
100
AcDbEntity
  8
해칭선
100
AcDbCircle
 10
-0.0075551996916775
 20
-0.0000000000000043
 30
0.0
 40
3.000000000000001
  0
INSERT
  5
DD
330
1F
100
AcDbEntity
  8
0
  6
Continuous
 62
     7
100
AcDbBlockReference
 66
     1
  2
블럭10
 10
-17.44814782084245
 20
-52.04717430164393
 30
0.0
  0
ATTRIB
  5
DE
330
DD
100
AcDbEntity
  8
FORMAT
 62
     2
100
AcDbText
 10
-33.56740886027801
 20
-49.97180738881174
 30
0.0
 40
4.233333333333333
  1
SEME7103010E [ 4 FLUTE ]
 41
0.75
  7
SLDTEXTSTYLE0
 11
-33.56740886027801
 21
-52.08847405547841
 31
0.0
100
AcDbAttribute
  2
AUTOATTR0
 70
     0
 74
     1
  0
SEQEND
  5
DF
330
DD
100
AcDbEntity
  8
0
  6
Continuous
 62
     7
  0
HATCH
  5
E0
330
1F
100
AcDbEntity
  8
중심선
100
AcDbHatch
 10
0.0
 20
0.0
 30
0.0
210
0.0
220
0.0
230
1.0
  2
SOLID
 70
     1
 71
     0
 91
        1
 92
        0
 93
        4
 72
     1
 10
-11.7332385164616
 20
-35.8
 11
-15.17951376029889
 21
-35.8
 72
     1
 10
-15.17951376029889
 20
-35.8
 11
-17.30774361950291
 21
-38.33632558057259
 72
     1
 10
-17.30774361950291
 20
-38.33632558057259
 11
-13.86143529055248
 21
-38.3362861512701
 72
     1
 10
-13.86143529055248
 20
-38.3362861512701
 11
-11.7332385164616
 21
-35.8
 97
        0
 75
     0
 76
     1
 98
        1
 10
0.0
 20
0.0
  0
HATCH
  5
E1
330
1F
100
AcDbEntity
  8
중심선
100
AcDbHatch
 10
0.0
 20
0.0
 30
0.0
210
0.0
220
0.0
230
1.0
  2
SOLID
 70
     1
 71
     0
 91
        1
 92
        0
 93
        4
 72
     1
 10
-6.720474525425624
 20
-35.80000000000003
 11
-10.16674976926293
 21
-35.80000000000003
 72
     1
 10
-10.16674976926293
 20
-35.80000000000003
 11
-14.69788777762032
 21
-41.20000000000002
 72
     1
 10
-14.69788777762032
 20
-41.20000000000002
 11
-11.25161253378304
 21
-41.20000000000002
 72
     1
 10
-11.25161253378304
 20
-41.20000000000002
 11
-6.720474525425624
 21
-35.80000000000003
 97
        0
 75
     0
 76
     1
 98
        1
 10
0.0
 20
0.0
  0
HATCH
  5
E2
330
1F
100
AcDbEntity
  8
중심선
100
AcDbHatch
 10
0.0
 20
0.0
 30
0.0
210
0.0
220
0.0
230
1.0
  2
SOLID
 70
     1
 71
     0
 91
        1
 92
        0
 93
        4
 72
     1
 10
-1.707710534389756
 20
-35.79999999999997
 11
-5.153985778226872
 21
-35.80000000000003
 72
     1
 10
-5.153985778226872
 20
-35.80000000000003
 11
-12.20242268011612
 21
-44.20000000000002
 72
     1
 10
-12.20242268011612
 20
-44.20000000000002
 11
-8.756147436278837
 21
-44.20000000000002
 72
     1
 10
-8.756147436278837
 20
-44.20000000000002
 11
-1.707710534389756
 21
-35.79999999999997
 97
        0
 75
     0
 76
     1
 98
        1
 10
0.0
 20
0.0
  0
HATCH
  5
E3
330
1F
100
AcDbEntity
  8
중심선
100
AcDbHatch
 10
0.0
 20
0.0
 30
0.0
210
0.0
220
0.0
230
1.0
  2
SOLID
 70
     1
 71
     0
 91
        1
 92
        0
 93
        6
 72
     3
 10
3.092179896622444
 20
-40.00000000005127
 11
3.960054785062284
 21
1.540850780301639E-10
 40
0.3939339440162633
 50
17.09539180608434
 51
320.0019657685081
 73
     0
 72
     1
 10
4.775179552323011
 20
-38.58789400463833
 11
7.080481426024077
 21
-36.65356729459038
 72
     3
 10
3.092179896569597
 20
-40.00000000000015
 11
6.600054785286829
 21
-1.249000902703301E-13
 40
0.6363583540795982
 50
39.99873849337408
 51
368.4976242363725
 73
     1
 72
     1
 10
9.517512388470205
 20
-39.03999999993002
 11
1.772247203405519
 21
-39.03999999993002
 72
     1
 10
1.772247203405519
 20
-39.03999999993002
 11
1.772222158959585
 21
-40.95999999992991
 72
     1
 10
1.772222158959585
 20
-40.95999999992991
 11
6.213601928431622
 21
-40.95999999992988
 97
        0
 75
     0
 76
     1
 98
        1
 10
0.0
 20
0.0
  0
DIMENSION
  5
E4
330
1F
100
AcDbEntity
  8
치수문자_일반주서
100
AcDbDimension
  2
_D
 10
28.92540623143939
 20
1.500000000000044
 30
0.0
 11
28.92540623143935
 21
11.16650000000004
 31
0.0
 70
   160
  1
%%c<>
 71
     2
 42
3.000000000000008
 52
-270.0
  3
SLDDIMSTYLE0
100
AcDbAlignedDimension
 13
18.59807621135331
 23
-1.500000000000003
 33
0.0
 14
18.59807621135331
 24
1.500000000000006
 34
0.0
 50
90.0000000000002
100
AcDbRotatedDimension
  0
DIMENSION
  5
F2
330
1F
100
AcDbEntity
  8
치수문자_일반주서
100
AcDbDimension
  2
_D_1
 10
18.59807621135329
 20
20.38913260158165
 30
0.0
 11
-6.401923788646696
 21
20.38913260158165
 31
0.0
 70
   160
  1
<>
 71
     2
 42
50.0
  3
SLDDIMSTYLE1
100
AcDbAlignedDimension
 13
-31.4019237886467
 23
2.499999999999996
 33
0.0
 14
18.5980762113533
 24
1.500000000000003
 34
0.0
100
AcDbRotatedDimension
  0
DIMENSION
  5
FD
330
1F
100
AcDbEntity
  8
치수문자_일반주서
100
AcDbDimension
  2
_D_2
 10
-38.51347733966661
 20
-3.000000000000028
 30
0.0
 11
-38.51347733966666
 21
12.66649999999997
 31
0.0
 70
   160
  1
%%c<>
 71
     2
 42
6.000000000000005
 52
-270.0
  3
SLDDIMSTYLE2
100
AcDbAlignedDimension
 13
-30.90192378864671
 23
3.000000000000004
 33
0.0
 14
-30.90192378864671
 24
-3.000000000000001
 34
0.0
 50
90.0000000000002
100
AcDbRotatedDimension
  0
DIMENSION
  5
10B
330
1F
100
AcDbEntity
  8
치수문자_일반주서
100
AcDbDimension
  2
_D_3
 10
18.5980762113533
 20
12.29023931756027
 30
0.0
 11
13.5980762113533
 21
12.29023931756027
 31
0.0
 70
   160
  1
<>
 71
     2
 42
9.999999999999996
  3
SLDDIMSTYLE2
100
AcDbAlignedDimension
 13
8.598076211353302
 23
1.444321014972618
 33
0.0
 14
18.5980762113533
 24
1.500000000000003
 34
0.0
100
AcDbRotatedDimension
  0
INSERT
  5
11D
330
1F
100
AcDbEntity
  8
해칭선
100
AcDbBlockReference
  2
SW_DOWELSYMBOL_0
 10
-0.0075551996916775
 20
-0.0000000000000042
 30
0.0
  0
LINE
  5
14D
330
1F
100
AcDbEntity
  8
0
  6
Continuous
 62
     4
370
    25
100
AcDbLine
 10
8.59807621135328
 20
1.444321014972358
 30
0.0
 11
8.59807621135328
 21
-1.44432101497235
 31
0.0
  0
ENDSEC
  0
SECTION
  2
OBJECTS
  0
DICTIONARY
  5
C
330
0
100
AcDbDictionary
281
     1
  3
ACAD_GROUP
350
D
  3
ACAD_IMAGE_VARS
350
141
  3
ACAD_LAYOUT
350
1A
  3
ACAD_MLINESTYLE
350
17
  3
ACAD_PLOTSETTINGS
350
19
  3
ACAD_PLOTSTYLENAME
350
E
  3
ACAD_SCALELIST
350
47
  3
APPDATA
350
13F
  3
DWGPROPS
350
14F
  0
DICTIONARY
  5
D
102
{ACAD_REACTORS
330
C
102
}
330
C
100
AcDbDictionary
281
     1
  0
RASTERVARIABLES
  5
141
102
{ACAD_REACTORS
330
C
102
}
330
C
100
AcDbRasterVariables
 90
        0
 70
     1
 71
     1
 72
     1
  0
DICTIONARY
  5
1A
102
{ACAD_REACTORS
330
C
102
}
330
C
100
AcDbDictionary
281
     1
  3
Layout1
350
1E
  3
Layout2
350
26
  3
Model
350
22
  0
DICTIONARY
  5
17
102
{ACAD_REACTORS
330
C
102
}
330
C
100
AcDbDictionary
281
     1
  3
Standard
350
18
  0
DICTIONARY
  5
19
102
{ACAD_REACTORS
330
C
102
}
330
C
100
AcDbDictionary
281
     1
  0
ACDBDICTIONARYWDFLT
  5
E
102
{ACAD_REACTORS
330
C
102
}
330
C
100
AcDbDictionary
281
     1
  3
Normal
350
F
100
AcDbDictionaryWithDefault
340
F
  0
DICTIONARY
  5
47
102
{ACAD_REACTORS
330
C
102
}
330
C
100
AcDbDictionary
281
     1
  3
A0
350
48
  3
A1
350
49
  3
A2
350
4A
  3
A3
350
4B
  3
A4
350
4C
  3
A5
350
4D
  3
A6
350
4E
  3
A7
350
4F
  3
A8
350
50
  3
A9
350
51
  3
B0
350
52
  3
B1
350
53
  3
B2
350
54
  3
B3
350
55
  3
B4
350
56
  3
B5
350
57
  3
B6
350
58
  3
B7
350
59
  3
B8
350
5A
  3
B9
350
5B
  3
C0
350
5C
  3
C1
350
5D
  3
C2
350
5E
  3
C3
350
5F
  3
C4
350
60
  3
C5
350
61
  3
C6
350
62
  3
C7
350
63
  3
C8
350
64
  3
C9
350
65
  3
D0
350
66
  3
D1
350
67
  3
D2
350
68
  0
DICTIONARY
  5
13F
102
{ACAD_REACTORS
330
C
102
}
330
C
100
AcDbDictionary
281
     1
  0
XRECORD
  5
14F
102
{ACAD_REACTORS
330
C
102
}
330
C
100
AcDbXrecord
280
     1
  1
DWGPROPS COOKIE
  2

  3

  4

  6

  7

  8
12014102
  9

300
=
301
=
302
=
303
=
304
=
305
=
306
=
307
=
308
=
309
=
 40
0.0
 41
2458260.114575498
 42
2458266.445043727
  1

 90
        0
  0
LAYOUT
  5
1E
102
{ACAD_REACTORS
330
1A
102
}
330
1A
100
AcDbPlotSettings
  1

  2
none_device
  4

  6

 40
0.0
 41
0.0
 42
0.0
 43
0.0
 44
0.0
 45
0.0
 46
0.0
 47
0.0
 48
0.0
 49
0.0
140
0.0
141
0.0
142
1.0
143
1.0
 70
   688
 72
     1
 73
     0
 74
     5
  7

 75
    16
147
1.0
148
0.0
149
0.0
100
AcDbLayout
  1
Layout1
 70
     1
 71
     1
 10
0.0
 20
0.0
 11
420.0
 21
297.0
 12
0.0
 22
0.0
 32
0.0
 14
1.000000000000000E+20
 24
1.000000000000000E+20
 34
1.000000000000000E+20
 15
-1.000000000000000E+20
 25
-1.000000000000000E+20
 35
-1.000000000000000E+20
146
0.0
 13
0.0
 23
0.0
 33
0.0
 16
1.0
 26
0.0
 36
0.0
 17
0.0
 27
1.0
 37
0.0
 76
     0
330
1B
  0
LAYOUT
  5
26
102
{ACAD_REACTORS
330
1A
102
}
330
1A
100
AcDbPlotSettings
  1

  2
none_device
  4

  6

 40
0.0
 41
0.0
 42
0.0
 43
0.0
 44
0.0
 45
0.0
 46
0.0
 47
0.0
 48
0.0
 49
0.0
140
0.0
141
0.0
142
1.0
143
1.0
 70
   688
 72
     1
 73
     0
 74
     5
  7

 75
    16
147
1.0
148
0.0
149
0.0
100
AcDbLayout
  1
Layout2
 70
     1
 71
     2
 10
0.0
 20
0.0
 11
0.0
 21
0.0
 12
0.0
 22
0.0
 32
0.0
 14
0.0
 24
0.0
 34
0.0
 15
0.0
 25
0.0
 35
0.0
146
0.0
 13
0.0
 23
0.0
 33
0.0
 16
1.0
 26
0.0
 36
0.0
 17
0.0
 27
1.0
 37
0.0
 76
     0
330
23
  0
LAYOUT
  5
22
102
{ACAD_REACTORS
330
1A
102
}
330
1A
100
AcDbPlotSettings
  1

  2
none_device
  4
ANSI_A_(11.00_x_8.50_Inches)
  6

 40
6.35
 41
19.05
 42
6.35000508
 43
19.05000254
 44
279.4
 45
215.9
 46
145.0363679867488
 47
125.3847137330092
 48
0.0
 49
0.0
140
0.0
141
0.0
142
0.1112850254374007
143
1.0
 70
  1696
 72
     0
 73
     0
 74
     0
  7

 75
     0
147
0.0235690232323232
148
0.0
149
0.0
100
AcDbLayout
  1
Model
 70
     1
 71
     0
 10
0.0
 20
0.0
 11
420.0
 21
297.0
 12
0.0
 22
0.0
 32
0.0
 14
-42.88847733966667
 24
-49.97180738881174
 34
0.0
 15
35.7534244730553
 25
24.76413260158165
 35
0.0
146
0.0
 13
0.0
 23
0.0
 33
0.0
 16
1.0
 26
0.0
 36
0.0
 17
0.0
 27
1.0
 37
0.0
 76
     0
330
1F
331
29
  0
MLINESTYLE
  5
18
102
{ACAD_REACTORS
330
17
102
}
330
17
100
AcDbMlineStyle
  2
Standard
 70
     0
  3

 62
   256
 51
90.0
 52
90.0
 71
     2
 49
0.5
 62
   256
  6
BYLAYER
 49
-0.5
 62
   256
  6
BYLAYER
  0
ACDBPLACEHOLDER
  5
F
102
{ACAD_REACTORS
330
E
102
}
330
E
  0
SCALE
  5
48
102
{ACAD_REACTORS
330
47
102
}
330
47
100
AcDbScale
 70
     0
300
1:1
140
1.0
141
1.0
290
     1
  0
SCALE
  5
49
102
{ACAD_REACTORS
330
47
102
}
330
47
100
AcDbScale
 70
     0
300
1:2
140
1.0
141
2.0
290
     0
  0
SCALE
  5
4A
102
{ACAD_REACTORS
330
47
102
}
330
47
100
AcDbScale
 70
     0
300
1:4
140
1.0
141
4.0
290
     0
  0
SCALE
  5
4B
102
{ACAD_REACTORS
330
47
102
}
330
47
100
AcDbScale
 70
     0
300
1:5
140
1.0
141
5.0
290
     0
  0
SCALE
  5
4C
102
{ACAD_REACTORS
330
47
102
}
330
47
100
AcDbScale
 70
     0
300
1:8
140
1.0
141
8.0
290
     0
  0
SCALE
  5
4D
102
{ACAD_REACTORS
330
47
102
}
330
47
100
AcDbScale
 70
     0
300
1:10
140
1.0
141
10.0
290
     0
  0
SCALE
  5
4E
102
{ACAD_REACTORS
330
47
102
}
330
47
100
AcDbScale
 70
     0
300
1:16
140
1.0
141
16.0
290
     0
  0
SCALE
  5
4F
102
{ACAD_REACTORS
330
47
102
}
330
47
100
AcDbScale
 70
     0
300
1:20
140
1.0
141
20.0
290
     0
  0
SCALE
  5
50
102
{ACAD_REACTORS
330
47
102
}
330
47
100
AcDbScale
 70
     0
300
1:30
140
1.0
141
30.0
290
     0
  0
SCALE
  5
51
102
{ACAD_REACTORS
330
47
102
}
330
47
100
AcDbScale
 70
     0
300
1:40
140
1.0
141
40.0
290
     0
  0
SCALE
  5
52
102
{ACAD_REACTORS
330
47
102
}
330
47
100
AcDbScale
 70
     0
300
1:50
140
1.0
141
50.0
290
     0
  0
SCALE
  5
53
102
{ACAD_REACTORS
330
47
102
}
330
47
100
AcDbScale
 70
     0
300
1:100
140
1.0
141
100.0
290
     0
  0
SCALE
  5
54
102
{ACAD_REACTORS
330
47
102
}
330
47
100
AcDbScale
 70
     0
300
2:1
140
2.0
141
1.0
290
     0
  0
SCALE
  5
55
102
{ACAD_REACTORS
330
47
102
}
330
47
100
AcDbScale
 70
     0
300
4:1
140
4.0
141
1.0
290
     0
  0
SCALE
  5
56
102
{ACAD_REACTORS
330
47
102
}
330
47
100
AcDbScale
 70
     0
300
8:1
140
8.0
141
1.0
290
     0
  0
SCALE
  5
57
102
{ACAD_REACTORS
330
47
102
}
330
47
100
AcDbScale
 70
     0
300
10:1
140
10.0
141
1.0
290
     0
  0
SCALE
  5
58
102
{ACAD_REACTORS
330
47
102
}
330
47
100
AcDbScale
 70
     0
300
100:1
140
100.0
141
1.0
290
     0
  0
SCALE
  5
59
102
{ACAD_REACTORS
330
47
102
}
330
47
100
AcDbScale
 70
     0
300
1/128" = 1'-0"
140
0.0078125
141
12.0
290
     0
  0
SCALE
  5
5A
102
{ACAD_REACTORS
330
47
102
}
330
47
100
AcDbScale
 70
     0
300
1/64" = 1'-0"
140
0.015625
141
12.0
290
     0
  0
SCALE
  5
5B
102
{ACAD_REACTORS
330
47
102
}
330
47
100
AcDbScale
 70
     0
300
1/32" = 1'-0"
140
0.03125
141
12.0
290
     0
  0
SCALE
  5
5C
102
{ACAD_REACTORS
330
47
102
}
330
47
100
AcDbScale
 70
     0
300
1/16" = 1'-0"
140
0.0625
141
12.0
290
     0
  0
SCALE
  5
5D
102
{ACAD_REACTORS
330
47
102
}
330
47
100
AcDbScale
 70
     0
300
3/32" = 1'-0"
140
0.09375
141
12.0
290
     0
  0
SCALE
  5
5E
102
{ACAD_REACTORS
330
47
102
}
330
47
100
AcDbScale
 70
     0
300
1/8" = 1'-0"
140
0.125
141
12.0
290
     0
  0
SCALE
  5
5F
102
{ACAD_REACTORS
330
47
102
}
330
47
100
AcDbScale
 70
     0
300
3/16" = 1'-0"
140
0.1875
141
12.0
290
     0
  0
SCALE
  5
60
102
{ACAD_REACTORS
330
47
102
}
330
47
100
AcDbScale
 70
     0
300
1/4" = 1'-0"
140
0.25
141
12.0
290
     0
  0
SCALE
  5
61
102
{ACAD_REACTORS
330
47
102
}
330
47
100
AcDbScale
 70
     0
300
3/8" = 1'-0"
140
0.375
141
12.0
290
     0
  0
SCALE
  5
62
102
{ACAD_REACTORS
330
47
102
}
330
47
100
AcDbScale
 70
     0
300
1/2" = 1'-0"
140
0.5
141
12.0
290
     0
  0
SCALE
  5
63
102
{ACAD_REACTORS
330
47
102
}
330
47
100
AcDbScale
 70
     0
300
3/4" = 1'-0"
140
0.75
141
12.0
290
     0
  0
SCALE
  5
64
102
{ACAD_REACTORS
330
47
102
}
330
47
100
AcDbScale
 70
     0
300
1" = 1'-0"
140
1.0
141
12.0
290
     0
  0
SCALE
  5
65
102
{ACAD_REACTORS
330
47
102
}
330
47
100
AcDbScale
 70
     0
300
1-1/2" = 1'-0"
140
1.5
141
12.0
290
     0
  0
SCALE
  5
66
102
{ACAD_REACTORS
330
47
102
}
330
47
100
AcDbScale
 70
     0
300
3" = 1'-0"
140
3.0
141
12.0
290
     0
  0
SCALE
  5
67
102
{ACAD_REACTORS
330
47
102
}
330
47
100
AcDbScale
 70
     0
300
6" = 1'-0"
140
6.0
141
12.0
290
     0
  0
SCALE
  5
68
102
{ACAD_REACTORS
330
47
102
}
330
47
100
AcDbScale
 70
     0
300
1'-0" = 1'-0"
140
12.0
141
12.0
290
     0
  0
ENDSEC
  0
EOF
