  0
SECTION
  2
HEADER
  9
$ACADVER
  1
AC1015
  9
$ACADMAINTVER
 70
     6
  9
$DWGCODEPAGE
  3
ANSI_949
  9
$INSBASE
 10
0.0
 20
0.0
 30
0.0
  9
$EXTMIN
 10
-40.70969674771632
 20
-49.97180738881174
 30
0.0
  9
$EXTMAX
 10
38.81175780638863
 20
24.76413260158165
 30
0.0
  9
$LIMMIN
 10
0.0
 20
0.0
  9
$LIMMAX
 10
420.0
 20
297.0
  9
$ORTHOMODE
 70
     0
  9
$REGENMODE
 70
     1
  9
$FILLMODE
 70
     1
  9
$QTEXTMODE
 70
     0
  9
$MIRRTEXT
 70
     1
  9
$LTSCALE
 40
1.0
  9
$ATTMODE
 70
     1
  9
$TEXTSIZE
 40
3.5
  9
$TRACEWID
 40
1.0
  9
$TEXTSTYLE
  7
Standard
  9
$CLAYER
  8
0
  9
$CELTYPE
  6
ByLayer
  9
$CECOLOR
 62
   256
  9
$CELTSCALE
 40
1.0
  9
$DISPSILH
 70
     0
  9
$DIMSCALE
 40
1.0
  9
$DIMASZ
 40
3.302
  9
$DIMEXO
 40
1.0
  9
$DIMDLI
 40
3.75
  9
$DIMRND
 40
0.0
  9
$DIMDLE
 40
0.0
  9
$DIMEXE
 40
1.0
  9
$DIMTP
 40
0.0
  9
$DIMTM
 40
0.0
  9
$DIMTXT
 40
3.5
  9
$DIMCEN
 40
2.5
  9
$DIMTSZ
 40
0.0
  9
$DIMTOL
 70
     0
  9
$DIMLIM
 70
     0
  9
$DIMTIH
 70
     1
  9
$DIMTOH
 70
     1
  9
$DIMSE1
 70
     0
  9
$DIMSE2
 70
     0
  9
$DIMTAD
 70
     1
  9
$DIMZIN
 70
     0
  9
$DIMBLK
  1

  9
$DIMASO
 70
     1
  9
$DIMSHO
 70
     1
  9
$DIMPOST
  1

  9
$DIMAPOST
  1

  9
$DIMALT
 70
     0
  9
$DIMALTD
 70
     3
  9
$DIMALTF
 40
0.0393700787401575
  9
$DIMLFAC
 40
1.0
  9
$DIMTOFL
 70
     1
  9
$DIMTVP
 40
0.0
  9
$DIMTIX
 70
     0
  9
$DIMSOXD
 70
     0
  9
$DIMSAH
 70
     0
  9
$DIMBLK1
  1

  9
$DIMBLK2
  1

  9
$DIMSTYLE
  2
ISO-25
  9
$DIMCLRD
 70
     0
  9
$DIMCLRE
 70
     0
  9
$DIMCLRT
 70
     0
  9
$DIMTFAC
 40
1.0
  9
$DIMGAP
 40
1.524
  9
$DIMJUST
 70
     0
  9
$DIMSD1
 70
     0
  9
$DIMSD2
 70
     0
  9
$DIMTOLJ
 70
     0
  9
$DIMTZIN
 70
     0
  9
$DIMALTZ
 70
     0
  9
$DIMALTTZ
 70
     0
  9
$DIMUPT
 70
     0
  9
$DIMDEC
 70
     2
  9
$DIMTDEC
 70
     2
  9
$DIMALTU
 70
     2
  9
$DIMALTTD
 70
     3
  9
$DIMTXSTY
  7
Standard
  9
$DIMAUNIT
 70
     0
  9
$DIMADEC
 70
     2
  9
$DIMALTRND
 40
0.0
  9
$DIMAZIN
 70
     0
  9
$DIMDSEP
 70
    44
  9
$DIMATFIT
 70
     3
  9
$DIMFRAC
 70
     0
  9
$DIMLDRBLK
  1

  9
$DIMLUNIT
 70
     2
  9
$DIMLWD
 70
    -2
  9
$DIMLWE
 70
    -2
  9
$DIMTMOVE
 70
     0
  9
$LUNITS
 70
     2
  9
$LUPREC
 70
     2
  9
$SKETCHINC
 40
1.0
  9
$FILLETRAD
 40
10.0
  9
$AUNITS
 70
     0
  9
$AUPREC
 70
     2
  9
$MENU
  1
.
  9
$ELEVATION
 40
0.0
  9
$PELEVATION
 40
0.0
  9
$THICKNESS
 40
0.0
  9
$LIMCHECK
 70
     0
  9
$CHAMFERA
 40
0.0
  9
$CHAMFERB
 40
0.0
  9
$CHAMFERC
 40
0.0
  9
$CHAMFERD
 40
0.0
  9
$SKPOLY
 70
     0
  9
$TDCREATE
 40
2458260.488630475
  9
$TDUCREATE
 40
2458260.113630475
  9
$TDUPDATE
 40
2458266.816099144
  9
$TDUUPDATE
 40
2458266.441099144
  9
$TDINDWG
 40
0.0011450231
  9
$TDUSRTIMER
 40
2458266.439954155
  9
$USRTIMER
 70
     1
  9
$ANGBASE
 50
0.0
  9
$ANGDIR
 70
     0
  9
$PDMODE
 70
     0
  9
$PDSIZE
 40
-1.0
  9
$PLINEWID
 40
0.0
  9
$SPLFRAME
 70
     0
  9
$SPLINETYPE
 70
     6
  9
$SPLINESEGS
 70
     8
  9
$HANDSEED
  5
156
  9
$SURFTAB1
 70
     6
  9
$SURFTAB2
 70
     6
  9
$SURFTYPE
 70
     6
  9
$SURFU
 70
     6
  9
$SURFV
 70
     6
  9
$UCSBASE
  2

  9
$UCSNAME
  2

  9
$UCSORG
 10
0.0
 20
0.0
 30
0.0
  9
$UCSXDIR
 10
1.0
 20
0.0
 30
0.0
  9
$UCSYDIR
 10
0.0
 20
1.0
 30
0.0
  9
$UCSORTHOREF
  2

  9
$UCSORTHOVIEW
 70
     0
  9
$UCSORGTOP
 10
0.0
 20
0.0
 30
0.0
  9
$UCSORGBOTTOM
 10
0.0
 20
0.0
 30
0.0
  9
$UCSORGLEFT
 10
0.0
 20
0.0
 30
0.0
  9
$UCSORGRIGHT
 10
0.0
 20
0.0
 30
0.0
  9
$UCSORGFRONT
 10
0.0
 20
0.0
 30
0.0
  9
$UCSORGBACK
 10
0.0
 20
0.0
 30
0.0
  9
$PUCSBASE
  2

  9
$PUCSNAME
  2

  9
$PUCSORG
 10
0.0
 20
0.0
 30
0.0
  9
$PUCSXDIR
 10
1.0
 20
0.0
 30
0.0
  9
$PUCSYDIR
 10
0.0
 20
1.0
 30
0.0
  9
$PUCSORTHOREF
  2

  9
$PUCSORTHOVIEW
 70
     0
  9
$PUCSORGTOP
 10
0.0
 20
0.0
 30
0.0
  9
$PUCSORGBOTTOM
 10
0.0
 20
0.0
 30
0.0
  9
$PUCSORGLEFT
 10
0.0
 20
0.0
 30
0.0
  9
$PUCSORGRIGHT
 10
0.0
 20
0.0
 30
0.0
  9
$PUCSORGFRONT
 10
0.0
 20
0.0
 30
0.0
  9
$PUCSORGBACK
 10
0.0
 20
0.0
 30
0.0
  9
$USERI1
 70
     0
  9
$USERI2
 70
     0
  9
$USERI3
 70
     0
  9
$USERI4
 70
     0
  9
$USERI5
 70
     0
  9
$USERR1
 40
0.0
  9
$USERR2
 40
0.0
  9
$USERR3
 40
0.0
  9
$USERR4
 40
0.0
  9
$USERR5
 40
0.0
  9
$WORLDVIEW
 70
     1
  9
$SHADEDGE
 70
     3
  9
$SHADEDIF
 70
    70
  9
$TILEMODE
 70
     1
  9
$MAXACTVP
 70
    64
  9
$PINSBASE
 10
0.0
 20
0.0
 30
0.0
  9
$PLIMCHECK
 70
     0
  9
$PEXTMIN
 10
1.000000000000000E+20
 20
1.000000000000000E+20
 30
1.000000000000000E+20
  9
$PEXTMAX
 10
-1.000000000000000E+20
 20
-1.000000000000000E+20
 30
-1.000000000000000E+20
  9
$PLIMMIN
 10
0.0
 20
0.0
  9
$PLIMMAX
 10
0.0
 20
0.0
  9
$UNITMODE
 70
     0
  9
$VISRETAIN
 70
     1
  9
$PLINEGEN
 70
     0
  9
$PSLTSCALE
 70
     1
  9
$TREEDEPTH
 70
  3020
  9
$CMLSTYLE
  2
Standard
  9
$CMLJUST
 70
     0
  9
$CMLSCALE
 40
20.0
  9
$PROXYGRAPHICS
 70
     1
  9
$MEASUREMENT
 70
     1
  9
$CELWEIGHT
370
    -1
  9
$ENDCAPS
280
     0
  9
$JOINSTYLE
280
     0
  9
$LWDISPLAY
290
     1
  9
$INSUNITS
 70
     4
  9
$HYPERLINKBASE
  1

  9
$STYLESHEET
  1

  9
$XEDIT
290
     1
  9
$CEPSNTYPE
380
     0
  9
$PSTYLEMODE
290
     1
  9
$FINGERPRINTGUID
  2
{0F4E00CF-61FA-422B-87B0-F9F4D5771D8C}
  9
$VERSIONGUID
  2
{FAEB1C32-E019-11D5-929B-00C0DF256EC4}
  9
$EXTNAMES
290
     1
  9
$PSVPSCALE
 40
0.0
  9
$OLESTARTUP
290
     0
  0
ENDSEC
  0
SECTION
  2
CLASSES
  0
CLASS
  1
ACDBDICTIONARYWDFLT
  2
AcDbDictionaryWithDefault
  3
ObjectDBX Classes
 90
        0
280
     0
281
     0
  0
CLASS
  1
VISUALSTYLE
  2
AcDbVisualStyle
  3
ObjectDBX Classes
 90
     4095
280
     0
281
     0
  0
CLASS
  1
MATERIAL
  2
AcDbMaterial
  3
ObjectDBX Classes
 90
     1153
280
     0
281
     0
  0
CLASS
  1
SCALE
  2
AcDbScale
  3
ObjectDBX Classes
 90
     1153
280
     0
281
     0
  0
CLASS
  1
TABLESTYLE
  2
AcDbTableStyle
  3
ObjectDBX Classes
 90
     4095
280
     0
281
     0
  0
CLASS
  1
MLEADERSTYLE
  2
AcDbMLeaderStyle
  3
ACDB_MLEADERSTYLE_CLASS
 90
     4095
280
     0
281
     0
  0
CLASS
  1
SUN
  2
AcDbSun
  3
SCENEOE
 90
     1153
280
     0
281
     0
  0
CLASS
  1
ACDBPLACEHOLDER
  2
AcDbPlaceHolder
  3
ObjectDBX Classes
 90
        0
280
     0
281
     0
  0
CLASS
  1
LAYOUT
  2
AcDbLayout
  3
ObjectDBX Classes
 90
        0
280
     0
281
     0
  0
CLASS
  1
RASTERVARIABLES
  2
AcDbRasterVariables
  3
ISM
 90
        0
280
     0
281
     0
  0
ENDSEC
  0
SECTION
  2
TABLES
  0
TABLE
  2
VPORT
  5
8
330
0
100
AcDbSymbolTable
 70
     1
  0
VPORT
  5
29
330
8
100
AcDbSymbolTableRecord
100
AcDbViewportTableRecord
  2
*Active
 70
     0
 10
0.0
 20
0.0
 11
1.0
 21
1.0
 12
-0.9489694706638474
 22
-12.60383739361504
 13
0.0
 23
0.0
 14
10.0
 24
10.0
 15
10.0
 25
10.0
 16
0.0
 26
0.0
 36
1.0
 17
0.0
 27
0.0
 37
0.0
 40
76.23065879020126
 41
1.74031007751938
 42
50.0
 43
0.0
 44
0.0
 50
0.0
 51
0.0
 71
    16
 72
  2000
 73
     1
 74
     3
 75
     0
 76
     0
 77
     0
 78
     0
281
     0
 65
     1
110
0.0
120
0.0
130
0.0
111
1.0
121
0.0
131
0.0
112
0.0
122
1.0
132
0.0
 79
     0
146
0.0
  0
ENDTAB
  0
TABLE
  2
LTYPE
  5
5
330
0
100
AcDbSymbolTable
 70
     6
  0
LTYPE
  5
14
330
5
100
AcDbSymbolTableRecord
100
AcDbLinetypeTableRecord
  2
ByBlock
 70
     0
  3

 72
    65
 73
     0
 40
0.0
  0
LTYPE
  5
15
330
5
100
AcDbSymbolTableRecord
100
AcDbLinetypeTableRecord
  2
ByLayer
 70
     0
  3

 72
    65
 73
     0
 40
0.0
  0
LTYPE
  5
16
330
5
100
AcDbSymbolTableRecord
100
AcDbLinetypeTableRecord
  2
Continuous
 70
     0
  3
Solid line
 72
    65
 73
     0
 40
0.0
  0
LTYPE
  5
6E
330
5
100
AcDbSymbolTableRecord
100
AcDbLinetypeTableRecord
  2
HIDDEN
 70
     0
  3
Hidden __ __ __ __ __ __ __ __ __ __ __ __ __ __
 72
    65
 73
     2
 40
1.905
 49
1.27
 74
     0
 49
-0.635
 74
     0
  0
LTYPE
  5
6F
330
5
100
AcDbSymbolTableRecord
100
AcDbLinetypeTableRecord
  2
PHANTOM
 70
     0
  3
Phantom ______  __  __  ______  __  __  ______
 72
    65
 73
     6
 40
12.7
 49
6.35
 74
     0
 49
-1.27
 74
     0
 49
1.27
 74
     0
 49
-1.27
 74
     0
 49
1.27
 74
     0
 49
-1.27
 74
     0
  0
LTYPE
  5
70
330
5
100
AcDbSymbolTableRecord
100
AcDbLinetypeTableRecord
  2
CENTER
 70
     0
  3
Center ____ _ ____ _ ____ _ ____ _ ____ _ ____
 72
    65
 73
     4
 40
10.16
 49
6.35
 74
     0
 49
-1.27
 74
     0
 49
1.27
 74
     0
 49
-1.27
 74
     0
  0
LTYPE
  5
71
330
5
100
AcDbSymbolTableRecord
100
AcDbLinetypeTableRecord
  2
CENTERX2
 70
     0
  3
Center (2x) ________  __  ________  __  _____
 72
    65
 73
     4
 40
20.32
 49
12.7
 74
     0
 49
-2.54
 74
     0
 49
2.54
 74
     0
 49
-2.54
 74
     0
  0
LTYPE
  5
72
330
5
100
AcDbSymbolTableRecord
100
AcDbLinetypeTableRecord
  2
DOT2
 70
     0
  3
Dot (.5x) ........................................
 72
    65
 73
     2
 40
0.635
 49
0.0
 74
     0
 49
-0.635
 74
     0
  0
ENDTAB
  0
TABLE
  2
LAYER
  5
2
330
0
100
AcDbSymbolTable
 70
    17
  0
LAYER
  5
10
330
2
100
AcDbSymbolTableRecord
100
AcDbLayerTableRecord
  2
0
 70
     0
 62
     7
  6
Continuous
370
    -3
390
F
  0
LAYER
  5
73
330
2
100
AcDbSymbolTableRecord
100
AcDbLayerTableRecord
  2
FORMAT
 70
     0
 62
     2
  6
Continuous
370
    -3
390
F
  0
LAYER
  5
74
330
2
100
AcDbSymbolTableRecord
100
AcDbLayerTableRecord
  2
외형선
 70
     0
 62
   100
  6
Continuous
370
    35
390
F
  0
LAYER
  5
75
330
2
100
AcDbSymbolTableRecord
100
AcDbLayerTableRecord
  2
숨은선
 70
     0
 62
     2
  6
HIDDEN
370
    25
390
F
  0
LAYER
  5
76
330
2
100
AcDbSymbolTableRecord
100
AcDbLayerTableRecord
  2
중심선
 70
     0
 62
     1
  6
CENTERX2
370
    -3
390
F
  0
LAYER
  5
77
330
2
100
AcDbSymbolTableRecord
100
AcDbLayerTableRecord
  2
파단선
 70
     0
 62
     4
  6
Continuous
370
    -3
390
F
  0
LAYER
  5
78
330
2
100
AcDbSymbolTableRecord
100
AcDbLayerTableRecord
  2
해칭선
 70
     0
 62
   100
  6
Continuous
370
    -3
390
F
  0
LAYER
  5
79
330
2
100
AcDbSymbolTableRecord
100
AcDbLayerTableRecord
  2
가는실선
 70
     0
 62
     4
  6
Continuous
370
    -3
390
F
  0
LAYER
  5
7A
330
2
100
AcDbSymbolTableRecord
100
AcDbLayerTableRecord
  2
치수_보조선
 70
     0
 62
     4
  6
Continuous
370
    -3
390
F
  0
LAYER
  5
7B
330
2
100
AcDbSymbolTableRecord
100
AcDbLayerTableRecord
  2
치수문자_일반주서
 70
     0
 62
     7
  6
Continuous
370
    25
390
F
  0
LAYER
  5
7C
330
2
100
AcDbSymbolTableRecord
100
AcDbLayerTableRecord
  2
개별주서
 70
     0
 62
   100
  6
Continuous
370
    35
390
F
  0
LAYER
  5
7D
330
2
100
AcDbSymbolTableRecord
100
AcDbLayerTableRecord
  2
중간선
 70
     0
 62
     2
  6
Continuous
370
    25
390
F
  0
LAYER
  5
7E
330
2
100
AcDbSymbolTableRecord
100
AcDbLayerTableRecord
  2
윤곽선
 70
     0
 62
     3
  6
Continuous
370
    50
390
F
  0
LAYER
  5
7F
330
2
100
AcDbSymbolTableRecord
100
AcDbLayerTableRecord
  2
중심마크
 70
     0
 62
   100
  6
Continuous
370
    35
390
F
  0
LAYER
  5
80
330
2
100
AcDbSymbolTableRecord
100
AcDbLayerTableRecord
  2
가상선
 70
     0
 62
     4
  6
PHANTOM
370
    -3
390
F
  0
LAYER
  5
81
330
2
100
AcDbSymbolTableRecord
100
AcDbLayerTableRecord
  2
특수지정선
 70
     0
 62
     5
  6
CENTERX2
370
    70
390
F
  0
LAYER
  5
148
330
2
100
AcDbSymbolTableRecord
100
AcDbLayerTableRecord
  2
Defpoints
 70
     0
 62
     7
  6
Continuous
290
     0
370
    -3
390
F
  0
ENDTAB
  0
TABLE
  2
STYLE
  5
3
330
0
100
AcDbSymbolTable
 70
     2
  0
STYLE
  5
11
330
3
100
AcDbSymbolTableRecord
100
AcDbTextStyleTableRecord
  2
Standard
 70
     0
 40
0.0
 41
1.0
 50
0.0
 71
     0
 42
3.5
  3
txt
  4

  0
STYLE
  5
97
330
3
100
AcDbSymbolTableRecord
100
AcDbTextStyleTableRecord
  2
SLDTEXTSTYLE0
 70
     0
 40
0.0
 41
0.75
 50
0.0
 71
     0
 42
3.5
  3
TXT
  4

  0
ENDTAB
  0
TABLE
  2
VIEW
  5
6
330
0
100
AcDbSymbolTable
 70
     0
  0
ENDTAB
  0
TABLE
  2
UCS
  5
7
330
0
100
AcDbSymbolTable
 70
     0
  0
ENDTAB
  0
TABLE
  2
APPID
  5
9
330
0
100
AcDbSymbolTable
 70
     1
  0
APPID
  5
12
330
9
100
AcDbSymbolTableRecord
100
AcDbRegAppTableRecord
  2
ACAD
 70
     0
  0
ENDTAB
  0
TABLE
  2
DIMSTYLE
  5
A
330
0
100
AcDbSymbolTable
 70
     4
100
AcDbDimStyleTable
  0
DIMSTYLE
105
27
330
A
100
AcDbSymbolTableRecord
100
AcDbDimStyleTableRecord
  2
ISO-25
 70
     0
 41
2.5
 42
0.625
 43
3.75
 44
1.25
 73
     0
 74
     0
 77
     1
 78
     8
140
2.5
141
2.5
143
0.03937007874016
147
0.625
171
     3
172
     1
178
     0
271
     2
272
     2
274
     3
278
    44
283
     0
284
     8
340
11
  0
DIMSTYLE
105
EB
102
{ACAD_REACTORS
330
EA
102
}
330
A
100
AcDbSymbolTableRecord
100
AcDbDimStyleTableRecord
  2
SLDDIMSTYLE0
 70
     0
 41
3.302
 44
0.0
 45
0.000000001
 73
     0
 74
     0
 77
     1
 78
    12
 79
     3
140
3.5
147
0.875
172
     1
173
     1
178
     0
271
     1
272
     1
276
     2
284
    12
289
     0
340
97
  0
DIMSTYLE
105
F9
102
{ACAD_REACTORS
330
F8
102
}
330
A
100
AcDbSymbolTableRecord
100
AcDbDimStyleTableRecord
  2
SLDDIMSTYLE1
 70
     0
 41
3.302
 44
0.0
 45
0.000000001
 73
     0
 74
     0
 77
     1
 78
    12
 79
     3
140
3.5
147
0.875
173
     1
178
     0
271
     2
272
     2
276
     2
284
    12
340
97
  0
DIMSTYLE
105
104
102
{ACAD_REACTORS
330
103
330
111
102
}
330
A
100
AcDbSymbolTableRecord
100
AcDbDimStyleTableRecord
  2
SLDDIMSTYLE2
 70
     0
 41
3.302
 44
0.0
 45
0.000000001
 73
     0
 74
     0
 77
     1
 78
    12
 79
     3
140
3.5
147
0.875
172
     1
173
     1
178
     0
271
     2
272
     2
276
     2
284
    12
289
     0
340
97
  0
ENDTAB
  0
TABLE
  2
BLOCK_RECORD
  5
1
330
0
100
AcDbSymbolTable
 70
     7
  0
BLOCK_RECORD
  5
1F
330
1
100
AcDbSymbolTableRecord
100
AcDbBlockTableRecord
  2
*Model_Space
340
22
  0
BLOCK_RECORD
  5
1B
330
1
100
AcDbSymbolTableRecord
100
AcDbBlockTableRecord
  2
*Paper_Space
340
1E
  0
BLOCK_RECORD
  5
23
330
1
100
AcDbSymbolTableRecord
100
AcDbBlockTableRecord
  2
*Paper_Space0
340
26
  0
BLOCK_RECORD
  5
82
330
1
100
AcDbSymbolTableRecord
100
AcDbBlockTableRecord
  2
블럭10
340
0
102
{BLKREFS
331
E3
102
}
  0
BLOCK_RECORD
  5
EC
330
1
100
AcDbSymbolTableRecord
100
AcDbBlockTableRecord
  2
_D
340
0
  0
BLOCK_RECORD
  5
FA
330
1
100
AcDbSymbolTableRecord
100
AcDbBlockTableRecord
  2
_D_1
340
0
  0
BLOCK_RECORD
  5
105
330
1
100
AcDbSymbolTableRecord
100
AcDbBlockTableRecord
  2
_D_2
340
0
  0
BLOCK_RECORD
  5
112
330
1
100
AcDbSymbolTableRecord
100
AcDbBlockTableRecord
  2
_D_3
340
0
  0
BLOCK_RECORD
  5
11D
330
1
100
AcDbSymbolTableRecord
100
AcDbBlockTableRecord
  2
SW_DOWELSYMBOL_0
340
0
102
{BLKREFS
331
123
102
}
  0
ENDTAB
  0
ENDSEC
  0
SECTION
  2
BLOCKS
  0
BLOCK
  5
20
330
1F
100
AcDbEntity
  8
0
100
AcDbBlockBegin
  2
*Model_Space
 70
     0
 10
0.0
 20
0.0
 30
0.0
  3
*Model_Space
  1

  0
ENDBLK
  5
21
330
1F
100
AcDbEntity
  8
0
100
AcDbBlockEnd
  0
BLOCK
  5
1C
330
1B
100
AcDbEntity
 67
     1
  8
0
100
AcDbBlockBegin
  2
*Paper_Space
 70
     0
 10
0.0
 20
0.0
 30
0.0
  3
*Paper_Space
  1

  0
ENDBLK
  5
1D
330
1B
100
AcDbEntity
 67
     1
  8
0
100
AcDbBlockEnd
  0
BLOCK
  5
24
330
23
100
AcDbEntity
  8
0
100
AcDbBlockBegin
  2
*Paper_Space0
 70
     0
 10
0.0
 20
0.0
 30
0.0
  3
*Paper_Space0
  1

  0
ENDBLK
  5
25
330
23
100
AcDbEntity
  8
0
100
AcDbBlockEnd
  0
BLOCK
  5
83
330
82
100
AcDbEntity
  8
0
100
AcDbBlockBegin
  2
블럭10
 70
     2
 10
0.0
 20
0.0
 30
0.0
  3
블럭10
  1

  0
ELLIPSE
  5
85
330
82
100
AcDbEntity
  8
중심선
100
AcDbEllipse
 10
20.54032771741204
 20
12.0471743016438
 30
0.0
 11
6.600054785286829
 21
-1.261213355974178E-13
 31
0.0
210
0.0
220
0.0
230
1.0
 40
0.636358354079598
 41
0.9219305317359503
 42
6.513795318482858
  0
ELLIPSE
  5
86
330
82
100
AcDbEntity
  8
중심선
100
AcDbEllipse
 10
20.54032771746488
 20
12.04717430159265
 30
0.0
 11
3.960054785062283
 21
1.540847449632565E-10
 31
0.0
210
0.0
220
0.0
230
1.0
 40
0.3939339440162632
 41
1.131841032648279
 42
5.62031148352944
  0
LINE
  5
87
330
82
100
AcDbEntity
  8
중심선
100
AcDbLine
 10
2.268634060543552
 20
16.24717430164393
 30
0.0
 11
5.714909304380834
 21
16.24717430164393
 31
0.0
  0
LINE
  5
88
330
82
100
AcDbEntity
  8
중심선
100
AcDbLine
 10
5.245725140726316
 20
7.84717430164391
 30
0.0
 11
8.692000384563599
 21
7.84717430164391
 31
0.0
  0
LINE
  5
89
330
82
100
AcDbEntity
  8
중심선
100
AcDbLine
 10
15.74043728645272
 20
16.24717430164393
 30
0.0
 11
8.692000384563599
 21
7.84717430164391
 31
0.0
  0
LINE
  5
8A
330
82
100
AcDbEntity
  8
중심선
100
AcDbLine
 10
0.1404042013395286
 20
13.71084872107135
 30
0.0
 11
3.58671253028996
 21
13.71088815037384
 31
0.0
  0
LINE
  5
8B
330
82
100
AcDbEntity
  8
중심선
100
AcDbLine
 10
2.750260043222114
 20
10.84717430164391
 30
0.0
 11
6.196535287059397
 21
10.84717430164391
 31
0.0
  0
LINE
  5
8C
330
82
100
AcDbEntity
  8
중심선
100
AcDbLine
 10
12.29416204261559
 20
16.24717430164393
 30
0.0
 11
5.245725140726316
 21
7.84717430164391
 31
0.0
  0
LINE
  5
8D
330
82
100
AcDbEntity
  8
중심선
100
AcDbLine
 10
10.72767329541681
 20
16.24717430164393
 30
0.0
 11
6.196535287059397
 21
10.84717430164391
 31
0.0
  0
LINE
  5
8E
330
82
100
AcDbEntity
  8
중심선
100
AcDbLine
 10
7.28139805157953
 20
16.24717430164393
 30
0.0
 11
2.750260043222114
 21
10.84717430164391
 31
0.0
  0
LINE
  5
8F
330
82
100
AcDbEntity
  8
중심선
100
AcDbLine
 10
5.714909304380834
 20
16.24717430164393
 30
0.0
 11
3.58671253028996
 21
13.71088815037384
 31
0.0
  0
LINE
  5
90
330
82
100
AcDbEntity
  8
중심선
100
AcDbLine
 10
2.268634060543552
 20
16.24717430164393
 30
0.0
 11
0.1404042013395286
 21
13.71084872107135
 31
0.0
  0
LINE
  5
91
330
82
100
AcDbEntity
  8
중심선
100
AcDbLine
 10
7.28139805157953
 20
16.24717430164393
 30
0.0
 11
10.72767329541681
 21
16.24717430164393
 31
0.0
  0
LINE
  5
92
330
82
100
AcDbEntity
  8
중심선
100
AcDbLine
 10
12.29416204261559
 20
16.24717430164393
 30
0.0
 11
15.74043728645272
 21
16.24717430164393
 31
0.0
  0
LINE
  5
93
330
82
100
AcDbEntity
  8
중심선
100
AcDbLine
 10
19.22036997980202
 20
11.08717430171403
 30
0.0
 11
23.66174974927406
 21
11.08717430171406
 31
0.0
  0
LINE
  5
94
330
82
100
AcDbEntity
  8
중심선
100
AcDbLine
 10
19.22039502424796
 20
13.00717430171391
 30
0.0
 11
19.22036997980202
 21
11.08717430171403
 31
0.0
  0
LINE
  5
95
330
82
100
AcDbEntity
  8
중심선
100
AcDbLine
 10
19.22039502424796
 20
13.00717430171391
 30
0.0
 11
26.96566020931264
 21
13.00717430171391
 31
0.0
  0
LINE
  5
96
330
82
100
AcDbEntity
  8
중심선
100
AcDbLine
 10
22.22332737316547
 20
13.45928029700563
 30
0.0
 11
24.52862924686651
 21
15.39360700705356
 31
0.0
  0
ATTDEF
  5
98
330
82
100
AcDbEntity
  8
FORMAT
 62
     2
100
AcDbText
 10
-16.11926103943555
 20
2.075366912832191
 30
0.0
 40
4.233333333333333
  1
SEME7102512E [ 4 FLUTE ]
 41
0.75
  7
SLDTEXTSTYLE0
 11
-16.11926103943555
 21
-0.0412997538344756
 31
0.0
100
AcDbAttributeDefinition
  3

  2
AUTOATTR0
 70
     0
 74
     1
  0
ENDBLK
  5
84
330
82
100
AcDbEntity
  8
0
100
AcDbBlockEnd
  0
BLOCK
  5
ED
330
EC
100
AcDbEntity
  8
0
100
AcDbBlockBegin
  2
_D
 70
     0
 10
0.0
 20
0.0
 30
0.0
  3
_D
  1

  0
LINE
  5
EF
330
EC
100
AcDbEntity
  8
치수문자_일반주서
 62
     0
370
    -2
100
AcDbLine
 10
21.59358891324553
 20
-1.250000000000003
 30
0.0
 11
32.4941562907046
 21
-1.249999999999963
 31
0.0
  0
LINE
  5
F0
330
EC
100
AcDbEntity
  8
치수문자_일반주서
 62
     0
370
    -2
100
AcDbLine
 10
21.59358891324553
 20
1.250000000000006
 30
0.0
 11
32.49415629070459
 21
1.250000000000048
 31
0.0
  0
LINE
  5
F1
330
EC
100
AcDbEntity
  8
치수문자_일반주서
 62
     0
370
    -2
100
AcDbLine
 10
32.4941562907046
 20
-1.249999999999963
 30
0.0
 11
32.49415629070455
 21
17.47900000000005
 31
0.0
  0
LINE
  5
F2
330
EC
100
AcDbEntity
  8
치수문자_일반주서
 62
     0
370
    -2
100
AcDbLine
 10
32.4941562907046
 20
-1.249999999999963
 30
0.0
 11
32.49415629070459
 21
1.250000000000048
 31
0.0
  0
LINE
  5
F3
330
EC
100
AcDbEntity
  8
치수문자_일반주서
 62
     0
370
    -2
100
AcDbLine
 10
32.49415629070461
 20
-4.551999999999962
 30
0.0
 11
32.49415629070462
 21
-7.853999999999962
 31
0.0
  0
LINE
  5
F4
330
EC
100
AcDbEntity
  8
치수문자_일반주서
 62
     0
370
    -2
100
AcDbLine
 10
32.49415629070459
 20
4.552000000000048
 30
0.0
 11
32.49415629070458
 21
7.854000000000047
 31
0.0
  0
SOLID
  5
F5
330
EC
100
AcDbEntity
  8
치수문자_일반주서
 62
     0
100
AcDbTrace
 10
33.04448962403794
 20
-4.551999999999961
 30
0.0
 11
31.94382295737127
 21
-4.551999999999964
 31
0.0
 12
32.4941562907046
 22
-1.249999999999963
 32
0.0
 13
32.4941562907046
 23
-1.249999999999963
 33
0.0
  0
SOLID
  5
F6
330
EC
100
AcDbEntity
  8
치수문자_일반주서
 62
     0
100
AcDbTrace
 10
31.94382295737125
 20
4.552000000000046
 30
0.0
 11
33.04448962403792
 21
4.552000000000049
 31
0.0
 12
32.49415629070459
 22
1.250000000000048
 32
0.0
 13
32.49415629070459
 23
1.250000000000048
 33
0.0
  0
MTEXT
  5
F7
330
EC
100
AcDbEntity
  8
치수문자_일반주서
 62
     0
100
AcDbMText
 10
28.11915629070456
 20
12.66650000000003
 30
0.0
 40
3.5
 41
0.0
 71
     2
 72
     1
  1
\A1;%%c2.5
  7
SLDTEXTSTYLE0
 11
-2.842170943040389E-15
 21
1.0
 31
0.0
 73
     1
 44
1.0
  0
POINT
  5
150
330
EC
100
AcDbEntity
  8
Defpoints
 62
     0
100
AcDbPoint
 10
21.53108891324553
 20
-1.250000000000004
 30
0.0
  0
POINT
  5
151
330
EC
100
AcDbEntity
  8
Defpoints
 62
     0
100
AcDbPoint
 10
21.53108891324553
 20
1.250000000000006
 30
0.0
  0
POINT
  5
152
330
EC
100
AcDbEntity
  8
Defpoints
 62
     0
100
AcDbPoint
 10
32.49415629070459
 20
1.250000000000047
 30
0.0
  0
ENDBLK
  5
EE
330
EC
100
AcDbEntity
  8
0
100
AcDbBlockEnd
  0
BLOCK
  5
FB
330
FA
100
AcDbEntity
  8
0
100
AcDbBlockBegin
  2
_D_1
 70
     0
 10
0.0
 20
0.0
 30
0.0
  3
_D_1
  1

  0
LINE
  5
FD
330
FA
100
AcDbEntity
  8
치수문자_일반주서
 62
     0
370
    -2
100
AcDbLine
 10
-28.46891108675448
 20
2.562499999999997
 30
0.0
 11
-28.46891108675448
 21
20.38913260158165
 31
0.0
  0
LINE
  5
FE
330
FA
100
AcDbEntity
  8
치수문자_일반주서
 62
     0
370
    -2
100
AcDbLine
 10
21.53108891324552
 20
1.312500000000003
 30
0.0
 11
21.53108891324552
 21
20.38913260158165
 31
0.0
  0
LINE
  5
FF
330
FA
100
AcDbEntity
  8
치수문자_일반주서
 62
     0
370
    -2
100
AcDbLine
 10
-25.16691108675448
 20
20.38913260158165
 30
0.0
 11
18.22908891324552
 21
20.38913260158165
 31
0.0
  0
SOLID
  5
100
330
FA
100
AcDbEntity
  8
치수문자_일반주서
 62
     0
100
AcDbTrace
 10
-25.16691108675448
 20
20.93946593491498
 30
0.0
 11
-25.16691108675448
 21
19.83879926824831
 31
0.0
 12
-28.46891108675448
 22
20.38913260158165
 32
0.0
 13
-28.46891108675448
 23
20.38913260158165
 33
0.0
  0
SOLID
  5
101
330
FA
100
AcDbEntity
  8
치수문자_일반주서
 62
     0
100
AcDbTrace
 10
18.22908891324552
 20
19.83879926824831
 30
0.0
 11
18.22908891324552
 21
20.93946593491498
 31
0.0
 12
21.53108891324552
 22
20.38913260158165
 32
0.0
 13
21.53108891324552
 23
20.38913260158165
 33
0.0
  0
MTEXT
  5
102
330
FA
100
AcDbEntity
  8
치수문자_일반주서
 62
     0
100
AcDbMText
 10
-3.468911086754477
 20
24.76413260158165
 30
0.0
 40
3.5
 41
0.0
 71
     2
 72
     1
  1
\A1;50
  7
SLDTEXTSTYLE0
 73
     1
 44
1.0
  0
POINT
  5
149
330
FA
100
AcDbEntity
  8
Defpoints
 62
     0
100
AcDbPoint
 10
-28.46891108675448
 20
2.499999999999997
 30
0.0
  0
POINT
  5
14A
330
FA
100
AcDbEntity
  8
Defpoints
 62
     0
100
AcDbPoint
 10
21.53108891324552
 20
1.250000000000003
 30
0.0
  0
POINT
  5
14B
330
FA
100
AcDbEntity
  8
Defpoints
 62
     0
100
AcDbPoint
 10
21.53108891324552
 20
20.38913260158165
 30
0.0
  0
ENDBLK
  5
FC
330
FA
100
AcDbEntity
  8
0
100
AcDbBlockEnd
  0
BLOCK
  5
106
330
105
100
AcDbEntity
  8
0
100
AcDbBlockBegin
  2
_D_2
 70
     0
 10
0.0
 20
0.0
 30
0.0
  3
_D_2
  1

  0
LINE
  5
108
330
105
100
AcDbEntity
  8
치수문자_일반주서
 62
     0
370
    -2
100
AcDbLine
 10
-28.03141108675449
 20
3.000000000000004
 30
0.0
 11
-36.33469674771628
 21
2.999999999999973
 31
0.0
  0
LINE
  5
109
330
105
100
AcDbEntity
  8
치수문자_일반주서
 62
     0
370
    -2
100
AcDbLine
 10
-28.03141108675449
 20
-3.000000000000001
 30
0.0
 11
-36.33469674771626
 21
-3.000000000000034
 31
0.0
  0
LINE
  5
10A
330
105
100
AcDbEntity
  8
치수문자_일반주서
 62
     0
370
    -2
100
AcDbLine
 10
-36.33469674771628
 20
2.999999999999973
 30
0.0
 11
-36.33469674771633
 21
15.72899999999997
 31
0.0
  0
LINE
  5
10B
330
105
100
AcDbEntity
  8
치수문자_일반주서
 62
     0
370
    -2
100
AcDbLine
 10
-36.33469674771628
 20
2.999999999999973
 30
0.0
 11
-36.33469674771626
 21
-3.000000000000034
 31
0.0
  0
LINE
  5
10C
330
105
100
AcDbEntity
  8
치수문자_일반주서
 62
     0
370
    -2
100
AcDbLine
 10
-36.33469674771629
 20
6.301999999999973
 30
0.0
 11
-36.33469674771631
 21
9.603999999999973
 31
0.0
  0
LINE
  5
10D
330
105
100
AcDbEntity
  8
치수문자_일반주서
 62
     0
370
    -2
100
AcDbLine
 10
-36.33469674771624
 20
-6.302000000000033
 30
0.0
 11
-36.33469674771623
 21
-9.604000000000033
 31
0.0
  0
SOLID
  5
10E
330
105
100
AcDbEntity
  8
치수문자_일반주서
 62
     0
100
AcDbTrace
 10
-36.88503008104963
 20
6.301999999999971
 30
0.0
 11
-35.78436341438296
 21
6.301999999999975
 31
0.0
 12
-36.33469674771628
 22
2.999999999999973
 32
0.0
 13
-36.33469674771628
 23
2.999999999999973
 33
0.0
  0
SOLID
  5
10F
330
105
100
AcDbEntity
  8
치수문자_일반주서
 62
     0
100
AcDbTrace
 10
-35.78436341438291
 20
-6.302000000000032
 30
0.0
 11
-36.88503008104958
 21
-6.302000000000035
 31
0.0
 12
-36.33469674771626
 22
-3.000000000000034
 32
0.0
 13
-36.33469674771626
 23
-3.000000000000034
 33
0.0
  0
MTEXT
  5
110
330
105
100
AcDbEntity
  8
치수문자_일반주서
 62
     0
100
AcDbMText
 10
-40.70969674771631
 20
12.66649999999996
 30
0.0
 40
3.5
 41
0.0
 71
     2
 72
     1
  1
\A1;%%c6
  7
SLDTEXTSTYLE0
 11
-3.552713678800498E-15
 21
1.0
 31
0.0
 73
     1
 44
1.0
  0
POINT
  5
14D
330
105
100
AcDbEntity
  8
Defpoints
 62
     0
100
AcDbPoint
 10
-27.96891108675449
 20
3.000000000000004
 30
0.0
  0
POINT
  5
14E
330
105
100
AcDbEntity
  8
Defpoints
 62
     0
100
AcDbPoint
 10
-27.96891108675449
 20
-3.000000000000001
 30
0.0
  0
POINT
  5
14F
330
105
100
AcDbEntity
  8
Defpoints
 62
     0
100
AcDbPoint
 10
-36.33469674771624
 20
-3.000000000000032
 30
0.0
  0
ENDBLK
  5
107
330
105
100
AcDbEntity
  8
0
100
AcDbBlockEnd
  0
BLOCK
  5
113
330
112
100
AcDbEntity
  8
0
100
AcDbBlockBegin
  2
_D_3
 70
     0
 10
0.0
 20
0.0
 30
0.0
  3
_D_3
  1

  0
LINE
  5
115
330
112
100
AcDbEntity
  8
치수문자_일반주서
 62
     0
370
    -2
100
AcDbLine
 10
9.531088913245519
 20
1.301961148777411
 30
0.0
 11
9.531088913245519
 21
12.08537945136506
 31
0.0
  0
LINE
  5
116
330
112
100
AcDbEntity
  8
치수문자_일반주서
 62
     0
370
    -2
100
AcDbLine
 10
21.53108891324552
 20
1.312500000000003
 30
0.0
 11
21.53108891324552
 21
12.08537945136506
 31
0.0
  0
LINE
  5
117
330
112
100
AcDbEntity
  8
치수문자_일반주서
 62
     0
370
    -2
100
AcDbLine
 10
12.83308891324552
 20
12.08537945136506
 30
0.0
 11
18.22908891324552
 21
12.08537945136506
 31
0.0
  0
SOLID
  5
118
330
112
100
AcDbEntity
  8
치수문자_일반주서
 62
     0
100
AcDbTrace
 10
12.83308891324552
 20
12.63571278469839
 30
0.0
 11
12.83308891324552
 21
11.53504611803173
 31
0.0
 12
9.531088913245519
 22
12.08537945136506
 32
0.0
 13
9.531088913245519
 23
12.08537945136506
 33
0.0
  0
SOLID
  5
119
330
112
100
AcDbEntity
  8
치수문자_일반주서
 62
     0
100
AcDbTrace
 10
18.22908891324552
 20
11.53504611803173
 30
0.0
 11
18.22908891324552
 21
12.63571278469839
 31
0.0
 12
21.53108891324552
 22
12.08537945136506
 32
0.0
 13
21.53108891324552
 23
12.08537945136506
 33
0.0
  0
MTEXT
  5
11A
330
112
100
AcDbEntity
  8
치수문자_일반주서
 62
     0
100
AcDbMText
 10
15.53108891324552
 20
16.46037945136506
 30
0.0
 40
3.5
 41
0.0
 71
     2
 72
     1
  1
\A1;12
  7
SLDTEXTSTYLE0
 73
     1
 44
1.0
  0
POINT
  5
11B
330
112
100
AcDbEntity
  8
Defpoints
 62
     0
100
AcDbPoint
 10
9.531088913245519
 20
1.239461148777411
 30
0.0
  0
POINT
  5
11C
330
112
100
AcDbEntity
  8
Defpoints
 62
     0
100
AcDbPoint
 10
21.53108891324552
 20
1.250000000000003
 30
0.0
  0
POINT
  5
14C
330
112
100
AcDbEntity
  8
Defpoints
 62
     0
100
AcDbPoint
 10
21.53108891324552
 20
12.08537945136506
 30
0.0
  0
ENDBLK
  5
114
330
112
100
AcDbEntity
  8
0
100
AcDbBlockEnd
  0
BLOCK
  5
11E
330
11D
100
AcDbEntity
  8
0
100
AcDbBlockBegin
  2
SW_DOWELSYMBOL_0
 70
     0
 10
0.0
 20
0.0
 30
0.0
  3
SW_DOWELSYMBOL_0
  1

  0
CIRCLE
  5
120
330
11D
100
AcDbEntity
  8
해칭선
 62
     0
100
AcDbCircle
 10
0.0
 20
0.0
 30
0.0
 40
3.000000000000001
  0
HATCH
  5
121
330
11D
100
AcDbEntity
  8
0
  6
Continuous
 62
     0
370
    18
100
AcDbHatch
 10
0.0
 20
0.0
 30
0.0
210
0.0
220
0.0
230
1.0
  2
SOLID
 70
     1
 71
     0
 91
        1
 92
        0
 93
        3
 72
     2
 10
0.0
 20
0.0
 40
3.000000000000001
 50
0.0
 51
90.0
 73
     1
 72
     1
 10
0.0
 20
3.000000000000002
 11
0.0
 21
0.0
 72
     1
 10
0.0
 20
0.0
 11
3.000000000000001
 21
0.0
 97
        0
 75
     0
 76
     1
 98
        1
 10
0.0
 20
0.0
  0
HATCH
  5
122
330
11D
100
AcDbEntity
  8
0
  6
Continuous
 62
     0
370
    18
100
AcDbHatch
 10
0.0
 20
0.0
 30
0.0
210
0.0
220
0.0
230
1.0
  2
SOLID
 70
     1
 71
     0
 91
        1
 92
        0
 93
        3
 72
     2
 10
0.0
 20
0.0
 40
3.000000000000001
 50
180.0
 51
270.0000000000008
 73
     1
 72
     1
 10
0.0
 20
-3.000000000000001
 11
0.0
 21
0.0
 72
     1
 10
0.0
 20
0.0
 11
-3.000000000000001
 21
0.0
 97
        0
 75
     0
 76
     1
 98
        1
 10
0.0
 20
0.0
  0
ENDBLK
  5
11F
330
11D
100
AcDbEntity
  8
0
100
AcDbBlockEnd
  0
ENDSEC
  0
SECTION
  2
ENTITIES
  0
LINE
  5
99
330
1F
100
AcDbEntity
  8
0
  6
Continuous
 62
     4
370
    25
100
AcDbLine
 10
2.0
 20
3.0
 30
0.0
 11
-27.96891108675448
 21
2.999999999999998
 31
0.0
  0
LINE
  5
9A
330
1F
100
AcDbEntity
  8
0
  6
Continuous
 62
     4
370
    25
100
AcDbLine
 10
-27.96891108675448
 20
-2.999999999999999
 30
0.0
 11
2.0
 21
-2.999999999999997
 31
0.0
  0
LINE
  5
9B
330
1F
100
AcDbEntity
  8
0
  6
Continuous
 62
     4
370
    25
100
AcDbLine
 10
2.0
 20
-2.999999999999999
 30
0.0
 11
8.037469050531286
 21
-1.382265043582239
 31
0.0
  0
LINE
  5
9C
330
1F
100
AcDbEntity
  8
0
  6
Continuous
 62
     4
370
    25
100
AcDbLine
 10
8.037469050531282
 20
1.382265043582244
 30
0.0
 11
2.0
 21
3.000000000000001
 31
0.0
  0
LINE
  5
9D
330
1F
100
AcDbEntity
  8
0
  6
Continuous
 62
     4
370
    25
100
AcDbLine
 10
-27.96891108675448
 20
2.999999999999997
 30
0.0
 11
-28.46891108675448
 21
2.499999999999997
 31
0.0
  0
LINE
  5
9E
330
1F
100
AcDbEntity
  8
0
  6
Continuous
 62
     4
370
    25
100
AcDbLine
 10
-28.46891108675448
 20
-2.499999999999999
 30
0.0
 11
-27.96891108675448
 21
-2.999999999999998
 31
0.0
  0
LINE
  5
9F
330
1F
100
AcDbEntity
  8
0
  6
Continuous
 62
     4
370
    25
100
AcDbLine
 10
9.322859006367551
 20
1.250000000000002
 30
0.0
 11
8.60696763025641
 21
1.250000000000002
 31
0.0
  0
LINE
  5
A0
330
1F
100
AcDbEntity
  8
0
  6
Continuous
 62
     4
370
    25
100
AcDbLine
 10
8.606967630256399
 20
-1.249999999999998
 30
0.0
 11
9.322859006367555
 21
-1.249999999999998
 31
0.0
  0
LINE
  5
A1
330
1F
100
AcDbEntity
  8
0
  6
Continuous
 62
     1
370
    25
100
AcDbLine
 10
16.14676088839667
 20
-1.249999999999999
 30
0.0
 11
16.86264805489655
 21
-1.249999999999999
 31
0.0
  0
LINE
  5
A2
330
1F
100
AcDbEntity
  8
0
  6
Continuous
 62
     1
370
    25
100
AcDbLine
 10
11.83592516634714
 20
1.250000000000003
 30
0.0
 11
11.12063188184849
 21
1.250000000000003
 31
0.0
  0
LINE
  5
A3
330
1F
100
AcDbEntity
  8
0
  6
Continuous
 62
     1
370
    25
100
AcDbLine
 10
21.53108891324552
 20
1.250000000000003
 30
0.0
 11
21.17326995365225
 21
1.250000000000003
 31
0.0
  0
LINE
  5
A4
330
1F
100
AcDbEntity
  8
0
  6
Continuous
 62
     1
370
    25
100
AcDbLine
 10
18.65998518246058
 20
-1.249999999999999
 30
0.0
 11
19.37592368024348
 21
-1.249999999999999
 31
0.0
  0
LINE
  5
A5
330
1F
100
AcDbEntity
  8
0
  6
Continuous
 62
     1
370
    25
100
AcDbLine
 10
14.34931605089843
 20
1.250000000000003
 30
0.0
 11
13.63368133317391
 21
1.250000000000003
 31
0.0
  0
LINE
  5
A6
330
1F
100
AcDbEntity
  8
0
  6
Continuous
 62
     1
370
    25
100
AcDbLine
 10
21.17326995365225
 20
-1.249999999999999
 30
0.0
 11
21.53108891324552
 21
-1.249999999999999
 31
0.0
  0
LINE
  5
A7
330
1F
100
AcDbEntity
  8
0
  6
Continuous
 62
     1
370
    25
100
AcDbLine
 10
11.12063188184849
 20
-1.249999999999999
 30
0.0
 11
11.83592516634715
 21
-1.249999999999999
 31
0.0
  0
LINE
  5
A8
330
1F
100
AcDbEntity
  8
0
  6
Continuous
 62
     1
370
    25
100
AcDbLine
 10
16.86264805489656
 20
1.250000000000003
 30
0.0
 11
16.14676088839667
 21
1.250000000000003
 31
0.0
  0
LINE
  5
A9
330
1F
100
AcDbEntity
  8
0
  6
Continuous
 62
     4
370
    25
100
AcDbLine
 10
18.9164490208467
 20
-0.1974477139170927
 30
0.0
 11
18.89160943119035
 21
-0.1792400588797152
 31
0.0
  0
LINE
  5
AA
330
1F
100
AcDbEntity
  8
0
  6
Continuous
 62
     1
370
    25
100
AcDbLine
 10
16.53961117115856
 20
0.2437622784320795
 30
0.0
 11
16.63108984144759
 21
0.1792400588799393
 31
0.0
  0
LINE
  5
AB
330
1F
100
AcDbEntity
  8
0
  6
Continuous
 62
     1
370
    25
100
AcDbLine
 10
13.63368133317392
 20
-1.249999999999999
 30
0.0
 11
14.34931605089843
 21
-1.249999999999999
 31
0.0
  0
LINE
  5
AC
330
1F
100
AcDbEntity
  8
0
  6
Continuous
 62
     1
370
    25
100
AcDbLine
 10
19.37592368024348
 20
1.250000000000003
 30
0.0
 11
18.65998518246059
 21
1.250000000000003
 31
0.0
  0
LINE
  5
AD
330
1F
100
AcDbEntity
  8
0
  6
Continuous
 62
     4
370
    25
100
AcDbLine
 10
2.0
 20
3.000000000000001
 30
0.0
 11
2.0
 21
-3.0
 31
0.0
  0
LINE
  5
AE
330
1F
100
AcDbEntity
  8
0
  6
Continuous
 62
     4
370
    25
100
AcDbLine
 10
-27.96891108675448
 20
2.999999999999997
 30
0.0
 11
-27.96891108675448
 21
-3.0
 31
0.0
  0
SPLINE
  5
AF
330
1F
100
AcDbEntity
  8
0
  6
Continuous
 62
     4
370
    25
100
AcDbSpline
210
0.0
220
0.0
230
1.0
 70
     8
 71
     3
 72
     8
 73
     4
 74
     0
 42
0.000000001
 43
0.00000001
 40
0.0
 40
0.0
 40
0.0
 40
0.0
 40
1.0
 40
1.0
 40
1.0
 40
1.0
 10
8.436582642911553
 20
1.267721335743694
 30
0.0
 10
8.467934541310253
 20
1.262204739986109
 30
0.0
 10
8.49943444274783
 20
1.255821460196447
 30
0.0
 10
8.531088913245519
 20
1.24858127925386
 30
0.0
  0
LINE
  5
B0
330
1F
100
AcDbEntity
  8
0
  6
Continuous
 62
     4
370
    25
100
AcDbLine
 10
8.031107491856897
 20
1.383391547996959
 30
0.0
 11
8.037338061790265
 21
1.381776186945567
 31
0.0
  0
SPLINE
  5
B1
330
1F
100
AcDbEntity
  8
0
  6
Continuous
 62
     4
370
    25
100
AcDbSpline
210
0.0
220
0.0
230
1.0
 70
     8
 71
     3
 72
    10
 73
     6
 74
     0
 42
0.000000001
 43
0.00000001
 40
0.0
 40
0.0
 40
0.0
 40
0.0
 40
0.5
 40
0.5
 40
1.0
 40
1.0
 40
1.0
 40
1.0
 10
8.042979103577522
 20
1.380313669183973
 30
0.0
 10
8.068376677819213
 20
1.371434594848541
 30
0.0
 10
8.13370071416595
 20
1.345386367918641
 30
0.0
 10
8.287770514728372
 20
1.297989324033336
 30
0.0
 10
8.373776117565868
 20
1.278772603098049
 30
0.0
 10
8.43658264291155
 20
1.267721335743693
 30
0.0
  0
LINE
  5
B2
330
1F
100
AcDbEntity
  8
0
  6
Continuous
 62
     4
370
    25
100
AcDbLine
 10
8.031107491856897
 20
1.383391547996959
 30
0.0
 11
8.031107491856897
 21
1.070240661126216
 31
0.0
  0
SPLINE
  5
B3
330
1F
100
AcDbEntity
  8
0
  6
Continuous
 62
     4
370
    25
100
AcDbSpline
210
0.0
220
0.0
230
1.0
 70
     8
 71
     3
 72
     8
 73
     4
 74
     0
 42
0.000000001
 43
0.00000001
 40
0.0
 40
0.0
 40
0.0
 40
0.0
 40
1.0
 40
1.0
 40
1.0
 40
1.0
 10
8.119613580166178
 20
0.9229604686925749
 30
0.0
 10
8.06464666209564
 20
0.9670122502146054
 30
0.0
 10
8.031107491856869
 20
1.02366383139997
 30
0.0
 10
8.031107491856869
 20
1.070240661126217
 30
0.0
  0
SPLINE
  5
B4
330
1F
100
AcDbEntity
  8
0
  6
Continuous
 62
     4
370
    25
100
AcDbSpline
210
0.0
220
0.0
230
1.0
 70
     8
 71
     3
 72
     8
 73
     4
 74
     0
 42
0.000000001
 43
0.00000001
 40
0.0
 40
0.0
 40
0.0
 40
0.0
 40
1.0
 40
1.0
 40
1.0
 40
1.0
 10
8.531088913245519
 20
0.5930252273836759
 30
0.0
 10
8.389402439640644
 20
0.7033049097718799
 30
0.0
 10
8.254006238794965
 20
0.8152550297868753
 30
0.0
 10
8.11961358016617
 20
0.9229604686925628
 30
0.0
  0
LINE
  5
B5
330
1F
100
AcDbEntity
  8
0
  6
Continuous
 62
     4
370
    25
100
AcDbLine
 10
8.531088913245519
 20
0.5930252273836756
 30
0.0
 11
8.531088913245519
 21
0.0595381314520204
 31
0.0
  0
SPLINE
  5
B6
330
1F
100
AcDbEntity
  8
0
  6
Continuous
 62
     4
370
    25
100
AcDbSpline
210
0.0
220
0.0
230
1.0
 70
     8
 71
     3
 72
     8
 73
     4
 74
     0
 42
0.000000001
 43
0.00000001
 40
0.0
 40
0.0
 40
0.0
 40
0.0
 40
1.0
 40
1.0
 40
1.0
 40
1.0
 10
8.436582642911553
 20
0.1390361828119057
 30
0.0
 10
8.467934541310253
 20
0.1122797017779231
 30
0.0
 10
8.49943444274783
 20
0.0857781701790921
 30
0.0
 10
8.531088913245519
 20
0.059538131452021
 30
0.0
  0
SPLINE
  5
B7
330
1F
100
AcDbEntity
  8
0
  6
Continuous
 62
     4
370
    25
100
AcDbSpline
210
0.0
220
0.0
230
1.0
 70
     8
 71
     3
 72
    14
 73
    10
 74
     0
 42
0.000000001
 43
0.00000001
 40
0.0
 40
0.0
 40
0.0
 40
0.0
 40
0.25
 40
0.25
 40
0.5
 40
0.5
 40
0.75
 40
0.75
 40
1.0
 40
1.0
 40
1.0
 40
1.0
 10
8.031107491856897
 20
-0.0399966089977424
 30
0.0
 10
8.031107491856897
 20
0.0082106302112185
 30
0.0
 10
8.045108305294502
 20
0.0553595409135336
 30
0.0
 10
8.09656409376797
 20
0.1337882240958839
 30
0.0
 10
8.133544913623812
 20
0.1642491529162788
 30
0.0
 10
8.217417070604995
 20
0.1999269764245687
 30
0.0
 10
8.265029597468285
 20
0.2053886145681103
 30
0.0
 10
8.356305173787998
 20
0.1903264019829468
 30
0.0
 10
8.400265277690199
 20
0.1700303153327494
 30
0.0
 10
8.43658264291155
 20
0.1390361828119091
 30
0.0
  0
LINE
  5
B8
330
1F
100
AcDbEntity
  8
0
  6
Continuous
 62
     4
370
    25
100
AcDbLine
 10
8.031107491856897
 20
-0.0399966089977424
 30
0.0
 11
8.031107491856897
 21
-0.8774718406153281
 31
0.0
  0
SPLINE
  5
B9
330
1F
100
AcDbEntity
  8
0
  6
Continuous
 62
     4
370
    25
100
AcDbSpline
210
0.0
220
0.0
230
1.0
 70
     8
 71
     3
 72
     8
 73
     4
 74
     0
 42
0.000000001
 43
0.00000001
 40
0.0
 40
0.0
 40
0.0
 40
0.0
 40
1.0
 40
1.0
 40
1.0
 40
1.0
 10
8.119613580166174
 20
-0.9992178102432162
 30
0.0
 10
8.064646662095637
 20
-0.9785779052942551
 30
0.0
 10
8.031107491856872
 20
-0.9342809765124226
 30
0.0
 10
8.031107491856869
 20
-0.8774718406153391
 30
0.0
  0
SPLINE
  5
BA
330
1F
100
AcDbEntity
  8
0
  6
Continuous
 62
     4
370
    25
100
AcDbSpline
210
0.0
220
0.0
230
1.0
 70
     8
 71
     3
 72
     8
 73
     4
 74
     0
 42
0.000000001
 43
0.00000001
 40
0.0
 40
0.0
 40
0.0
 40
0.0
 40
1.0
 40
1.0
 40
1.0
 40
1.0
 10
8.531088913245519
 20
-1.100373154746395
 30
0.0
 10
8.389402439640644
 20
-1.084067173979215
 30
0.0
 10
8.254006238794965
 20
-1.049681831099828
 30
0.0
 10
8.11961358016617
 20
-0.9992178102431978
 30
0.0
  0
LINE
  5
BB
330
1F
100
AcDbEntity
  8
0
  6
Continuous
 62
     4
370
    25
100
AcDbLine
 10
8.531088913245519
 20
-1.100373154746395
 30
0.0
 11
8.531088913245519
 21
-1.248581279253854
 31
0.0
  0
SPLINE
  5
BC
330
1F
100
AcDbEntity
  8
0
  6
Continuous
 62
     4
370
    25
100
AcDbSpline
210
0.0
220
0.0
230
1.0
 70
     8
 71
     3
 72
     8
 73
     4
 74
     0
 42
0.000000001
 43
0.00000001
 40
0.0
 40
0.0
 40
0.0
 40
0.0
 40
1.0
 40
1.0
 40
1.0
 40
1.0
 10
8.436582642911553
 20
-1.267721335743691
 30
0.0
 10
8.467934541310253
 20
-1.262204739986105
 30
0.0
 10
8.49943444274783
 20
-1.255821460196444
 30
0.0
 10
8.531088913245519
 20
-1.248581279253857
 30
0.0
  0
SPLINE
  5
BD
330
1F
100
AcDbEntity
  8
0
  6
Continuous
 62
     4
370
    25
100
AcDbSpline
210
0.0
220
0.0
230
1.0
 70
     8
 71
     3
 72
    14
 73
    10
 74
     0
 42
0.000000001
 43
0.00000001
 40
0.0
 40
0.0
 40
0.0
 40
0.0
 40
0.0691942338794841
 40
0.2147732298091357
 40
0.3622726561159776
 40
0.5176999516360178
 40
0.6802218530228276
 40
0.8460645429391423
 40
1.0
 40
1.0
 40
1.0
 40
1.0
 10
8.037338061790269
 20
-1.381776186945562
 30
0.0
 10
8.038701726738477
 20
-1.381514924724527
 30
0.0
 10
8.042934430952158
 20
-1.380703988207236
 30
0.0
 10
8.075263591279427
 20
-1.368306173786829
 30
0.0
 10
8.129713573154351
 20
-1.348201428968086
 30
0.0
 10
8.202219295191131
 20
-1.32369410321767
 30
0.0
 10
8.285025130919578
 20
-1.299762284491398
 30
0.0
 10
8.368505956222851
 20
-1.280173664083785
 30
0.0
 10
8.4144608043338
 20
-1.271767778231651
 30
0.0
 10
8.43658264291155
 20
-1.267721335743691
 30
0.0
  0
LINE
  5
BE
330
1F
100
AcDbEntity
  8
0
  6
Continuous
 62
     4
370
    25
100
AcDbLine
 10
-28.46891108675448
 20
2.499999999999997
 30
0.0
 11
-28.46891108675448
 21
-2.499999999999999
 31
0.0
  0
SPLINE
  5
BF
330
1F
100
AcDbEntity
  8
0
  6
Continuous
 62
     4
370
    25
100
AcDbSpline
210
0.0
220
0.0
230
1.0
 70
     8
 71
     3
 72
    12
 73
     8
 74
     0
 42
0.000000001
 43
0.00000001
 40
0.0
 40
0.0
 40
0.0
 40
0.0
 40
0.5000000000000001
 40
0.5000000000000001
 40
0.75
 40
0.75
 40
1.0
 40
1.0
 40
1.0
 40
1.0
 10
9.531088913245515
 20
1.047899651475852
 30
0.0
 10
9.366202484582178
 20
1.11854914370422
 30
0.0
 10
9.19519234003247
 20
1.172736727784618
 30
0.0
 10
8.94777245925696
 20
1.223522820990565
 30
0.0
 10
8.866220442426865
 20
1.235553479024592
 30
0.0
 10
8.69909156130484
 20
1.249680595070843
 30
0.0
 10
8.614723411926235
 20
1.251682243689241
 30
0.0
 10
8.531088913245519
 20
1.248581279253857
 30
0.0
  0
SPLINE
  5
C0
330
1F
100
AcDbEntity
  8
0
  6
Continuous
 62
     4
370
    25
100
AcDbSpline
210
0.0
220
0.0
230
1.0
 70
     8
 71
     3
 72
    12
 73
     8
 74
     0
 42
0.000000001
 43
0.00000001
 40
0.0
 40
0.0
 40
0.0
 40
0.0
 40
0.5
 40
0.5
 40
0.75
 40
0.75
 40
1.0
 40
1.0
 40
1.0
 40
1.0
 10
9.531088913245515
 20
-0.1619754940454934
 30
0.0
 10
9.366202484582178
 20
-0.0334785195378738
 30
0.0
 10
9.19519234003247
 20
0.0992269303115461
 30
0.0
 10
8.94777245925696
 20
0.2904113741464869
 30
0.0
 10
8.866220442426865
 20
0.3529973219820144
 30
0.0
 10
8.69909156130484
 20
0.4758085510625982
 30
0.0
 10
8.614723411926235
 20
0.5357137542940204
 30
0.0
 10
8.531088913245519
 20
0.5930252273836756
 30
0.0
  0
SPLINE
  5
C1
330
1F
100
AcDbEntity
  8
0
  6
Continuous
 62
     4
370
    25
100
AcDbSpline
210
0.0
220
0.0
230
1.0
 70
     8
 71
     3
 72
    12
 73
     8
 74
     0
 42
0.000000001
 43
0.00000001
 40
0.0
 40
0.0
 40
0.0
 40
0.0
 40
0.4999999999999999
 40
0.4999999999999999
 40
0.7499999999999999
 40
0.7499999999999999
 40
1.0
 40
1.0
 40
1.0
 40
1.0
 10
9.531088913245515
 20
-0.6814736388421596
 30
0.0
 10
9.366202484582178
 20
-0.5728361596157634
 30
0.0
 10
9.19519234003247
 20
-0.4516481901947985
 30
0.0
 10
8.94777245925696
 20
-0.2639910729846445
 30
0.0
 10
8.866220442426865
 20
-0.2003592846829496
 30
0.0
 10
8.69909156130484
 20
-0.0709552872717774
 30
0.0
 10
8.614723411926235
 20
-0.0054925647963776
 30
0.0
 10
8.531088913245519
 20
0.0595381314520204
 30
0.0
  0
SPLINE
  5
C2
330
1F
100
AcDbEntity
  8
0
  6
Continuous
 62
     4
370
    25
100
AcDbSpline
210
0.0
220
0.0
230
1.0
 70
     8
 71
     3
 72
    12
 73
     8
 74
     0
 42
0.000000001
 43
0.00000001
 40
0.0
 40
0.0
 40
0.0
 40
0.0
 40
0.4999999999999999
 40
0.4999999999999999
 40
0.7499999999999999
 40
0.7499999999999999
 40
1.0
 40
1.0
 40
1.0
 40
1.0
 10
9.531088913245515
 20
-1.239461148777449
 30
0.0
 10
9.366202484582178
 20
-1.256253414472709
 30
0.0
 10
9.19519234003247
 20
-1.252777528814341
 30
0.0
 10
8.94777245925696
 20
-1.217522325818566
 30
0.0
 10
8.866220442426865
 20
-1.200886811136655
 30
0.0
 10
8.69909156130484
 20
-1.157731603276057
 30
0.0
 10
8.614723411926235
 20
-1.131260085433576
 30
0.0
 10
8.531088913245519
 20
-1.100373154746395
 30
0.0
  0
LINE
  5
C3
330
1F
100
AcDbEntity
  8
0
  6
Continuous
 62
     4
370
    25
100
AcDbLine
 10
9.531088913245519
 20
1.239461148777453
 30
0.0
 11
9.322859006367551
 21
1.235225777939067
 31
0.0
  0
LINE
  5
C4
330
1F
100
AcDbEntity
  8
0
  6
Continuous
 62
     4
370
    25
100
AcDbLine
 10
8.531088913245519
 20
-1.248581279253854
 30
0.0
 11
8.606967630256399
 21
-1.242198653042336
 31
0.0
  0
SPLINE
  5
C5
330
1F
100
AcDbEntity
  8
0
  6
Continuous
 62
     1
370
    25
100
AcDbSpline
210
0.0
220
0.0
230
1.0
 70
     8
 71
     3
 72
    22
 73
    18
 74
     0
 42
0.000000001
 43
0.00000001
 40
0.0
 40
0.0
 40
0.0
 40
0.0
 40
0.0575247236632306
 40
0.1285444709307
 40
0.2000110484887459
 40
0.271132827198158
 40
0.3421424773704101
 40
0.4135990665477618
 40
0.4847407082340283
 40
0.5557415203646585
 40
0.6271855650088044
 40
0.6983483103605949
 40
0.7693415447356861
 40
0.8407704907982021
 40
0.9119555775751462
 40
0.9829424955377937
 40
0.9999999999999999
 40
0.9999999999999999
 40
0.9999999999999999
 40
0.9999999999999999
 10
10.22184600234736
 20
1.051591768651553
 30
0.0
 10
10.33544064111947
 20
1.096672486277151
 30
0.0
 10
10.58927867477974
 20
1.197409641144404
 30
0.0
 10
10.98356491654979
 20
1.258625131398055
 30
0.0
 10
11.40654616491695
 20
1.244996112806732
 30
0.0
 10
11.82810883016337
 20
1.143207857343659
 30
0.0
 10
12.24922263217472
 20
0.9622672199482556
 30
0.0
 10
12.67213635167888
 20
0.7161704765489044
 30
0.0
 10
13.09378659431269
 20
0.4195492703243274
 30
0.0
 10
13.51486148981424
 20
0.0931059545311113
 30
0.0
 10
13.93772563332121
 20
-0.2375728394673104
 30
0.0
 10
14.35945992472784
 20
-0.5534021969873251
 30
0.0
 10
14.78050624052792
 20
-0.8309906945507105
 30
0.0
 10
15.20329753202165
 20
-1.051458590679962
 30
0.0
 10
15.62516728177963
 20
-1.193220789658132
 30
0.0
 10
15.93891689821437
 20
-1.256865111191026
 30
0.0
 10
16.11302887324734
 20
-1.244495619738536
 30
0.0
 10
16.14676088839667
 20
-1.242099185644984
 30
0.0
  0
SPLINE
  5
C6
330
1F
100
AcDbEntity
  8
0
  6
Continuous
 62
     1
370
    25
100
AcDbSpline
210
0.0
220
0.0
230
1.0
 70
     8
 71
     3
 72
    11
 73
     7
 74
     0
 42
0.000000001
 43
0.00000001
 40
0.0
 40
0.0
 40
0.0
 40
0.0
 40
0.2711842570706156
 40
0.6059870370513217
 40
0.9428962737461192
 40
1.0
 40
1.0
 40
1.0
 40
1.0
 10
20.27448407415113
 20
1.051591768651552
 30
0.0
 10
20.38809560665807
 20
1.096697560975787
 30
0.0
 10
20.64197139097699
 20
1.197490747644059
 30
0.0
 10
21.03592259918917
 20
1.258208960914442
 30
0.0
 10
21.34301867942492
 20
1.249773282178586
 30
0.0
 10
21.5072824095057
 20
1.222857926357568
 30
0.0
 10
21.53108891324552
 20
1.218957122944079
 30
0.0
  0
SPLINE
  5
C7
330
1F
100
AcDbEntity
  8
0
  6
Continuous
 62
     1
370
    25
100
AcDbSpline
210
0.0
220
0.0
230
1.0
 70
     8
 71
     3
 72
    22
 73
    18
 74
     0
 42
0.000000001
 43
0.00000001
 40
0.0
 40
0.0
 40
0.0
 40
0.0
 40
0.0046009267902292
 40
0.0759842444310039
 40
0.1469583731338404
 40
0.21815927621033
 40
0.2895627903064892
 40
0.3605419726466388
 40
0.4317193022061323
 40
0.5031404644772397
 40
0.5741259625415172
 40
0.6452809531104581
 40
0.716717212317865
 40
0.7877102873119153
 40
0.8588441765150512
 40
0.9302929788886546
 40
0.9999999999999999
 40
0.9999999999999999
 40
0.9999999999999999
 40
0.9999999999999999
 10
17.76192300178221
 20
-1.055480081518151
 30
0.0
 10
17.75283362313649
 20
-1.059956943622287
 30
0.0
 10
17.60272265631802
 20
-1.133892261421079
 30
0.0
 10
17.31174307113919
 20
-1.209820302348198
 30
0.0
 10
16.89081437477831
 20
-1.265715787346023
 30
0.0
 10
16.4688770163519
 20
-1.226035510964475
 30
0.0
 10
16.04614929110873
 20
-1.104313513247784
 30
0.0
 10
15.62513179189241
 20
-0.9047019897617923
 30
0.0
 10
15.20330708938749
 20
-0.643042807877908
 30
0.0
 10
14.78050369924798
 20
-0.3381356460172266
 30
0.0
 10
14.35946058458593
 20
-0.0078449617682309
 30
0.0
 10
13.93772553442942
 20
0.3222202010610117
 30
0.0
 10
13.51486122099096
 20
0.6286453624003105
 30
0.0
 10
13.09378776001904
 20
0.8940028599995109
 30
0.0
 10
12.67213193691137
 20
1.094983968957412
 30
0.0
 10
12.25180301257008
 20
1.225572626597777
 30
0.0
 10
11.97340602914165
 20
1.241408011057104
 30
0.0
 10
11.83592516634714
 20
1.249228003541724
 30
0.0
  0
LINE
  5
C8
330
1F
100
AcDbEntity
  8
0
  6
Continuous
 62
     1
370
    25
100
AcDbLine
 10
21.53108891324552
 20
1.218957122944079
 30
0.0
 11
21.53108891324552
 21
1.250000000000004
 31
0.0
  0
SPLINE
  5
C9
330
1F
100
AcDbEntity
  8
0
  6
Continuous
 62
     1
370
    25
100
AcDbSpline
210
0.0
220
0.0
230
1.0
 70
     8
 71
     3
 72
    22
 73
    18
 74
     0
 42
0.000000001
 43
0.00000001
 40
0.0
 40
0.0
 40
0.0
 40
0.0
 40
0.0604407081624786
 40
0.1314547636243142
 40
0.2029121342730152
 40
0.2740881531603879
 40
0.3450946294532539
 40
0.4165368987040824
 40
0.487735263183813
 40
0.558735421886075
 40
0.6301600377464193
 40
0.7013819827097888
 40
0.7723770862812446
 40
0.8437814997175783
 40
0.9150282567878233
 40
0.9951116818365539
 40
0.9999999999999999
 40
0.9999999999999999
 40
0.9999999999999999
 40
0.9999999999999999
 10
12.73600692541003
 20
1.05300942217556
 30
0.0
 10
12.85536742274519
 20
1.099545398165504
 30
0.0
 10
13.11496904622544
 20
1.200758238149773
 30
0.0
 10
13.51484313920945
 20
1.259877597050579
 30
0.0
 10
13.9377303723003
 20
1.242335134086817
 30
0.0
 10
14.35945929004792
 20
1.137062967862358
 30
0.0
 10
14.78050406340358
 20
0.9529400036156674
 30
0.0
 10
15.20330693473855
 20
0.7042308950425892
 30
0.0
 10
15.62513204533536
 20
0.4061129199469386
 30
0.0
 10
16.04614843160064
 20
0.0788622411219635
 30
0.0
 10
16.46888021857853
 20
-0.2517296682372083
 30
0.0
 10
16.89080248613147
 20
-0.5661802561929572
 30
0.0
 10
17.31178739250745
 20
-0.8415514455230779
 30
0.0
 10
17.73447429798971
 20
-1.05995921380878
 30
0.0
 10
18.17431566146879
 20
-1.201531258923566
 30
0.0
 10
18.48251637771164
 20
-1.265903951651242
 30
0.0
 10
18.65033101609993
 20
-1.247895992165436
 30
0.0
 10
18.65998518246058
 20
-1.246860016768048
 30
0.0
  0
SPLINE
  5
CA
330
1F
100
AcDbEntity
  8
0
  6
Continuous
 62
     1
370
    25
100
AcDbSpline
210
0.0
220
0.0
230
1.0
 70
     8
 71
     3
 72
    22
 73
    18
 74
     0
 42
0.000000001
 43
0.00000001
 40
0.0
 40
0.0
 40
0.0
 40
0.0
 40
0.0728529931713303
 40
0.143828135321885
 40
0.2150872369260042
 40
0.2864551856095243
 40
0.3574328555453921
 40
0.428665921859311
 40
0.5000566142441172
 40
0.5710380754169109
 40
0.6422463343918421
 40
0.7136572253185665
 40
0.7846437406507739
 40
0.8558284236732848
 40
0.9272569645982233
 40
0.9982497963070479
 40
1.0
 40
1.0
 40
1.0
 40
1.0
 10
20.27448407415113
 20
-1.051591768651548
 30
0.0
 10
20.13045415547387
 20
-1.106591624275222
 30
0.0
 10
19.84610681801862
 20
-1.215173665080636
 30
0.0
 10
19.42211646014032
 20
-1.262770875112928
 30
0.0
 10
19.00000575419058
 20
-1.230180262893157
 30
0.0
 10
18.57744228924393
 20
-1.111009069967625
 30
0.0
 10
18.15646562425794
 20
-0.9146171513487867
 30
0.0
 10
17.73444619705456
 20
-0.6554285098912401
 30
0.0
 10
17.31179485934083
 20
-0.3518654024688553
 30
0.0
 10
16.89080056086658
 20
-0.0220403791530026
 30
0.0
 10
16.46888044590611
 20
0.3081804840787891
 30
0.0
 10
16.04614945805632
 20
0.616427922010812
 30
0.0
 10
15.62512773957528
 20
0.8831332121751688
 30
0.0
 10
15.20332321489918
 20
1.090535019135661
 30
0.0
 10
14.78044319927619
 20
1.212093427364877
 30
0.0
 10
14.49642642534571
 20
1.263622331899694
 30
0.0
 10
14.35277237960367
 20
1.249307968615464
 30
0.0
 10
14.34931605089843
 20
1.24896356380277
 30
0.0
  0
SPLINE
  5
CB
330
1F
100
AcDbEntity
  8
0
  6
Continuous
 62
     1
370
    25
100
AcDbSpline
210
0.0
220
0.0
230
1.0
 70
     8
 71
     3
 72
     9
 73
     5
 74
     0
 42
0.000000001
 43
0.00000001
 40
0.0
 40
0.0
 40
0.0
 40
0.0
 40
0.6245331161057035
 40
1.0
 40
1.0
 40
1.0
 40
1.0
 10
10.22184600234736
 20
-1.051591768651549
 30
0.0
 10
10.07775450500291
 20
-1.107783031475659
 30
0.0
 10
9.847035759065246
 20
-1.197756263278789
 30
0.0
 10
9.617334230428508
 20
-1.228076793701582
 30
0.0
 10
9.531088913245515
 20
-1.239461148777451
 30
0.0
  0
SPLINE
  5
CC
330
1F
100
AcDbEntity
  8
0
  6
Continuous
 62
     1
370
    25
100
AcDbSpline
210
0.0
220
0.0
230
1.0
 70
     8
 71
     3
 72
    12
 73
     8
 74
     0
 42
0.000000001
 43
0.00000001
 40
0.0
 40
0.0
 40
0.0
 40
0.0
 40
0.1175828496394478
 40
0.383929997821169
 40
0.6488951813184439
 40
0.9135495311911771
 40
1.0
 40
1.0
 40
1.0
 40
1.0
 10
9.531088913245519
 20
-0.6814736388421614
 30
0.0
 10
9.59312665156251
 20
-0.7214986708381211
 30
0.0
 10
9.795691471261208
 20
-0.8521878869450735
 30
0.0
 10
10.14108520647567
 20
-1.034549236428722
 30
0.0
 10
10.56240960912449
 20
-1.184518516752241
 30
0.0
 10
10.8883642946785
 20
-1.253940494746145
 30
0.0
 10
11.07474135698451
 20
-1.243123230952121
 30
0.0
 10
11.12063188184849
 20
-1.24045975988461
 30
0.0
  0
SPLINE
  5
CD
330
1F
100
AcDbEntity
  8
0
  6
Continuous
 62
     1
370
    25
100
AcDbSpline
210
0.0
220
0.0
230
1.0
 70
     8
 71
     3
 72
    22
 73
    18
 74
     0
 42
0.000000001
 43
0.00000001
 40
0.0
 40
0.0
 40
0.0
 40
0.0
 40
0.0635360935611653
 40
0.134535210713365
 40
0.2059587787969938
 40
0.2771796789567661
 40
0.3481737410523169
 40
0.4195771070082983
 40
0.4908228189109602
 40
0.5709050691609597
 40
0.6511127534425867
 40
0.7316048191426443
 40
0.7631634893373471
 40
0.834649780344421
 40
0.9057651586900746
 40
0.9767971107888526
 40
1.0
 40
1.0
 40
1.0
 40
1.0
 10
15.24901234132174
 20
1.054176541230528
 30
0.0
 10
15.37452148994049
 20
1.102229027482625
 30
0.0
 10
15.64028223803597
 20
1.203978301019615
 30
0.0
 10
16.0461341087731
 20
1.260970391488959
 30
0.0
 10
16.46888383855346
 20
1.239508129779268
 30
0.0
 10
16.89080232176026
 20
1.13077566459579
 30
0.0
 10
17.31178445266574
 20
0.9435031730482056
 30
0.0
 10
17.73448629505139
 20
0.6922107178152167
 30
0.0
 10
18.17426839896153
 20
0.379763769892376
 30
0.0
 10
18.6313160906464
 20
0.0228943295862233
 30
0.0
 10
19.10634378839812
 20
-0.3500953076136355
 30
0.0
 10
19.48782956746303
 20
-0.6217282636001564
 30
0.0
 10
19.84820766583777
 20
-0.8512325003258536
 30
0.0
 10
20.19376588648953
 20
-1.034883239053561
 30
0.0
 10
20.61503596189367
 20
-1.184426652102113
 30
0.0
 10
20.94100316115993
 20
-1.253946724165898
 30
0.0
 10
21.12737958579759
 20
-1.243124461736602
 30
0.0
 10
21.17326995365225
 20
-1.240459759884609
 30
0.0
  0
SPLINE
  5
CE
330
1F
100
AcDbEntity
  8
0
  6
Continuous
 62
     1
370
    25
100
AcDbSpline
210
0.0
220
0.0
230
1.0
 70
     8
 71
     3
 72
    17
 73
    13
 74
     0
 42
0.000000001
 43
0.00000001
 40
0.0
 40
0.0
 40
0.0
 40
0.0
 40
0.1248964645619166
 40
0.2494696381668845
 40
0.3553750211022216
 40
0.4617041134343511
 40
0.5681956216669786
 40
0.6741047764309229
 40
0.7803950202691297
 40
0.886920465459417
 40
0.9928352773081698
 40
1.0
 40
1.0
 40
1.0
 40
1.0
 10
20.8341435413479
 20
-0.9880064031230619
 30
0.0
 10
20.6685854580518
 20
-0.89982152189012
 30
0.0
 10
20.33789783386363
 20
-0.723680023488734
 30
0.0
 10
19.86709306599618
 20
-0.3831144217238722
 30
0.0
 10
19.422109949617
 20
-0.036526465029842
 30
0.0
 10
19.00000722300846
 20
0.2942116812760013
 30
0.0
 10
18.57744294937511
 20
0.6039260449864781
 30
0.0
 10
18.1564615443518
 20
0.8729435123923592
 30
0.0
 10
17.73446194288987
 20
1.082987268237648
 30
0.0
 10
17.31173598116322
 20
1.208686156842009
 30
0.0
 10
17.02182889544023
 20
1.262319336937849
 30
0.0
 10
16.87213280374526
 20
1.248175922621024
 30
0.0
 10
16.86264805489656
 20
1.247279795466739
 30
0.0
  0
SPLINE
  5
CF
330
1F
100
AcDbEntity
  8
0
  6
Continuous
 62
     1
370
    25
100
AcDbSpline
210
0.0
220
0.0
230
1.0
 70
     8
 71
     3
 72
    16
 73
    12
 74
     0
 42
0.000000001
 43
0.00000001
 40
0.0
 40
0.0
 40
0.0
 40
0.0
 40
0.01980433009393
 40
0.1519106400203591
 40
0.2831906655774163
 40
0.4146779902436556
 40
0.5126860629366833
 40
0.6099323198587221
 40
0.7646792790770365
 40
0.919025680179426
 40
1.0
 40
1.0
 40
1.0
 40
1.0
 10
12.73600692541004
 20
-1.053009422175555
 30
0.0
 10
12.71485816732997
 20
-1.063261215541111
 30
0.0
 10
12.55263498884617
 20
-1.141898386509868
 30
0.0
 10
12.24916456931934
 20
-1.218037774331292
 30
0.0
 10
11.82812341530288
 20
-1.265769332191021
 30
0.0
 10
11.44296801178785
 20
-1.22269582103535
 30
0.0
 10
11.09314021423356
 20
-1.125355224288779
 30
0.0
 10
10.72056066287593
 20
-0.9683879982138958
 30
0.0
 10
10.28513682589481
 20
-0.7193557901590113
 30
0.0
 10
9.86800862344927
 20
-0.4227360256701049
 30
0.0
 10
9.617343330335842
 20
-0.2287324897755496
 30
0.0
 10
9.531088913245515
 20
-0.1619754940454938
 30
0.0
  0
LINE
  5
D0
330
1F
100
AcDbEntity
  8
0
  6
Continuous
 62
     1
370
    25
100
AcDbLine
 10
20.83414354134791
 20
-0.9880064031230776
 30
0.0
 11
20.79859819222099
 21
-1.012895524530038
 31
0.0
  0
ELLIPSE
  5
D1
330
1F
100
AcDbEntity
  8
0
  6
Continuous
 62
     1
370
    25
100
AcDbEllipse
 10
21.28686122026742
 20
0.0000000000000025
 30
0.0
 11
1.736654132074961
 21
-0.6879262575522032
 31
0.0
210
0.0
220
0.0
230
1.0
 40
0.6009688174887239
 41
4.669057142141527
 42
5.083334185035829
  0
LINE
  5
D2
330
1F
100
AcDbEntity
  8
0
  6
Continuous
 62
     1
370
    25
100
AcDbLine
 10
21.53108891324552
 20
-1.25
 30
0.0
 11
21.53108891324552
 21
-1.222060428378374
 31
0.0
  0
SPLINE
  5
D3
330
1F
100
AcDbEntity
  8
0
  6
Continuous
 62
     1
370
    25
100
AcDbSpline
210
0.0
220
0.0
230
1.0
 70
     8
 71
     3
 72
    11
 73
     7
 74
     0
 42
0.000000001
 43
0.00000001
 40
0.0
 40
0.0
 40
0.0
 40
0.0
 40
0.3402233992836147
 40
0.6795661399455755
 40
0.9680570072497487
 40
1.0
 40
1.0
 40
1.0
 40
1.0
 10
20.83414354134793
 20
0.7657305971344014
 30
0.0
 10
20.66859086683698
 20
0.8611540788186202
 30
0.0
 10
20.33791404621864
 20
1.051754041210551
 30
0.0
 10
19.86703244823861
 20
1.200412788721827
 30
0.0
 10
19.54721672129098
 20
1.260998646464602
 30
0.0
 10
19.39145140950491
 20
1.24713248716108
 30
0.0
 10
19.37592368024348
 20
1.245750215555854
 30
0.0
  0
SPLINE
  5
D4
330
1F
100
AcDbEntity
  8
0
  6
Continuous
 62
     1
370
    25
100
AcDbSpline
210
0.0
220
0.0
230
1.0
 70
     8
 71
     3
 72
    22
 73
    18
 74
     0
 42
0.000000001
 43
0.00000001
 40
0.0
 40
0.0
 40
0.0
 40
0.0
 40
0.0079375555061884
 40
0.0819555553290852
 40
0.1555220504136306
 40
0.2292642006650933
 40
0.3032978463413031
 40
0.3768721938489782
 40
0.4505924754995844
 40
0.5246391204052074
 40
0.5982226263031327
 40
0.6719223250122524
 40
0.7268566348164274
 40
0.7813639407787006
 40
0.8681008509675107
 40
0.9546132451238133
 40
0.9999999999999999
 40
0.9999999999999999
 40
0.9999999999999999
 40
0.9999999999999999
 10
15.24901234132174
 20
-1.054176541230524
 30
0.0
 10
15.23388565236223
 20
-1.06157030014008
 30
0.0
 10
15.07770202718941
 20
-1.137911135417347
 30
0.0
 10
14.7804466413854
 20
-1.214018093823189
 30
0.0
 10
14.35947589303271
 20
-1.265805464759331
 30
0.0
 10
13.93772133213815
 20
-1.22246156401899
 30
0.0
 10
13.51486263041787
 20
-1.097271396368444
 30
0.0
 10
13.09378631020186
 20
-0.8947202129593842
 30
0.0
 10
12.67213634824713
 20
-0.6305807724732657
 30
0.0
 10
12.24922293257822
 20
-0.3243345261958393
 30
0.0
 10
11.82810764035353
 20
0.0063378454781187
 30
0.0
 10
11.44297105842637
 20
0.3077562818046608
 30
0.0
 10
11.09313951760225
 20
0.5622782694852484
 30
0.0
 10
10.72056097480622
 20
0.8119407797042482
 30
0.0
 10
10.28513672533943
 20
1.045553559721174
 30
0.0
 10
9.868008635253531
 20
1.192277388794251
 30
0.0
 10
9.617343333357834
 20
1.227381690110491
 30
0.0
 10
9.531088913245519
 20
1.239461148777411
 30
0.0
  0
LINE
  5
D5
330
1F
100
AcDbEntity
  8
0
  6
Continuous
 62
     1
370
    25
100
AcDbLine
 10
21.53108891324552
 20
0.5622257016814712
 30
0.0
 11
21.53108891324552
 21
1.218957122944079
 31
0.0
  0
SPLINE
  5
D6
330
1F
100
AcDbEntity
  8
0
  6
Continuous
 62
     1
370
    25
100
AcDbSpline
210
0.0
220
0.0
230
1.0
 70
     8
 71
     3
 72
    11
 73
     7
 74
     0
 42
0.000000001
 43
0.00000001
 40
0.0
 40
0.0
 40
0.0
 40
0.0
 40
0.2857266877748977
 40
0.5698793752659013
 40
0.998932819857544
 40
1.0
 40
1.0
 40
1.0
 40
1.0
 10
21.53108891324552
 20
0.5622257016814712
 30
0.0
 10
21.49482330113441
 20
0.5380005478452173
 30
0.0
 10
21.42249185553353
 20
0.4896836907765456
 30
0.0
 10
21.27887996685929
 20
0.4800739044689614
 30
0.0
 10
21.17189866844844
 20
0.4914813077396981
 30
0.0
 10
21.11890934796345
 20
0.5291862350510504
 30
0.0
 10
21.11877787519202
 20
0.5292797854352578
 30
0.0
  0
SPLINE
  5
D7
330
1F
100
AcDbEntity
  8
0
  6
Continuous
 62
     1
370
    25
100
AcDbSpline
210
0.0
220
0.0
230
1.0
 70
     8
 71
     3
 72
     9
 73
     5
 74
     0
 42
0.000000001
 43
0.00000001
 40
0.0
 40
0.0
 40
0.0
 40
0.0
 40
0.5765232247657625
 40
1.0
 40
1.0
 40
1.0
 40
1.0
 10
21.04150077312014
 20
0.5842198616131482
 30
0.0
 10
20.99697269024744
 20
0.6114175795026472
 30
0.0
 10
20.91973714975245
 20
0.6585929867042377
 30
0.0
 10
20.85960718494118
 20
0.7338577274391298
 30
0.0
 10
20.83414354134795
 20
0.7657305971343827
 30
0.0
  0
SPLINE
  5
D8
330
1F
100
AcDbEntity
  8
0
  6
Continuous
 62
     1
370
    25
100
AcDbSpline
210
0.0
220
0.0
230
1.0
 70
     8
 71
     3
 72
    18
 73
    14
 74
     0
 42
0.000000001
 43
0.00000001
 40
0.0
 40
0.0
 40
0.0
 40
0.0
 40
0.0455658730365711
 40
0.1487810985130378
 40
0.2514607830705219
 40
0.3540200129399729
 40
0.4572245079961794
 40
0.5599310809147221
 40
0.6624757296240136
 40
0.7656658005141105
 40
0.8684010574492469
 40
0.9709329431908121
 40
1.0
 40
1.0
 40
1.0
 40
1.0
 10
9.531088913245519
 20
1.047899651475851
 30
0.0
 10
9.593126540818496
 20
1.019751436265536
 30
0.0
 10
9.79569099891727
 20
0.9278422485098
 30
0.0
 10
10.14109010957624
 20
0.7275260915179468
 30
0.0
 10
10.56239180838987
 20
0.4330604149375883
 30
0.0
 10
10.9835970864986
 20
0.1073298024494997
 30
0.0
 10
11.4065376992035
 20
-0.2233905909332707
 30
0.0
 10
11.82811060411442
 20
-0.5405847590567041
 30
0.0
 10
12.24922396663558
 20
-0.8201852826397626
 30
0.0
 10
12.67212918726796
 20
-1.043274532248963
 30
0.0
 10
13.09381374365609
 20
-1.188899200884857
 30
0.0
 10
13.41362434673337
 20
-1.255424884038257
 30
0.0
 10
13.5938694940069
 20
-1.24377293767737
 30
0.0
 10
13.63368133317392
 20
-1.24119930159607
 30
0.0
  0
SPLINE
  5
D9
330
1F
100
AcDbEntity
  8
0
  6
Continuous
 62
     1
370
    25
100
AcDbSpline
210
0.0
220
0.0
230
1.0
 70
     8
 71
     3
 72
    17
 73
    13
 74
     0
 42
0.000000001
 43
0.00000001
 40
0.0
 40
0.0
 40
0.0
 40
0.0
 40
0.1047504817369728
 40
0.2306240505499063
 40
0.3566947770246469
 40
0.4832124952351365
 40
0.5328165264904599
 40
0.6451789356656487
 40
0.7569583429863048
 40
0.8686066206322318
 40
0.9809573484312832
 40
1.0
 40
1.0
 40
1.0
 40
1.0
 10
17.76192300178223
 20
1.055480081518155
 30
0.0
 10
17.89356602251202
 20
1.104896393333539
 30
0.0
 10
18.1833980706697
 20
1.213693888152874
 30
0.0
 10
18.63130300113215
 20
1.267165916668852
 30
0.0
 10
19.10634768275167
 20
1.219524156824222
 30
0.0
 10
19.48782841665955
 20
1.095497536409644
 30
0.0
 10
19.84820942753541
 20
0.9262124870143676
 30
0.0
 10
20.19375008434644
 20
0.7280834930365555
 30
0.0
 10
20.61509304106086
 20
0.4329500328596121
 30
0.0
 10
21.03596023880874
 20
0.1072159986637004
 30
0.0
 10
21.34301745841863
 20
-0.1316492004696868
 30
0.0
 10
21.507282254947
 20
-0.2584662698070904
 30
0.0
 10
21.53108891324552
 20
-0.2768456834120834
 30
0.0
  0
LINE
  5
DA
330
1F
100
AcDbEntity
  8
0
  6
Continuous
 62
     1
370
    25
100
AcDbLine
 10
21.53108891324552
 20
-0.499999999999999
 30
0.0
 11
21.53108891324552
 21
-0.2780312865563723
 31
0.0
  0
SPLINE
  5
DB
330
1F
100
AcDbEntity
  8
0
  6
Continuous
 62
     1
370
    25
100
AcDbSpline
210
0.0
220
0.0
230
1.0
 70
    24
 71
     3
 72
    12
 73
     8
 74
     0
 42
0.000000001
 43
0.00000001
 40
0.0
 40
0.0
 40
0.0
 40
0.0
 40
0.2500000000000011
 40
0.2500000000000011
 40
0.5000000000000022
 40
0.5000000000000022
 40
1.0
 40
1.0
 40
1.0
 40
1.0
 10
21.53108891324552
 20
-0.4999999999999988
 30
0.0
 10
21.47730889414945
 20
-0.5376571747761293
 30
0.0
 10
21.41376227319173
 20
-0.5821529978008783
 30
0.0
 10
21.28462884741782
 20
-0.6725731959626149
 30
0.0
 10
21.21938122997419
 20
-0.718260069544501
 30
0.0
 10
21.03359326303701
 20
-0.8483502045025749
 30
0.0
 10
20.92354142750246
 20
-0.9254093293376399
 30
0.0
 10
20.83414354134794
 20
-0.9880064031230562
 30
0.0
  0
ELLIPSE
  5
DC
330
1F
100
AcDbEntity
  8
0
  6
Continuous
 62
     1
370
    25
100
AcDbEllipse
 10
22.24516291661658
 20
0.0000000000000018
 30
0.0
 11
1.785185008427639
 21
0.0
 31
0.0
210
0.0
220
0.0
230
1.0
 40
0.7002075382097119
 41
2.48226637560588
 42
2.515488212601625
  0
ELLIPSE
  5
DD
330
1F
100
AcDbEntity
  8
0
  6
Continuous
 62
     1
370
    25
100
AcDbEllipse
 10
21.28686122026742
 20
0.0000000000000018
 30
0.0
 11
1.773878207475981
 21
-1.215217588009257
 31
0.0
210
0.0
220
0.0
230
1.0
 40
0.165075901574665
 41
1.546166782239612
 42
1.960443825133916
  0
LINE
  5
DE
330
1F
100
AcDbEntity
  8
0
  6
Continuous
 62
     1
370
    25
100
AcDbLine
 10
21.53108891324552
 20
-0.2768456834120834
 30
0.0
 11
21.53108891324552
 21
0.262808503271231
 31
0.0
  0
LINE
  5
DF
330
1F
100
AcDbEntity
  8
0
  6
Continuous
 62
     1
370
    25
100
AcDbLine
 10
21.53108891324552
 20
0.2628085032712316
 30
0.0
 11
21.53108891324552
 21
0.5622257016814712
 31
0.0
  0
LINE
  5
E0
330
1F
100
AcDbEntity
  8
0
  6
Continuous
 62
     1
370
    25
100
AcDbLine
 10
21.53108891324552
 20
-0.4999999999999975
 30
0.0
 11
21.53108891324552
 21
-1.222060428378374
 31
0.0
  0
LINE
  5
E1
330
1F
100
AcDbEntity
  8
중심선
100
AcDbLine
 10
-31.46891108675448
 20
-0.0000000000000026
 30
0.0
 11
23.03108891324553
 21
0.0000000000000041
 31
0.0
  0
CIRCLE
  5
E2
330
1F
100
AcDbEntity
  8
해칭선
100
AcDbCircle
 10
-0.0078563101058703
 20
-0.0000000000000042
 30
0.0
 40
3.000000000000001
  0
INSERT
  5
E3
330
1F
100
AcDbEntity
  8
0
  6
Continuous
 62
     7
100
AcDbBlockReference
 66
     1
  2
블럭10
 10
-15.44814782084245
 20
-52.04717430164393
 30
0.0
  0
ATTRIB
  5
E4
330
E3
100
AcDbEntity
  8
FORMAT
 62
     2
100
AcDbText
 10
-31.56740886027801
 20
-49.97180738881174
 30
0.0
 40
4.233333333333333
  1
SEME7102512E [ 4 FLUTE ]
 41
0.75
  7
SLDTEXTSTYLE0
 11
-31.56740886027801
 21
-52.08847405547841
 31
0.0
100
AcDbAttribute
  2
AUTOATTR0
 70
     0
 74
     1
  0
SEQEND
  5
E5
330
E3
100
AcDbEntity
  8
0
  6
Continuous
 62
     7
  0
HATCH
  5
E6
330
1F
100
AcDbEntity
  8
중심선
100
AcDbHatch
 10
0.0
 20
0.0
 30
0.0
210
0.0
220
0.0
230
1.0
  2
SOLID
 70
     1
 71
     0
 91
        1
 92
        0
 93
        4
 72
     1
 10
-9.7332385164616
 20
-35.8
 11
-13.17951376029888
 21
-35.8
 72
     1
 10
-13.17951376029888
 20
-35.8
 11
-15.30774361950291
 21
-38.33632558057259
 72
     1
 10
-15.30774361950291
 20
-38.33632558057259
 11
-11.86143529055247
 21
-38.3362861512701
 72
     1
 10
-11.86143529055247
 20
-38.3362861512701
 11
-9.7332385164616
 21
-35.8
 97
        0
 75
     0
 76
     1
 98
        1
 10
0.0
 20
0.0
  0
HATCH
  5
E7
330
1F
100
AcDbEntity
  8
중심선
100
AcDbHatch
 10
0.0
 20
0.0
 30
0.0
210
0.0
220
0.0
230
1.0
  2
SOLID
 70
     1
 71
     0
 91
        1
 92
        0
 93
        4
 72
     1
 10
-4.72047452542565
 20
-35.80000000000003
 11
-8.166749769262932
 21
-35.8
 72
     1
 10
-8.166749769262932
 20
-35.8
 11
-12.69788777762032
 21
-41.20000000000002
 72
     1
 10
-12.69788777762032
 20
-41.20000000000002
 11
-9.251612533783039
 21
-41.20000000000002
 72
     1
 10
-9.251612533783039
 20
-41.20000000000002
 11
-4.72047452542565
 21
-35.80000000000003
 97
        0
 75
     0
 76
     1
 98
        1
 10
0.0
 20
0.0
  0
HATCH
  5
E8
330
1F
100
AcDbEntity
  8
중심선
100
AcDbHatch
 10
0.0
 20
0.0
 30
0.0
210
0.0
220
0.0
230
1.0
  2
SOLID
 70
     1
 71
     0
 91
        1
 92
        0
 93
        4
 72
     1
 10
0.2922894656102459
 20
-35.8
 11
-3.153985778226843
 21
-35.8
 72
     1
 10
-3.153985778226842
 20
-35.8
 11
-10.20242268011612
 21
-44.20000000000002
 72
     1
 10
-10.20242268011612
 20
-44.20000000000002
 11
-6.756147436278837
 21
-44.20000000000002
 72
     1
 10
-6.756147436278837
 20
-44.20000000000002
 11
0.2922894656102457
 21
-35.8
 97
        0
 75
     0
 76
     1
 98
        1
 10
0.0
 20
0.0
  0
HATCH
  5
E9
330
1F
100
AcDbEntity
  8
중심선
100
AcDbHatch
 10
0.0
 20
0.0
 30
0.0
210
0.0
220
0.0
230
1.0
  2
SOLID
 70
     1
 71
     0
 91
        1
 92
        0
 93
        6
 72
     3
 10
5.092179896622445
 20
-40.00000000005127
 11
3.960054785062284
 21
1.540850780301639E-10
 40
0.3939339440162633
 50
17.09539180608434
 51
320.0019657685079
 73
     0
 72
     1
 10
6.77517955232304
 20
-38.5878940046383
 11
9.080481426024106
 21
-36.65356729459035
 72
     3
 10
5.092179896569599
 20
-40.00000000000015
 11
6.600054785286829
 21
-1.249000902703301E-13
 40
0.6363583540795982
 50
39.99873849337413
 51
368.4976242363725
 73
     1
 72
     1
 10
11.51751238847021
 20
-39.03999999993002
 11
3.772247203405549
 21
-39.03999999993002
 72
     1
 10
3.772247203405549
 20
-39.03999999993002
 11
3.772222158959587
 21
-40.95999999992991
 72
     1
 10
3.772222158959587
 20
-40.95999999992991
 11
8.213601928431624
 21
-40.95999999992988
 97
        0
 75
     0
 76
     1
 98
        1
 10
0.0
 20
0.0
  0
DIMENSION
  5
EA
330
1F
100
AcDbEntity
  8
치수문자_일반주서
100
AcDbDimension
  2
_D
 10
32.49415629070459
 20
1.250000000000048
 30
0.0
 11
32.49415629070456
 21
12.66650000000005
 31
0.0
 70
   160
  1
%%c<>
 71
     2
 42
2.50000000000001
 52
-270.0
  3
SLDDIMSTYLE0
100
AcDbAlignedDimension
 13
21.53108891324553
 23
-1.250000000000004
 33
0.0
 14
21.53108891324553
 24
1.250000000000006
 34
0.0
 50
90.0000000000002
100
AcDbRotatedDimension
  0
DIMENSION
  5
F8
330
1F
100
AcDbEntity
  8
치수문자_일반주서
100
AcDbDimension
  2
_D_1
 10
21.53108891324552
 20
20.38913260158165
 30
0.0
 11
-3.468911086754477
 21
20.38913260158165
 31
0.0
 70
   160
  1
<>
 71
     2
 42
50.0
  3
SLDDIMSTYLE1
100
AcDbAlignedDimension
 13
-28.46891108675448
 23
2.499999999999997
 33
0.0
 14
21.53108891324552
 24
1.250000000000003
 34
0.0
100
AcDbRotatedDimension
  0
DIMENSION
  5
103
330
1F
100
AcDbEntity
  8
치수문자_일반주서
100
AcDbDimension
  2
_D_2
 10
-36.33469674771626
 20
-3.000000000000034
 30
0.0
 11
-36.33469674771631
 21
12.66649999999997
 31
0.0
 70
   160
  1
%%c<>
 71
     2
 42
6.000000000000005
 52
-270.0
  3
SLDDIMSTYLE2
100
AcDbAlignedDimension
 13
-27.96891108675449
 23
3.000000000000004
 33
0.0
 14
-27.96891108675449
 24
-3.000000000000001
 34
0.0
 50
90.0000000000002
100
AcDbRotatedDimension
  0
DIMENSION
  5
111
330
1F
100
AcDbEntity
  8
치수문자_일반주서
100
AcDbDimension
  2
_D_3
 10
21.53108891324552
 20
12.08537945136506
 30
0.0
 11
15.53108891324552
 21
12.08537945136506
 31
0.0
 70
   160
  1
<>
 71
     2
 42
12.0
  3
SLDDIMSTYLE2
100
AcDbAlignedDimension
 13
9.531088913245519
 23
1.239461148777411
 33
0.0
 14
21.53108891324552
 24
1.250000000000003
 34
0.0
100
AcDbRotatedDimension
  0
INSERT
  5
123
330
1F
100
AcDbEntity
  8
해칭선
100
AcDbBlockReference
  2
SW_DOWELSYMBOL_0
 10
-0.0078563101058703
 20
-0.0000000000000041
 30
0.0
  0
LINE
  5
153
330
1F
100
AcDbEntity
  8
0
  6
Continuous
 62
     4
370
    25
100
AcDbLine
 10
9.531088913245519
 20
1.239461148777453
 30
0.0
 11
9.531088913245515
 21
-1.239461148777451
 31
0.0
  0
ENDSEC
  0
SECTION
  2
OBJECTS
  0
DICTIONARY
  5
C
330
0
100
AcDbDictionary
281
     1
  3
ACAD_GROUP
350
D
  3
ACAD_IMAGE_VARS
350
147
  3
ACAD_LAYOUT
350
1A
  3
ACAD_MLINESTYLE
350
17
  3
ACAD_PLOTSETTINGS
350
19
  3
ACAD_PLOTSTYLENAME
350
E
  3
ACAD_SCALELIST
350
47
  3
APPDATA
350
145
  3
DWGPROPS
350
155
  0
DICTIONARY
  5
D
102
{ACAD_REACTORS
330
C
102
}
330
C
100
AcDbDictionary
281
     1
  0
RASTERVARIABLES
  5
147
102
{ACAD_REACTORS
330
C
102
}
330
C
100
AcDbRasterVariables
 90
        0
 70
     1
 71
     1
 72
     1
  0
DICTIONARY
  5
1A
102
{ACAD_REACTORS
330
C
102
}
330
C
100
AcDbDictionary
281
     1
  3
Layout1
350
1E
  3
Layout2
350
26
  3
Model
350
22
  0
DICTIONARY
  5
17
102
{ACAD_REACTORS
330
C
102
}
330
C
100
AcDbDictionary
281
     1
  3
Standard
350
18
  0
DICTIONARY
  5
19
102
{ACAD_REACTORS
330
C
102
}
330
C
100
AcDbDictionary
281
     1
  0
ACDBDICTIONARYWDFLT
  5
E
102
{ACAD_REACTORS
330
C
102
}
330
C
100
AcDbDictionary
281
     1
  3
Normal
350
F
100
AcDbDictionaryWithDefault
340
F
  0
DICTIONARY
  5
47
102
{ACAD_REACTORS
330
C
102
}
330
C
100
AcDbDictionary
281
     1
  3
A0
350
48
  3
A1
350
49
  3
A2
350
4A
  3
A3
350
4B
  3
A4
350
4C
  3
A5
350
4D
  3
A6
350
4E
  3
A7
350
4F
  3
A8
350
50
  3
A9
350
51
  3
B0
350
52
  3
B1
350
53
  3
B2
350
54
  3
B3
350
55
  3
B4
350
56
  3
B5
350
57
  3
B6
350
58
  3
B7
350
59
  3
B8
350
5A
  3
B9
350
5B
  3
C0
350
5C
  3
C1
350
5D
  3
C2
350
5E
  3
C3
350
5F
  3
C4
350
60
  3
C5
350
61
  3
C6
350
62
  3
C7
350
63
  3
C8
350
64
  3
C9
350
65
  3
D0
350
66
  3
D1
350
67
  3
D2
350
68
  0
DICTIONARY
  5
145
102
{ACAD_REACTORS
330
C
102
}
330
C
100
AcDbDictionary
281
     1
  0
XRECORD
  5
155
102
{ACAD_REACTORS
330
C
102
}
330
C
100
AcDbXrecord
280
     1
  1
DWGPROPS COOKIE
  2

  3

  4

  6

  7

  8
12014102
  9

300
=
301
=
302
=
303
=
304
=
305
=
306
=
307
=
308
=
309
=
 40
0.0
 41
2458260.113630475
 42
2458266.441099144
  1

 90
        0
  0
LAYOUT
  5
1E
102
{ACAD_REACTORS
330
1A
102
}
330
1A
100
AcDbPlotSettings
  1

  2
none_device
  4

  6

 40
0.0
 41
0.0
 42
0.0
 43
0.0
 44
0.0
 45
0.0
 46
0.0
 47
0.0
 48
0.0
 49
0.0
140
0.0
141
0.0
142
1.0
143
1.0
 70
   688
 72
     1
 73
     0
 74
     5
  7

 75
    16
147
1.0
148
0.0
149
0.0
100
AcDbLayout
  1
Layout1
 70
     1
 71
     1
 10
0.0
 20
0.0
 11
420.0
 21
297.0
 12
0.0
 22
0.0
 32
0.0
 14
1.000000000000000E+20
 24
1.000000000000000E+20
 34
1.000000000000000E+20
 15
-1.000000000000000E+20
 25
-1.000000000000000E+20
 35
-1.000000000000000E+20
146
0.0
 13
0.0
 23
0.0
 33
0.0
 16
1.0
 26
0.0
 36
0.0
 17
0.0
 27
1.0
 37
0.0
 76
     0
330
1B
  0
LAYOUT
  5
26
102
{ACAD_REACTORS
330
1A
102
}
330
1A
100
AcDbPlotSettings
  1

  2
none_device
  4

  6

 40
0.0
 41
0.0
 42
0.0
 43
0.0
 44
0.0
 45
0.0
 46
0.0
 47
0.0
 48
0.0
 49
0.0
140
0.0
141
0.0
142
1.0
143
1.0
 70
   688
 72
     1
 73
     0
 74
     5
  7

 75
    16
147
1.0
148
0.0
149
0.0
100
AcDbLayout
  1
Layout2
 70
     1
 71
     2
 10
0.0
 20
0.0
 11
0.0
 21
0.0
 12
0.0
 22
0.0
 32
0.0
 14
0.0
 24
0.0
 34
0.0
 15
0.0
 25
0.0
 35
0.0
146
0.0
 13
0.0
 23
0.0
 33
0.0
 16
1.0
 26
0.0
 36
0.0
 17
0.0
 27
1.0
 37
0.0
 76
     0
330
23
  0
LAYOUT
  5
22
102
{ACAD_REACTORS
330
1A
102
}
330
1A
100
AcDbPlotSettings
  1

  2
none_device
  4
ANSI_A_(11.00_x_8.50_Inches)
  6

 40
6.35
 41
19.05
 42
6.35000508
 43
19.05000254
 44
279.4
 45
215.9
 46
139.3830886945288
 47
125.3847137330092
 48
0.0
 49
0.0
140
0.0
141
0.0
142
0.1112850254374007
143
1.0
 70
  1696
 72
     0
 73
     0
 74
     0
  7

 75
     0
147
0.0235690232323232
148
0.0
149
0.0
100
AcDbLayout
  1
Model
 70
     1
 71
     0
 10
0.0
 20
0.0
 11
420.0
 21
297.0
 12
0.0
 22
0.0
 32
0.0
 14
-40.70969674771632
 24
-49.97180738881174
 34
0.0
 15
38.81175780638863
 25
24.76413260158165
 35
0.0
146
0.0
 13
0.0
 23
0.0
 33
0.0
 16
1.0
 26
0.0
 36
0.0
 17
0.0
 27
1.0
 37
0.0
 76
     0
330
1F
331
29
  0
MLINESTYLE
  5
18
102
{ACAD_REACTORS
330
17
102
}
330
17
100
AcDbMlineStyle
  2
Standard
 70
     0
  3

 62
   256
 51
90.0
 52
90.0
 71
     2
 49
0.5
 62
   256
  6
BYLAYER
 49
-0.5
 62
   256
  6
BYLAYER
  0
ACDBPLACEHOLDER
  5
F
102
{ACAD_REACTORS
330
E
102
}
330
E
  0
SCALE
  5
48
102
{ACAD_REACTORS
330
47
102
}
330
47
100
AcDbScale
 70
     0
300
1:1
140
1.0
141
1.0
290
     1
  0
SCALE
  5
49
102
{ACAD_REACTORS
330
47
102
}
330
47
100
AcDbScale
 70
     0
300
1:2
140
1.0
141
2.0
290
     0
  0
SCALE
  5
4A
102
{ACAD_REACTORS
330
47
102
}
330
47
100
AcDbScale
 70
     0
300
1:4
140
1.0
141
4.0
290
     0
  0
SCALE
  5
4B
102
{ACAD_REACTORS
330
47
102
}
330
47
100
AcDbScale
 70
     0
300
1:5
140
1.0
141
5.0
290
     0
  0
SCALE
  5
4C
102
{ACAD_REACTORS
330
47
102
}
330
47
100
AcDbScale
 70
     0
300
1:8
140
1.0
141
8.0
290
     0
  0
SCALE
  5
4D
102
{ACAD_REACTORS
330
47
102
}
330
47
100
AcDbScale
 70
     0
300
1:10
140
1.0
141
10.0
290
     0
  0
SCALE
  5
4E
102
{ACAD_REACTORS
330
47
102
}
330
47
100
AcDbScale
 70
     0
300
1:16
140
1.0
141
16.0
290
     0
  0
SCALE
  5
4F
102
{ACAD_REACTORS
330
47
102
}
330
47
100
AcDbScale
 70
     0
300
1:20
140
1.0
141
20.0
290
     0
  0
SCALE
  5
50
102
{ACAD_REACTORS
330
47
102
}
330
47
100
AcDbScale
 70
     0
300
1:30
140
1.0
141
30.0
290
     0
  0
SCALE
  5
51
102
{ACAD_REACTORS
330
47
102
}
330
47
100
AcDbScale
 70
     0
300
1:40
140
1.0
141
40.0
290
     0
  0
SCALE
  5
52
102
{ACAD_REACTORS
330
47
102
}
330
47
100
AcDbScale
 70
     0
300
1:50
140
1.0
141
50.0
290
     0
  0
SCALE
  5
53
102
{ACAD_REACTORS
330
47
102
}
330
47
100
AcDbScale
 70
     0
300
1:100
140
1.0
141
100.0
290
     0
  0
SCALE
  5
54
102
{ACAD_REACTORS
330
47
102
}
330
47
100
AcDbScale
 70
     0
300
2:1
140
2.0
141
1.0
290
     0
  0
SCALE
  5
55
102
{ACAD_REACTORS
330
47
102
}
330
47
100
AcDbScale
 70
     0
300
4:1
140
4.0
141
1.0
290
     0
  0
SCALE
  5
56
102
{ACAD_REACTORS
330
47
102
}
330
47
100
AcDbScale
 70
     0
300
8:1
140
8.0
141
1.0
290
     0
  0
SCALE
  5
57
102
{ACAD_REACTORS
330
47
102
}
330
47
100
AcDbScale
 70
     0
300
10:1
140
10.0
141
1.0
290
     0
  0
SCALE
  5
58
102
{ACAD_REACTORS
330
47
102
}
330
47
100
AcDbScale
 70
     0
300
100:1
140
100.0
141
1.0
290
     0
  0
SCALE
  5
59
102
{ACAD_REACTORS
330
47
102
}
330
47
100
AcDbScale
 70
     0
300
1/128" = 1'-0"
140
0.0078125
141
12.0
290
     0
  0
SCALE
  5
5A
102
{ACAD_REACTORS
330
47
102
}
330
47
100
AcDbScale
 70
     0
300
1/64" = 1'-0"
140
0.015625
141
12.0
290
     0
  0
SCALE
  5
5B
102
{ACAD_REACTORS
330
47
102
}
330
47
100
AcDbScale
 70
     0
300
1/32" = 1'-0"
140
0.03125
141
12.0
290
     0
  0
SCALE
  5
5C
102
{ACAD_REACTORS
330
47
102
}
330
47
100
AcDbScale
 70
     0
300
1/16" = 1'-0"
140
0.0625
141
12.0
290
     0
  0
SCALE
  5
5D
102
{ACAD_REACTORS
330
47
102
}
330
47
100
AcDbScale
 70
     0
300
3/32" = 1'-0"
140
0.09375
141
12.0
290
     0
  0
SCALE
  5
5E
102
{ACAD_REACTORS
330
47
102
}
330
47
100
AcDbScale
 70
     0
300
1/8" = 1'-0"
140
0.125
141
12.0
290
     0
  0
SCALE
  5
5F
102
{ACAD_REACTORS
330
47
102
}
330
47
100
AcDbScale
 70
     0
300
3/16" = 1'-0"
140
0.1875
141
12.0
290
     0
  0
SCALE
  5
60
102
{ACAD_REACTORS
330
47
102
}
330
47
100
AcDbScale
 70
     0
300
1/4" = 1'-0"
140
0.25
141
12.0
290
     0
  0
SCALE
  5
61
102
{ACAD_REACTORS
330
47
102
}
330
47
100
AcDbScale
 70
     0
300
3/8" = 1'-0"
140
0.375
141
12.0
290
     0
  0
SCALE
  5
62
102
{ACAD_REACTORS
330
47
102
}
330
47
100
AcDbScale
 70
     0
300
1/2" = 1'-0"
140
0.5
141
12.0
290
     0
  0
SCALE
  5
63
102
{ACAD_REACTORS
330
47
102
}
330
47
100
AcDbScale
 70
     0
300
3/4" = 1'-0"
140
0.75
141
12.0
290
     0
  0
SCALE
  5
64
102
{ACAD_REACTORS
330
47
102
}
330
47
100
AcDbScale
 70
     0
300
1" = 1'-0"
140
1.0
141
12.0
290
     0
  0
SCALE
  5
65
102
{ACAD_REACTORS
330
47
102
}
330
47
100
AcDbScale
 70
     0
300
1-1/2" = 1'-0"
140
1.5
141
12.0
290
     0
  0
SCALE
  5
66
102
{ACAD_REACTORS
330
47
102
}
330
47
100
AcDbScale
 70
     0
300
3" = 1'-0"
140
3.0
141
12.0
290
     0
  0
SCALE
  5
67
102
{ACAD_REACTORS
330
47
102
}
330
47
100
AcDbScale
 70
     0
300
6" = 1'-0"
140
6.0
141
12.0
290
     0
  0
SCALE
  5
68
102
{ACAD_REACTORS
330
47
102
}
330
47
100
AcDbScale
 70
     0
300
1'-0" = 1'-0"
140
12.0
141
12.0
290
     0
  0
ENDSEC
  0
EOF
