  0
SECTION
  2
HEADER
  9
$ACADVER
  1
AC1015
  9
$ACADMAINTVER
 70
     6
  9
$DWGCODEPAGE
  3
ANSI_949
  9
$INSBASE
 10
0.0
 20
0.0
 30
0.0
  9
$EXTMIN
 10
-43.5290557690604
 20
-49.97180738881174
 30
0.0
  9
$EXTMAX
 10
34.81175780638863
 20
24.83552705841394
 30
0.0
  9
$LIMMIN
 10
0.0
 20
0.0
  9
$LIMMAX
 10
420.0
 20
297.0
  9
$ORTHOMODE
 70
     0
  9
$REGENMODE
 70
     1
  9
$FILLMODE
 70
     1
  9
$QTEXTMODE
 70
     0
  9
$MIRRTEXT
 70
     1
  9
$LTSCALE
 40
1.0
  9
$ATTMODE
 70
     1
  9
$TEXTSIZE
 40
3.5
  9
$TRACEWID
 40
1.0
  9
$TEXTSTYLE
  7
Standard
  9
$CLAYER
  8
0
  9
$CELTYPE
  6
ByLayer
  9
$CECOLOR
 62
   256
  9
$CELTSCALE
 40
1.0
  9
$DISPSILH
 70
     0
  9
$DIMSCALE
 40
1.0
  9
$DIMASZ
 40
3.302
  9
$DIMEXO
 40
1.0
  9
$DIMDLI
 40
3.75
  9
$DIMRND
 40
0.0
  9
$DIMDLE
 40
0.0
  9
$DIMEXE
 40
1.0
  9
$DIMTP
 40
0.0
  9
$DIMTM
 40
0.0
  9
$DIMTXT
 40
3.5
  9
$DIMCEN
 40
2.5
  9
$DIMTSZ
 40
0.0
  9
$DIMTOL
 70
     0
  9
$DIMLIM
 70
     0
  9
$DIMTIH
 70
     1
  9
$DIMTOH
 70
     1
  9
$DIMSE1
 70
     0
  9
$DIMSE2
 70
     0
  9
$DIMTAD
 70
     1
  9
$DIMZIN
 70
     0
  9
$DIMBLK
  1

  9
$DIMASO
 70
     1
  9
$DIMSHO
 70
     1
  9
$DIMPOST
  1

  9
$DIMAPOST
  1

  9
$DIMALT
 70
     0
  9
$DIMALTD
 70
     3
  9
$DIMALTF
 40
0.0393700787401575
  9
$DIMLFAC
 40
1.0
  9
$DIMTOFL
 70
     1
  9
$DIMTVP
 40
0.0
  9
$DIMTIX
 70
     0
  9
$DIMSOXD
 70
     0
  9
$DIMSAH
 70
     0
  9
$DIMBLK1
  1

  9
$DIMBLK2
  1

  9
$DIMSTYLE
  2
ISO-25
  9
$DIMCLRD
 70
     0
  9
$DIMCLRE
 70
     0
  9
$DIMCLRT
 70
     0
  9
$DIMTFAC
 40
1.0
  9
$DIMGAP
 40
1.524
  9
$DIMJUST
 70
     0
  9
$DIMSD1
 70
     0
  9
$DIMSD2
 70
     0
  9
$DIMTOLJ
 70
     0
  9
$DIMTZIN
 70
     0
  9
$DIMALTZ
 70
     0
  9
$DIMALTTZ
 70
     0
  9
$DIMUPT
 70
     0
  9
$DIMDEC
 70
     2
  9
$DIMTDEC
 70
     2
  9
$DIMALTU
 70
     2
  9
$DIMALTTD
 70
     3
  9
$DIMTXSTY
  7
Standard
  9
$DIMAUNIT
 70
     0
  9
$DIMADEC
 70
     2
  9
$DIMALTRND
 40
0.0
  9
$DIMAZIN
 70
     0
  9
$DIMDSEP
 70
    44
  9
$DIMATFIT
 70
     3
  9
$DIMFRAC
 70
     0
  9
$DIMLDRBLK
  1

  9
$DIMLUNIT
 70
     2
  9
$DIMLWD
 70
    -2
  9
$DIMLWE
 70
    -2
  9
$DIMTMOVE
 70
     0
  9
$LUNITS
 70
     2
  9
$LUPREC
 70
     2
  9
$SKETCHINC
 40
1.0
  9
$FILLETRAD
 40
10.0
  9
$AUNITS
 70
     0
  9
$AUPREC
 70
     2
  9
$MENU
  1
.
  9
$ELEVATION
 40
0.0
  9
$PELEVATION
 40
0.0
  9
$THICKNESS
 40
0.0
  9
$LIMCHECK
 70
     0
  9
$CHAMFERA
 40
0.0
  9
$CHAMFERB
 40
0.0
  9
$CHAMFERC
 40
0.0
  9
$CHAMFERD
 40
0.0
  9
$SKPOLY
 70
     0
  9
$TDCREATE
 40
2458260.485983704
  9
$TDUCREATE
 40
2458260.110983704
  9
$TDUPDATE
 40
2458266.809377477
  9
$TDUUPDATE
 40
2458266.434377477
  9
$TDINDWG
 40
0.002324213
  9
$TDUSRTIMER
 40
2458266.432053299
  9
$USRTIMER
 70
     1
  9
$ANGBASE
 50
0.0
  9
$ANGDIR
 70
     0
  9
$PDMODE
 70
     0
  9
$PDSIZE
 40
-1.0
  9
$PLINEWID
 40
0.0
  9
$SPLFRAME
 70
     0
  9
$SPLINETYPE
 70
     6
  9
$SPLINESEGS
 70
     8
  9
$HANDSEED
  5
157
  9
$SURFTAB1
 70
     6
  9
$SURFTAB2
 70
     6
  9
$SURFTYPE
 70
     6
  9
$SURFU
 70
     6
  9
$SURFV
 70
     6
  9
$UCSBASE
  2

  9
$UCSNAME
  2

  9
$UCSORG
 10
0.0
 20
0.0
 30
0.0
  9
$UCSXDIR
 10
1.0
 20
0.0
 30
0.0
  9
$UCSYDIR
 10
0.0
 20
1.0
 30
0.0
  9
$UCSORTHOREF
  2

  9
$UCSORTHOVIEW
 70
     0
  9
$UCSORGTOP
 10
0.0
 20
0.0
 30
0.0
  9
$UCSORGBOTTOM
 10
0.0
 20
0.0
 30
0.0
  9
$UCSORGLEFT
 10
0.0
 20
0.0
 30
0.0
  9
$UCSORGRIGHT
 10
0.0
 20
0.0
 30
0.0
  9
$UCSORGFRONT
 10
0.0
 20
0.0
 30
0.0
  9
$UCSORGBACK
 10
0.0
 20
0.0
 30
0.0
  9
$PUCSBASE
  2

  9
$PUCSNAME
  2

  9
$PUCSORG
 10
0.0
 20
0.0
 30
0.0
  9
$PUCSXDIR
 10
1.0
 20
0.0
 30
0.0
  9
$PUCSYDIR
 10
0.0
 20
1.0
 30
0.0
  9
$PUCSORTHOREF
  2

  9
$PUCSORTHOVIEW
 70
     0
  9
$PUCSORGTOP
 10
0.0
 20
0.0
 30
0.0
  9
$PUCSORGBOTTOM
 10
0.0
 20
0.0
 30
0.0
  9
$PUCSORGLEFT
 10
0.0
 20
0.0
 30
0.0
  9
$PUCSORGRIGHT
 10
0.0
 20
0.0
 30
0.0
  9
$PUCSORGFRONT
 10
0.0
 20
0.0
 30
0.0
  9
$PUCSORGBACK
 10
0.0
 20
0.0
 30
0.0
  9
$USERI1
 70
     0
  9
$USERI2
 70
     0
  9
$USERI3
 70
     0
  9
$USERI4
 70
     0
  9
$USERI5
 70
     0
  9
$USERR1
 40
0.0
  9
$USERR2
 40
0.0
  9
$USERR3
 40
0.0
  9
$USERR4
 40
0.0
  9
$USERR5
 40
0.0
  9
$WORLDVIEW
 70
     1
  9
$SHADEDGE
 70
     3
  9
$SHADEDIF
 70
    70
  9
$TILEMODE
 70
     1
  9
$MAXACTVP
 70
    64
  9
$PINSBASE
 10
0.0
 20
0.0
 30
0.0
  9
$PLIMCHECK
 70
     0
  9
$PEXTMIN
 10
1.000000000000000E+20
 20
1.000000000000000E+20
 30
1.000000000000000E+20
  9
$PEXTMAX
 10
-1.000000000000000E+20
 20
-1.000000000000000E+20
 30
-1.000000000000000E+20
  9
$PLIMMIN
 10
0.0
 20
0.0
  9
$PLIMMAX
 10
0.0
 20
0.0
  9
$UNITMODE
 70
     0
  9
$VISRETAIN
 70
     1
  9
$PLINEGEN
 70
     0
  9
$PSLTSCALE
 70
     1
  9
$TREEDEPTH
 70
  3020
  9
$CMLSTYLE
  2
Standard
  9
$CMLJUST
 70
     0
  9
$CMLSCALE
 40
20.0
  9
$PROXYGRAPHICS
 70
     1
  9
$MEASUREMENT
 70
     1
  9
$CELWEIGHT
370
    -1
  9
$ENDCAPS
280
     0
  9
$JOINSTYLE
280
     0
  9
$LWDISPLAY
290
     1
  9
$INSUNITS
 70
     4
  9
$HYPERLINKBASE
  1

  9
$STYLESHEET
  1

  9
$XEDIT
290
     1
  9
$CEPSNTYPE
380
     0
  9
$PSTYLEMODE
290
     1
  9
$FINGERPRINTGUID
  2
{52BA5659-7650-4E51-9AE2-21B842053B57}
  9
$VERSIONGUID
  2
{FAEB1C32-E019-11D5-929B-00C0DF256EC4}
  9
$EXTNAMES
290
     1
  9
$PSVPSCALE
 40
0.0
  9
$OLESTARTUP
290
     0
  0
ENDSEC
  0
SECTION
  2
CLASSES
  0
CLASS
  1
ACDBDICTIONARYWDFLT
  2
AcDbDictionaryWithDefault
  3
ObjectDBX Classes
 90
        0
280
     0
281
     0
  0
CLASS
  1
VISUALSTYLE
  2
AcDbVisualStyle
  3
ObjectDBX Classes
 90
     4095
280
     0
281
     0
  0
CLASS
  1
MATERIAL
  2
AcDbMaterial
  3
ObjectDBX Classes
 90
     1153
280
     0
281
     0
  0
CLASS
  1
SCALE
  2
AcDbScale
  3
ObjectDBX Classes
 90
     1153
280
     0
281
     0
  0
CLASS
  1
TABLESTYLE
  2
AcDbTableStyle
  3
ObjectDBX Classes
 90
     4095
280
     0
281
     0
  0
CLASS
  1
MLEADERSTYLE
  2
AcDbMLeaderStyle
  3
ACDB_MLEADERSTYLE_CLASS
 90
     4095
280
     0
281
     0
  0
CLASS
  1
SUN
  2
AcDbSun
  3
SCENEOE
 90
     1153
280
     0
281
     0
  0
CLASS
  1
ACDBPLACEHOLDER
  2
AcDbPlaceHolder
  3
ObjectDBX Classes
 90
        0
280
     0
281
     0
  0
CLASS
  1
LAYOUT
  2
AcDbLayout
  3
ObjectDBX Classes
 90
        0
280
     0
281
     0
  0
CLASS
  1
RASTERVARIABLES
  2
AcDbRasterVariables
  3
ISM
 90
        0
280
     0
281
     0
  0
ENDSEC
  0
SECTION
  2
TABLES
  0
TABLE
  2
VPORT
  5
8
330
0
100
AcDbSymbolTable
 70
     1
  0
VPORT
  5
29
330
8
100
AcDbSymbolTableRecord
100
AcDbViewportTableRecord
  2
*Active
 70
     0
 10
0.0
 20
0.0
 11
1.0
 21
1.0
 12
-4.35864898133589
 22
-12.5681401651989
 13
0.0
 23
0.0
 14
10.0
 24
10.0
 15
10.0
 25
10.0
 16
0.0
 26
0.0
 36
1.0
 17
0.0
 27
0.0
 37
0.0
 40
76.3034811361702
 41
1.74031007751938
 42
50.0
 43
0.0
 44
0.0
 50
0.0
 51
0.0
 71
    16
 72
  2000
 73
     1
 74
     3
 75
     0
 76
     0
 77
     0
 78
     0
281
     0
 65
     1
110
0.0
120
0.0
130
0.0
111
1.0
121
0.0
131
0.0
112
0.0
122
1.0
132
0.0
 79
     0
146
0.0
  0
ENDTAB
  0
TABLE
  2
LTYPE
  5
5
330
0
100
AcDbSymbolTable
 70
     6
  0
LTYPE
  5
14
330
5
100
AcDbSymbolTableRecord
100
AcDbLinetypeTableRecord
  2
ByBlock
 70
     0
  3

 72
    65
 73
     0
 40
0.0
  0
LTYPE
  5
15
330
5
100
AcDbSymbolTableRecord
100
AcDbLinetypeTableRecord
  2
ByLayer
 70
     0
  3

 72
    65
 73
     0
 40
0.0
  0
LTYPE
  5
16
330
5
100
AcDbSymbolTableRecord
100
AcDbLinetypeTableRecord
  2
Continuous
 70
     0
  3
Solid line
 72
    65
 73
     0
 40
0.0
  0
LTYPE
  5
6E
330
5
100
AcDbSymbolTableRecord
100
AcDbLinetypeTableRecord
  2
HIDDEN
 70
     0
  3
Hidden __ __ __ __ __ __ __ __ __ __ __ __ __ __
 72
    65
 73
     2
 40
1.905
 49
1.27
 74
     0
 49
-0.635
 74
     0
  0
LTYPE
  5
6F
330
5
100
AcDbSymbolTableRecord
100
AcDbLinetypeTableRecord
  2
PHANTOM
 70
     0
  3
Phantom ______  __  __  ______  __  __  ______
 72
    65
 73
     6
 40
12.7
 49
6.35
 74
     0
 49
-1.27
 74
     0
 49
1.27
 74
     0
 49
-1.27
 74
     0
 49
1.27
 74
     0
 49
-1.27
 74
     0
  0
LTYPE
  5
70
330
5
100
AcDbSymbolTableRecord
100
AcDbLinetypeTableRecord
  2
CENTER
 70
     0
  3
Center ____ _ ____ _ ____ _ ____ _ ____ _ ____
 72
    65
 73
     4
 40
10.16
 49
6.35
 74
     0
 49
-1.27
 74
     0
 49
1.27
 74
     0
 49
-1.27
 74
     0
  0
LTYPE
  5
71
330
5
100
AcDbSymbolTableRecord
100
AcDbLinetypeTableRecord
  2
CENTERX2
 70
     0
  3
Center (2x) ________  __  ________  __  _____
 72
    65
 73
     4
 40
20.32
 49
12.7
 74
     0
 49
-2.54
 74
     0
 49
2.54
 74
     0
 49
-2.54
 74
     0
  0
LTYPE
  5
72
330
5
100
AcDbSymbolTableRecord
100
AcDbLinetypeTableRecord
  2
DOT2
 70
     0
  3
Dot (.5x) ........................................
 72
    65
 73
     2
 40
0.635
 49
0.0
 74
     0
 49
-0.635
 74
     0
  0
ENDTAB
  0
TABLE
  2
LAYER
  5
2
330
0
100
AcDbSymbolTable
 70
    17
  0
LAYER
  5
10
330
2
100
AcDbSymbolTableRecord
100
AcDbLayerTableRecord
  2
0
 70
     0
 62
     7
  6
Continuous
370
    -3
390
F
  0
LAYER
  5
73
330
2
100
AcDbSymbolTableRecord
100
AcDbLayerTableRecord
  2
FORMAT
 70
     0
 62
     2
  6
Continuous
370
    -3
390
F
  0
LAYER
  5
74
330
2
100
AcDbSymbolTableRecord
100
AcDbLayerTableRecord
  2
외형선
 70
     0
 62
   100
  6
Continuous
370
    35
390
F
  0
LAYER
  5
75
330
2
100
AcDbSymbolTableRecord
100
AcDbLayerTableRecord
  2
숨은선
 70
     0
 62
     2
  6
HIDDEN
370
    25
390
F
  0
LAYER
  5
76
330
2
100
AcDbSymbolTableRecord
100
AcDbLayerTableRecord
  2
중심선
 70
     0
 62
     1
  6
CENTERX2
370
    -3
390
F
  0
LAYER
  5
77
330
2
100
AcDbSymbolTableRecord
100
AcDbLayerTableRecord
  2
파단선
 70
     0
 62
     4
  6
Continuous
370
    -3
390
F
  0
LAYER
  5
78
330
2
100
AcDbSymbolTableRecord
100
AcDbLayerTableRecord
  2
해칭선
 70
     0
 62
   100
  6
Continuous
370
    -3
390
F
  0
LAYER
  5
79
330
2
100
AcDbSymbolTableRecord
100
AcDbLayerTableRecord
  2
가는실선
 70
     0
 62
     4
  6
Continuous
370
    -3
390
F
  0
LAYER
  5
7A
330
2
100
AcDbSymbolTableRecord
100
AcDbLayerTableRecord
  2
치수_보조선
 70
     0
 62
     4
  6
Continuous
370
    -3
390
F
  0
LAYER
  5
7B
330
2
100
AcDbSymbolTableRecord
100
AcDbLayerTableRecord
  2
치수문자_일반주서
 70
     0
 62
     7
  6
Continuous
370
    25
390
F
  0
LAYER
  5
7C
330
2
100
AcDbSymbolTableRecord
100
AcDbLayerTableRecord
  2
개별주서
 70
     0
 62
   100
  6
Continuous
370
    35
390
F
  0
LAYER
  5
7D
330
2
100
AcDbSymbolTableRecord
100
AcDbLayerTableRecord
  2
중간선
 70
     0
 62
     2
  6
Continuous
370
    25
390
F
  0
LAYER
  5
7E
330
2
100
AcDbSymbolTableRecord
100
AcDbLayerTableRecord
  2
윤곽선
 70
     0
 62
     3
  6
Continuous
370
    50
390
F
  0
LAYER
  5
7F
330
2
100
AcDbSymbolTableRecord
100
AcDbLayerTableRecord
  2
중심마크
 70
     0
 62
   100
  6
Continuous
370
    35
390
F
  0
LAYER
  5
80
330
2
100
AcDbSymbolTableRecord
100
AcDbLayerTableRecord
  2
가상선
 70
     0
 62
     4
  6
PHANTOM
370
    -3
390
F
  0
LAYER
  5
81
330
2
100
AcDbSymbolTableRecord
100
AcDbLayerTableRecord
  2
특수지정선
 70
     0
 62
     5
  6
CENTERX2
370
    70
390
F
  0
LAYER
  5
147
330
2
100
AcDbSymbolTableRecord
100
AcDbLayerTableRecord
  2
Defpoints
 70
     0
 62
     7
  6
Continuous
290
     0
370
    -3
390
F
  0
ENDTAB
  0
TABLE
  2
STYLE
  5
3
330
0
100
AcDbSymbolTable
 70
     2
  0
STYLE
  5
11
330
3
100
AcDbSymbolTableRecord
100
AcDbTextStyleTableRecord
  2
Standard
 70
     0
 40
0.0
 41
1.0
 50
0.0
 71
     0
 42
3.5
  3
txt
  4

  0
STYLE
  5
97
330
3
100
AcDbSymbolTableRecord
100
AcDbTextStyleTableRecord
  2
SLDTEXTSTYLE0
 70
     0
 40
0.0
 41
0.75
 50
0.0
 71
     0
 42
3.5
  3
TXT
  4

  0
ENDTAB
  0
TABLE
  2
VIEW
  5
6
330
0
100
AcDbSymbolTable
 70
     0
  0
ENDTAB
  0
TABLE
  2
UCS
  5
7
330
0
100
AcDbSymbolTable
 70
     0
  0
ENDTAB
  0
TABLE
  2
APPID
  5
9
330
0
100
AcDbSymbolTable
 70
     1
  0
APPID
  5
12
330
9
100
AcDbSymbolTableRecord
100
AcDbRegAppTableRecord
  2
ACAD
 70
     0
  0
ENDTAB
  0
TABLE
  2
DIMSTYLE
  5
A
330
0
100
AcDbSymbolTable
 70
     4
100
AcDbDimStyleTable
  0
DIMSTYLE
105
27
330
A
100
AcDbSymbolTableRecord
100
AcDbDimStyleTableRecord
  2
ISO-25
 70
     0
 41
2.5
 42
0.625
 43
3.75
 44
1.25
 73
     0
 74
     0
 77
     1
 78
     8
140
2.5
141
2.5
143
0.03937007874016
147
0.625
171
     3
172
     1
178
     0
271
     2
272
     2
274
     3
278
    44
283
     0
284
     8
340
11
  0
DIMSTYLE
105
EA
102
{ACAD_REACTORS
330
E9
102
}
330
A
100
AcDbSymbolTableRecord
100
AcDbDimStyleTableRecord
  2
SLDDIMSTYLE0
 70
     0
 41
3.302
 44
0.0
 45
0.000000001
 73
     0
 74
     0
 77
     1
 78
    12
 79
     3
140
3.5
147
0.875
172
     1
173
     1
178
     0
271
     1
272
     1
276
     2
284
    12
289
     0
340
97
  0
DIMSTYLE
105
F8
102
{ACAD_REACTORS
330
F7
102
}
330
A
100
AcDbSymbolTableRecord
100
AcDbDimStyleTableRecord
  2
SLDDIMSTYLE1
 70
     0
 41
3.302
 44
0.0
 45
0.000000001
 73
     0
 74
     0
 77
     1
 78
    12
 79
     3
140
3.5
147
0.875
173
     1
178
     0
271
     2
272
     2
276
     2
284
    12
340
97
  0
DIMSTYLE
105
103
102
{ACAD_REACTORS
330
102
330
110
102
}
330
A
100
AcDbSymbolTableRecord
100
AcDbDimStyleTableRecord
  2
SLDDIMSTYLE2
 70
     0
 41
3.302
 44
0.0
 45
0.000000001
 73
     0
 74
     0
 77
     1
 78
    12
 79
     3
140
3.5
147
0.875
172
     1
173
     1
178
     0
271
     2
272
     2
276
     2
284
    12
289
     0
340
97
  0
ENDTAB
  0
TABLE
  2
BLOCK_RECORD
  5
1
330
0
100
AcDbSymbolTable
 70
     7
  0
BLOCK_RECORD
  5
1F
330
1
100
AcDbSymbolTableRecord
100
AcDbBlockTableRecord
  2
*Model_Space
340
22
  0
BLOCK_RECORD
  5
1B
330
1
100
AcDbSymbolTableRecord
100
AcDbBlockTableRecord
  2
*Paper_Space
340
1E
  0
BLOCK_RECORD
  5
23
330
1
100
AcDbSymbolTableRecord
100
AcDbBlockTableRecord
  2
*Paper_Space0
340
26
  0
BLOCK_RECORD
  5
82
330
1
100
AcDbSymbolTableRecord
100
AcDbBlockTableRecord
  2
블럭10
340
0
102
{BLKREFS
331
E2
102
}
  0
BLOCK_RECORD
  5
EB
330
1
100
AcDbSymbolTableRecord
100
AcDbBlockTableRecord
  2
_D
340
0
  0
BLOCK_RECORD
  5
F9
330
1
100
AcDbSymbolTableRecord
100
AcDbBlockTableRecord
  2
_D_1
340
0
  0
BLOCK_RECORD
  5
104
330
1
100
AcDbSymbolTableRecord
100
AcDbBlockTableRecord
  2
_D_2
340
0
  0
BLOCK_RECORD
  5
111
330
1
100
AcDbSymbolTableRecord
100
AcDbBlockTableRecord
  2
_D_3
340
0
  0
BLOCK_RECORD
  5
11C
330
1
100
AcDbSymbolTableRecord
100
AcDbBlockTableRecord
  2
SW_DOWELSYMBOL_0
340
0
102
{BLKREFS
331
122
102
}
  0
ENDTAB
  0
ENDSEC
  0
SECTION
  2
BLOCKS
  0
BLOCK
  5
20
330
1F
100
AcDbEntity
  8
0
100
AcDbBlockBegin
  2
*Model_Space
 70
     0
 10
0.0
 20
0.0
 30
0.0
  3
*Model_Space
  1

  0
ENDBLK
  5
21
330
1F
100
AcDbEntity
  8
0
100
AcDbBlockEnd
  0
BLOCK
  5
1C
330
1B
100
AcDbEntity
 67
     1
  8
0
100
AcDbBlockBegin
  2
*Paper_Space
 70
     0
 10
0.0
 20
0.0
 30
0.0
  3
*Paper_Space
  1

  0
ENDBLK
  5
1D
330
1B
100
AcDbEntity
 67
     1
  8
0
100
AcDbBlockEnd
  0
BLOCK
  5
24
330
23
100
AcDbEntity
  8
0
100
AcDbBlockBegin
  2
*Paper_Space0
 70
     0
 10
0.0
 20
0.0
 30
0.0
  3
*Paper_Space0
  1

  0
ENDBLK
  5
25
330
23
100
AcDbEntity
  8
0
100
AcDbBlockEnd
  0
BLOCK
  5
83
330
82
100
AcDbEntity
  8
0
100
AcDbBlockBegin
  2
블럭10
 70
     2
 10
0.0
 20
0.0
 30
0.0
  3
블럭10
  1

  0
ELLIPSE
  5
85
330
82
100
AcDbEntity
  8
중심선
100
AcDbEllipse
 10
20.54032771741204
 20
12.0471743016438
 30
0.0
 11
6.600054785286829
 21
-1.261213355974178E-13
 31
0.0
210
0.0
220
0.0
230
1.0
 40
0.636358354079598
 41
0.9219305317359503
 42
6.513795318482858
  0
ELLIPSE
  5
86
330
82
100
AcDbEntity
  8
중심선
100
AcDbEllipse
 10
20.54032771746488
 20
12.04717430159265
 30
0.0
 11
3.960054785062283
 21
1.540847449632565E-10
 31
0.0
210
0.0
220
0.0
230
1.0
 40
0.3939339440162632
 41
1.131841032648279
 42
5.62031148352944
  0
LINE
  5
87
330
82
100
AcDbEntity
  8
중심선
100
AcDbLine
 10
2.268634060543552
 20
16.24717430164393
 30
0.0
 11
5.714909304380834
 21
16.24717430164393
 31
0.0
  0
LINE
  5
88
330
82
100
AcDbEntity
  8
중심선
100
AcDbLine
 10
5.245725140726316
 20
7.84717430164391
 30
0.0
 11
8.692000384563599
 21
7.84717430164391
 31
0.0
  0
LINE
  5
89
330
82
100
AcDbEntity
  8
중심선
100
AcDbLine
 10
15.74043728645272
 20
16.24717430164393
 30
0.0
 11
8.692000384563599
 21
7.84717430164391
 31
0.0
  0
LINE
  5
8A
330
82
100
AcDbEntity
  8
중심선
100
AcDbLine
 10
0.1404042013395286
 20
13.71084872107135
 30
0.0
 11
3.58671253028996
 21
13.71088815037384
 31
0.0
  0
LINE
  5
8B
330
82
100
AcDbEntity
  8
중심선
100
AcDbLine
 10
2.750260043222114
 20
10.84717430164391
 30
0.0
 11
6.196535287059397
 21
10.84717430164391
 31
0.0
  0
LINE
  5
8C
330
82
100
AcDbEntity
  8
중심선
100
AcDbLine
 10
12.29416204261559
 20
16.24717430164393
 30
0.0
 11
5.245725140726316
 21
7.84717430164391
 31
0.0
  0
LINE
  5
8D
330
82
100
AcDbEntity
  8
중심선
100
AcDbLine
 10
10.72767329541681
 20
16.24717430164393
 30
0.0
 11
6.196535287059397
 21
10.84717430164391
 31
0.0
  0
LINE
  5
8E
330
82
100
AcDbEntity
  8
중심선
100
AcDbLine
 10
7.28139805157953
 20
16.24717430164393
 30
0.0
 11
2.750260043222114
 21
10.84717430164391
 31
0.0
  0
LINE
  5
8F
330
82
100
AcDbEntity
  8
중심선
100
AcDbLine
 10
5.714909304380834
 20
16.24717430164393
 30
0.0
 11
3.58671253028996
 21
13.71088815037384
 31
0.0
  0
LINE
  5
90
330
82
100
AcDbEntity
  8
중심선
100
AcDbLine
 10
2.268634060543552
 20
16.24717430164393
 30
0.0
 11
0.1404042013395286
 21
13.71084872107135
 31
0.0
  0
LINE
  5
91
330
82
100
AcDbEntity
  8
중심선
100
AcDbLine
 10
7.28139805157953
 20
16.24717430164393
 30
0.0
 11
10.72767329541681
 21
16.24717430164393
 31
0.0
  0
LINE
  5
92
330
82
100
AcDbEntity
  8
중심선
100
AcDbLine
 10
12.29416204261559
 20
16.24717430164393
 30
0.0
 11
15.74043728645272
 21
16.24717430164393
 31
0.0
  0
LINE
  5
93
330
82
100
AcDbEntity
  8
중심선
100
AcDbLine
 10
19.22036997980202
 20
11.08717430171403
 30
0.0
 11
23.66174974927406
 21
11.08717430171406
 31
0.0
  0
LINE
  5
94
330
82
100
AcDbEntity
  8
중심선
100
AcDbLine
 10
19.22039502424796
 20
13.00717430171391
 30
0.0
 11
19.22036997980202
 21
11.08717430171403
 31
0.0
  0
LINE
  5
95
330
82
100
AcDbEntity
  8
중심선
100
AcDbLine
 10
19.22039502424796
 20
13.00717430171391
 30
0.0
 11
26.96566020931264
 21
13.00717430171391
 31
0.0
  0
LINE
  5
96
330
82
100
AcDbEntity
  8
중심선
100
AcDbLine
 10
22.22332737316547
 20
13.45928029700563
 30
0.0
 11
24.52862924686651
 21
15.39360700705356
 31
0.0
  0
ATTDEF
  5
98
330
82
100
AcDbEntity
  8
FORMAT
 62
     2
100
AcDbText
 10
-16.11926103943555
 20
2.075366912832191
 30
0.0
 40
4.233333333333333
  1
SEME7102008E [ 4 FLUTE ]
 41
0.75
  7
SLDTEXTSTYLE0
 11
-16.11926103943555
 21
-0.0412997538344756
 31
0.0
100
AcDbAttributeDefinition
  3

  2
AUTOATTR0
 70
     0
 74
     1
  0
ENDBLK
  5
84
330
82
100
AcDbEntity
  8
0
100
AcDbBlockEnd
  0
BLOCK
  5
EC
330
EB
100
AcDbEntity
  8
0
100
AcDbBlockBegin
  2
_D
 70
     0
 10
0.0
 20
0.0
 30
0.0
  3
_D
  1

  0
LINE
  5
EE
330
EB
100
AcDbEntity
  8
치수문자_일반주서
 62
     0
370
    -2
100
AcDbLine
 10
18.52660161513775
 20
-1.000000000000004
 30
0.0
 11
28.31526508965113
 21
-0.9999999999999662
 31
0.0
  0
LINE
  5
EF
330
EB
100
AcDbEntity
  8
치수문자_일반주서
 62
     0
370
    -2
100
AcDbLine
 10
18.52660161513775
 20
1.000000000000007
 30
0.0
 11
28.31526508965112
 21
1.000000000000044
 31
0.0
  0
LINE
  5
F0
330
EB
100
AcDbEntity
  8
치수문자_일반주서
 62
     0
370
    -2
100
AcDbLine
 10
28.31526508965113
 20
-0.9999999999999662
 30
0.0
 11
28.31526508965107
 21
13.72900000000004
 31
0.0
  0
LINE
  5
F1
330
EB
100
AcDbEntity
  8
치수문자_일반주서
 62
     0
370
    -2
100
AcDbLine
 10
28.31526508965113
 20
-0.9999999999999662
 30
0.0
 11
28.31526508965112
 21
1.000000000000044
 31
0.0
  0
LINE
  5
F2
330
EB
100
AcDbEntity
  8
치수문자_일반주서
 62
     0
370
    -2
100
AcDbLine
 10
28.31526508965114
 20
-4.301999999999966
 30
0.0
 11
28.31526508965115
 21
-7.603999999999965
 31
0.0
  0
LINE
  5
F3
330
EB
100
AcDbEntity
  8
치수문자_일반주서
 62
     0
370
    -2
100
AcDbLine
 10
28.31526508965111
 20
4.302000000000044
 30
0.0
 11
28.3152650896511
 21
7.604000000000044
 31
0.0
  0
SOLID
  5
F4
330
EB
100
AcDbEntity
  8
치수문자_일반주서
 62
     0
100
AcDbTrace
 10
28.86559842298447
 20
-4.301999999999964
 30
0.0
 11
27.7649317563178
 21
-4.301999999999968
 31
0.0
 12
28.31526508965113
 22
-0.9999999999999662
 32
0.0
 13
28.31526508965113
 23
-0.9999999999999662
 33
0.0
  0
SOLID
  5
F5
330
EB
100
AcDbEntity
  8
치수문자_일반주서
 62
     0
100
AcDbTrace
 10
27.76493175631778
 20
4.302000000000042
 30
0.0
 11
28.86559842298444
 21
4.302000000000046
 31
0.0
 12
28.31526508965112
 22
1.000000000000044
 32
0.0
 13
28.31526508965112
 23
1.000000000000044
 33
0.0
  0
MTEXT
  5
F6
330
EB
100
AcDbEntity
  8
치수문자_일반주서
 62
     0
100
AcDbMText
 10
23.94026508965108
 20
10.66650000000003
 30
0.0
 40
3.5
 41
0.0
 71
     2
 72
     1
  1
\A1;%%c2
  7
SLDTEXTSTYLE0
 11
-3.552713678800482E-15
 21
1.0
 31
0.0
 73
     1
 44
1.0
  0
POINT
  5
14F
330
EB
100
AcDbEntity
  8
Defpoints
 62
     0
100
AcDbPoint
 10
18.46410161513775
 20
-1.000000000000004
 30
0.0
  0
POINT
  5
150
330
EB
100
AcDbEntity
  8
Defpoints
 62
     0
100
AcDbPoint
 10
18.46410161513775
 20
1.000000000000007
 30
0.0
  0
POINT
  5
151
330
EB
100
AcDbEntity
  8
Defpoints
 62
     0
100
AcDbPoint
 10
28.31526508965112
 20
1.000000000000044
 30
0.0
  0
ENDBLK
  5
ED
330
EB
100
AcDbEntity
  8
0
100
AcDbBlockEnd
  0
BLOCK
  5
FA
330
F9
100
AcDbEntity
  8
0
100
AcDbBlockBegin
  2
_D_1
 70
     0
 10
0.0
 20
0.0
 30
0.0
  3
_D_1
  1

  0
LINE
  5
FC
330
F9
100
AcDbEntity
  8
치수문자_일반주서
 62
     0
370
    -2
100
AcDbLine
 10
-31.53589838486226
 20
2.562499999999997
 30
0.0
 11
-31.53589838486226
 21
20.46052705841394
 31
0.0
  0
LINE
  5
FD
330
F9
100
AcDbEntity
  8
치수문자_일반주서
 62
     0
370
    -2
100
AcDbLine
 10
18.46410161513774
 20
1.062500000000003
 30
0.0
 11
18.46410161513774
 21
20.46052705841394
 31
0.0
  0
LINE
  5
FE
330
F9
100
AcDbEntity
  8
치수문자_일반주서
 62
     0
370
    -2
100
AcDbLine
 10
-28.23389838486226
 20
20.46052705841394
 30
0.0
 11
15.16210161513774
 21
20.46052705841394
 31
0.0
  0
SOLID
  5
FF
330
F9
100
AcDbEntity
  8
치수문자_일반주서
 62
     0
100
AcDbTrace
 10
-28.23389838486226
 20
21.01086039174727
 30
0.0
 11
-28.23389838486226
 21
19.9101937250806
 31
0.0
 12
-31.53589838486226
 22
20.46052705841394
 32
0.0
 13
-31.53589838486226
 23
20.46052705841394
 33
0.0
  0
SOLID
  5
100
330
F9
100
AcDbEntity
  8
치수문자_일반주서
 62
     0
100
AcDbTrace
 10
15.16210161513774
 20
19.9101937250806
 30
0.0
 11
15.16210161513774
 21
21.01086039174727
 31
0.0
 12
18.46410161513774
 22
20.46052705841394
 32
0.0
 13
18.46410161513774
 23
20.46052705841394
 33
0.0
  0
MTEXT
  5
101
330
F9
100
AcDbEntity
  8
치수문자_일반주서
 62
     0
100
AcDbMText
 10
-6.709922373390974
 20
24.83552705841394
 30
0.0
 40
3.5
 41
0.0
 71
     2
 72
     1
  1
\A1;50
  7
SLDTEXTSTYLE0
 73
     1
 44
1.0
  0
POINT
  5
148
330
F9
100
AcDbEntity
  8
Defpoints
 62
     0
100
AcDbPoint
 10
-31.53589838486226
 20
2.499999999999997
 30
0.0
  0
POINT
  5
149
330
F9
100
AcDbEntity
  8
Defpoints
 62
     0
100
AcDbPoint
 10
18.46410161513774
 20
1.000000000000003
 30
0.0
  0
POINT
  5
14A
330
F9
100
AcDbEntity
  8
Defpoints
 62
     0
100
AcDbPoint
 10
18.46410161513774
 20
20.46052705841394
 30
0.0
  0
ENDBLK
  5
FB
330
F9
100
AcDbEntity
  8
0
100
AcDbBlockEnd
  0
BLOCK
  5
105
330
104
100
AcDbEntity
  8
0
100
AcDbBlockBegin
  2
_D_2
 70
     0
 10
0.0
 20
0.0
 30
0.0
  3
_D_2
  1

  0
LINE
  5
107
330
104
100
AcDbEntity
  8
치수문자_일반주서
 62
     0
370
    -2
100
AcDbLine
 10
-31.09839838486224
 20
3.000000000000004
 30
0.0
 11
-39.15405576906036
 21
2.999999999999973
 31
0.0
  0
LINE
  5
108
330
104
100
AcDbEntity
  8
치수문자_일반주서
 62
     0
370
    -2
100
AcDbLine
 10
-31.09839838486227
 20
-3.000000000000001
 30
0.0
 11
-39.15405576906034
 21
-3.00000000000003
 31
0.0
  0
LINE
  5
109
330
104
100
AcDbEntity
  8
치수문자_일반주서
 62
     0
370
    -2
100
AcDbLine
 10
-39.15405576906036
 20
2.999999999999973
 30
0.0
 11
-39.15405576906041
 21
15.72899999999997
 31
0.0
  0
LINE
  5
10A
330
104
100
AcDbEntity
  8
치수문자_일반주서
 62
     0
370
    -2
100
AcDbLine
 10
-39.15405576906036
 20
2.999999999999973
 30
0.0
 11
-39.15405576906034
 21
-3.00000000000003
 31
0.0
  0
LINE
  5
10B
330
104
100
AcDbEntity
  8
치수문자_일반주서
 62
     0
370
    -2
100
AcDbLine
 10
-39.15405576906037
 20
6.301999999999973
 30
0.0
 11
-39.15405576906038
 21
9.603999999999973
 31
0.0
  0
LINE
  5
10C
330
104
100
AcDbEntity
  8
치수문자_일반주서
 62
     0
370
    -2
100
AcDbLine
 10
-39.15405576906032
 20
-6.30200000000003
 30
0.0
 11
-39.15405576906031
 21
-9.60400000000003
 31
0.0
  0
SOLID
  5
10D
330
104
100
AcDbEntity
  8
치수문자_일반주서
 62
     0
100
AcDbTrace
 10
-39.70438910239371
 20
6.301999999999971
 30
0.0
 11
-38.60372243572704
 21
6.301999999999975
 31
0.0
 12
-39.15405576906036
 22
2.999999999999973
 32
0.0
 13
-39.15405576906036
 23
2.999999999999973
 33
0.0
  0
SOLID
  5
10E
330
104
100
AcDbEntity
  8
치수문자_일반주서
 62
     0
100
AcDbTrace
 10
-38.60372243572699
 20
-6.302000000000028
 30
0.0
 11
-39.70438910239366
 21
-6.302000000000032
 31
0.0
 12
-39.15405576906034
 22
-3.00000000000003
 32
0.0
 13
-39.15405576906034
 23
-3.00000000000003
 33
0.0
  0
MTEXT
  5
10F
330
104
100
AcDbEntity
  8
치수문자_일반주서
 62
     0
100
AcDbMText
 10
-43.52905576906039
 20
12.66649999999996
 30
0.0
 40
3.5
 41
0.0
 71
     2
 72
     1
  1
\A1;%%c6
  7
SLDTEXTSTYLE0
 11
-3.552713678800498E-15
 21
1.0
 31
0.0
 73
     1
 44
1.0
  0
POINT
  5
14C
330
104
100
AcDbEntity
  8
Defpoints
 62
     0
100
AcDbPoint
 10
-31.03589838486224
 20
3.000000000000004
 30
0.0
  0
POINT
  5
14D
330
104
100
AcDbEntity
  8
Defpoints
 62
     0
100
AcDbPoint
 10
-31.03589838486227
 20
-3.000000000000001
 30
0.0
  0
POINT
  5
14E
330
104
100
AcDbEntity
  8
Defpoints
 62
     0
100
AcDbPoint
 10
-39.15405576906034
 20
-3.000000000000031
 30
0.0
  0
ENDBLK
  5
106
330
104
100
AcDbEntity
  8
0
100
AcDbBlockEnd
  0
BLOCK
  5
112
330
111
100
AcDbEntity
  8
0
100
AcDbBlockBegin
  2
_D_3
 70
     0
 10
0.0
 20
0.0
 30
0.0
  3
_D_3
  1

  0
LINE
  5
114
330
111
100
AcDbEntity
  8
치수문자_일반주서
 62
     0
370
    -2
100
AcDbLine
 10
10.46410161513774
 20
1.062500000000002
 30
0.0
 11
10.46410161513774
 21
11.89931979612154
 31
0.0
  0
LINE
  5
115
330
111
100
AcDbEntity
  8
치수문자_일반주서
 62
     0
370
    -2
100
AcDbLine
 10
18.46410161513774
 20
1.062500000000003
 30
0.0
 11
18.46410161513774
 21
11.89931979612154
 31
0.0
  0
LINE
  5
116
330
111
100
AcDbEntity
  8
치수문자_일반주서
 62
     0
370
    -2
100
AcDbLine
 10
13.76610161513774
 20
11.89931979612154
 30
0.0
 11
15.16210161513774
 21
11.89931979612154
 31
0.0
  0
SOLID
  5
117
330
111
100
AcDbEntity
  8
치수문자_일반주서
 62
     0
100
AcDbTrace
 10
13.76610161513774
 20
12.44965312945487
 30
0.0
 11
13.76610161513774
 21
11.34898646278821
 31
0.0
 12
10.46410161513774
 22
11.89931979612154
 32
0.0
 13
10.46410161513774
 23
11.89931979612154
 33
0.0
  0
SOLID
  5
118
330
111
100
AcDbEntity
  8
치수문자_일반주서
 62
     0
100
AcDbTrace
 10
15.16210161513774
 20
11.34898646278821
 30
0.0
 11
15.16210161513774
 21
12.44965312945487
 31
0.0
 12
18.46410161513774
 22
11.89931979612154
 32
0.0
 13
18.46410161513774
 23
11.89931979612154
 33
0.0
  0
MTEXT
  5
119
330
111
100
AcDbEntity
  8
치수문자_일반주서
 62
     0
100
AcDbMText
 10
14.29007762660903
 20
16.27431979612154
 30
0.0
 40
3.5
 41
0.0
 71
     2
 72
     1
  1
\A1;8
  7
SLDTEXTSTYLE0
 73
     1
 44
1.0
  0
POINT
  5
11A
330
111
100
AcDbEntity
  8
Defpoints
 62
     0
100
AcDbPoint
 10
10.46410161513774
 20
1.000000000000002
 30
0.0
  0
POINT
  5
11B
330
111
100
AcDbEntity
  8
Defpoints
 62
     0
100
AcDbPoint
 10
18.46410161513774
 20
1.000000000000003
 30
0.0
  0
POINT
  5
14B
330
111
100
AcDbEntity
  8
Defpoints
 62
     0
100
AcDbPoint
 10
18.46410161513774
 20
11.89931979612154
 30
0.0
  0
ENDBLK
  5
113
330
111
100
AcDbEntity
  8
0
100
AcDbBlockEnd
  0
BLOCK
  5
11D
330
11C
100
AcDbEntity
  8
0
100
AcDbBlockBegin
  2
SW_DOWELSYMBOL_0
 70
     0
 10
0.0
 20
0.0
 30
0.0
  3
SW_DOWELSYMBOL_0
  1

  0
CIRCLE
  5
11F
330
11C
100
AcDbEntity
  8
해칭선
 62
     0
100
AcDbCircle
 10
0.0
 20
0.0
 30
0.0
 40
3.000000000000001
  0
HATCH
  5
120
330
11C
100
AcDbEntity
  8
0
  6
Continuous
 62
     0
370
    18
100
AcDbHatch
 10
0.0
 20
0.0
 30
0.0
210
0.0
220
0.0
230
1.0
  2
SOLID
 70
     1
 71
     0
 91
        1
 92
        0
 93
        3
 72
     2
 10
0.0
 20
0.0
 40
3.000000000000001
 50
0.0
 51
90.0
 73
     1
 72
     1
 10
0.0
 20
3.000000000000001
 11
0.0
 21
0.0
 72
     1
 10
0.0
 20
0.0
 11
3.000000000000001
 21
0.0
 97
        0
 75
     0
 76
     1
 98
        1
 10
0.0
 20
0.0
  0
HATCH
  5
121
330
11C
100
AcDbEntity
  8
0
  6
Continuous
 62
     0
370
    18
100
AcDbHatch
 10
0.0
 20
0.0
 30
0.0
210
0.0
220
0.0
230
1.0
  2
SOLID
 70
     1
 71
     0
 91
        1
 92
        0
 93
        3
 72
     2
 10
0.0
 20
0.0
 40
3.000000000000001
 50
180.0
 51
270.0000000000008
 73
     1
 72
     1
 10
0.0
 20
-3.000000000000001
 11
0.0
 21
0.0
 72
     1
 10
0.0
 20
0.0
 11
-3.000000000000001
 21
0.0
 97
        0
 75
     0
 76
     1
 98
        1
 10
0.0
 20
0.0
  0
ENDBLK
  5
11E
330
11C
100
AcDbEntity
  8
0
100
AcDbBlockEnd
  0
ENDSEC
  0
SECTION
  2
ENTITIES
  0
LINE
  5
99
330
1F
100
AcDbEntity
  8
0
  6
Continuous
 62
     4
370
    25
100
AcDbLine
 10
2.0
 20
3.0
 30
0.0
 11
-31.03589838486226
 21
2.999999999999998
 31
0.0
  0
LINE
  5
9A
330
1F
100
AcDbEntity
  8
0
  6
Continuous
 62
     4
370
    25
100
AcDbLine
 10
-31.03589838486226
 20
-3.0
 30
0.0
 11
1.999999999999996
 21
-2.999999999999998
 31
0.0
  0
LINE
  5
9B
330
1F
100
AcDbEntity
  8
0
  6
Continuous
 62
     4
370
    25
100
AcDbLine
 10
2.0
 20
-2.999999999999998
 30
0.0
 11
8.964037753836156
 21
-1.133991707799746
 31
0.0
  0
LINE
  5
9C
330
1F
100
AcDbEntity
  8
0
  6
Continuous
 62
     4
370
    25
100
AcDbLine
 10
8.964037753836156
 20
1.13399170779975
 30
0.0
 11
2.0
 21
3.000000000000001
 31
0.0
  0
LINE
  5
9D
330
1F
100
AcDbEntity
  8
0
  6
Continuous
 62
     4
370
    25
100
AcDbLine
 10
-31.03589838486226
 20
2.999999999999996
 30
0.0
 11
-31.53589838486226
 21
2.499999999999997
 31
0.0
  0
LINE
  5
9E
330
1F
100
AcDbEntity
  8
0
  6
Continuous
 62
     4
370
    25
100
AcDbLine
 10
-31.53589838486226
 20
-2.5
 30
0.0
 11
-31.03589838486226
 21
-2.999999999999998
 31
0.0
  0
LINE
  5
9F
330
1F
100
AcDbEntity
  8
0
  6
Continuous
 62
     4
370
    25
100
AcDbLine
 10
10.13638674385043
 20
-0.9999999999999982
 30
0.0
 11
10.46410161513774
 21
-0.9999999999999982
 31
0.0
  0
LINE
  5
A0
330
1F
100
AcDbEntity
  8
0
  6
Continuous
 62
     4
370
    25
100
AcDbLine
 10
10.46410161513774
 20
1.000000000000002
 30
0.0
 11
10.13638674385043
 21
1.000000000000002
 31
0.0
  0
LINE
  5
A1
330
1F
100
AcDbEntity
  8
0
  6
Continuous
 62
     1
370
    25
100
AcDbLine
 10
16.16813597029799
 20
-0.9999999999999991
 30
0.0
 11
16.73913198336745
 21
-0.9999999999999991
 31
0.0
  0
LINE
  5
A2
330
1F
100
AcDbEntity
  8
0
  6
Continuous
 62
     1
370
    25
100
AcDbLine
 10
12.71839219043732
 20
1.000000000000003
 30
0.0
 11
12.14680293972586
 21
1.000000000000003
 31
0.0
  0
LINE
  5
A3
330
1F
100
AcDbEntity
  8
0
  6
Continuous
 62
     1
370
    25
100
AcDbLine
 10
14.4464808226475
 20
-0.2166105189346597
 30
0.0
 11
14.3425069596845
 21
-0.1435685637815917
 31
0.0
  0
LINE
  5
A4
330
1F
100
AcDbEntity
  8
0
  6
Continuous
 62
     1
370
    25
100
AcDbLine
 10
18.31111584576215
 20
-0.103264081219713
 30
0.0
 11
18.29597294593955
 21
-0.0911974624593674
 31
0.0
  0
SPLINE
  5
A5
330
1F
100
AcDbEntity
  8
0
  6
Continuous
 62
     1
370
    25
100
AcDbSpline
210
0.0
220
0.0
230
1.0
 70
     8
 71
     3
 72
     9
 73
     5
 74
     0
 42
0.000000001
 43
0.00000001
 40
0.0
 40
0.0
 40
0.0
 40
0.0
 40
0.549489345731911
 40
1.0
 40
1.0
 40
1.0
 40
1.0
 10
18.46410161513774
 20
-0.222630053571399
 30
0.0
 10
18.43643631463467
 20
-0.2016645538898588
 30
0.0
 10
18.38608902270271
 20
-0.1635100385304857
 30
0.0
 10
18.33440158647468
 20
-0.1219757298141032
 30
0.0
 10
18.31111584576216
 20
-0.103264081219713
 30
0.0
  0
LINE
  5
A6
330
1F
100
AcDbEntity
  8
0
  6
Continuous
 62
     4
370
    25
100
AcDbLine
 10
16.54416176989434
 20
0.1515445282706009
 30
0.0
 11
16.55759464622362
 21
0.1421680592253703
 31
0.0
  0
LINE
  5
A7
330
1F
100
AcDbEntity
  8
0
  6
Continuous
 62
     1
370
    25
100
AcDbLine
 10
14.15652548328893
 20
-0.9999999999999991
 30
0.0
 11
14.72919648813937
 21
-0.9999999999999991
 31
0.0
  0
LINE
  5
A8
330
1F
100
AcDbEntity
  8
0
  6
Continuous
 62
     1
370
    25
100
AcDbLine
 10
10.70819896977512
 20
1.000000000000003
 30
0.0
 11
10.46410161513774
 21
1.000000000000003
 31
0.0
  0
LINE
  5
A9
330
1F
100
AcDbEntity
  8
0
  6
Continuous
 62
     1
370
    25
100
AcDbLine
 10
18.46410161513774
 20
1.000000000000003
 30
0.0
 11
18.17740341859786
 21
1.000000000000003
 31
0.0
  0
LINE
  5
AA
330
1F
100
AcDbEntity
  8
0
  6
Continuous
 62
     1
370
    25
100
AcDbLine
 10
18.17740341859786
 20
-0.9999999999999991
 30
0.0
 11
18.46410161513774
 21
-0.9999999999999991
 31
0.0
  0
LINE
  5
AB
330
1F
100
AcDbEntity
  8
0
  6
Continuous
 62
     1
370
    25
100
AcDbLine
 10
10.46410161513774
 20
-0.9999999999999991
 30
0.0
 11
10.70819896977513
 21
-0.9999999999999991
 31
0.0
  0
LINE
  5
AC
330
1F
100
AcDbEntity
  8
0
  6
Continuous
 62
     1
370
    25
100
AcDbLine
 10
14.72919648813938
 20
1.000000000000003
 30
0.0
 11
14.15652548328894
 21
1.000000000000003
 31
0.0
  0
LINE
  5
AD
330
1F
100
AcDbEntity
  8
0
  6
Continuous
 62
     1
370
    25
100
AcDbLine
 10
12.14680293972588
 20
-0.9999999999999991
 30
0.0
 11
12.71839219043733
 21
-0.9999999999999991
 31
0.0
  0
LINE
  5
AE
330
1F
100
AcDbEntity
  8
0
  6
Continuous
 62
     1
370
    25
100
AcDbLine
 10
16.73913198336745
 20
1.000000000000003
 30
0.0
 11
16.16813597029799
 21
1.000000000000003
 31
0.0
  0
LINE
  5
AF
330
1F
100
AcDbEntity
  8
0
  6
Continuous
 62
     4
370
    25
100
AcDbLine
 10
2.0
 20
3.000000000000002
 30
0.0
 11
2.0
 21
-3.000000000000001
 31
0.0
  0
LINE
  5
B0
330
1F
100
AcDbEntity
  8
0
  6
Continuous
 62
     4
370
    25
100
AcDbLine
 10
-31.03589838486226
 20
2.999999999999996
 30
0.0
 11
-31.03589838486226
 21
-3.0
 31
0.0
  0
LINE
  5
B1
330
1F
100
AcDbEntity
  8
0
  6
Continuous
 62
     4
370
    25
100
AcDbLine
 10
9.41578501190411
 20
0.8558717409600772
 30
0.0
 11
9.464101615137736
 21
0.8655760430618551
 31
0.0
  0
LINE
  5
B2
330
1F
100
AcDbEntity
  8
0
  6
Continuous
 62
     4
370
    25
100
AcDbLine
 10
8.964037753836156
 20
1.13399170779975
 30
0.0
 11
8.964037753836156
 21
1.123792901970915
 31
0.0
  0
SPLINE
  5
B3
330
1F
100
AcDbEntity
  8
0
  6
Continuous
 62
     4
370
    25
100
AcDbSpline
210
0.0
220
0.0
230
1.0
 70
     8
 71
     3
 72
     8
 73
     4
 74
     0
 42
0.000000001
 43
0.00000001
 40
0.0
 40
0.0
 40
0.0
 40
0.0
 40
1.0
 40
1.0
 40
1.0
 40
1.0
 10
9.033245644989288
 20
1.075497532149048
 30
0.0
 10
8.990318924186525
 20
1.096520031067486
 30
0.0
 10
8.964037753836163
 20
1.116008645231367
 30
0.0
 10
8.964037753836145
 20
1.123792901970918
 30
0.0
  0
SPLINE
  5
B4
330
1F
100
AcDbEntity
  8
0
  6
Continuous
 62
     4
370
    25
100
AcDbSpline
210
0.0
220
0.0
230
1.0
 70
     8
 71
     3
 72
     8
 73
     4
 74
     0
 42
0.000000001
 43
0.00000001
 40
0.0
 40
0.0
 40
0.0
 40
0.0
 40
1.0
 40
1.0
 40
1.0
 40
1.0
 10
9.464101615137736
 20
0.8255372484526533
 30
0.0
 10
9.31406130532106
 20
0.9212362191328131
 30
0.0
 10
9.173312320752931
 20
1.006902692275759
 30
0.0
 10
9.033245644989284
 20
1.075497532149039
 30
0.0
  0
LINE
  5
B5
330
1F
100
AcDbEntity
  8
0
  6
Continuous
 62
     4
370
    25
100
AcDbLine
 10
9.464101615137736
 20
0.8255372484526527
 30
0.0
 11
9.464101615137736
 21
0.5007775091568922
 31
0.0
  0
SPLINE
  5
B6
330
1F
100
AcDbEntity
  8
0
  6
Continuous
 62
     4
370
    25
100
AcDbSpline
210
0.0
220
0.0
230
1.0
 70
     8
 71
     3
 72
     8
 73
     4
 74
     0
 42
0.000000001
 43
0.00000001
 40
0.0
 40
0.0
 40
0.0
 40
0.0
 40
1.0
 40
1.0
 40
1.0
 40
1.0
 10
9.291462702387008
 20
0.645275676270985
 30
0.0
 10
9.348318282295953
 20
0.5979242564817049
 30
0.0
 10
9.405844707823155
 20
0.5497209854807357
 30
0.0
 10
9.464101615137736
 20
0.5007775091568941
 30
0.0
  0
SPLINE
  5
B7
330
1F
100
AcDbEntity
  8
0
  6
Continuous
 62
     4
370
    25
100
AcDbSpline
210
0.0
220
0.0
230
1.0
 70
     8
 71
     3
 72
    12
 73
     8
 74
     0
 42
0.000000001
 43
0.00000001
 40
0.0
 40
0.0
 40
0.0
 40
0.0
 40
0.2500000000000002
 40
0.2500000000000002
 40
0.5000000000000001
 40
0.5000000000000001
 40
1.0
 40
1.0
 40
1.0
 40
1.0
 10
8.964037753836156
 20
0.5723685448073299
 30
0.0
 10
8.964037753836156
 20
0.6060013309911367
 30
0.0
 10
8.975532486415084
 20
0.6360664550975409
 30
0.0
 10
9.017232683804188
 20
0.681572338667358
 30
0.0
 10
9.047070110247466
 20
0.6966077814583822
 30
0.0
 10
9.148614695067039
 20
0.7158190514743956
 30
0.0
 10
9.233308279627066
 20
0.6937088201966918
 30
0.0
 10
9.291462702387001
 20
0.6452756762709904
 30
0.0
  0
LINE
  5
B8
330
1F
100
AcDbEntity
  8
0
  6
Continuous
 62
     4
370
    25
100
AcDbLine
 10
8.964037753836156
 20
0.5723685448073299
 30
0.0
 11
8.964037753836156
 21
-0.1517455331743984
 31
0.0
  0
SPLINE
  5
B9
330
1F
100
AcDbEntity
  8
0
  6
Continuous
 62
     4
370
    25
100
AcDbSpline
210
0.0
220
0.0
230
1.0
 70
     8
 71
     3
 72
     8
 73
     4
 74
     0
 42
0.000000001
 43
0.00000001
 40
0.0
 40
0.0
 40
0.0
 40
0.0
 40
1.0
 40
1.0
 40
1.0
 40
1.0
 10
9.033245644989288
 20
-0.2958516591899074
 30
0.0
 10
8.990318924186525
 20
-0.2627960139777453
 30
0.0
 10
8.964037753836163
 20
-0.2093939679455807
 30
0.0
 10
8.964037753836145
 20
-0.1517455331744006
 30
0.0
  0
SPLINE
  5
BA
330
1F
100
AcDbEntity
  8
0
  6
Continuous
 62
     4
370
    25
100
AcDbSpline
210
0.0
220
0.0
230
1.0
 70
     8
 71
     3
 72
     8
 73
     4
 74
     0
 42
0.000000001
 43
0.00000001
 40
0.0
 40
0.0
 40
0.0
 40
0.0
 40
1.0
 40
1.0
 40
1.0
 40
1.0
 10
9.464101615137736
 20
-0.5643476334824368
 30
0.0
 10
9.31406130532106
 20
-0.4955958875981982
 30
0.0
 10
9.173312320752931
 20
-0.4037097544160386
 30
0.0
 10
9.033245644989284
 20
-0.2958516591899037
 30
0.0
  0
LINE
  5
BB
330
1F
100
AcDbEntity
  8
0
  6
Continuous
 62
     4
370
    25
100
AcDbLine
 10
9.464101615137736
 20
-0.564347633482437
 30
0.0
 11
9.464101615137736
 21
-0.8655760430618493
 31
0.0
  0
SPLINE
  5
BC
330
1F
100
AcDbEntity
  8
0
  6
Continuous
 62
     4
370
    25
100
AcDbSpline
210
0.0
220
0.0
230
1.0
 70
     8
 71
     3
 72
     8
 73
     4
 74
     0
 42
0.000000001
 43
0.00000001
 40
0.0
 40
0.0
 40
0.0
 40
0.0
 40
1.0
 40
1.0
 40
1.0
 40
1.0
 10
9.291462702387008
 20
-0.8235751702109557
 30
0.0
 10
9.348318282295953
 20
-0.8413216893893368
 30
0.0
 10
9.405844707823155
 20
-0.8552939875846987
 30
0.0
 10
9.464101615137736
 20
-0.8655760430618515
 30
0.0
  0
SPLINE
  5
BD
330
1F
100
AcDbEntity
  8
0
  6
Continuous
 62
     4
370
    25
100
AcDbSpline
210
0.0
220
0.0
230
1.0
 70
     8
 71
     3
 72
    12
 73
     8
 74
     0
 42
0.000000001
 43
0.00000001
 40
0.0
 40
0.0
 40
0.0
 40
0.0
 40
0.2500000000000001
 40
0.2500000000000001
 40
0.4999999999999999
 40
0.4999999999999999
 40
1.0
 40
1.0
 40
1.0
 40
1.0
 10
8.964037753836156
 20
-0.9789440445059786
 30
0.0
 10
8.964037753836156
 20
-0.9592796428541392
 30
0.0
 10
8.975532486415084
 20
-0.9356340894188078
 30
0.0
 10
9.017232683804188
 20
-0.8889899427934894
 30
0.0
 10
9.047070110247466
 20
-0.8665799813966313
 30
0.0
 10
9.148614695067039
 20
-0.815364270708646
 30
0.0
 10
9.233308279627066
 20
-0.8054232389410624
 30
0.0
 10
9.291462702387001
 20
-0.823575170210954
 30
0.0
  0
LINE
  5
BE
330
1F
100
AcDbEntity
  8
0
  6
Continuous
 62
     4
370
    25
100
AcDbLine
 10
8.964037753836156
 20
-0.9789440445059786
 30
0.0
 11
8.964037753836156
 21
-1.133991707799746
 31
0.0
  0
SPLINE
  5
BF
330
1F
100
AcDbEntity
  8
0
  6
Continuous
 62
     4
370
    25
100
AcDbSpline
210
0.0
220
0.0
230
1.0
 70
     8
 71
     3
 72
     8
 73
     4
 74
     0
 42
0.000000001
 43
0.00000001
 40
0.0
 40
0.0
 40
0.0
 40
0.0
 40
1.0
 40
1.0
 40
1.0
 40
1.0
 10
9.033245644989288
 20
-1.075497532149044
 30
0.0
 10
8.990318924186528
 20
-1.096520031067482
 30
0.0
 10
8.964037753836163
 20
-1.116008645231363
 30
0.0
 10
8.964037753836145
 20
-1.123792901970914
 30
0.0
  0
SPLINE
  5
C0
330
1F
100
AcDbEntity
  8
0
  6
Continuous
 62
     4
370
    25
100
AcDbSpline
210
0.0
220
0.0
230
1.0
 70
     8
 71
     3
 72
    11
 73
     7
 74
     0
 42
0.000000001
 43
0.00000001
 40
0.0
 40
0.0
 40
0.0
 40
0.0
 40
0.1997027360245993
 40
0.524373661819609
 40
0.8544439994046186
 40
1.0
 40
1.0
 40
1.0
 40
1.0
 10
9.41578501190411
 20
-0.8558717409600737
 30
0.0
 10
9.389519477615416
 20
-0.8724665358334428
 30
0.0
 10
9.32055219820411
 20
-0.9160406677062382
 30
0.0
 10
9.211897457003554
 20
-0.9811801174546182
 30
0.0
 10
9.110674650300716
 20
-1.036907922744041
 30
0.0
 10
9.051388878690073
 20
-1.066455180396732
 30
0.0
 10
9.033245644989288
 20
-1.075497532149035
 30
0.0
  0
LINE
  5
C1
330
1F
100
AcDbEntity
  8
0
  6
Continuous
 62
     4
370
    25
100
AcDbLine
 10
-31.53589838486226
 20
2.499999999999997
 30
0.0
 11
-31.53589838486226
 21
-2.5
 31
0.0
  0
SPLINE
  5
C2
330
1F
100
AcDbEntity
  8
0
  6
Continuous
 62
     4
370
    25
100
AcDbSpline
210
0.0
220
0.0
230
1.0
 70
     8
 71
     3
 72
    14
 73
    10
 74
     0
 42
0.000000001
 43
0.00000001
 40
0.0
 40
0.0
 40
0.0
 40
0.0
 40
0.2499999999999999
 40
0.2499999999999999
 40
0.4999999999999998
 40
0.4999999999999998
 40
0.7499999999999999
 40
0.7499999999999999
 40
1.0
 40
1.0
 40
1.0
 40
1.0
 10
10.46410161513773
 20
0.9672403017795609
 30
0.0
 10
10.38201808025342
 20
0.9836835907782846
 30
0.0
 10
10.30006818139537
 20
0.9940503810384426
 30
0.0
 10
10.13182407667877
 20
1.002124308301439
 30
0.0
 10
10.04692647971268
 20
0.9997281373358297
 30
0.0
 10
9.880408965627094
 20
0.9823359273440689
 30
0.0
 10
9.799953803716303
 20
0.9675182184794591
 30
0.0
 10
9.633064031521569
 20
0.9254854642685372
 30
0.0
 10
9.548122096271142
 20
0.8982648673746788
 30
0.0
 10
9.46410161513774
 20
0.8655760430618535
 30
0.0
  0
SPLINE
  5
C3
330
1F
100
AcDbEntity
  8
0
  6
Continuous
 62
     4
370
    25
100
AcDbSpline
210
0.0
220
0.0
230
1.0
 70
     8
 71
     3
 72
    14
 73
    10
 74
     0
 42
0.000000001
 43
0.00000001
 40
0.0
 40
0.0
 40
0.0
 40
0.0
 40
0.25
 40
0.25
 40
0.5
 40
0.5
 40
0.75
 40
0.75
 40
1.0
 40
1.0
 40
1.0
 40
1.0
 10
10.46410161513774
 20
0.1888443270753587
 30
0.0
 10
10.38201808025343
 20
0.2524512866759469
 30
0.0
 10
10.30006818139539
 20
0.314844561020314
 30
0.0
 10
10.13182407667878
 20
0.4358988306307178
 30
0.0
 10
10.04692647971268
 20
0.4941828453612874
 30
0.0
 10
9.880408965627097
 20
0.603005909755026
 30
0.0
 10
9.799953803716306
 20
0.6533671376115304
 30
0.0
 10
9.633064031521572
 20
0.7464018350889983
 30
0.0
 10
9.548122096271142
 20
0.7886988116120578
 30
0.0
 10
9.46410161513774
 20
0.8255372484526521
 30
0.0
  0
SPLINE
  5
C4
330
1F
100
AcDbEntity
  8
0
  6
Continuous
 62
     4
370
    25
100
AcDbSpline
210
0.0
220
0.0
230
1.0
 70
     8
 71
     3
 72
    14
 73
    10
 74
     0
 42
0.000000001
 43
0.00000001
 40
0.0
 40
0.0
 40
0.0
 40
0.0
 40
0.25
 40
0.25
 40
0.5
 40
0.5
 40
0.75
 40
0.75
 40
1.0
 40
1.0
 40
1.0
 40
1.0
 10
10.46410161513773
 20
-0.2538625585102739
 30
0.0
 10
10.38201808025342
 20
-0.1912120758762606
 30
0.0
 10
10.30006818139537
 20
-0.1269970291259848
 30
0.0
 10
10.13182407667877
 20
0.0033579995325198
 30
0.0
 10
10.04692647971268
 20
0.0691294730087485
 30
0.0
 10
9.880408965627094
 20
0.1981195559971343
 30
0.0
 10
9.799953803716303
 20
0.2610555920018264
 30
0.0
 10
9.633064031521569
 20
0.3843412294208629
 30
0.0
 10
9.548122096271142
 20
0.4442760435685576
 30
0.0
 10
9.46410161513774
 20
0.500777509156891
 30
0.0
  0
SPLINE
  5
C5
330
1F
100
AcDbEntity
  8
0
  6
Continuous
 62
     4
370
    25
100
AcDbSpline
210
0.0
220
0.0
230
1.0
 70
     8
 71
     3
 72
    14
 73
    10
 74
     0
 42
0.000000001
 43
0.00000001
 40
0.0
 40
0.0
 40
0.0
 40
0.0
 40
0.25
 40
0.25
 40
0.5
 40
0.5
 40
0.75
 40
0.75
 40
1.0
 40
1.0
 40
1.0
 40
1.0
 10
10.46410161513774
 20
-0.9820070367015971
 30
0.0
 10
10.38201808025343
 20
-0.9697751350612298
 30
0.0
 10
10.30006818139539
 20
-0.951387044186238
 30
0.0
 10
10.13182407667878
 20
-0.9023616874093641
 30
0.0
 10
10.04692647971268
 20
-0.8717904266336378
 30
0.0
 10
9.880408965627097
 20
-0.8003868473556724
 30
0.0
 10
9.799953803716306
 20
-0.7598374225414347
 30
0.0
 10
9.633064031521572
 20
-0.6686746785850892
 30
0.0
 10
9.548122096271142
 20
-0.6182355209872009
 30
0.0
 10
9.46410161513774
 20
-0.5643476334824377
 30
0.0
  0
SPLINE
  5
C6
330
1F
100
AcDbEntity
  8
0
  6
Continuous
 62
     4
370
    25
100
AcDbSpline
210
0.0
220
0.0
230
1.0
 70
     8
 71
     3
 72
     9
 73
     5
 74
     0
 42
0.000000001
 43
0.00000001
 40
0.0
 40
0.0
 40
0.0
 40
0.0
 40
0.5129804560006074
 40
1.0
 40
1.0
 40
1.0
 40
1.0
 10
9.464101615137736
 20
-0.8655760430618493
 30
0.0
 10
9.579210906070658
 20
-0.9054592045154619
 30
0.0
 10
9.80360403759531
 20
-0.9832071206145603
 30
0.0
 10
10.02739578774278
 20
-0.9934549868211778
 30
0.0
 10
10.13638674385043
 20
-0.9984458979480912
 30
0.0
  0
SPLINE
  5
C7
330
1F
100
AcDbEntity
  8
0
  6
Continuous
 62
     1
370
    25
100
AcDbSpline
210
0.0
220
0.0
230
1.0
 70
     8
 71
     3
 72
    20
 73
    16
 74
     0
 42
0.000000001
 43
0.00000001
 40
0.0
 40
0.0
 40
0.0
 40
0.0
 40
0.0645942987922211
 40
0.1483566117891411
 40
0.2319807745977839
 40
0.3151676121049439
 40
0.3987465223049365
 40
0.4825480780208753
 40
0.5657593731747956
 40
0.6491838971023206
 40
0.7330865545602882
 40
0.8163612115495791
 40
0.8996694056013833
 40
0.983587967348481
 40
1.0
 40
1.0
 40
1.0
 40
1.0
 10
11.42802278678914
 20
0.8391783910362726
 30
0.0
 10
11.52989744175414
 20
0.8799307577526978
 30
0.0
 10
11.76387751306678
 20
0.9735285390040285
 30
0.0
 10
12.13109639651062
 20
1.014312201020501
 30
0.0
 10
12.52730977164714
 20
0.9722136337785329
 30
0.0
 10
12.92201857837169
 20
0.8346786894103877
 30
0.0
 10
13.31808350851333
 20
0.619008807731773
 30
0.0
 10
13.71488531242185
 20
0.34538363540382
 30
0.0
 10
14.10970326867577
 20
0.0372242423750342
 30
0.0
 10
14.50526564066428
 20
-0.2740496626853175
 30
0.0
 10
14.90239366143201
 20
-0.5571563546927712
 30
0.0
 10
15.29746796294767
 20
-0.7916053517903068
 30
0.0
 10
15.69255609398572
 20
-0.9421355069380646
 30
0.0
 10
15.9838321515856
 20
-1.009116570666825
 30
0.0
 10
16.14222598037452
 20
-0.9948207050933398
 30
0.0
 10
16.16813597029799
 20
-0.9924821939544387
 30
0.0
  0
SPLINE
  5
C8
330
1F
100
AcDbEntity
  8
0
  6
Continuous
 62
     1
370
    25
100
AcDbSpline
210
0.0
220
0.0
230
1.0
 70
     8
 71
     3
 72
    20
 73
    16
 74
     0
 42
0.000000001
 43
0.00000001
 40
0.0
 40
0.0
 40
0.0
 40
0.0
 40
0.0388317650358077
 40
0.1226258727460881
 40
0.2058015763066611
 40
0.2891234718633882
 40
0.3729869026660552
 40
0.4562403667591793
 40
0.5394603158222211
 40
0.6233078527842029
 40
0.7066775703292413
 40
0.7898341991829574
 40
0.8735807008224771
 40
0.9571047032147342
 40
1.0
 40
1.0
 40
1.0
 40
1.0
 10
17.46149352776918
 20
-0.8369317643848819
 30
0.0
 10
17.40016033926882
 20
-0.8640415614638906
 30
0.0
 10
17.20647777652099
 20
-0.9496509208045563
 30
0.0
 10
16.88004423384675
 20
-1.007338816227894
 30
0.0
 10
16.48522301753171
 20
-0.9967459092173141
 30
0.0
 10
16.08980228762742
 20
-0.8871768084225029
 30
0.0
 10
15.69262135368188
 20
-0.6957921788540846
 30
0.0
 10
15.29745054613977
 20
-0.4367348920125881
 30
0.0
 10
14.90239835422288
 20
-0.1359504834667243
 30
0.0
 10
14.50526443728995
 20
0.1756034317371462
 30
0.0
 10
14.10970340384086
 20
0.4719565768654703
 30
0.0
 10
13.714885968271
 20
0.7250771616433725
 30
0.0
 10
13.31808072858052
 20
0.9032348525405499
 30
0.0
 10
12.98567003521815
 20
0.9965523069753359
 30
0.0
 10
12.78610615455722
 20
0.9902579819309838
 30
0.0
 10
12.71839219043733
 20
0.9881222562736118
 30
0.0
  0
SPLINE
  5
C9
330
1F
100
AcDbEntity
  8
0
  6
Continuous
 62
     1
370
    25
100
AcDbSpline
210
0.0
220
0.0
230
1.0
 70
     8
 71
     3
 72
    20
 73
    16
 74
     0
 42
0.000000001
 43
0.00000001
 40
0.0
 40
0.0
 40
0.0
 40
0.0
 40
0.0318530191535501
 40
0.1151241309675113
 40
0.1990232165148635
 40
0.2824441888869118
 40
0.3656519415629475
 40
0.449449929672382
 40
0.533025281744353
 40
0.6162085778148417
 40
0.6998291805689651
 40
0.7835879276300255
 40
0.8667857672247595
 40
0.9588758231399586
 40
1.0
 40
1.0
 40
1.0
 40
1.0
 10
15.44827701916307
 20
-0.8366408602906354
 30
0.0
 10
15.39798196777602
 20
-0.860025070313001
 30
0.0
 10
15.21620409438235
 20
-0.9445409789686038
 30
0.0
 10
14.90243356556759
 20
-1.003730886090431
 30
0.0
 10
14.50525498212103
 20
-1.001585816487344
 30
0.0
 10
14.10970610748522
 20
-0.8995396496465349
 30
0.0
 10
13.71488455203336
 20
-0.7126756618471175
 30
0.0
 10
13.31808369151421
 20
-0.4592683768196852
 30
0.0
 10
12.92201860676981
 20
-0.1618949659249068
 30
0.0
 10
12.52730947724412
 20
0.1521546230697823
 30
0.0
 10
12.13109755391342
 20
0.4500190110058192
 30
0.0
 10
11.73441870874856
 20
0.7064812534984777
 30
0.0
 10
11.32605722672483
 20
0.8978942462365711
 30
0.0
 10
10.98415081574782
 20
0.9994860958236987
 30
0.0
 10
10.77329244253523
 20
0.9888659403522124
 30
0.0
 10
10.70819896977512
 20
0.9855874231638322
 30
0.0
  0
SPLINE
  5
CA
330
1F
100
AcDbEntity
  8
0
  6
Continuous
 62
     1
370
    25
100
AcDbSpline
210
0.0
220
0.0
230
1.0
 70
     8
 71
     3
 72
    16
 73
    12
 74
     0
 42
0.000000001
 43
0.00000001
 40
0.0
 40
0.0
 40
0.0
 40
0.0
 40
0.1094827868891033
 40
0.2192881091391861
 40
0.3410590705601709
 40
0.4619313570037103
 40
0.5830160920359415
 40
0.7048877949033031
 40
0.8258730842186208
 40
0.9468096689466268
 40
1.0
 40
1.0
 40
1.0
 40
1.0
 10
17.99238840094006
 20
-0.8302971484544948
 30
0.0
 10
17.87347144741394
 20
-0.7720338053230892
 30
0.0
 10
17.63528721202588
 20
-0.6553354757459021
 30
0.0
 10
17.26463374482439
 20
-0.4032081020765575
 30
0.0
 10
16.88007220684228
 20
-0.1130791279026679
 30
0.0
 10
16.48521573630372
 20
0.2009708841460601
 30
0.0
 10
16.08980349023309
 20
0.4946104011208885
 30
0.0
 10
15.69262390064357
 20
0.7413864001917122
 30
0.0
 10
15.29743926709638
 20
0.9140297681670899
 30
0.0
 10
14.97699328709724
 20
0.9998984101549538
 30
0.0
 10
14.78717886279006
 20
0.990947539373176
 30
0.0
 10
14.72919648813938
 20
0.9882133280769944
 30
0.0
  0
SPLINE
  5
CB
330
1F
100
AcDbEntity
  8
0
  6
Continuous
 62
     1
370
    25
100
AcDbSpline
210
0.0
220
0.0
230
1.0
 70
     8
 71
     3
 72
    10
 73
     6
 74
     0
 42
0.000000001
 43
0.00000001
 40
0.0
 40
0.0
 40
0.0
 40
0.0
 40
0.0915506267505957
 40
0.5446716955951861
 40
1.0
 40
1.0
 40
1.0
 40
1.0
 10
11.42802278678915
 20
-0.8391783910362685
 30
0.0
 10
11.39866315563232
 20
-0.853449924224065
 30
0.0
 10
11.22399083877533
 20
-0.9383570456282285
 30
0.0
 10
10.90287108452755
 20
-1.009076776617493
 30
0.0
 10
10.61059481692248
 20
-0.9910448872094779
 30
0.0
 10
10.46410161513802
 20
-0.9820070367016406
 30
0.0
  0
SPLINE
  5
CC
330
1F
100
AcDbEntity
  8
0
  6
Continuous
 62
     1
370
    25
100
AcDbSpline
210
0.0
220
0.0
230
1.0
 70
     8
 71
     3
 72
    12
 73
     8
 74
     0
 42
0.000000001
 43
0.00000001
 40
0.0
 40
0.0
 40
0.0
 40
0.0
 40
0.2607702416507697
 40
0.5202763814549126
 40
0.754724606930592
 40
0.9907534474892681
 40
1.0
 40
1.0
 40
1.0
 40
1.0
 10
10.46410161513806
 20
-0.2538625585105191
 30
0.0
 10
10.61059151866746
 20
-0.361041706234378
 30
0.0
 10
10.90286120575097
 20
-0.5748804433241329
 30
0.0
 10
11.32608588957022
 20
-0.8171552594803375
 30
0.0
 10
11.73436437949822
 20
-0.957512605745228
 30
0.0
 10
12.00402904434756
 20
-1.014552081718831
 30
0.0
 10
12.14161609299732
 20
-0.9988015065100878
 30
0.0
 10
12.14680293972588
 20
-0.9982077310036279
 30
0.0
  0
SPLINE
  5
CD
330
1F
100
AcDbEntity
  8
0
  6
Continuous
 62
     1
370
    25
100
AcDbSpline
210
0.0
220
0.0
230
1.0
 70
     8
 71
     3
 72
    15
 73
    11
 74
     0
 42
0.000000001
 43
0.00000001
 40
0.0
 40
0.0
 40
0.0
 40
0.0
 40
0.0808727508884034
 40
0.212772094776169
 40
0.3438197188744166
 40
0.4746374140490583
 40
0.6064277274534
 40
0.7376958052840732
 40
0.8684522278535749
 40
1.0
 40
1.0
 40
1.0
 40
1.0
 10
15.44827701916307
 20
0.8366408602906393
 30
0.0
 10
15.52945649636654
 20
0.8713460336780325
 30
0.0
 10
15.74303557247896
 20
0.9626535799168816
 30
0.0
 10
16.0898290030559
 20
1.011888859146243
 30
0.0
 10
16.48520202773414
 20
0.9857014300256706
 30
0.0
 10
16.88010171165666
 20
0.8618440542001347
 30
0.0
 10
17.27705817857147
 20
0.6582674616714941
 30
0.0
 10
17.67292166243698
 20
0.3917659296493449
 30
0.0
 10
18.06765357397874
 20
0.0856335502841158
 30
0.0
 10
18.33168674616615
 20
-0.1189008267512131
 30
0.0
 10
18.46410161513774
 20
-0.2214765467296659
 30
0.0
  0
LINE
  5
CE
330
1F
100
AcDbEntity
  8
0
  6
Continuous
 62
     1
370
    25
100
AcDbLine
 10
18.46410161513774
 20
-0.4999999999999984
 30
0.0
 11
18.46410161513774
 21
-0.2221008090054021
 31
0.0
  0
SPLINE
  5
CF
330
1F
100
AcDbEntity
  8
0
  6
Continuous
 62
     1
370
    25
100
AcDbSpline
210
0.0
220
0.0
230
1.0
 70
    24
 71
     3
 72
    10
 73
     6
 74
     0
 42
0.000000001
 43
0.00000001
 40
0.0
 40
0.0
 40
0.0
 40
0.0
 40
0.5
 40
0.5
 40
1.0
 40
1.0
 40
1.0
 40
1.0
 10
18.46410161513774
 20
-0.4999999999999984
 30
0.0
 10
18.37926583492351
 20
-0.559402652815904
 30
0.0
 10
18.28991306764881
 20
-0.6219681340215487
 30
0.0
 10
18.12735110485254
 20
-0.7357952457976651
 30
0.0
 10
18.05477662535275
 20
-0.7866124434250563
 30
0.0
 10
17.99238840093992
 20
-0.8302971484544363
 30
0.0
  0
SPLINE
  5
D0
330
1F
100
AcDbEntity
  8
0
  6
Continuous
 62
     1
370
    25
100
AcDbSpline
210
0.0
220
0.0
230
1.0
 70
     8
 71
     3
 72
    20
 73
    16
 74
     0
 42
0.000000001
 43
0.00000001
 40
0.0
 40
0.0
 40
0.0
 40
0.0
 40
0.058419631558039
 40
0.1416416771899135
 40
0.2250769791434705
 40
0.3089904763999009
 40
0.3922758920531743
 40
0.4755948491017796
 40
0.5595242527020937
 40
0.6429116950472429
 40
0.7261528303914633
 40
0.8100128563650334
 40
0.8935405765139879
 40
0.9767427232396537
 40
1.0
 40
1.0
 40
1.0
 40
1.0
 10
13.43833352608972
 20
0.8376076067223452
 30
0.0
 10
13.53078206151873
 20
0.8755966491232334
 30
0.0
 10
13.75492872699208
 20
0.9677032156488162
 30
0.0
 10
14.10969849176941
 20
1.013583932048808
 30
0.0
 10
14.50526578387435
 20
0.9788933009183395
 30
0.0
 10
14.90239791972335
 20
0.8492720287658868
 30
0.0
 10
15.29745094256006
 20
0.6388683110460434
 30
0.0
 10
15.69262019629244
 20
0.3672599779135832
 30
0.0
 10
16.08980654164162
 20
0.0630611913058342
 30
0.0
 10
16.48520729426097
 20
-0.2492212862814209
 30
0.0
 10
16.88010298864215
 20
-0.5375838294109629
 30
0.0
 10
17.27704768592328
 20
-0.7751339735303606
 30
0.0
 10
17.67296207892296
 20
-0.9331126504193956
 30
0.0
 10
17.97227110819231
 20
-1.006096306245629
 30
0.0
 10
18.14062466222701
 20
-0.9932279580162863
 30
0.0
 10
18.17740341859786
 20
-0.9904167203971228
 30
0.0
  0
SPLINE
  5
D1
330
1F
100
AcDbEntity
  8
0
  6
Continuous
 62
     1
370
    25
100
AcDbSpline
210
0.0
220
0.0
230
1.0
 70
     8
 71
     3
 72
    11
 73
     7
 74
     0
 42
0.000000001
 43
0.00000001
 40
0.0
 40
0.0
 40
0.0
 40
0.0
 40
0.2850418850978156
 40
0.5709235011699386
 40
0.887958035820294
 40
1.0
 40
1.0
 40
1.0
 40
1.0
 10
17.99238840094006
 20
0.5573209535522047
 30
0.0
 10
17.8734686697148
 20
0.6307993257415057
 30
0.0
 10
17.63527887074538
 20
0.7779725367809557
 30
0.0
 10
17.26466874524452
 20
0.9264505900939384
 30
0.0
 10
16.96489529311065
 20
1.003183028726736
 30
0.0
 10
16.78587768951587
 20
0.9920128397545752
 30
0.0
 10
16.73913198336745
 20
0.9890960407312969
 30
0.0
  0
SPLINE
  5
D2
330
1F
100
AcDbEntity
  8
0
  6
Continuous
 62
     1
370
    25
100
AcDbSpline
210
0.0
220
0.0
230
1.0
 70
     8
 71
     3
 72
    15
 73
    11
 74
     0
 42
0.000000001
 43
0.00000001
 40
0.0
 40
0.0
 40
0.0
 40
0.0
 40
0.040469070502999
 40
0.1736881064155075
 40
0.3062822054148432
 40
0.4395733708739378
 40
0.57308473823384
 40
0.7057020195977209
 40
0.8524934857657257
 40
1.0
 40
1.0
 40
1.0
 40
1.0
 10
13.43833352608972
 20
-0.8376076067223411
 30
0.0
 10
13.3981697517302
 20
-0.8566503339215774
 30
0.0
 10
13.22579193755509
 20
-0.9383792984644462
 30
0.0
 10
12.92200406624976
 20
-0.9995304252216151
 30
0.0
 10
12.52731315674463
 20
-1.005611106086811
 30
0.0
 10
12.1310974341294
 20
-0.9105443577127971
 30
0.0
 10
11.73441549537698
 20
-0.7311971958050145
 30
0.0
 10
11.32607066778679
 20
-0.4725479732295508
 30
0.0
 10
10.90286519318047
 20
-0.1527765633186878
 30
0.0
 10
10.61059284996179
 20
0.0747863956974713
 30
0.0
 10
10.46410161513802
 20
0.1888443270751435
 30
0.0
  0
SPLINE
  5
D3
330
1F
100
AcDbEntity
  8
0
  6
Continuous
 62
     1
370
    25
100
AcDbSpline
210
0.0
220
0.0
230
1.0
 70
     8
 71
     3
 72
    17
 73
    13
 74
     0
 42
0.000000001
 43
0.00000001
 40
0.0
 40
0.0
 40
0.0
 40
0.0
 40
0.1188065317554565
 40
0.2370371406017934
 40
0.343851401188665
 40
0.4513857876413657
 40
0.5587428163396875
 40
0.6655384050981055
 40
0.7728373383196852
 40
0.8804221047292119
 40
0.987249092310613
 40
1.0
 40
1.0
 40
1.0
 40
1.0
 10
10.46410161513806
 20
0.9672403017794967
 30
0.0
 10
10.61059284061379
 20
0.9273456932031782
 30
0.0
 10
10.9028651651817
 20
0.8477498679347241
 30
0.0
 10
11.32607077467057
 20
0.6079413933729699
 30
0.0
 10
11.73441513645334
 20
0.3207683370162113
 30
0.0
 10
12.13109878784904
 20
0.0126336209474644
 30
0.0
 10
12.52730812479144
 20
-0.2968881281464898
 30
0.0
 10
12.9220227747121
 20
-0.5788747995725803
 30
0.0
 10
13.31806826824777
 20
-0.807300124693734
 30
0.0
 10
13.71494204040009
 20
-0.9495764947952126
 30
0.0
 10
13.99370961803925
 20
-1.011771995743623
 30
0.0
 10
14.14083691041798
 20
-0.9966309847875823
 30
0.0
 10
14.15652548328894
 20
-0.9950164586865226
 30
0.0
  0
SPLINE
  5
D4
330
1F
100
AcDbEntity
  8
0
  6
Continuous
 62
     1
370
    25
100
AcDbSpline
210
0.0
220
0.0
230
1.0
 70
     8
 71
     3
 72
    10
 73
     6
 74
     0
 42
0.000000001
 43
0.00000001
 40
0.0
 40
0.0
 40
0.0
 40
0.0
 40
0.2111929228397101
 40
0.6044065792918532
 40
1.0
 40
1.0
 40
1.0
 40
1.0
 10
17.46149352776918
 20
0.8369317643848867
 30
0.0
 10
17.53211621159133
 20
0.8677868685339118
 30
0.0
 10
17.73422911469154
 20
0.9560901492577661
 30
0.0
 10
18.06762609986711
 20
1.014314958826523
 30
0.0
 10
18.3316775697281
 20
0.98824167214613
 30
0.0
 10
18.46410161513774
 20
0.9751656983552595
 30
0.0
  0
LINE
  5
D5
330
1F
100
AcDbEntity
  8
0
  6
Continuous
 62
     1
370
    25
100
AcDbLine
 10
18.46410161513774
 20
0.3586687346939975
 30
0.0
 11
18.46410161513774
 21
0.9751656983552635
 31
0.0
  0
SPLINE
  5
D6
330
1F
100
AcDbEntity
  8
0
  6
Continuous
 62
     1
370
    25
100
AcDbSpline
210
0.0
220
0.0
230
1.0
 70
     8
 71
     3
 72
    10
 73
     6
 74
     0
 42
0.000000001
 43
0.00000001
 40
0.0
 40
0.0
 40
0.0
 40
0.0
 40
0.5
 40
0.5
 40
1.0
 40
1.0
 40
1.0
 40
1.0
 10
18.46410161513774
 20
0.3586687346939983
 30
0.0
 10
18.37926583492351
 20
0.3298670698906208
 30
0.0
 10
18.28991306764881
 20
0.3463552612098306
 30
0.0
 10
18.12735110485254
 20
0.4226817069182766
 30
0.0
 10
18.05477662535275
 20
0.4827139696688072
 30
0.0
 10
17.99238840093992
 20
0.557320953552291
 30
0.0
  0
LINE
  5
D7
330
1F
100
AcDbEntity
  8
0
  6
Continuous
 62
     1
370
    25
100
AcDbLine
 10
18.46410161513774
 20
0.9751656983552635
 30
0.0
 11
18.46410161513774
 21
1.000000000000003
 31
0.0
  0
LINE
  5
D8
330
1F
100
AcDbEntity
  8
0
  6
Continuous
 62
     1
370
    25
100
AcDbLine
 10
17.99238840093993
 20
-0.8302971484544376
 30
0.0
 11
17.9517320281009
 21
-0.858765047192594
 31
0.0
  0
ELLIPSE
  5
D9
330
1F
100
AcDbEntity
  8
0
  6
Continuous
 62
     1
370
    25
100
AcDbEllipse
 10
18.21987392215964
 20
0.0000000000000023
 30
0.0
 11
1.389323305659968
 21
-0.5503410060417624
 31
0.0
210
0.0
220
0.0
230
1.0
 40
0.6009688174887255
 41
4.757219760849906
 42
5.117950484049578
  0
LINE
  5
DA
330
1F
100
AcDbEntity
  8
0
  6
Continuous
 62
     1
370
    25
100
AcDbLine
 10
18.46410161513774
 20
-0.9999999999999998
 30
0.0
 11
18.46410161513774
 21
-0.9843391617328144
 31
0.0
  0
ELLIPSE
  5
DB
330
1F
100
AcDbEntity
  8
0
  6
Continuous
 62
     1
370
    25
100
AcDbEllipse
 10
19.1781756185088
 20
0.0000000000000018
 30
0.0
 11
1.428148006742109
 21
0.0
 31
0.0
210
0.0
220
0.0
230
1.0
 40
0.7002075382097132
 41
2.550436972546731
 42
2.603650831310002
  0
ELLIPSE
  5
DC
330
1F
100
AcDbEntity
  8
0
  6
Continuous
 62
     1
370
    25
100
AcDbEllipse
 10
18.21987392215964
 20
0.0000000000000018
 30
0.0
 11
1.41910256598079
 21
-0.9721740704074073
 31
0.0
210
0.0
220
0.0
230
1.0
 40
0.1650759015746647
 41
1.511550483225867
 42
1.872281206425534
  0
LINE
  5
DD
330
1F
100
AcDbEntity
  8
0
  6
Continuous
 62
     1
370
    25
100
AcDbLine
 10
18.46410161513774
 20
-0.2214765467296663
 30
0.0
 11
18.46410161513774
 21
0.1762850381601891
 31
0.0
  0
LINE
  5
DE
330
1F
100
AcDbEntity
  8
0
  6
Continuous
 62
     1
370
    25
100
AcDbLine
 10
18.46410161513774
 20
0.1762850381601897
 30
0.0
 11
18.46410161513774
 21
0.3586687346939975
 31
0.0
  0
LINE
  5
DF
330
1F
100
AcDbEntity
  8
0
  6
Continuous
 62
     1
370
    25
100
AcDbLine
 10
18.46410161513774
 20
-0.4999999999999977
 30
0.0
 11
18.46410161513774
 21
-0.9843391617328144
 31
0.0
  0
LINE
  5
E0
330
1F
100
AcDbEntity
  8
중심선
100
AcDbLine
 10
-34.53589838486226
 20
-0.0000000000000026
 30
0.0
 11
21.46410161513774
 21
0.0000000000000043
 31
0.0
  0
CIRCLE
  5
E1
330
1F
100
AcDbEntity
  8
해칭선
100
AcDbCircle
 10
-0.007938750018829
 20
-0.0000000000000042
 30
0.0
 40
3.000000000000001
  0
INSERT
  5
E2
330
1F
100
AcDbEntity
  8
0
  6
Continuous
 62
     7
100
AcDbBlockReference
 66
     1
  2
블럭10
 10
-19.44814782084245
 20
-52.04717430164393
 30
0.0
  0
ATTRIB
  5
E3
330
E2
100
AcDbEntity
  8
FORMAT
 62
     2
100
AcDbText
 10
-35.56740886027801
 20
-49.97180738881174
 30
0.0
 40
4.233333333333333
  1
SEME7102008E [ 4 FLUTE ]
 41
0.75
  7
SLDTEXTSTYLE0
 11
-35.56740886027801
 21
-52.08847405547841
 31
0.0
100
AcDbAttribute
  2
AUTOATTR0
 70
     0
 74
     1
  0
SEQEND
  5
E4
330
E2
100
AcDbEntity
  8
0
  6
Continuous
 62
     7
  0
HATCH
  5
E5
330
1F
100
AcDbEntity
  8
중심선
100
AcDbHatch
 10
0.0
 20
0.0
 30
0.0
210
0.0
220
0.0
230
1.0
  2
SOLID
 70
     1
 71
     0
 91
        1
 92
        0
 93
        4
 72
     1
 10
-13.7332385164616
 20
-35.8
 11
-17.17951376029889
 21
-35.8
 72
     1
 10
-17.17951376029889
 20
-35.8
 11
-19.30774361950291
 21
-38.33632558057259
 72
     1
 10
-19.30774361950291
 20
-38.33632558057259
 11
-15.86143529055248
 21
-38.3362861512701
 72
     1
 10
-15.86143529055248
 20
-38.3362861512701
 11
-13.7332385164616
 21
-35.8
 97
        0
 75
     0
 76
     1
 98
        1
 10
0.0
 20
0.0
  0
HATCH
  5
E6
330
1F
100
AcDbEntity
  8
중심선
100
AcDbHatch
 10
0.0
 20
0.0
 30
0.0
210
0.0
220
0.0
230
1.0
  2
SOLID
 70
     1
 71
     0
 91
        1
 92
        0
 93
        4
 72
     1
 10
-8.720474525425653
 20
-35.8
 11
-12.16674976926291
 21
-35.8
 72
     1
 10
-12.16674976926291
 20
-35.8
 11
-16.69788777762032
 21
-41.20000000000002
 72
     1
 10
-16.69788777762032
 20
-41.20000000000002
 11
-13.25161253378304
 21
-41.20000000000002
 72
     1
 10
-13.25161253378304
 20
-41.20000000000002
 11
-8.720474525425653
 21
-35.8
 97
        0
 75
     0
 76
     1
 98
        1
 10
0.0
 20
0.0
  0
HATCH
  5
E7
330
1F
100
AcDbEntity
  8
중심선
100
AcDbHatch
 10
0.0
 20
0.0
 30
0.0
210
0.0
220
0.0
230
1.0
  2
SOLID
 70
     1
 71
     0
 91
        1
 92
        0
 93
        4
 72
     1
 10
-3.707710534389758
 20
-35.8
 11
-7.153985778226874
 21
-35.8
 72
     1
 10
-7.153985778226874
 20
-35.8
 11
-14.20242268011612
 21
-44.20000000000002
 72
     1
 10
-14.20242268011612
 20
-44.20000000000002
 11
-10.75614743627884
 21
-44.20000000000002
 72
     1
 10
-10.75614743627884
 20
-44.20000000000002
 11
-3.707710534389758
 21
-35.8
 97
        0
 75
     0
 76
     1
 98
        1
 10
0.0
 20
0.0
  0
HATCH
  5
E8
330
1F
100
AcDbEntity
  8
중심선
100
AcDbHatch
 10
0.0
 20
0.0
 30
0.0
210
0.0
220
0.0
230
1.0
  2
SOLID
 70
     1
 71
     0
 91
        1
 92
        0
 93
        6
 72
     3
 10
1.092179896622442
 20
-40.00000000005127
 11
3.960054785062284
 21
1.540850780301639E-10
 40
0.3939339440162633
 50
17.09539180608434
 51
320.0019657685086
 73
     0
 72
     1
 10
2.775179552323037
 20
-38.58789400463833
 11
5.080481426024075
 21
-36.65356729459038
 72
     3
 10
1.092179896569595
 20
-40.00000000000015
 11
6.600054785286829
 21
-1.249000902703301E-13
 40
0.6363583540795982
 50
39.99873849337408
 51
368.4976242363725
 73
     1
 72
     1
 10
7.517512388470204
 20
-39.03999999993002
 11
-0.2277527965944826
 21
-39.03999999993002
 72
     1
 10
-0.2277527965944826
 20
-39.03999999993002
 11
-0.2277778410404163
 21
-40.95999999992991
 72
     1
 10
-0.2277778410404163
 20
-40.95999999992991
 11
4.21360192843162
 21
-40.95999999992988
 97
        0
 75
     0
 76
     1
 98
        1
 10
0.0
 20
0.0
  0
DIMENSION
  5
E9
330
1F
100
AcDbEntity
  8
치수문자_일반주서
100
AcDbDimension
  2
_D
 10
28.31526508965112
 20
1.000000000000044
 30
0.0
 11
28.31526508965108
 21
10.66650000000004
 31
0.0
 70
   160
  1
%%c<>
 71
     2
 42
2.000000000000011
 52
-270.0
  3
SLDDIMSTYLE0
100
AcDbAlignedDimension
 13
18.46410161513775
 23
-1.000000000000004
 33
0.0
 14
18.46410161513775
 24
1.000000000000007
 34
0.0
 50
90.0000000000002
100
AcDbRotatedDimension
  0
DIMENSION
  5
F7
330
1F
100
AcDbEntity
  8
치수문자_일반주서
100
AcDbDimension
  2
_D_1
 10
18.46410161513774
 20
20.46052705841394
 30
0.0
 11
-6.709922373390974
 21
20.46052705841394
 31
0.0
 70
   160
  1
<>
 71
     2
 42
50.0
  3
SLDDIMSTYLE1
100
AcDbAlignedDimension
 13
-31.53589838486226
 23
2.499999999999997
 33
0.0
 14
18.46410161513774
 24
1.000000000000003
 34
0.0
100
AcDbRotatedDimension
  0
DIMENSION
  5
102
330
1F
100
AcDbEntity
  8
치수문자_일반주서
100
AcDbDimension
  2
_D_2
 10
-39.15405576906034
 20
-3.00000000000003
 30
0.0
 11
-39.15405576906039
 21
12.66649999999997
 31
0.0
 70
   160
  1
%%c<>
 71
     2
 42
6.000000000000005
 52
-270.0
  3
SLDDIMSTYLE2
100
AcDbAlignedDimension
 13
-31.03589838486224
 23
3.000000000000004
 33
0.0
 14
-31.03589838486227
 24
-3.000000000000001
 34
0.0
 50
90.0000000000002
100
AcDbRotatedDimension
  0
DIMENSION
  5
110
330
1F
100
AcDbEntity
  8
치수문자_일반주서
100
AcDbDimension
  2
_D_3
 10
18.46410161513774
 20
11.89931979612154
 30
0.0
 11
14.29007762660903
 21
11.89931979612154
 31
0.0
 70
   160
  1
<>
 71
     2
 42
8.000000000000002
  3
SLDDIMSTYLE2
100
AcDbAlignedDimension
 13
10.46410161513774
 23
1.000000000000002
 33
0.0
 14
18.46410161513774
 24
1.000000000000003
 34
0.0
100
AcDbRotatedDimension
  0
INSERT
  5
122
330
1F
100
AcDbEntity
  8
해칭선
100
AcDbBlockReference
  2
SW_DOWELSYMBOL_0
 10
-0.007938750018829
 20
-0.0000000000000042
 30
0.0
  0
LINE
  5
154
330
1F
100
AcDbEntity
  8
0
  6
Continuous
 62
     4
370
    25
100
AcDbLine
 10
10.46410161513774
 20
1.000000000000002
 30
0.0
 11
10.46410161513774
 21
-0.9999999999999991
 31
0.0
  0
ENDSEC
  0
SECTION
  2
OBJECTS
  0
DICTIONARY
  5
C
330
0
100
AcDbDictionary
281
     1
  3
ACAD_GROUP
350
D
  3
ACAD_IMAGE_VARS
350
146
  3
ACAD_LAYOUT
350
1A
  3
ACAD_MLINESTYLE
350
17
  3
ACAD_PLOTSETTINGS
350
19
  3
ACAD_PLOTSTYLENAME
350
E
  3
ACAD_SCALELIST
350
47
  3
APPDATA
350
144
  3
DWGPROPS
350
156
  0
DICTIONARY
  5
D
102
{ACAD_REACTORS
330
C
102
}
330
C
100
AcDbDictionary
281
     1
  0
RASTERVARIABLES
  5
146
102
{ACAD_REACTORS
330
C
102
}
330
C
100
AcDbRasterVariables
 90
        0
 70
     1
 71
     1
 72
     1
  0
DICTIONARY
  5
1A
102
{ACAD_REACTORS
330
C
102
}
330
C
100
AcDbDictionary
281
     1
  3
Layout1
350
1E
  3
Layout2
350
26
  3
Model
350
22
  0
DICTIONARY
  5
17
102
{ACAD_REACTORS
330
C
102
}
330
C
100
AcDbDictionary
281
     1
  3
Standard
350
18
  0
DICTIONARY
  5
19
102
{ACAD_REACTORS
330
C
102
}
330
C
100
AcDbDictionary
281
     1
  0
ACDBDICTIONARYWDFLT
  5
E
102
{ACAD_REACTORS
330
C
102
}
330
C
100
AcDbDictionary
281
     1
  3
Normal
350
F
100
AcDbDictionaryWithDefault
340
F
  0
DICTIONARY
  5
47
102
{ACAD_REACTORS
330
C
102
}
330
C
100
AcDbDictionary
281
     1
  3
A0
350
48
  3
A1
350
49
  3
A2
350
4A
  3
A3
350
4B
  3
A4
350
4C
  3
A5
350
4D
  3
A6
350
4E
  3
A7
350
4F
  3
A8
350
50
  3
A9
350
51
  3
B0
350
52
  3
B1
350
53
  3
B2
350
54
  3
B3
350
55
  3
B4
350
56
  3
B5
350
57
  3
B6
350
58
  3
B7
350
59
  3
B8
350
5A
  3
B9
350
5B
  3
C0
350
5C
  3
C1
350
5D
  3
C2
350
5E
  3
C3
350
5F
  3
C4
350
60
  3
C5
350
61
  3
C6
350
62
  3
C7
350
63
  3
C8
350
64
  3
C9
350
65
  3
D0
350
66
  3
D1
350
67
  3
D2
350
68
  0
DICTIONARY
  5
144
102
{ACAD_REACTORS
330
C
102
}
330
C
100
AcDbDictionary
281
     1
  0
XRECORD
  5
156
102
{ACAD_REACTORS
330
C
102
}
330
C
100
AcDbXrecord
280
     1
  1
DWGPROPS COOKIE
  2

  3

  4

  6

  7

  8
12014102
  9

300
=
301
=
302
=
303
=
304
=
305
=
306
=
307
=
308
=
309
=
 40
0.0
 41
2458260.110983704
 42
2458266.434377477
  1

 90
        0
  0
LAYOUT
  5
1E
102
{ACAD_REACTORS
330
1A
102
}
330
1A
100
AcDbPlotSettings
  1

  2
none_device
  4

  6

 40
0.0
 41
0.0
 42
0.0
 43
0.0
 44
0.0
 45
0.0
 46
0.0
 47
0.0
 48
0.0
 49
0.0
140
0.0
141
0.0
142
1.0
143
1.0
 70
   688
 72
     1
 73
     0
 74
     5
  7

 75
    16
147
1.0
148
0.0
149
0.0
100
AcDbLayout
  1
Layout1
 70
     1
 71
     1
 10
0.0
 20
0.0
 11
420.0
 21
297.0
 12
0.0
 22
0.0
 32
0.0
 14
1.000000000000000E+20
 24
1.000000000000000E+20
 34
1.000000000000000E+20
 15
-1.000000000000000E+20
 25
-1.000000000000000E+20
 35
-1.000000000000000E+20
146
0.0
 13
0.0
 23
0.0
 33
0.0
 16
1.0
 26
0.0
 36
0.0
 17
0.0
 27
1.0
 37
0.0
 76
     0
330
1B
  0
LAYOUT
  5
26
102
{ACAD_REACTORS
330
1A
102
}
330
1A
100
AcDbPlotSettings
  1

  2
none_device
  4

  6

 40
0.0
 41
0.0
 42
0.0
 43
0.0
 44
0.0
 45
0.0
 46
0.0
 47
0.0
 48
0.0
 49
0.0
140
0.0
141
0.0
142
1.0
143
1.0
 70
   688
 72
     1
 73
     0
 74
     5
  7

 75
    16
147
1.0
148
0.0
149
0.0
100
AcDbLayout
  1
Layout2
 70
     1
 71
     2
 10
0.0
 20
0.0
 11
0.0
 21
0.0
 12
0.0
 22
0.0
 32
0.0
 14
0.0
 24
0.0
 34
0.0
 15
0.0
 25
0.0
 35
0.0
146
0.0
 13
0.0
 23
0.0
 33
0.0
 16
1.0
 26
0.0
 36
0.0
 17
0.0
 27
1.0
 37
0.0
 76
     0
330
23
  0
LAYOUT
  5
22
102
{ACAD_REACTORS
330
1A
102
}
330
1A
100
AcDbPlotSettings
  1

  2
none_device
  4
ANSI_A_(11.00_x_8.50_Inches)
  6

 40
6.35
 41
19.05
 42
6.35000508
 43
19.05000254
 44
279.4
 45
215.9
 46
150.6896472789687
 47
125.3847137330092
 48
0.0
 49
0.0
140
0.0
141
0.0
142
0.1112850254374007
143
1.0
 70
  1696
 72
     0
 73
     0
 74
     0
  7

 75
     0
147
0.0235690232323232
148
0.0
149
0.0
100
AcDbLayout
  1
Model
 70
     1
 71
     0
 10
0.0
 20
0.0
 11
420.0
 21
297.0
 12
0.0
 22
0.0
 32
0.0
 14
-43.5290557690604
 24
-49.97180738881174
 34
0.0
 15
34.81175780638863
 25
24.83552705841394
 35
0.0
146
0.0
 13
0.0
 23
0.0
 33
0.0
 16
1.0
 26
0.0
 36
0.0
 17
0.0
 27
1.0
 37
0.0
 76
     0
330
1F
331
29
  0
MLINESTYLE
  5
18
102
{ACAD_REACTORS
330
17
102
}
330
17
100
AcDbMlineStyle
  2
Standard
 70
     0
  3

 62
   256
 51
90.0
 52
90.0
 71
     2
 49
0.5
 62
   256
  6
BYLAYER
 49
-0.5
 62
   256
  6
BYLAYER
  0
ACDBPLACEHOLDER
  5
F
102
{ACAD_REACTORS
330
E
102
}
330
E
  0
SCALE
  5
48
102
{ACAD_REACTORS
330
47
102
}
330
47
100
AcDbScale
 70
     0
300
1:1
140
1.0
141
1.0
290
     1
  0
SCALE
  5
49
102
{ACAD_REACTORS
330
47
102
}
330
47
100
AcDbScale
 70
     0
300
1:2
140
1.0
141
2.0
290
     0
  0
SCALE
  5
4A
102
{ACAD_REACTORS
330
47
102
}
330
47
100
AcDbScale
 70
     0
300
1:4
140
1.0
141
4.0
290
     0
  0
SCALE
  5
4B
102
{ACAD_REACTORS
330
47
102
}
330
47
100
AcDbScale
 70
     0
300
1:5
140
1.0
141
5.0
290
     0
  0
SCALE
  5
4C
102
{ACAD_REACTORS
330
47
102
}
330
47
100
AcDbScale
 70
     0
300
1:8
140
1.0
141
8.0
290
     0
  0
SCALE
  5
4D
102
{ACAD_REACTORS
330
47
102
}
330
47
100
AcDbScale
 70
     0
300
1:10
140
1.0
141
10.0
290
     0
  0
SCALE
  5
4E
102
{ACAD_REACTORS
330
47
102
}
330
47
100
AcDbScale
 70
     0
300
1:16
140
1.0
141
16.0
290
     0
  0
SCALE
  5
4F
102
{ACAD_REACTORS
330
47
102
}
330
47
100
AcDbScale
 70
     0
300
1:20
140
1.0
141
20.0
290
     0
  0
SCALE
  5
50
102
{ACAD_REACTORS
330
47
102
}
330
47
100
AcDbScale
 70
     0
300
1:30
140
1.0
141
30.0
290
     0
  0
SCALE
  5
51
102
{ACAD_REACTORS
330
47
102
}
330
47
100
AcDbScale
 70
     0
300
1:40
140
1.0
141
40.0
290
     0
  0
SCALE
  5
52
102
{ACAD_REACTORS
330
47
102
}
330
47
100
AcDbScale
 70
     0
300
1:50
140
1.0
141
50.0
290
     0
  0
SCALE
  5
53
102
{ACAD_REACTORS
330
47
102
}
330
47
100
AcDbScale
 70
     0
300
1:100
140
1.0
141
100.0
290
     0
  0
SCALE
  5
54
102
{ACAD_REACTORS
330
47
102
}
330
47
100
AcDbScale
 70
     0
300
2:1
140
2.0
141
1.0
290
     0
  0
SCALE
  5
55
102
{ACAD_REACTORS
330
47
102
}
330
47
100
AcDbScale
 70
     0
300
4:1
140
4.0
141
1.0
290
     0
  0
SCALE
  5
56
102
{ACAD_REACTORS
330
47
102
}
330
47
100
AcDbScale
 70
     0
300
8:1
140
8.0
141
1.0
290
     0
  0
SCALE
  5
57
102
{ACAD_REACTORS
330
47
102
}
330
47
100
AcDbScale
 70
     0
300
10:1
140
10.0
141
1.0
290
     0
  0
SCALE
  5
58
102
{ACAD_REACTORS
330
47
102
}
330
47
100
AcDbScale
 70
     0
300
100:1
140
100.0
141
1.0
290
     0
  0
SCALE
  5
59
102
{ACAD_REACTORS
330
47
102
}
330
47
100
AcDbScale
 70
     0
300
1/128" = 1'-0"
140
0.0078125
141
12.0
290
     0
  0
SCALE
  5
5A
102
{ACAD_REACTORS
330
47
102
}
330
47
100
AcDbScale
 70
     0
300
1/64" = 1'-0"
140
0.015625
141
12.0
290
     0
  0
SCALE
  5
5B
102
{ACAD_REACTORS
330
47
102
}
330
47
100
AcDbScale
 70
     0
300
1/32" = 1'-0"
140
0.03125
141
12.0
290
     0
  0
SCALE
  5
5C
102
{ACAD_REACTORS
330
47
102
}
330
47
100
AcDbScale
 70
     0
300
1/16" = 1'-0"
140
0.0625
141
12.0
290
     0
  0
SCALE
  5
5D
102
{ACAD_REACTORS
330
47
102
}
330
47
100
AcDbScale
 70
     0
300
3/32" = 1'-0"
140
0.09375
141
12.0
290
     0
  0
SCALE
  5
5E
102
{ACAD_REACTORS
330
47
102
}
330
47
100
AcDbScale
 70
     0
300
1/8" = 1'-0"
140
0.125
141
12.0
290
     0
  0
SCALE
  5
5F
102
{ACAD_REACTORS
330
47
102
}
330
47
100
AcDbScale
 70
     0
300
3/16" = 1'-0"
140
0.1875
141
12.0
290
     0
  0
SCALE
  5
60
102
{ACAD_REACTORS
330
47
102
}
330
47
100
AcDbScale
 70
     0
300
1/4" = 1'-0"
140
0.25
141
12.0
290
     0
  0
SCALE
  5
61
102
{ACAD_REACTORS
330
47
102
}
330
47
100
AcDbScale
 70
     0
300
3/8" = 1'-0"
140
0.375
141
12.0
290
     0
  0
SCALE
  5
62
102
{ACAD_REACTORS
330
47
102
}
330
47
100
AcDbScale
 70
     0
300
1/2" = 1'-0"
140
0.5
141
12.0
290
     0
  0
SCALE
  5
63
102
{ACAD_REACTORS
330
47
102
}
330
47
100
AcDbScale
 70
     0
300
3/4" = 1'-0"
140
0.75
141
12.0
290
     0
  0
SCALE
  5
64
102
{ACAD_REACTORS
330
47
102
}
330
47
100
AcDbScale
 70
     0
300
1" = 1'-0"
140
1.0
141
12.0
290
     0
  0
SCALE
  5
65
102
{ACAD_REACTORS
330
47
102
}
330
47
100
AcDbScale
 70
     0
300
1-1/2" = 1'-0"
140
1.5
141
12.0
290
     0
  0
SCALE
  5
66
102
{ACAD_REACTORS
330
47
102
}
330
47
100
AcDbScale
 70
     0
300
3" = 1'-0"
140
3.0
141
12.0
290
     0
  0
SCALE
  5
67
102
{ACAD_REACTORS
330
47
102
}
330
47
100
AcDbScale
 70
     0
300
6" = 1'-0"
140
6.0
141
12.0
290
     0
  0
SCALE
  5
68
102
{ACAD_REACTORS
330
47
102
}
330
47
100
AcDbScale
 70
     0
300
1'-0" = 1'-0"
140
12.0
141
12.0
290
     0
  0
ENDSEC
  0
EOF
