  0
SECTION
  2
HEADER
  9
$ACADVER
  1
AC1015
  9
$ACADMAINTVER
 70
     6
  9
$DWGCODEPAGE
  3
ANSI_949
  9
$INSBASE
 10
0.0
 20
0.0
 30
0.0
  9
$EXTMIN
 10
-44.78275381903427
 20
-49.97180738881174
 30
0.0
  9
$EXTMAX
 10
32.28259113972197
 20
24.76413260158165
 30
0.0
  9
$LIMMIN
 10
0.0
 20
0.0
  9
$LIMMAX
 10
420.0
 20
297.0
  9
$ORTHOMODE
 70
     0
  9
$REGENMODE
 70
     1
  9
$FILLMODE
 70
     1
  9
$QTEXTMODE
 70
     0
  9
$MIRRTEXT
 70
     1
  9
$LTSCALE
 40
1.0
  9
$ATTMODE
 70
     1
  9
$TEXTSIZE
 40
3.5
  9
$TRACEWID
 40
1.0
  9
$TEXTSTYLE
  7
Standard
  9
$CLAYER
  8
0
  9
$CELTYPE
  6
ByLayer
  9
$CECOLOR
 62
   256
  9
$CELTSCALE
 40
1.0
  9
$DISPSILH
 70
     0
  9
$DIMSCALE
 40
1.0
  9
$DIMASZ
 40
3.302
  9
$DIMEXO
 40
1.0
  9
$DIMDLI
 40
3.75
  9
$DIMRND
 40
0.0
  9
$DIMDLE
 40
0.0
  9
$DIMEXE
 40
1.0
  9
$DIMTP
 40
0.0
  9
$DIMTM
 40
0.0
  9
$DIMTXT
 40
3.5
  9
$DIMCEN
 40
2.5
  9
$DIMTSZ
 40
0.0
  9
$DIMTOL
 70
     0
  9
$DIMLIM
 70
     0
  9
$DIMTIH
 70
     1
  9
$DIMTOH
 70
     1
  9
$DIMSE1
 70
     0
  9
$DIMSE2
 70
     0
  9
$DIMTAD
 70
     1
  9
$DIMZIN
 70
     0
  9
$DIMBLK
  1

  9
$DIMASO
 70
     1
  9
$DIMSHO
 70
     1
  9
$DIMPOST
  1

  9
$DIMAPOST
  1

  9
$DIMALT
 70
     0
  9
$DIMALTD
 70
     3
  9
$DIMALTF
 40
0.0393700787401575
  9
$DIMLFAC
 40
1.0
  9
$DIMTOFL
 70
     1
  9
$DIMTVP
 40
0.0
  9
$DIMTIX
 70
     0
  9
$DIMSOXD
 70
     0
  9
$DIMSAH
 70
     0
  9
$DIMBLK1
  1

  9
$DIMBLK2
  1

  9
$DIMSTYLE
  2
ISO-25
  9
$DIMCLRD
 70
     0
  9
$DIMCLRE
 70
     0
  9
$DIMCLRT
 70
     0
  9
$DIMTFAC
 40
1.0
  9
$DIMGAP
 40
1.524
  9
$DIMJUST
 70
     0
  9
$DIMSD1
 70
     0
  9
$DIMSD2
 70
     0
  9
$DIMTOLJ
 70
     0
  9
$DIMTZIN
 70
     0
  9
$DIMALTZ
 70
     0
  9
$DIMALTTZ
 70
     0
  9
$DIMUPT
 70
     0
  9
$DIMDEC
 70
     2
  9
$DIMTDEC
 70
     2
  9
$DIMALTU
 70
     2
  9
$DIMALTTD
 70
     3
  9
$DIMTXSTY
  7
Standard
  9
$DIMAUNIT
 70
     0
  9
$DIMADEC
 70
     2
  9
$DIMALTRND
 40
0.0
  9
$DIMAZIN
 70
     0
  9
$DIMDSEP
 70
    44
  9
$DIMATFIT
 70
     3
  9
$DIMFRAC
 70
     0
  9
$DIMLDRBLK
  1

  9
$DIMLUNIT
 70
     2
  9
$DIMLWD
 70
    -2
  9
$DIMLWE
 70
    -2
  9
$DIMTMOVE
 70
     0
  9
$LUNITS
 70
     2
  9
$LUPREC
 70
     2
  9
$SKETCHINC
 40
1.0
  9
$FILLETRAD
 40
10.0
  9
$AUNITS
 70
     0
  9
$AUPREC
 70
     2
  9
$MENU
  1
.
  9
$ELEVATION
 40
0.0
  9
$PELEVATION
 40
0.0
  9
$THICKNESS
 40
0.0
  9
$LIMCHECK
 70
     0
  9
$CHAMFERA
 40
0.0
  9
$CHAMFERB
 40
0.0
  9
$CHAMFERC
 40
0.0
  9
$CHAMFERD
 40
0.0
  9
$SKPOLY
 70
     0
  9
$TDCREATE
 40
2458260.483715382
  9
$TDUCREATE
 40
2458260.108715382
  9
$TDUPDATE
 40
2458266.801883993
  9
$TDUUPDATE
 40
2458266.426883993
  9
$TDINDWG
 40
0.0009635069
  9
$TDUSRTIMER
 40
2458266.425920521
  9
$USRTIMER
 70
     1
  9
$ANGBASE
 50
0.0
  9
$ANGDIR
 70
     0
  9
$PDMODE
 70
     0
  9
$PDSIZE
 40
-1.0
  9
$PLINEWID
 40
0.0
  9
$SPLFRAME
 70
     0
  9
$SPLINETYPE
 70
     6
  9
$SPLINESEGS
 70
     8
  9
$HANDSEED
  5
152
  9
$SURFTAB1
 70
     6
  9
$SURFTAB2
 70
     6
  9
$SURFTYPE
 70
     6
  9
$SURFU
 70
     6
  9
$SURFV
 70
     6
  9
$UCSBASE
  2

  9
$UCSNAME
  2

  9
$UCSORG
 10
0.0
 20
0.0
 30
0.0
  9
$UCSXDIR
 10
1.0
 20
0.0
 30
0.0
  9
$UCSYDIR
 10
0.0
 20
1.0
 30
0.0
  9
$UCSORTHOREF
  2

  9
$UCSORTHOVIEW
 70
     0
  9
$UCSORGTOP
 10
0.0
 20
0.0
 30
0.0
  9
$UCSORGBOTTOM
 10
0.0
 20
0.0
 30
0.0
  9
$UCSORGLEFT
 10
0.0
 20
0.0
 30
0.0
  9
$UCSORGRIGHT
 10
0.0
 20
0.0
 30
0.0
  9
$UCSORGFRONT
 10
0.0
 20
0.0
 30
0.0
  9
$UCSORGBACK
 10
0.0
 20
0.0
 30
0.0
  9
$PUCSBASE
  2

  9
$PUCSNAME
  2

  9
$PUCSORG
 10
0.0
 20
0.0
 30
0.0
  9
$PUCSXDIR
 10
1.0
 20
0.0
 30
0.0
  9
$PUCSYDIR
 10
0.0
 20
1.0
 30
0.0
  9
$PUCSORTHOREF
  2

  9
$PUCSORTHOVIEW
 70
     0
  9
$PUCSORGTOP
 10
0.0
 20
0.0
 30
0.0
  9
$PUCSORGBOTTOM
 10
0.0
 20
0.0
 30
0.0
  9
$PUCSORGLEFT
 10
0.0
 20
0.0
 30
0.0
  9
$PUCSORGRIGHT
 10
0.0
 20
0.0
 30
0.0
  9
$PUCSORGFRONT
 10
0.0
 20
0.0
 30
0.0
  9
$PUCSORGBACK
 10
0.0
 20
0.0
 30
0.0
  9
$USERI1
 70
     0
  9
$USERI2
 70
     0
  9
$USERI3
 70
     0
  9
$USERI4
 70
     0
  9
$USERI5
 70
     0
  9
$USERR1
 40
0.0
  9
$USERR2
 40
0.0
  9
$USERR3
 40
0.0
  9
$USERR4
 40
0.0
  9
$USERR5
 40
0.0
  9
$WORLDVIEW
 70
     1
  9
$SHADEDGE
 70
     3
  9
$SHADEDIF
 70
    70
  9
$TILEMODE
 70
     1
  9
$MAXACTVP
 70
    64
  9
$PINSBASE
 10
0.0
 20
0.0
 30
0.0
  9
$PLIMCHECK
 70
     0
  9
$PEXTMIN
 10
1.000000000000000E+20
 20
1.000000000000000E+20
 30
1.000000000000000E+20
  9
$PEXTMAX
 10
-1.000000000000000E+20
 20
-1.000000000000000E+20
 30
-1.000000000000000E+20
  9
$PLIMMIN
 10
0.0
 20
0.0
  9
$PLIMMAX
 10
0.0
 20
0.0
  9
$UNITMODE
 70
     0
  9
$VISRETAIN
 70
     1
  9
$PLINEGEN
 70
     0
  9
$PSLTSCALE
 70
     1
  9
$TREEDEPTH
 70
  3020
  9
$CMLSTYLE
  2
Standard
  9
$CMLJUST
 70
     0
  9
$CMLSCALE
 40
20.0
  9
$PROXYGRAPHICS
 70
     1
  9
$MEASUREMENT
 70
     1
  9
$CELWEIGHT
370
    -1
  9
$ENDCAPS
280
     0
  9
$JOINSTYLE
280
     0
  9
$LWDISPLAY
290
     1
  9
$INSUNITS
 70
     4
  9
$HYPERLINKBASE
  1

  9
$STYLESHEET
  1

  9
$XEDIT
290
     1
  9
$CEPSNTYPE
380
     0
  9
$PSTYLEMODE
290
     1
  9
$FINGERPRINTGUID
  2
{B96C66A7-045F-4254-9214-DA48DE878910}
  9
$VERSIONGUID
  2
{FAEB1C32-E019-11D5-929B-00C0DF256EC4}
  9
$EXTNAMES
290
     1
  9
$PSVPSCALE
 40
0.0
  9
$OLESTARTUP
290
     0
  0
ENDSEC
  0
SECTION
  2
CLASSES
  0
CLASS
  1
ACDBDICTIONARYWDFLT
  2
AcDbDictionaryWithDefault
  3
ObjectDBX Classes
 90
        0
280
     0
281
     0
  0
CLASS
  1
VISUALSTYLE
  2
AcDbVisualStyle
  3
ObjectDBX Classes
 90
     4095
280
     0
281
     0
  0
CLASS
  1
MATERIAL
  2
AcDbMaterial
  3
ObjectDBX Classes
 90
     1153
280
     0
281
     0
  0
CLASS
  1
SCALE
  2
AcDbScale
  3
ObjectDBX Classes
 90
     1153
280
     0
281
     0
  0
CLASS
  1
TABLESTYLE
  2
AcDbTableStyle
  3
ObjectDBX Classes
 90
     4095
280
     0
281
     0
  0
CLASS
  1
MLEADERSTYLE
  2
AcDbMLeaderStyle
  3
ACDB_MLEADERSTYLE_CLASS
 90
     4095
280
     0
281
     0
  0
CLASS
  1
SUN
  2
AcDbSun
  3
SCENEOE
 90
     1153
280
     0
281
     0
  0
CLASS
  1
ACDBPLACEHOLDER
  2
AcDbPlaceHolder
  3
ObjectDBX Classes
 90
        0
280
     0
281
     0
  0
CLASS
  1
LAYOUT
  2
AcDbLayout
  3
ObjectDBX Classes
 90
        0
280
     0
281
     0
  0
CLASS
  1
RASTERVARIABLES
  2
AcDbRasterVariables
  3
ISM
 90
        0
280
     0
281
     0
  0
ENDSEC
  0
SECTION
  2
TABLES
  0
TABLE
  2
VPORT
  5
8
330
0
100
AcDbSymbolTable
 70
     1
  0
VPORT
  5
29
330
8
100
AcDbSymbolTableRecord
100
AcDbViewportTableRecord
  2
*Active
 70
     0
 10
0.0
 20
0.0
 11
1.0
 21
1.0
 12
-6.250081339656148
 22
-12.60383739361504
 13
0.0
 23
0.0
 14
10.0
 24
10.0
 15
10.0
 25
10.0
 16
0.0
 26
0.0
 36
1.0
 17
0.0
 27
0.0
 37
0.0
 40
76.23065879020126
 41
1.728553137003841
 42
50.0
 43
0.0
 44
0.0
 50
0.0
 51
0.0
 71
    16
 72
  2000
 73
     1
 74
     3
 75
     0
 76
     0
 77
     0
 78
     0
281
     0
 65
     1
110
0.0
120
0.0
130
0.0
111
1.0
121
0.0
131
0.0
112
0.0
122
1.0
132
0.0
 79
     0
146
0.0
  0
ENDTAB
  0
TABLE
  2
LTYPE
  5
5
330
0
100
AcDbSymbolTable
 70
     6
  0
LTYPE
  5
14
330
5
100
AcDbSymbolTableRecord
100
AcDbLinetypeTableRecord
  2
ByBlock
 70
     0
  3

 72
    65
 73
     0
 40
0.0
  0
LTYPE
  5
15
330
5
100
AcDbSymbolTableRecord
100
AcDbLinetypeTableRecord
  2
ByLayer
 70
     0
  3

 72
    65
 73
     0
 40
0.0
  0
LTYPE
  5
16
330
5
100
AcDbSymbolTableRecord
100
AcDbLinetypeTableRecord
  2
Continuous
 70
     0
  3
Solid line
 72
    65
 73
     0
 40
0.0
  0
LTYPE
  5
6E
330
5
100
AcDbSymbolTableRecord
100
AcDbLinetypeTableRecord
  2
HIDDEN
 70
     0
  3
Hidden __ __ __ __ __ __ __ __ __ __ __ __ __ __
 72
    65
 73
     2
 40
1.905
 49
1.27
 74
     0
 49
-0.635
 74
     0
  0
LTYPE
  5
6F
330
5
100
AcDbSymbolTableRecord
100
AcDbLinetypeTableRecord
  2
PHANTOM
 70
     0
  3
Phantom ______  __  __  ______  __  __  ______
 72
    65
 73
     6
 40
12.7
 49
6.35
 74
     0
 49
-1.27
 74
     0
 49
1.27
 74
     0
 49
-1.27
 74
     0
 49
1.27
 74
     0
 49
-1.27
 74
     0
  0
LTYPE
  5
70
330
5
100
AcDbSymbolTableRecord
100
AcDbLinetypeTableRecord
  2
CENTER
 70
     0
  3
Center ____ _ ____ _ ____ _ ____ _ ____ _ ____
 72
    65
 73
     4
 40
10.16
 49
6.35
 74
     0
 49
-1.27
 74
     0
 49
1.27
 74
     0
 49
-1.27
 74
     0
  0
LTYPE
  5
71
330
5
100
AcDbSymbolTableRecord
100
AcDbLinetypeTableRecord
  2
CENTERX2
 70
     0
  3
Center (2x) ________  __  ________  __  _____
 72
    65
 73
     4
 40
20.32
 49
12.7
 74
     0
 49
-2.54
 74
     0
 49
2.54
 74
     0
 49
-2.54
 74
     0
  0
LTYPE
  5
72
330
5
100
AcDbSymbolTableRecord
100
AcDbLinetypeTableRecord
  2
DOT2
 70
     0
  3
Dot (.5x) ........................................
 72
    65
 73
     2
 40
0.635
 49
0.0
 74
     0
 49
-0.635
 74
     0
  0
ENDTAB
  0
TABLE
  2
LAYER
  5
2
330
0
100
AcDbSymbolTable
 70
    17
  0
LAYER
  5
10
330
2
100
AcDbSymbolTableRecord
100
AcDbLayerTableRecord
  2
0
 70
     0
 62
     7
  6
Continuous
370
    -3
390
F
  0
LAYER
  5
73
330
2
100
AcDbSymbolTableRecord
100
AcDbLayerTableRecord
  2
FORMAT
 70
     0
 62
     2
  6
Continuous
370
    -3
390
F
  0
LAYER
  5
74
330
2
100
AcDbSymbolTableRecord
100
AcDbLayerTableRecord
  2
외형선
 70
     0
 62
   100
  6
Continuous
370
    35
390
F
  0
LAYER
  5
75
330
2
100
AcDbSymbolTableRecord
100
AcDbLayerTableRecord
  2
숨은선
 70
     0
 62
     2
  6
HIDDEN
370
    25
390
F
  0
LAYER
  5
76
330
2
100
AcDbSymbolTableRecord
100
AcDbLayerTableRecord
  2
중심선
 70
     0
 62
     1
  6
CENTERX2
370
    -3
390
F
  0
LAYER
  5
77
330
2
100
AcDbSymbolTableRecord
100
AcDbLayerTableRecord
  2
파단선
 70
     0
 62
     4
  6
Continuous
370
    -3
390
F
  0
LAYER
  5
78
330
2
100
AcDbSymbolTableRecord
100
AcDbLayerTableRecord
  2
해칭선
 70
     0
 62
   100
  6
Continuous
370
    -3
390
F
  0
LAYER
  5
79
330
2
100
AcDbSymbolTableRecord
100
AcDbLayerTableRecord
  2
가는실선
 70
     0
 62
     4
  6
Continuous
370
    -3
390
F
  0
LAYER
  5
7A
330
2
100
AcDbSymbolTableRecord
100
AcDbLayerTableRecord
  2
치수_보조선
 70
     0
 62
     4
  6
Continuous
370
    -3
390
F
  0
LAYER
  5
7B
330
2
100
AcDbSymbolTableRecord
100
AcDbLayerTableRecord
  2
치수문자_일반주서
 70
     0
 62
     7
  6
Continuous
370
    25
390
F
  0
LAYER
  5
7C
330
2
100
AcDbSymbolTableRecord
100
AcDbLayerTableRecord
  2
개별주서
 70
     0
 62
   100
  6
Continuous
370
    35
390
F
  0
LAYER
  5
7D
330
2
100
AcDbSymbolTableRecord
100
AcDbLayerTableRecord
  2
중간선
 70
     0
 62
     2
  6
Continuous
370
    25
390
F
  0
LAYER
  5
7E
330
2
100
AcDbSymbolTableRecord
100
AcDbLayerTableRecord
  2
윤곽선
 70
     0
 62
     3
  6
Continuous
370
    50
390
F
  0
LAYER
  5
7F
330
2
100
AcDbSymbolTableRecord
100
AcDbLayerTableRecord
  2
중심마크
 70
     0
 62
   100
  6
Continuous
370
    35
390
F
  0
LAYER
  5
80
330
2
100
AcDbSymbolTableRecord
100
AcDbLayerTableRecord
  2
가상선
 70
     0
 62
     4
  6
PHANTOM
370
    -3
390
F
  0
LAYER
  5
81
330
2
100
AcDbSymbolTableRecord
100
AcDbLayerTableRecord
  2
특수지정선
 70
     0
 62
     5
  6
CENTERX2
370
    70
390
F
  0
LAYER
  5
141
330
2
100
AcDbSymbolTableRecord
100
AcDbLayerTableRecord
  2
Defpoints
 70
     0
 62
     7
  6
Continuous
290
     0
370
    -3
390
F
  0
ENDTAB
  0
TABLE
  2
STYLE
  5
3
330
0
100
AcDbSymbolTable
 70
     2
  0
STYLE
  5
11
330
3
100
AcDbSymbolTableRecord
100
AcDbTextStyleTableRecord
  2
Standard
 70
     0
 40
0.0
 41
1.0
 50
0.0
 71
     0
 42
3.5
  3
txt
  4

  0
STYLE
  5
97
330
3
100
AcDbSymbolTableRecord
100
AcDbTextStyleTableRecord
  2
SLDTEXTSTYLE0
 70
     0
 40
0.0
 41
0.75
 50
0.0
 71
     0
 42
3.5
  3
TXT
  4

  0
ENDTAB
  0
TABLE
  2
VIEW
  5
6
330
0
100
AcDbSymbolTable
 70
     0
  0
ENDTAB
  0
TABLE
  2
UCS
  5
7
330
0
100
AcDbSymbolTable
 70
     0
  0
ENDTAB
  0
TABLE
  2
APPID
  5
9
330
0
100
AcDbSymbolTable
 70
     1
  0
APPID
  5
12
330
9
100
AcDbSymbolTableRecord
100
AcDbRegAppTableRecord
  2
ACAD
 70
     0
  0
ENDTAB
  0
TABLE
  2
DIMSTYLE
  5
A
330
0
100
AcDbSymbolTable
 70
     4
100
AcDbDimStyleTable
  0
DIMSTYLE
105
27
330
A
100
AcDbSymbolTableRecord
100
AcDbDimStyleTableRecord
  2
ISO-25
 70
     0
 41
2.5
 42
0.625
 43
3.75
 44
1.25
 73
     0
 74
     0
 77
     1
 78
     8
140
2.5
141
2.5
143
0.03937007874016
147
0.625
171
     3
172
     1
178
     0
271
     2
272
     2
274
     3
278
    44
283
     0
284
     8
340
11
  0
DIMSTYLE
105
E4
102
{ACAD_REACTORS
330
E3
102
}
330
A
100
AcDbSymbolTableRecord
100
AcDbDimStyleTableRecord
  2
SLDDIMSTYLE0
 70
     0
 41
3.302
 44
0.0
 45
0.000000001
 73
     0
 74
     0
 77
     1
 78
    12
 79
     3
140
3.5
147
0.875
172
     1
173
     1
178
     0
271
     1
272
     1
276
     2
284
    12
289
     0
340
97
  0
DIMSTYLE
105
F2
102
{ACAD_REACTORS
330
F1
102
}
330
A
100
AcDbSymbolTableRecord
100
AcDbDimStyleTableRecord
  2
SLDDIMSTYLE1
 70
     0
 41
3.302
 44
0.0
 45
0.000000001
 73
     0
 74
     0
 77
     1
 78
    12
 79
     3
140
3.5
147
0.875
173
     1
178
     0
271
     2
272
     2
276
     2
284
    12
340
97
  0
DIMSTYLE
105
FD
102
{ACAD_REACTORS
330
FC
330
10A
102
}
330
A
100
AcDbSymbolTableRecord
100
AcDbDimStyleTableRecord
  2
SLDDIMSTYLE2
 70
     0
 41
3.302
 44
0.0
 45
0.000000001
 73
     0
 74
     0
 77
     1
 78
    12
 79
     3
140
3.5
147
0.875
172
     1
173
     1
178
     0
271
     2
272
     2
276
     2
284
    12
289
     0
340
97
  0
ENDTAB
  0
TABLE
  2
BLOCK_RECORD
  5
1
330
0
100
AcDbSymbolTable
 70
     7
  0
BLOCK_RECORD
  5
1F
330
1
100
AcDbSymbolTableRecord
100
AcDbBlockTableRecord
  2
*Model_Space
340
22
  0
BLOCK_RECORD
  5
1B
330
1
100
AcDbSymbolTableRecord
100
AcDbBlockTableRecord
  2
*Paper_Space
340
1E
  0
BLOCK_RECORD
  5
23
330
1
100
AcDbSymbolTableRecord
100
AcDbBlockTableRecord
  2
*Paper_Space0
340
26
  0
BLOCK_RECORD
  5
82
330
1
100
AcDbSymbolTableRecord
100
AcDbBlockTableRecord
  2
블럭10
340
0
102
{BLKREFS
331
DC
102
}
  0
BLOCK_RECORD
  5
E5
330
1
100
AcDbSymbolTableRecord
100
AcDbBlockTableRecord
  2
_D
340
0
  0
BLOCK_RECORD
  5
F3
330
1
100
AcDbSymbolTableRecord
100
AcDbBlockTableRecord
  2
_D_1
340
0
  0
BLOCK_RECORD
  5
FE
330
1
100
AcDbSymbolTableRecord
100
AcDbBlockTableRecord
  2
_D_2
340
0
  0
BLOCK_RECORD
  5
10B
330
1
100
AcDbSymbolTableRecord
100
AcDbBlockTableRecord
  2
_D_3
340
0
  0
BLOCK_RECORD
  5
116
330
1
100
AcDbSymbolTableRecord
100
AcDbBlockTableRecord
  2
SW_DOWELSYMBOL_0
340
0
102
{BLKREFS
331
11C
102
}
  0
ENDTAB
  0
ENDSEC
  0
SECTION
  2
BLOCKS
  0
BLOCK
  5
20
330
1F
100
AcDbEntity
  8
0
100
AcDbBlockBegin
  2
*Model_Space
 70
     0
 10
0.0
 20
0.0
 30
0.0
  3
*Model_Space
  1

  0
ENDBLK
  5
21
330
1F
100
AcDbEntity
  8
0
100
AcDbBlockEnd
  0
BLOCK
  5
1C
330
1B
100
AcDbEntity
 67
     1
  8
0
100
AcDbBlockBegin
  2
*Paper_Space
 70
     0
 10
0.0
 20
0.0
 30
0.0
  3
*Paper_Space
  1

  0
ENDBLK
  5
1D
330
1B
100
AcDbEntity
 67
     1
  8
0
100
AcDbBlockEnd
  0
BLOCK
  5
24
330
23
100
AcDbEntity
  8
0
100
AcDbBlockBegin
  2
*Paper_Space0
 70
     0
 10
0.0
 20
0.0
 30
0.0
  3
*Paper_Space0
  1

  0
ENDBLK
  5
25
330
23
100
AcDbEntity
  8
0
100
AcDbBlockEnd
  0
BLOCK
  5
83
330
82
100
AcDbEntity
  8
0
100
AcDbBlockBegin
  2
블럭10
 70
     2
 10
0.0
 20
0.0
 30
0.0
  3
블럭10
  1

  0
ELLIPSE
  5
85
330
82
100
AcDbEntity
  8
중심선
100
AcDbEllipse
 10
20.54032771741204
 20
12.0471743016438
 30
0.0
 11
6.600054785286829
 21
-1.261213355974178E-13
 31
0.0
210
0.0
220
0.0
230
1.0
 40
0.636358354079598
 41
0.9219305317359503
 42
6.513795318482858
  0
ELLIPSE
  5
86
330
82
100
AcDbEntity
  8
중심선
100
AcDbEllipse
 10
20.54032771746488
 20
12.04717430159265
 30
0.0
 11
3.960054785062283
 21
1.540847449632565E-10
 31
0.0
210
0.0
220
0.0
230
1.0
 40
0.3939339440162632
 41
1.131841032648279
 42
5.62031148352944
  0
LINE
  5
87
330
82
100
AcDbEntity
  8
중심선
100
AcDbLine
 10
2.268634060543552
 20
16.24717430164393
 30
0.0
 11
5.714909304380834
 21
16.24717430164393
 31
0.0
  0
LINE
  5
88
330
82
100
AcDbEntity
  8
중심선
100
AcDbLine
 10
5.245725140726316
 20
7.84717430164391
 30
0.0
 11
8.692000384563599
 21
7.84717430164391
 31
0.0
  0
LINE
  5
89
330
82
100
AcDbEntity
  8
중심선
100
AcDbLine
 10
15.74043728645272
 20
16.24717430164393
 30
0.0
 11
8.692000384563599
 21
7.84717430164391
 31
0.0
  0
LINE
  5
8A
330
82
100
AcDbEntity
  8
중심선
100
AcDbLine
 10
0.1404042013395286
 20
13.71084872107135
 30
0.0
 11
3.58671253028996
 21
13.71088815037384
 31
0.0
  0
LINE
  5
8B
330
82
100
AcDbEntity
  8
중심선
100
AcDbLine
 10
2.750260043222114
 20
10.84717430164391
 30
0.0
 11
6.196535287059397
 21
10.84717430164391
 31
0.0
  0
LINE
  5
8C
330
82
100
AcDbEntity
  8
중심선
100
AcDbLine
 10
12.29416204261559
 20
16.24717430164393
 30
0.0
 11
5.245725140726316
 21
7.84717430164391
 31
0.0
  0
LINE
  5
8D
330
82
100
AcDbEntity
  8
중심선
100
AcDbLine
 10
10.72767329541681
 20
16.24717430164393
 30
0.0
 11
6.196535287059397
 21
10.84717430164391
 31
0.0
  0
LINE
  5
8E
330
82
100
AcDbEntity
  8
중심선
100
AcDbLine
 10
7.28139805157953
 20
16.24717430164393
 30
0.0
 11
2.750260043222114
 21
10.84717430164391
 31
0.0
  0
LINE
  5
8F
330
82
100
AcDbEntity
  8
중심선
100
AcDbLine
 10
5.714909304380834
 20
16.24717430164393
 30
0.0
 11
3.58671253028996
 21
13.71088815037384
 31
0.0
  0
LINE
  5
90
330
82
100
AcDbEntity
  8
중심선
100
AcDbLine
 10
2.268634060543552
 20
16.24717430164393
 30
0.0
 11
0.1404042013395286
 21
13.71084872107135
 31
0.0
  0
LINE
  5
91
330
82
100
AcDbEntity
  8
중심선
100
AcDbLine
 10
7.28139805157953
 20
16.24717430164393
 30
0.0
 11
10.72767329541681
 21
16.24717430164393
 31
0.0
  0
LINE
  5
92
330
82
100
AcDbEntity
  8
중심선
100
AcDbLine
 10
12.29416204261559
 20
16.24717430164393
 30
0.0
 11
15.74043728645272
 21
16.24717430164393
 31
0.0
  0
LINE
  5
93
330
82
100
AcDbEntity
  8
중심선
100
AcDbLine
 10
19.22036997980202
 20
11.08717430171403
 30
0.0
 11
23.66174974927406
 21
11.08717430171406
 31
0.0
  0
LINE
  5
94
330
82
100
AcDbEntity
  8
중심선
100
AcDbLine
 10
19.22039502424796
 20
13.00717430171391
 30
0.0
 11
19.22036997980202
 21
11.08717430171403
 31
0.0
  0
LINE
  5
95
330
82
100
AcDbEntity
  8
중심선
100
AcDbLine
 10
19.22039502424796
 20
13.00717430171391
 30
0.0
 11
26.96566020931264
 21
13.00717430171391
 31
0.0
  0
LINE
  5
96
330
82
100
AcDbEntity
  8
중심선
100
AcDbLine
 10
22.22332737316547
 20
13.45928029700563
 30
0.0
 11
24.52862924686651
 21
15.39360700705356
 31
0.0
  0
ATTDEF
  5
98
330
82
100
AcDbEntity
  8
FORMAT
 62
     2
100
AcDbText
 10
-16.11926103943555
 20
2.075366912832191
 30
0.0
 40
4.233333333333333
  1
SEME7101506E [ 4 FLUTE ]
 41
0.75
  7
SLDTEXTSTYLE0
 11
-16.11926103943555
 21
-0.0412997538344756
 31
0.0
100
AcDbAttributeDefinition
  3

  2
AUTOATTR0
 70
     0
 74
     1
  0
ENDBLK
  5
84
330
82
100
AcDbEntity
  8
0
100
AcDbBlockEnd
  0
BLOCK
  5
E6
330
E5
100
AcDbEntity
  8
0
100
AcDbBlockBegin
  2
_D
 70
     0
 10
0.0
 20
0.0
 30
0.0
  3
_D
  1

  0
LINE
  5
E8
330
E5
100
AcDbEntity
  8
치수문자_일반주서
 62
     0
370
    -2
100
AcDbLine
 10
17.45961431702996
 20
-0.750000000000004
 30
0.0
 11
28.14867367375089
 21
-0.7499999999999627
 31
0.0
  0
LINE
  5
E9
330
E5
100
AcDbEntity
  8
치수문자_일반주서
 62
     0
370
    -2
100
AcDbLine
 10
17.45961431702996
 20
0.7500000000000071
 30
0.0
 11
28.14867367375088
 21
0.750000000000048
 31
0.0
  0
LINE
  5
EA
330
E5
100
AcDbEntity
  8
치수문자_일반주서
 62
     0
370
    -2
100
AcDbLine
 10
28.14867367375089
 20
-0.7499999999999627
 30
0.0
 11
28.14867367375085
 21
16.10400000000005
 31
0.0
  0
LINE
  5
EB
330
E5
100
AcDbEntity
  8
치수문자_일반주서
 62
     0
370
    -2
100
AcDbLine
 10
28.14867367375089
 20
-0.7499999999999627
 30
0.0
 11
28.14867367375088
 21
0.750000000000048
 31
0.0
  0
LINE
  5
EC
330
E5
100
AcDbEntity
  8
치수문자_일반주서
 62
     0
370
    -2
100
AcDbLine
 10
28.1486736737509
 20
-4.051999999999962
 30
0.0
 11
28.1486736737509
 21
-7.353999999999962
 31
0.0
  0
LINE
  5
ED
330
E5
100
AcDbEntity
  8
치수문자_일반주서
 62
     0
370
    -2
100
AcDbLine
 10
28.14867367375088
 20
4.052000000000048
 30
0.0
 11
28.14867367375087
 21
7.354000000000047
 31
0.0
  0
SOLID
  5
EE
330
E5
100
AcDbEntity
  8
치수문자_일반주서
 62
     0
100
AcDbTrace
 10
28.69900700708423
 20
-4.051999999999961
 30
0.0
 11
27.59834034041756
 21
-4.051999999999963
 31
0.0
 12
28.14867367375089
 22
-0.7499999999999627
 32
0.0
 13
28.14867367375089
 23
-0.7499999999999627
 33
0.0
  0
SOLID
  5
EF
330
E5
100
AcDbEntity
  8
치수문자_일반주서
 62
     0
100
AcDbTrace
 10
27.59834034041754
 20
4.052000000000047
 30
0.0
 11
28.69900700708421
 21
4.052000000000048
 31
0.0
 12
28.14867367375088
 22
0.750000000000048
 32
0.0
 13
28.14867367375088
 23
0.750000000000048
 33
0.0
  0
MTEXT
  5
F0
330
E5
100
AcDbEntity
  8
치수문자_일반주서
 62
     0
100
AcDbMText
 10
23.77367367375086
 20
11.72900000000004
 30
0.0
 40
3.5
 41
0.0
 71
     2
 72
     1
  1
\A1;%%c1.5
  7
SLDTEXTSTYLE0
 11
-2.368475785866983E-15
 21
1.0
 31
0.0
 73
     1
 44
1.0
  0
POINT
  5
149
330
E5
100
AcDbEntity
  8
Defpoints
 62
     0
100
AcDbPoint
 10
17.39711431702996
 20
-0.7500000000000042
 30
0.0
  0
POINT
  5
14A
330
E5
100
AcDbEntity
  8
Defpoints
 62
     0
100
AcDbPoint
 10
17.39711431702996
 20
0.7500000000000069
 30
0.0
  0
POINT
  5
14B
330
E5
100
AcDbEntity
  8
Defpoints
 62
     0
100
AcDbPoint
 10
28.14867367375088
 20
0.7500000000000471
 30
0.0
  0
ENDBLK
  5
E7
330
E5
100
AcDbEntity
  8
0
100
AcDbBlockEnd
  0
BLOCK
  5
F4
330
F3
100
AcDbEntity
  8
0
100
AcDbBlockBegin
  2
_D_1
 70
     0
 10
0.0
 20
0.0
 30
0.0
  3
_D_1
  1

  0
LINE
  5
F6
330
F3
100
AcDbEntity
  8
치수문자_일반주서
 62
     0
370
    -2
100
AcDbLine
 10
-32.60288568297005
 20
2.562499999999996
 30
0.0
 11
-32.60288568297005
 21
20.38913260158165
 31
0.0
  0
LINE
  5
F7
330
F3
100
AcDbEntity
  8
치수문자_일반주서
 62
     0
370
    -2
100
AcDbLine
 10
17.39711431702995
 20
0.8125000000000029
 30
0.0
 11
17.39711431702995
 21
20.38913260158165
 31
0.0
  0
LINE
  5
F8
330
F3
100
AcDbEntity
  8
치수문자_일반주서
 62
     0
370
    -2
100
AcDbLine
 10
-29.30088568297005
 20
20.38913260158165
 30
0.0
 11
14.09511431702995
 21
20.38913260158165
 31
0.0
  0
SOLID
  5
F9
330
F3
100
AcDbEntity
  8
치수문자_일반주서
 62
     0
100
AcDbTrace
 10
-29.30088568297005
 20
20.93946593491498
 30
0.0
 11
-29.30088568297005
 21
19.83879926824831
 31
0.0
 12
-32.60288568297005
 22
20.38913260158165
 32
0.0
 13
-32.60288568297005
 23
20.38913260158165
 33
0.0
  0
SOLID
  5
FA
330
F3
100
AcDbEntity
  8
치수문자_일반주서
 62
     0
100
AcDbTrace
 10
14.09511431702995
 20
19.83879926824831
 30
0.0
 11
14.09511431702995
 21
20.93946593491498
 31
0.0
 12
17.39711431702995
 22
20.38913260158165
 32
0.0
 13
17.39711431702995
 23
20.38913260158165
 33
0.0
  0
MTEXT
  5
FB
330
F3
100
AcDbEntity
  8
치수문자_일반주서
 62
     0
100
AcDbMText
 10
-7.602885682970049
 20
24.76413260158165
 30
0.0
 40
3.5
 41
0.0
 71
     2
 72
     1
  1
\A1;50
  7
SLDTEXTSTYLE0
 73
     1
 44
1.0
  0
POINT
  5
142
330
F3
100
AcDbEntity
  8
Defpoints
 62
     0
100
AcDbPoint
 10
-32.60288568297005
 20
2.499999999999996
 30
0.0
  0
POINT
  5
143
330
F3
100
AcDbEntity
  8
Defpoints
 62
     0
100
AcDbPoint
 10
17.39711431702995
 20
0.7500000000000029
 30
0.0
  0
POINT
  5
144
330
F3
100
AcDbEntity
  8
Defpoints
 62
     0
100
AcDbPoint
 10
17.39711431702995
 20
20.38913260158165
 30
0.0
  0
ENDBLK
  5
F5
330
F3
100
AcDbEntity
  8
0
100
AcDbBlockEnd
  0
BLOCK
  5
FF
330
FE
100
AcDbEntity
  8
0
100
AcDbBlockBegin
  2
_D_2
 70
     0
 10
0.0
 20
0.0
 30
0.0
  3
_D_2
  1

  0
LINE
  5
101
330
FE
100
AcDbEntity
  8
치수문자_일반주서
 62
     0
370
    -2
100
AcDbLine
 10
-32.16538568297005
 20
3.000000000000004
 30
0.0
 11
-40.40775381903423
 21
2.999999999999973
 31
0.0
  0
LINE
  5
102
330
FE
100
AcDbEntity
  8
치수문자_일반주서
 62
     0
370
    -2
100
AcDbLine
 10
-32.16538568297005
 20
-3.000000000000001
 30
0.0
 11
-40.40775381903421
 21
-3.000000000000034
 31
0.0
  0
LINE
  5
103
330
FE
100
AcDbEntity
  8
치수문자_일반주서
 62
     0
370
    -2
100
AcDbLine
 10
-40.40775381903423
 20
2.999999999999973
 30
0.0
 11
-40.40775381903428
 21
15.72899999999997
 31
0.0
  0
LINE
  5
104
330
FE
100
AcDbEntity
  8
치수문자_일반주서
 62
     0
370
    -2
100
AcDbLine
 10
-40.40775381903423
 20
2.999999999999973
 30
0.0
 11
-40.40775381903421
 21
-3.000000000000034
 31
0.0
  0
LINE
  5
105
330
FE
100
AcDbEntity
  8
치수문자_일반주서
 62
     0
370
    -2
100
AcDbLine
 10
-40.40775381903424
 20
6.301999999999973
 30
0.0
 11
-40.40775381903426
 21
9.603999999999973
 31
0.0
  0
LINE
  5
106
330
FE
100
AcDbEntity
  8
치수문자_일반주서
 62
     0
370
    -2
100
AcDbLine
 10
-40.40775381903419
 20
-6.302000000000033
 30
0.0
 11
-40.40775381903418
 21
-9.604000000000033
 31
0.0
  0
SOLID
  5
107
330
FE
100
AcDbEntity
  8
치수문자_일반주서
 62
     0
100
AcDbTrace
 10
-40.95808715236758
 20
6.301999999999971
 30
0.0
 11
-39.85742048570091
 21
6.301999999999975
 31
0.0
 12
-40.40775381903423
 22
2.999999999999973
 32
0.0
 13
-40.40775381903423
 23
2.999999999999973
 33
0.0
  0
SOLID
  5
108
330
FE
100
AcDbEntity
  8
치수문자_일반주서
 62
     0
100
AcDbTrace
 10
-39.85742048570086
 20
-6.302000000000032
 30
0.0
 11
-40.95808715236753
 21
-6.302000000000035
 31
0.0
 12
-40.40775381903421
 22
-3.000000000000034
 32
0.0
 13
-40.40775381903421
 23
-3.000000000000034
 33
0.0
  0
MTEXT
  5
109
330
FE
100
AcDbEntity
  8
치수문자_일반주서
 62
     0
100
AcDbMText
 10
-44.78275381903426
 20
12.66649999999996
 30
0.0
 40
3.5
 41
0.0
 71
     2
 72
     1
  1
\A1;%%c6
  7
SLDTEXTSTYLE0
 11
-3.552713678800498E-15
 21
1.0
 31
0.0
 73
     1
 44
1.0
  0
POINT
  5
146
330
FE
100
AcDbEntity
  8
Defpoints
 62
     0
100
AcDbPoint
 10
-32.10288568297005
 20
3.000000000000004
 30
0.0
  0
POINT
  5
147
330
FE
100
AcDbEntity
  8
Defpoints
 62
     0
100
AcDbPoint
 10
-32.10288568297005
 20
-3.000000000000001
 30
0.0
  0
POINT
  5
148
330
FE
100
AcDbEntity
  8
Defpoints
 62
     0
100
AcDbPoint
 10
-40.40775381903418
 20
-3.000000000000032
 30
0.0
  0
ENDBLK
  5
100
330
FE
100
AcDbEntity
  8
0
100
AcDbBlockEnd
  0
BLOCK
  5
10C
330
10B
100
AcDbEntity
  8
0
100
AcDbBlockBegin
  2
_D_3
 70
     0
 10
0.0
 20
0.0
 30
0.0
  3
_D_3
  1

  0
LINE
  5
10E
330
10B
100
AcDbEntity
  8
치수문자_일반주서
 62
     0
370
    -2
100
AcDbLine
 10
11.39711431702995
 20
0.7990052775262013
 30
0.0
 11
11.39711431702995
 21
13.16779591923048
 31
0.0
  0
LINE
  5
10F
330
10B
100
AcDbEntity
  8
치수문자_일반주서
 62
     0
370
    -2
100
AcDbLine
 10
17.39711431702995
 20
0.8125000000000029
 30
0.0
 11
17.39711431702995
 21
13.16779591923048
 31
0.0
  0
LINE
  5
110
330
10B
100
AcDbEntity
  8
치수문자_일반주서
 62
     0
370
    -2
100
AcDbLine
 10
11.39711431702995
 20
13.16779591923048
 30
0.0
 11
1.293114317029955
 21
13.16779591923048
 31
0.0
  0
LINE
  5
111
330
10B
100
AcDbEntity
  8
치수문자_일반주서
 62
     0
370
    -2
100
AcDbLine
 10
11.39711431702995
 20
13.16779591923048
 30
0.0
 11
17.39711431702995
 21
13.16779591923048
 31
0.0
  0
LINE
  5
112
330
10B
100
AcDbEntity
  8
치수문자_일반주서
 62
     0
370
    -2
100
AcDbLine
 10
8.095114317029955
 20
13.16779591923048
 30
0.0
 11
4.793114317029955
 21
13.16779591923048
 31
0.0
  0
LINE
  5
113
330
10B
100
AcDbEntity
  8
치수문자_일반주서
 62
     0
370
    -2
100
AcDbLine
 10
20.69911431702995
 20
13.16779591923048
 30
0.0
 11
24.00111431702995
 21
13.16779591923048
 31
0.0
  0
SOLID
  5
114
330
10B
100
AcDbEntity
  8
치수문자_일반주서
 62
     0
100
AcDbTrace
 10
8.095114317029955
 20
12.61746258589715
 30
0.0
 11
8.095114317029955
 21
13.71812925256381
 31
0.0
 12
11.39711431702995
 22
13.16779591923048
 32
0.0
 13
11.39711431702995
 23
13.16779591923048
 33
0.0
  0
SOLID
  5
115
330
10B
100
AcDbEntity
  8
치수문자_일반주서
 62
     0
100
AcDbTrace
 10
20.69911431702995
 20
13.71812925256381
 30
0.0
 11
20.69911431702995
 21
12.61746258589715
 31
0.0
 12
17.39711431702995
 22
13.16779591923048
 32
0.0
 13
17.39711431702995
 23
13.16779591923048
 33
0.0
  0
MTEXT
  5
145
330
10B
100
AcDbEntity
  8
치수문자_일반주서
 62
     0
100
AcDbMText
 10
3.043114317029955
 20
17.54279591923048
 30
0.0
 40
3.5
 41
0.0
 71
     2
 72
     1
  1
\A1;6
  7
SLDTEXTSTYLE0
 73
     1
 44
1.0
  0
POINT
  5
14C
330
10B
100
AcDbEntity
  8
Defpoints
 62
     0
100
AcDbPoint
 10
11.39711431702995
 20
0.7365052775262013
 30
0.0
  0
POINT
  5
14D
330
10B
100
AcDbEntity
  8
Defpoints
 62
     0
100
AcDbPoint
 10
17.39711431702995
 20
0.7500000000000029
 30
0.0
  0
POINT
  5
14E
330
10B
100
AcDbEntity
  8
Defpoints
 62
     0
100
AcDbPoint
 10
17.39711431702995
 20
13.16779591923048
 30
0.0
  0
ENDBLK
  5
10D
330
10B
100
AcDbEntity
  8
0
100
AcDbBlockEnd
  0
BLOCK
  5
117
330
116
100
AcDbEntity
  8
0
100
AcDbBlockBegin
  2
SW_DOWELSYMBOL_0
 70
     0
 10
0.0
 20
0.0
 30
0.0
  3
SW_DOWELSYMBOL_0
  1

  0
CIRCLE
  5
119
330
116
100
AcDbEntity
  8
해칭선
 62
     0
100
AcDbCircle
 10
0.0
 20
0.0
 30
0.0
 40
3.000000000000001
  0
HATCH
  5
11A
330
116
100
AcDbEntity
  8
0
  6
Continuous
 62
     0
370
    18
100
AcDbHatch
 10
0.0
 20
0.0
 30
0.0
210
0.0
220
0.0
230
1.0
  2
SOLID
 70
     1
 71
     0
 91
        1
 92
        0
 93
        3
 72
     2
 10
0.0
 20
0.0
 40
3.000000000000001
 50
0.0
 51
90.0
 73
     1
 72
     1
 10
0.0
 20
3.000000000000001
 11
0.0
 21
0.0
 72
     1
 10
0.0
 20
0.0
 11
3.000000000000001
 21
0.0
 97
        0
 75
     0
 76
     1
 98
        1
 10
0.0
 20
0.0
  0
HATCH
  5
11B
330
116
100
AcDbEntity
  8
0
  6
Continuous
 62
     0
370
    18
100
AcDbHatch
 10
0.0
 20
0.0
 30
0.0
210
0.0
220
0.0
230
1.0
  2
SOLID
 70
     1
 71
     0
 91
        1
 92
        0
 93
        3
 72
     2
 10
0.0
 20
0.0
 40
3.000000000000001
 50
180.0
 51
270.0000000000008
 73
     1
 72
     1
 10
0.0
 20
-3.000000000000001
 11
0.0
 21
0.0
 72
     1
 10
0.0
 20
0.0
 11
-3.000000000000001
 21
0.0
 97
        0
 75
     0
 76
     1
 98
        1
 10
0.0
 20
0.0
  0
ENDBLK
  5
118
330
116
100
AcDbEntity
  8
0
100
AcDbBlockEnd
  0
ENDSEC
  0
SECTION
  2
ENTITIES
  0
LINE
  5
99
330
1F
100
AcDbEntity
  8
0
  6
Continuous
 62
     4
370
    25
100
AcDbLine
 10
2.0
 20
3.0
 30
0.0
 11
-32.10288568297005
 21
2.999999999999997
 31
0.0
  0
LINE
  5
9A
330
1F
100
AcDbEntity
  8
0
  6
Continuous
 62
     4
370
    25
100
AcDbLine
 10
-32.10288568297005
 20
-2.999999999999999
 30
0.0
 11
1.999999999999998
 21
-2.999999999999997
 31
0.0
  0
LINE
  5
9B
330
1F
100
AcDbEntity
  8
0
  6
Continuous
 62
     4
370
    25
100
AcDbLine
 10
2.0
 20
-2.999999999999997
 30
0.0
 11
10.06715721557342
 21
-0.8384117388721913
 31
0.0
  0
LINE
  5
9C
330
1F
100
AcDbEntity
  8
0
  6
Continuous
 62
     4
370
    25
100
AcDbLine
 10
10.0705286549296
 20
0.8375083644193754
 30
0.0
 11
2.0
 21
3.0
 31
0.0
  0
LINE
  5
9D
330
1F
100
AcDbEntity
  8
0
  6
Continuous
 62
     4
370
    25
100
AcDbLine
 10
-32.10288568297005
 20
2.999999999999996
 30
0.0
 11
-32.60288568297005
 21
2.499999999999996
 31
0.0
  0
LINE
  5
9E
330
1F
100
AcDbEntity
  8
0
  6
Continuous
 62
     4
370
    25
100
AcDbLine
 10
-32.60288568297005
 20
-2.499999999999999
 30
0.0
 11
-32.10288568297005
 21
-2.999999999999998
 31
0.0
  0
LINE
  5
9F
330
1F
100
AcDbEntity
  8
0
  6
Continuous
 62
     4
370
    25
100
AcDbLine
 10
11.15068023857693
 20
-0.7499999999999982
 30
0.0
 11
11.39711431702995
 21
-0.7499999999999981
 31
0.0
  0
LINE
  5
A0
330
1F
100
AcDbEntity
  8
0
  6
Continuous
 62
     4
370
    25
100
AcDbLine
 10
11.39711431702995
 20
0.7500000000000019
 30
0.0
 11
11.15068023857693
 21
0.7500000000000018
 31
0.0
  0
LINE
  5
A1
330
1F
100
AcDbEntity
  8
0
  6
Continuous
 62
     1
370
    25
100
AcDbLine
 10
15.67485740726444
 20
-0.7499999999999988
 30
0.0
 11
16.10333807360993
 21
-0.7499999999999988
 31
0.0
  0
LINE
  5
A2
330
1F
100
AcDbEntity
  8
0
  6
Continuous
 62
     1
370
    25
100
AcDbLine
 10
13.08811807507881
 20
0.7500000000000023
 30
0.0
 11
12.65874872231989
 21
0.7500000000000023
 31
0.0
  0
LINE
  5
A3
330
1F
100
AcDbEntity
  8
0
  6
Continuous
 62
     1
370
    25
100
AcDbLine
 10
14.16754354784925
 20
-0.7499999999999988
 30
0.0
 11
14.5954943822247
 21
-0.7499999999999988
 31
0.0
  0
LINE
  5
A4
330
1F
100
AcDbEntity
  8
0
  6
Continuous
 62
     1
370
    25
100
AcDbLine
 10
11.57983506081466
 20
0.7500000000000023
 30
0.0
 11
11.39711431702995
 21
0.7500000000000023
 31
0.0
  0
LINE
  5
A5
330
1F
100
AcDbEntity
  8
0
  6
Continuous
 62
     1
370
    25
100
AcDbLine
 10
17.39711431702995
 20
0.7500000000000023
 30
0.0
 11
17.18205836147977
 21
0.7500000000000023
 31
0.0
  0
LINE
  5
A6
330
1F
100
AcDbEntity
  8
0
  6
Continuous
 62
     1
370
    25
100
AcDbLine
 10
17.18205836147976
 20
-0.7499999999999988
 30
0.0
 11
17.39711431702995
 21
-0.7499999999999988
 31
0.0
  0
LINE
  5
A7
330
1F
100
AcDbEntity
  8
0
  6
Continuous
 62
     1
370
    25
100
AcDbLine
 10
11.39711431702995
 20
-0.7499999999999988
 30
0.0
 11
11.57983506081467
 21
-0.7499999999999988
 31
0.0
  0
LINE
  5
A8
330
1F
100
AcDbEntity
  8
0
  6
Continuous
 62
     1
370
    25
100
AcDbLine
 10
14.59549438222471
 20
0.7500000000000023
 30
0.0
 11
14.16754354784925
 21
0.7500000000000023
 31
0.0
  0
LINE
  5
A9
330
1F
100
AcDbEntity
  8
0
  6
Continuous
 62
     1
370
    25
100
AcDbLine
 10
12.65874872231989
 20
-0.7499999999999988
 30
0.0
 11
13.0881180750788
 21
-0.7499999999999988
 31
0.0
  0
LINE
  5
AA
330
1F
100
AcDbEntity
  8
0
  6
Continuous
 62
     1
370
    25
100
AcDbLine
 10
16.10333807360993
 20
0.7500000000000023
 30
0.0
 11
15.67485740726445
 21
0.7500000000000023
 31
0.0
  0
LINE
  5
AB
330
1F
100
AcDbEntity
  8
0
  6
Continuous
 62
     4
370
    25
100
AcDbLine
 10
2.0
 20
3.000000000000001
 30
0.0
 11
2.0
 21
-3.0
 31
0.0
  0
LINE
  5
AC
330
1F
100
AcDbEntity
  8
0
  6
Continuous
 62
     4
370
    25
100
AcDbLine
 10
-32.10288568297005
 20
2.999999999999996
 30
0.0
 11
-32.10288568297005
 21
-3.0
 31
0.0
  0
SPLINE
  5
AD
330
1F
100
AcDbEntity
  8
0
  6
Continuous
 62
     4
370
    25
100
AcDbSpline
210
0.0
220
0.0
230
1.0
 70
     8
 71
     3
 72
     9
 73
     5
 74
     0
 42
0.000000001
 43
0.00000001
 40
0.0
 40
0.0
 40
0.0
 40
0.0
 40
0.593477553943273
 40
1.0
 40
1.0
 40
1.0
 40
1.0
 10
10.39711431702993
 20
0.7075788482489771
 30
0.0
 10
10.33033024899419
 20
0.7398701347825056
 30
0.0
 10
10.21780018346433
 20
0.794280425987243
 30
0.0
 10
10.11241891764488
 20
0.8224947148805092
 30
0.0
 10
10.06957906769541
 20
0.8339644566151511
 30
0.0
  0
LINE
  5
AE
330
1F
100
AcDbEntity
  8
0
  6
Continuous
 62
     4
370
    25
100
AcDbLine
 10
10.39711431702995
 20
0.7075788482489614
 30
0.0
 11
10.39711431702995
 21
0.530753052628886
 31
0.0
  0
SPLINE
  5
AF
330
1F
100
AcDbEntity
  8
0
  6
Continuous
 62
     4
370
    25
100
AcDbSpline
210
0.0
220
0.0
230
1.0
 70
     8
 71
     3
 72
     8
 73
     4
 74
     0
 42
0.000000001
 43
0.00000001
 40
0.0
 40
0.0
 40
0.0
 40
0.0
 40
1.0
 40
1.0
 40
1.0
 40
1.0
 10
10.14464402336826
 20
0.7109938565979927
 30
0.0
 10
10.22734680101845
 20
0.6567595293649657
 30
0.0
 10
10.31212981084118
 20
0.5960055454340475
 30
0.0
 10
10.39711431703074
 20
0.5307530526300266
 30
0.0
  0
SPLINE
  5
B0
330
1F
100
AcDbEntity
  8
0
  6
Continuous
 62
     4
370
    25
100
AcDbSpline
210
0.0
220
0.0
230
1.0
 70
     8
 71
     3
 72
    26
 73
    22
 74
     0
 42
0.000000001
 43
0.00000001
 40
0.0
 40
0.0
 40
0.0
 40
0.0
 40
0.0000473683298222
 40
0.0000473683298222
 40
0.0000473683298222
 40
0.0000946268601969
 40
0.0000946268601969
 40
0.0000946268601969
 40
0.0001434929095257
 40
0.0001434929095257
 40
0.0001434929095257
 40
0.0001951380251367
 40
0.0001951380251367
 40
0.0001951380251367
 40
0.0002483437757042
 40
0.0002483437757042
 40
0.0002483437757042
 40
0.000301459315316
 40
0.000301459315316
 40
0.000301459315316
 40
0.0003489253468196
 40
0.0003489253468196
 40
0.0003489253468196
 40
0.0003489253468196
 10
9.897226831430082
 20
0.7035974518069128
 30
0.0
 10
9.897226831430086
 20
0.7131552729626636
 30
0.0
 10
9.899800031282261
 20
0.721940747440862
 30
0.0
 10
9.904671363348921
 20
0.7292757252402069
 30
0.0
 10
9.909536273412854
 20
0.7366010331491134
 30
0.0
 10
9.916807100734282
 20
0.7426890914846288
 30
0.0
 10
9.925852143090395
 20
0.7472489239370383
 30
0.0
 10
9.935205632349023
 20
0.7519642522003637
 30
0.0
 10
9.946691934235442
 20
0.7551798256417568
 30
0.0
 10
9.959444425114128
 20
0.7568706444102615
 30
0.0
 10
9.97290949117943
 20
0.7586559416230922
 30
0.0
 10
9.988146192426287
 20
0.7587952331774225
 30
0.0
 10
10.00400052384913
 20
0.7574486159930739
 30
0.0
 10
10.02031971128816
 20
0.7560625153967199
 30
0.0
 10
10.03774810156736
 20
0.7530657996888707
 30
0.0
 10
10.05485930023744
 20
0.7487513744464876
 30
0.0
 10
10.07193747580486
 20
0.7444452756638917
 30
0.0
 10
10.08917813688829
 20
0.7387029222267374
 30
0.0
 10
10.10507763310259
 20
0.7319072842592519
 30
0.0
 10
10.1193261778823
 20
0.7258172830050463
 30
0.0
 10
10.13284455106622
 20
0.7187316431654115
 30
0.0
 10
10.14464402336698
 20
0.7109938565986468
 30
0.0
  0
LINE
  5
B1
330
1F
100
AcDbEntity
  8
0
  6
Continuous
 62
     4
370
    25
100
AcDbLine
 10
9.897226831430082
 20
0.7035974518069128
 30
0.0
 11
9.897226831430082
 21
0.2230650641713454
 31
0.0
  0
SPLINE
  5
B2
330
1F
100
AcDbEntity
  8
0
  6
Continuous
 62
     4
370
    25
100
AcDbSpline
210
0.0
220
0.0
230
1.0
 70
     8
 71
     3
 72
    14
 73
    10
 74
     0
 42
0.000000001
 43
0.00000001
 40
0.0
 40
0.0
 40
0.0
 40
0.0
 40
0.0000499834890043
 40
0.0000499834890043
 40
0.0000499834890043
 40
0.0001001191565041
 40
0.0001001191565041
 40
0.0001001191565041
 40
0.0001268269751644
 40
0.0001268269751644
 40
0.0001268269751644
 40
0.0001268269751644
 10
9.946914484093151
 20
0.110332868557304
 30
0.0
 10
9.934928657732142
 20
0.121768676724638
 30
0.0
 10
9.924488196878759
 20
0.1353075752677699
 30
0.0
 10
9.91647045995745
 20
0.1499085859430038
 30
0.0
 10
9.90843848725646
 20
0.1645355212367658
 30
0.0
 10
9.902625455705618
 20
0.1806544174223773
 30
0.0
 10
9.899647936460802
 20
0.1968233929115603
 30
0.0
 10
9.898043973919306
 20
0.2055334729770933
 30
0.0
 10
9.897226831430082
 20
0.2143649052546014
 30
0.0
 10
9.897226831430082
 20
0.2230650641713449
 30
0.0
  0
SPLINE
  5
B3
330
1F
100
AcDbEntity
  8
0
  6
Continuous
 62
     4
370
    25
100
AcDbSpline
210
0.0
220
0.0
230
1.0
 70
     8
 71
     3
 72
    10
 73
     6
 74
     0
 42
0.000000001
 43
0.00000001
 40
0.0
 40
0.0
 40
0.0
 40
0.0
 40
0.5
 40
0.5
 40
1.0
 40
1.0
 40
1.0
 40
1.0
 10
10.39711431702993
 20
-0.2486607598931692
 30
0.0
 10
10.3180125661476
 20
-0.2003891936971573
 30
0.0
 10
10.24146677148321
 20
-0.1460494087289155
 30
0.0
 10
10.09222205951166
 20
-0.0255997649619351
 30
0.0
 10
10.01930498282394
 20
0.0412643010936871
 30
0.0
 10
9.94691448409319
 20
0.1103328685573133
 30
0.0
  0
LINE
  5
B4
330
1F
100
AcDbEntity
  8
0
  6
Continuous
 62
     4
370
    25
100
AcDbLine
 10
10.39711431702995
 20
-0.2486607598932242
 30
0.0
 11
10.39711431702995
 21
-0.5299067815428611
 31
0.0
  0
SPLINE
  5
B5
330
1F
100
AcDbEntity
  8
0
  6
Continuous
 62
     4
370
    25
100
AcDbSpline
210
0.0
220
0.0
230
1.0
 70
     8
 71
     3
 72
     8
 73
     4
 74
     0
 42
0.000000001
 43
0.00000001
 40
0.0
 40
0.0
 40
0.0
 40
0.0
 40
1.0
 40
1.0
 40
1.0
 40
1.0
 10
10.14464402336826
 20
-0.4037796040155283
 30
0.0
 10
10.22734680101845
 20
-0.4544038808548317
 30
0.0
 10
10.31212981084118
 20
-0.496779610866823
 30
0.0
 10
10.39711431703074
 20
-0.5299067815443916
 30
0.0
  0
SPLINE
  5
B6
330
1F
100
AcDbEntity
  8
0
  6
Continuous
 62
     4
370
    25
100
AcDbSpline
210
0.0
220
0.0
230
1.0
 70
     8
 71
     3
 72
    26
 73
    22
 74
     0
 42
0.000000001
 43
0.00000001
 40
0.0
 40
0.0
 40
0.0
 40
0.0
 40
0.0000473683298222
 40
0.0000473683298222
 40
0.0000473683298222
 40
0.0000946268601969
 40
0.0000946268601969
 40
0.0000946268601969
 40
0.0001434929095257
 40
0.0001434929095257
 40
0.0001434929095257
 40
0.0001951380251367
 40
0.0001951380251367
 40
0.0001951380251367
 40
0.0002483437757042
 40
0.0002483437757042
 40
0.0002483437757042
 40
0.000301459315316
 40
0.000301459315316
 40
0.000301459315316
 40
0.0003489253468196
 40
0.0003489253468196
 40
0.0003489253468196
 40
0.0003489253468196
 10
9.897226831430082
 20
-0.5350779504798697
 30
0.0
 10
9.897226831430086
 20
-0.5225099524826032
 30
0.0
 10
9.899800031282261
 20
-0.5090822690612953
 30
0.0
 10
9.904671363348918
 20
-0.4959759826504123
 30
0.0
 10
9.909536273412854
 20
-0.482886974594981
 30
0.0
 10
9.916807100734282
 20
-0.4697700818304734
 30
0.0
 10
9.925852143090395
 20
-0.4576851840424201
 30
0.0
 10
9.935205632349023
 20
-0.4451881765988042
 30
0.0
 10
9.946691934235442
 20
-0.4334704702565245
 30
0.0
 10
9.959444425114128
 20
-0.423449872207053
 30
0.0
 10
9.97290949117943
 20
-0.4128693498578483
 30
0.0
 10
9.988146192426287
 20
-0.4039049538613243
 30
0.0
 10
10.00400052384913
 20
-0.3973269951539012
 30
0.0
 10
10.02031971128816
 20
-0.3905561677850501
 30
0.0
 10
10.03774810156736
 20
-0.3861374447659746
 30
0.0
 10
10.05485930023744
 20
-0.3845022470123843
 30
0.0
 10
10.07193747580486
 20
-0.3828702050460829
 30
0.0
 10
10.08917813688829
 20
-0.3839725273268971
 30
0.0
 10
10.10507763310259
 20
-0.3877001878751708
 30
0.0
 10
10.1193261778823
 20
-0.3910407804027389
 30
0.0
 10
10.13284455106622
 20
-0.3965568749929221
 30
0.0
 10
10.14464402336698
 20
-0.4037796040146609
 30
0.0
  0
LINE
  5
B7
330
1F
100
AcDbEntity
  8
0
  6
Continuous
 62
     4
370
    25
100
AcDbLine
 10
9.897226831430082
 20
-0.5350779504798696
 30
0.0
 11
9.897226831430082
 21
-0.8553360535047912
 31
0.0
  0
SPLINE
  5
B8
330
1F
100
AcDbEntity
  8
0
  6
Continuous
 62
     4
370
    25
100
AcDbSpline
210
0.0
220
0.0
230
1.0
 70
     8
 71
     3
 72
    14
 73
    10
 74
     0
 42
0.000000001
 43
0.00000001
 40
0.0
 40
0.0
 40
0.0
 40
0.0
 40
0.0000499834890043
 40
0.0000499834890043
 40
0.0000499834890043
 40
0.0001001191565041
 40
0.0001001191565041
 40
0.0001001191565041
 40
0.0001268269751644
 40
0.0001268269751644
 40
0.0001268269751644
 40
0.0001268269751644
 10
9.946914484093151
 20
-0.8636112794407561
 30
0.0
 10
9.934928657732142
 20
-0.865387964715127
 30
0.0
 10
9.924488196878759
 20
-0.8662550845230439
 30
0.0
 10
9.91647045995745
 20
-0.8659076158439565
 30
0.0
 10
9.90843848725646
 20
-0.8655595302217577
 30
0.0
 10
9.902625455705618
 20
-0.8639650386613076
 30
0.0
 10
9.899647936460802
 20
-0.8610876099593787
 30
0.0
 10
9.898043973919306
 20
-0.8595375652831759
 30
0.0
 10
9.897226831430082
 20
-0.8576049880353915
 30
0.0
 10
9.897226831430082
 20
-0.8553360535047914
 30
0.0
  0
SPLINE
  5
B9
330
1F
100
AcDbEntity
  8
0
  6
Continuous
 62
     4
370
    25
100
AcDbSpline
210
0.0
220
0.0
230
1.0
 70
     8
 71
     3
 72
    10
 73
     6
 74
     0
 42
0.000000001
 43
0.00000001
 40
0.0
 40
0.0
 40
0.0
 40
0.0
 40
0.5
 40
0.5
 40
1.0
 40
1.0
 40
1.0
 40
1.0
 10
10.39711431702993
 20
-0.7075788482489735
 30
0.0
 10
10.3180125661476
 20
-0.7470086334979009
 30
0.0
 10
10.24146677148321
 20
-0.7806391400349713
 30
0.0
 10
10.09222205951166
 20
-0.8336620211904228
 30
0.0
 10
10.01930498282394
 20
-0.8528806773760372
 30
0.0
 10
9.94691448409319
 20
-0.8636112794409604
 30
0.0
  0
LINE
  5
BA
330
1F
100
AcDbEntity
  8
0
  6
Continuous
 62
     4
370
    25
100
AcDbLine
 10
-32.60288568297005
 20
2.499999999999996
 30
0.0
 11
-32.60288568297005
 21
-2.499999999999999
 31
0.0
  0
SPLINE
  5
BB
330
1F
100
AcDbEntity
  8
0
  6
Continuous
 62
     4
370
    25
100
AcDbSpline
210
0.0
220
0.0
230
1.0
 70
     8
 71
     3
 72
    12
 73
     8
 74
     0
 42
0.000000001
 43
0.00000001
 40
0.0
 40
0.0
 40
0.0
 40
0.0
 40
0.5
 40
0.5
 40
0.75
 40
0.75
 40
1.0
 40
1.0
 40
1.0
 40
1.0
 10
11.39711431702995
 20
-0.1903969188827042
 30
0.0
 10
11.23263798680289
 20
-0.0648599097234347
 30
0.0
 10
11.06238436993882
 20
0.0707872865749867
 30
0.0
 10
10.81526438921991
 20
0.2587983305955146
 30
0.0
 10
10.7298546235134
 20
0.3199842708065798
 30
0.0
 10
10.56152522430475
 20
0.4330970113344275
 30
0.0
 10
10.48084619220847
 20
0.4846275975428977
 30
0.0
 10
10.39711431702995
 20
0.5307530526288903
 30
0.0
  0
SPLINE
  5
BC
330
1F
100
AcDbEntity
  8
0
  6
Continuous
 62
     4
370
    25
100
AcDbSpline
210
0.0
220
0.0
230
1.0
 70
     8
 71
     3
 72
    12
 73
     8
 74
     0
 42
0.000000001
 43
0.00000001
 40
0.0
 40
0.0
 40
0.0
 40
0.0
 40
0.5000000000000001
 40
0.5000000000000001
 40
0.75
 40
0.75
 40
1.0
 40
1.0
 40
1.0
 40
1.0
 10
11.39711431702996
 20
-0.7365052775261975
 30
0.0
 10
11.2326379868029
 20
-0.7119953889554688
 30
0.0
 10
11.06238436993882
 20
-0.6529348737144717
 30
0.0
 10
10.81526438921991
 20
-0.5257820643061848
 30
0.0
 10
10.7298546235134
 20
-0.4763874540506642
 30
0.0
 10
10.56152522430475
 20
-0.3683058589093307
 30
0.0
 10
10.48084619220847
 20
-0.3102515859054463
 30
0.0
 10
10.39711431702995
 20
-0.248660759893218
 30
0.0
  0
SPLINE
  5
BD
330
1F
100
AcDbEntity
  8
0
  6
Continuous
 62
     4
370
    25
100
AcDbSpline
210
0.0
220
0.0
230
1.0
 70
     8
 71
     3
 72
    11
 73
     7
 74
     0
 42
0.000000001
 43
0.00000001
 40
0.0
 40
0.0
 40
0.0
 40
0.0
 40
0.0041834333250127
 40
0.2849496200829471
 40
0.641883127713454
 40
1.0
 40
1.0
 40
1.0
 40
1.0
 10
10.61090294467682
 20
0.6343719342013673
 30
0.0
 10
10.61199611720676
 20
0.6349072339143429
 30
0.0
 10
10.68645627299089
 20
0.6713685416471405
 30
0.0
 10
10.85576168181577
 20
0.7186997374626333
 30
0.0
 10
11.11569410570126
 20
0.7640863656611874
 30
0.0
 10
11.30320414070689
 20
0.7383298146157373
 30
0.0
 10
11.39711431703089
 20
0.7254302263344821
 30
0.0
  0
SPLINE
  5
BE
330
1F
100
AcDbEntity
  8
0
  6
Continuous
 62
     4
370
    25
100
AcDbSpline
210
0.0
220
0.0
230
1.0
 70
     8
 71
     3
 72
    12
 73
     8
 74
     0
 42
0.000000001
 43
0.00000001
 40
0.0
 40
0.0
 40
0.0
 40
0.0
 40
0.4999999999999999
 40
0.4999999999999999
 40
0.7499999999999999
 40
0.7499999999999999
 40
1.0
 40
1.0
 40
1.0
 40
1.0
 10
11.39711431702996
 20
0.1416332453065197
 30
0.0
 10
11.2326379868029
 20
0.2690868120510672
 30
0.0
 10
11.06238436993882
 20
0.3912026829157728
 30
0.0
 10
10.81526438921991
 20
0.5387662693248216
 30
0.0
 10
10.7298546235134
 20
0.5829507368042471
 30
0.0
 10
10.56152522430475
 20
0.6566028953717378
 30
0.0
 10
10.48084619220847
 20
0.6859343041298848
 30
0.0
 10
10.39711431702994
 20
0.7075788482489636
 30
0.0
  0
SPLINE
  5
BF
330
1F
100
AcDbEntity
  8
0
  6
Continuous
 62
     4
370
    25
100
AcDbSpline
210
0.0
220
0.0
230
1.0
 70
     8
 71
     3
 72
    11
 73
     7
 74
     0
 42
0.000000001
 43
0.00000001
 40
0.0
 40
0.0
 40
0.0
 40
0.0
 40
0.2886594010618854
 40
0.5813651028507334
 40
0.953477122639705
 40
1.0
 40
1.0
 40
1.0
 40
1.0
 10
10.39711431702995
 20
-0.5299067815428611
 30
0.0
 10
10.46936234484994
 20
-0.5677822374749664
 30
0.0
 10
10.61487114161807
 20
-0.6440640708484308
 30
0.0
 10
10.85567200598474
 20
-0.7188870768096309
 30
0.0
 10
11.03374802344049
 20
-0.7578538996609797
 30
0.0
 10
11.13898523227505
 20
-0.747631433298005
 30
0.0
 10
11.15068023857693
 20
-0.7464954110691776
 30
0.0
  0
LINE
  5
C0
330
1F
100
AcDbEntity
  8
0
  6
Continuous
 62
     4
370
    25
100
AcDbLine
 10
10.61090294467682
 20
-0.6343719342013642
 30
0.0
 11
10.39711431702995
 21
-0.707578848248958
 31
0.0
  0
SPLINE
  5
C1
330
1F
100
AcDbEntity
  8
0
  6
Continuous
 62
     1
370
    25
100
AcDbSpline
210
0.0
220
0.0
230
1.0
 70
     8
 71
     3
 72
    19
 73
    15
 74
     0
 42
0.000000001
 43
0.00000001
 40
0.0
 40
0.0
 40
0.0
 40
0.0
 40
0.0777218842705914
 40
0.1655726869675636
 40
0.2538792513224077
 40
0.3416683040668349
 40
0.4293110135520125
 40
0.5173790978618695
 40
0.6055542660099716
 40
0.693224897150134
 40
0.7809550515633342
 40
0.8692295857243516
 40
0.9571633821495626
 40
1.0
 40
1.0
 40
1.0
 40
1.0
 10
12.12034742949599
 20
0.6312736631917383
 30
0.0
 10
12.21233044988225
 20
0.6659816726119333
 30
0.0
 10
12.40828395749049
 20
0.739920929655546
 30
0.0
 10
12.70887809978557
 20
0.761205300503851
 30
0.0
 10
13.02246262889799
 20
0.7099160870804538
 30
0.0
 10
13.33464474336203
 20
0.5821060252150687
 30
0.0
 10
13.64638032929586
 20
0.3933307674346578
 30
0.0
 10
13.95931999032902
 20
0.1636260265978361
 30
0.0
 10
14.27254511512911
 20
-0.0829830669029114
 30
0.0
 10
14.58438072490506
 20
-0.3215154704647534
 30
0.0
 10
14.89640062988112
 20
-0.5272239063077276
 30
0.0
 10
15.20988879489829
 20
-0.6726072850103646
 30
0.0
 10
15.46941018980436
 20
-0.7481031580737273
 30
0.0
 10
15.62416439192402
 20
-0.7420898020316287
 30
0.0
 10
15.67485740726444
 20
-0.7401199999460357
 30
0.0
  0
SPLINE
  5
C2
330
1F
100
AcDbEntity
  8
0
  6
Continuous
 62
     1
370
    25
100
AcDbSpline
210
0.0
220
0.0
230
1.0
 70
     8
 71
     3
 72
    19
 73
    15
 74
     0
 42
0.000000001
 43
0.00000001
 40
0.0
 40
0.0
 40
0.0
 40
0.0
 40
0.0506995103219181
 40
0.1390470020991117
 40
0.2269901251730658
 40
0.3146682149148994
 40
0.4026544580166758
 40
0.4909816420817156
 40
0.5787641217125288
 40
0.6664870425686211
 40
0.7547148013555098
 40
0.8428354124357473
 40
0.9305303949834394
 40
1.0
 40
1.0
 40
1.0
 40
1.0
 10
16.64073340271676
 20
-0.6253680900996376
 30
0.0
 10
16.58070517874509
 20
-0.6522178091234969
 30
0.0
 10
16.41607351797367
 20
-0.7258550674276896
 30
0.0
 10
16.14661006866154
 20
-0.7602490047300048
 30
0.0
 10
15.83414050845724
 20
-0.7342507506103928
 30
0.0
 10
15.52247009044628
 20
-0.6272395140615619
 30
0.0
 10
15.20989036018378
 20
-0.4552935426434396
 30
0.0
 10
14.89640013356073
 20
-0.2361169048886452
 30
0.0
 10
14.58438115022562
 20
0.0089263335137027
 30
0.0
 10
14.27254390569945
 20
0.2528781256310818
 30
0.0
 10
13.95932442757545
 20
0.4700373029778412
 30
0.0
 10
13.64636385593184
 20
0.6358184205473666
 30
0.0
 10
13.35642247613479
 20
0.7364462745831366
 30
0.0
 10
13.17036074355399
 20
0.7413126379148696
 30
0.0
 10
13.08811807507881
 20
0.7434636589798684
 30
0.0
  0
SPLINE
  5
C3
330
1F
100
AcDbEntity
  8
0
  6
Continuous
 62
     1
370
    25
100
AcDbSpline
210
0.0
220
0.0
230
1.0
 70
     8
 71
     3
 72
    19
 73
    15
 74
     0
 42
0.000000001
 43
0.00000001
 40
0.0
 40
0.0
 40
0.0
 40
0.0
 40
0.0671286110248069
 40
0.1548541105979823
 40
0.2425200900563431
 40
0.3306905797526107
 40
0.4187539912923529
 40
0.5063920505772124
 40
0.5941764453565521
 40
0.682478324287862
 40
0.7703244657433801
 40
0.8579489397589777
 40
0.945924340861786
 40
1.0
 40
1.0
 40
1.0
 40
1.0
 10
15.13490653132005
 20
-0.6284925456201077
 30
0.0
 10
15.05521853143882
 20
-0.6602658002675762
 30
0.0
 10
14.87139208011571
 20
-0.7335612105870108
 30
0.0
 10
14.58437768378882
 20
-0.7619697566920767
 30
0.0
 10
14.27254592680293
 20
-0.7205907143394235
 30
0.0
 10
13.95931980345618
 20
-0.6016810646318688
 30
0.0
 10
13.6463802642527
 20
-0.4201898276105419
 30
0.0
 10
13.33464518707649
 20
-0.1938890095231127
 30
0.0
 10
13.0224609108125
 20
0.052888581486548
 30
0.0
 10
12.70888455424859
 20
0.2926027616154127
 30
0.0
 10
12.39652981933786
 20
0.5038896466633732
 30
0.0
 10
12.0848489693705
 20
0.657690371011967
 30
0.0
 10
11.81262558141628
 20
0.7456613420015871
 30
0.0
 10
11.64401958846344
 20
0.7385108840475916
 30
0.0
 10
11.57983506081466
 20
0.735788864751528
 30
0.0
  0
SPLINE
  5
C4
330
1F
100
AcDbEntity
  8
0
  6
Continuous
 62
     1
370
    25
100
AcDbSpline
210
0.0
220
0.0
230
1.0
 70
     8
 71
     3
 72
    15
 73
    11
 74
     0
 42
0.000000001
 43
0.00000001
 40
0.0
 40
0.0
 40
0.0
 40
0.0
 40
0.1359426854628381
 40
0.2720711700743433
 40
0.3945870193284263
 40
0.516542110443341
 40
0.6381296666898377
 40
0.7601445544862679
 40
0.8826322420285596
 40
1.0
 40
1.0
 40
1.0
 40
1.0
 10
17.15753148564055
 20
-0.6677577045651344
 30
0.0
 10
17.04148145822292
 20
-0.617839538672958
 30
0.0
 10
16.80922279245376
 20
-0.5179349814251003
 30
0.0
 10
16.4723689496702
 20
-0.2847113064215347
 30
0.0
 10
16.14662278029692
 20
-0.0351198765279643
 30
0.0
 10
15.8341372403732
 20
0.211010179787795
 30
0.0
 10
15.52247052303959
 20
0.4351372347944077
 30
0.0
 10
15.20989191535906
 20
0.6116827583011839
 30
0.0
 10
14.90012954707294
 20
0.7284409208861103
 30
0.0
 10
14.69558403471276
 20
0.7420031421272064
 30
0.0
 10
14.59549438222471
 20
0.7486395038607113
 30
0.0
  0
SPLINE
  5
C5
330
1F
100
AcDbEntity
  8
0
  6
Continuous
 62
     1
370
    25
100
AcDbSpline
210
0.0
220
0.0
230
1.0
 70
     8
 71
     3
 72
    10
 73
     6
 74
     0
 42
0.000000001
 43
0.00000001
 40
0.0
 40
0.0
 40
0.0
 40
0.0
 40
0.0487340150793107
 40
0.4815106869724095
 40
1.0
 40
1.0
 40
1.0
 40
1.0
 10
12.120347429496
 20
-0.6312736631917342
 30
0.0
 10
12.10862222781716
 20
-0.637188520605436
 30
0.0
 10
11.99277275581946
 20
-0.6956295715219346
 30
0.0
 10
11.75174591975426
 20
-0.7537829237531847
 30
0.0
 10
11.52221860910629
 20
-0.742600356710875
 30
0.0
 10
11.39711431703087
 20
-0.7365052775263341
 30
0.0
  0
SPLINE
  5
C6
330
1F
100
AcDbEntity
  8
0
  6
Continuous
 62
     1
370
    25
100
AcDbSpline
210
0.0
220
0.0
230
1.0
 70
     8
 71
     3
 72
    11
 73
     7
 74
     0
 42
0.000000001
 43
0.00000001
 40
0.0
 40
0.0
 40
0.0
 40
0.0
 40
0.2970314849172485
 40
0.5449600231919042
 40
0.7918995936564387
 40
1.0
 40
1.0
 40
1.0
 40
1.0
 10
11.39711431703089
 20
-0.1903969188834248
 30
0.0
 10
11.52222415303233
 20
-0.2820696681868848
 30
0.0
 10
11.75176163505339
 20
-0.4502605372471031
 30
0.0
 10
12.0848703982204
 20
-0.6288256070207012
 30
0.0
 10
12.37991025176919
 20
-0.7343610722450947
 30
0.0
 10
12.57124628618406
 20
-0.7414595774731885
 30
0.0
 10
12.65874872231989
 20
-0.7447058896604386
 30
0.0
  0
SPLINE
  5
C7
330
1F
100
AcDbEntity
  8
0
  6
Continuous
 62
     1
370
    25
100
AcDbSpline
210
0.0
220
0.0
230
1.0
 70
     8
 71
     3
 72
    15
 73
    11
 74
     0
 42
0.000000001
 43
0.00000001
 40
0.0
 40
0.0
 40
0.0
 40
0.0
 40
0.0332205855911307
 40
0.1713892689919321
 40
0.3090740455622126
 40
0.4471750156789553
 40
0.5859109838290895
 40
0.7238034113173323
 40
0.8615340705883623
 40
1.0
 40
1.0
 40
1.0
 40
1.0
 10
15.13490653132005
 20
0.6284925456201123
 30
0.0
 10
15.15999467193116
 20
0.6406833930628281
 30
0.0
 10
15.2894276124767
 20
0.7035775412068339
 30
0.0
 10
15.52246895387905
 20
0.7504125948729604
 30
0.0
 10
15.83414220164291
 20
0.753695924104475
 30
0.0
 10
16.14660440202139
 20
0.6724372653592539
 30
0.0
 10
16.46014934574882
 20
0.5225385577665066
 30
0.0
 10
16.77224746971185
 20
0.3169377052841274
 30
0.0
 10
17.08402820636626
 20
0.0767467327355676
 30
0.0
 10
17.29256722775322
 20
-0.0850124879731937
 30
0.0
 10
17.39711431702996
 20
-0.1661074100472491
 30
0.0
  0
LINE
  5
C8
330
1F
100
AcDbEntity
  8
0
  6
Continuous
 62
     1
370
    25
100
AcDbLine
 10
17.39711431702995
 20
-0.4999999999999982
 30
0.0
 11
17.39711431702995
 21
-0.1666696716214243
 31
0.0
  0
SPLINE
  5
C9
330
1F
100
AcDbEntity
  8
0
  6
Continuous
 62
     1
370
    25
100
AcDbSpline
210
0.0
220
0.0
230
1.0
 70
    24
 71
     3
 72
     8
 73
     4
 74
     0
 42
0.000000001
 43
0.00000001
 40
0.0
 40
0.0
 40
0.0
 40
0.0
 40
1.0
 40
1.0
 40
1.0
 40
1.0
 10
17.39711431702995
 20
-0.4999999999999981
 30
0.0
 10
17.30729481895334
 20
-0.5628922896314534
 30
0.0
 10
17.22606903602635
 20
-0.6197671951339202
 30
0.0
 10
17.15753148563994
 20
-0.6677577045649179
 30
0.0
  0
SPLINE
  5
CA
330
1F
100
AcDbEntity
  8
0
  6
Continuous
 62
     1
370
    25
100
AcDbSpline
210
0.0
220
0.0
230
1.0
 70
     8
 71
     3
 72
    20
 73
    16
 74
     0
 42
0.000000001
 43
0.00000001
 40
0.0
 40
0.0
 40
0.0
 40
0.0
 40
0.005482856257523
 40
0.0935305192115809
 40
0.1816852411731274
 40
0.2693355431195111
 40
0.3570453545365894
 40
0.4452994194699152
 40
0.5332128256781976
 40
0.6208183336224782
 40
0.7086886554986195
 40
0.7969630113329411
 40
0.8847006425561804
 40
0.9723353445581131
 40
1.0
 40
1.0
 40
1.0
 40
1.0
 10
13.62652730284472
 20
0.6326624710583872
 30
0.0
 10
13.63301819042129
 20
0.6359780876901673
 30
0.0
 10
13.74374443540477
 20
0.6925382691925405
 30
0.0
 10
13.95934974468726
 20
0.7412222210105445
 30
0.0
 10
14.27253716061548
 20
0.7600069637845878
 30
0.0
 10
14.58438295925987
 20
0.6919951702666736
 30
0.0
 10
14.8963996262835
 20
0.552791116741246
 30
0.0
 10
15.20989056720301
 20
0.3559457276401454
 30
0.0
 10
15.52246977089186
 20
0.1212264926362786
 30
0.0
 10
15.83414157819377
 20
-0.1266462796070065
 30
0.0
 10
16.14660608706022
 20
-0.3606082716893617
 30
0.0
 10
16.46014321781323
 20
-0.5574280235095448
 30
0.0
 10
16.77227012341991
 20
-0.6910459269360586
 30
0.0
 10
17.01244953652208
 20
-0.7539303576115478
 30
0.0
 10
17.14923772635875
 20
-0.7438632549179149
 30
0.0
 10
17.18205836147976
 20
-0.7414477780801264
 30
0.0
  0
SPLINE
  5
CB
330
1F
100
AcDbEntity
  8
0
  6
Continuous
 62
     1
370
    25
100
AcDbSpline
210
0.0
220
0.0
230
1.0
 70
     8
 71
     3
 72
    11
 73
     7
 74
     0
 42
0.000000001
 43
0.00000001
 40
0.0
 40
0.0
 40
0.0
 40
0.0
 40
0.3304784924765132
 40
0.66140866517654
 40
0.9592463386645871
 40
1.0
 40
1.0
 40
1.0
 40
1.0
 10
17.15753148564055
 20
0.3414669061474387
 30
0.0
 10
17.04147758617538
 20
0.4184254991118515
 30
0.0
 10
16.80921117101904
 20
0.5724478679051076
 30
0.0
 10
16.47241356931268
 20
0.7038066090206583
 30
0.0
 10
16.23655822605784
 20
0.7593187674286197
 30
0.0
 10
16.11765013527119
 20
0.7468200086774123
 30
0.0
 10
16.10333807360993
 20
0.7453156282374187
 30
0.0
  0
SPLINE
  5
CC
330
1F
100
AcDbEntity
  8
0
  6
Continuous
 62
     1
370
    25
100
AcDbSpline
210
0.0
220
0.0
230
1.0
 70
     8
 71
     3
 72
    14
 73
    10
 74
     0
 42
0.000000001
 43
0.00000001
 40
0.0
 40
0.0
 40
0.0
 40
0.0
 40
0.1310095631696896
 40
0.2709974406711844
 40
0.4118105389679818
 40
0.5518968825597504
 40
0.691629737874888
 40
0.8319222090331364
 40
1.0
 40
1.0
 40
1.0
 40
1.0
 10
13.62652730284472
 20
-0.6326624710583834
 30
0.0
 10
13.52928009710008
 20
-0.6683805387484488
 30
0.0
 10
13.32812116464042
 20
-0.742264495732494
 30
0.0
 10
13.02246980206215
 20
-0.760565683617947
 30
0.0
 10
12.70888264551683
 20
-0.7052181657670711
 30
0.0
 10
12.39652860226907
 20
-0.5740153472295613
 30
0.0
 10
12.0848557302688
 20
-0.3828941849756876
 30
0.0
 10
11.75176616764553
 20
-0.135693282181271
 30
0.0
 10
11.52222575200637
 20
0.0438000611547982
 30
0.0
 10
11.39711431703087
 20
0.1416332453058148
 30
0.0
  0
SPLINE
  5
CD
330
1F
100
AcDbEntity
  8
0
  6
Continuous
 62
     1
370
    25
100
AcDbSpline
210
0.0
220
0.0
230
1.0
 70
     8
 71
     3
 72
    16
 73
    12
 74
     0
 42
0.000000001
 43
0.00000001
 40
0.0
 40
0.0
 40
0.0
 40
0.0
 40
0.1352705040556546
 40
0.2481791351104995
 40
0.3606373823475912
 40
0.4733801200999528
 40
0.5867077565156571
 40
0.6993712478810504
 40
0.8118469306073318
 40
0.9248685152586157
 40
1.0
 40
1.0
 40
1.0
 40
1.0
 10
11.39711431703089
 20
0.7254302263344822
 30
0.0
 10
11.52222573159828
 20
0.6900366563901813
 30
0.0
 10
11.75176610979494
 20
0.6251005076076238
 30
0.0
 10
12.08485591747949
 20
0.4293870225824066
 30
0.0
 10
12.39652789841937
 20
0.2060590195467588
 30
0.0
 10
12.70888528788473
 20
-0.0405356812198498
 30
0.0
 10
13.02245990841127
 20
-0.2811275934239442
 30
0.0
 10
13.33464844032097
 20
-0.4943211000256966
 30
0.0
 10
13.64636824210771
 20
-0.652315918872483
 30
0.0
 10
13.92421868451811
 20
-0.741547676809401
 30
0.0
 10
14.09810780629316
 20
-0.7412527413345393
 30
0.0
 10
14.16754354784925
 20
-0.7411349705205911
 30
0.0
  0
SPLINE
  5
CE
330
1F
100
AcDbEntity
  8
0
  6
Continuous
 62
     1
370
    25
100
AcDbSpline
210
0.0
220
0.0
230
1.0
 70
     8
 71
     3
 72
    10
 73
     6
 74
     0
 42
0.000000001
 43
0.00000001
 40
0.0
 40
0.0
 40
0.0
 40
0.0
 40
0.1740812203443051
 40
0.5859412602125017
 40
0.9999999999999999
 40
0.9999999999999999
 40
0.9999999999999999
 40
0.9999999999999999
 10
16.64073340271676
 20
0.6253680900996416
 30
0.0
 10
16.68461177581331
 20
0.6455856104264875
 30
0.0
 10
16.83230231461708
 20
0.713635910827955
 30
0.0
 10
17.08400734748117
 20
0.7606771914482238
 30
0.0
 10
17.29256026246268
 20
0.7411592327493001
 30
0.0
 10
17.39711431702996
 20
0.7313742737664448
 30
0.0
  0
LINE
  5
CF
330
1F
100
AcDbEntity
  8
0
  6
Continuous
 62
     1
370
    25
100
AcDbLine
 10
17.39711431702995
 20
0.1997949506173571
 30
0.0
 11
17.39711431702995
 21
0.7313742737664481
 31
0.0
  0
SPLINE
  5
D0
330
1F
100
AcDbEntity
  8
0
  6
Continuous
 62
     1
370
    25
100
AcDbSpline
210
0.0
220
0.0
230
1.0
 70
     8
 71
     3
 72
     8
 73
     4
 74
     0
 42
0.000000001
 43
0.00000001
 40
0.0
 40
0.0
 40
0.0
 40
0.0
 40
1.0
 40
1.0
 40
1.0
 40
1.0
 10
17.39711431702995
 20
0.1997949506173571
 30
0.0
 10
17.30729481895334
 20
0.2156915477424797
 30
0.0
 10
17.22606903602635
 20
0.269506916593951
 30
0.0
 10
17.15753148563994
 20
0.3414669061478613
 30
0.0
  0
LINE
  5
D1
330
1F
100
AcDbEntity
  8
0
  6
Continuous
 62
     1
370
    25
100
AcDbLine
 10
17.39711431702995
 20
0.7313742737664481
 30
0.0
 11
17.39711431702995
 21
0.7500000000000029
 31
0.0
  0
LINE
  5
D2
330
1F
100
AcDbEntity
  8
0
  6
Continuous
 62
     1
370
    25
100
AcDbLine
 10
17.15753148563994
 20
-0.6677577045649178
 30
0.0
 11
17.11737298322209
 21
-0.6958769906811076
 31
0.0
  0
ELLIPSE
  5
D3
330
1F
100
AcDbEntity
  8
0
  6
Continuous
 62
     1
370
    25
100
AcDbEllipse
 10
17.15288662405185
 20
0.0000000000000022
 30
0.0
 11
1.041992479244975
 21
-0.412755754531322
 31
0.0
210
0.0
220
0.0
230
1.0
 40
0.6009688174887259
 41
4.912933762914535
 42
5.176132609328195
  0
LINE
  5
D4
330
1F
100
AcDbEntity
  8
0
  6
Continuous
 62
     1
370
    25
100
AcDbLine
 10
17.39711431702995
 20
-0.7499999999999993
 30
0.0
 11
17.39711431702995
 21
-0.7446933086021934
 31
0.0
  0
ELLIPSE
  5
D5
330
1F
100
AcDbEntity
  8
0
  6
Continuous
 62
     1
370
    25
100
AcDbEllipse
 10
18.11118832040101
 20
0.0000000000000018
 30
0.0
 11
1.071111005056583
 21
-1.972152263052530E-31
 31
0.0
210
0.0
220
0.0
230
1.0
 40
0.7002075382097123
 41
2.668895638805572
 42
2.759364833374628
  0
ELLIPSE
  5
D6
330
1F
100
AcDbEntity
  8
0
  6
Continuous
 62
     1
370
    25
100
AcDbEllipse
 10
17.15288662405185
 20
0.0000000000000018
 30
0.0
 11
1.064326924485588
 21
-0.7291305528055548
 31
0.0
210
0.0
220
0.0
230
1.0
 40
0.1650759015746656
 41
1.453368357947249
 42
1.716567204360908
  0
LINE
  5
D7
330
1F
100
AcDbEntity
  8
0
  6
Continuous
 62
     1
370
    25
100
AcDbLine
 10
17.39711431702995
 20
-0.1661074100472493
 30
0.0
 11
17.39711431702995
 21
0.089061080855314
 31
0.0
  0
LINE
  5
D8
330
1F
100
AcDbEntity
  8
0
  6
Continuous
 62
     1
370
    25
100
AcDbLine
 10
17.39711431702995
 20
0.0890610808553133
 30
0.0
 11
17.39711431702995
 21
0.1997949506173571
 31
0.0
  0
LINE
  5
D9
330
1F
100
AcDbEntity
  8
0
  6
Continuous
 62
     1
370
    25
100
AcDbLine
 10
17.39711431702995
 20
-0.4999999999999978
 30
0.0
 11
17.39711431702995
 21
-0.7446933086021934
 31
0.0
  0
LINE
  5
DA
330
1F
100
AcDbEntity
  8
중심선
100
AcDbLine
 10
-35.60288568297004
 20
-0.0000000000000026
 30
0.0
 11
18.89711431702996
 21
0.0000000000000041
 31
0.0
  0
CIRCLE
  5
DB
330
1F
100
AcDbEntity
  8
해칭선
100
AcDbCircle
 10
-0.0077623743171187
 20
-0.0000000000000042
 30
0.0
 40
3.000000000000001
  0
INSERT
  5
DC
330
1F
100
AcDbEntity
  8
0
  6
Continuous
 62
     7
100
AcDbBlockReference
 66
     1
  2
블럭10
 10
-21.44814782084246
 20
-52.04717430164393
 30
0.0
  0
ATTRIB
  5
DD
330
DC
100
AcDbEntity
  8
FORMAT
 62
     2
100
AcDbText
 10
-37.56740886027801
 20
-49.97180738881174
 30
0.0
 40
4.233333333333333
  1
SEME7101506E [ 4 FLUTE ]
 41
0.75
  7
SLDTEXTSTYLE0
 11
-37.56740886027801
 21
-52.08847405547841
 31
0.0
100
AcDbAttribute
  2
AUTOATTR0
 70
     0
 74
     1
  0
SEQEND
  5
DE
330
DC
100
AcDbEntity
  8
0
  6
Continuous
 62
     7
  0
HATCH
  5
DF
330
1F
100
AcDbEntity
  8
중심선
100
AcDbHatch
 10
0.0
 20
0.0
 30
0.0
210
0.0
220
0.0
230
1.0
  2
SOLID
 70
     1
 71
     0
 91
        1
 92
        0
 93
        4
 72
     1
 10
-15.73323851646161
 20
-35.8
 11
-19.17951376029889
 21
-35.8
 72
     1
 10
-19.17951376029889
 20
-35.8
 11
-21.30774361950294
 21
-38.33632558057259
 72
     1
 10
-21.30774361950294
 20
-38.33632558057259
 11
-17.86143529055248
 21
-38.3362861512701
 72
     1
 10
-17.86143529055248
 20
-38.3362861512701
 11
-15.73323851646161
 21
-35.8
 97
        0
 75
     0
 76
     1
 98
        1
 10
0.0
 20
0.0
  0
HATCH
  5
E0
330
1F
100
AcDbEntity
  8
중심선
100
AcDbHatch
 10
0.0
 20
0.0
 30
0.0
210
0.0
220
0.0
230
1.0
  2
SOLID
 70
     1
 71
     0
 91
        1
 92
        0
 93
        4
 72
     1
 10
-10.72047452542563
 20
-35.79999999999997
 11
-14.16674976926294
 21
-35.80000000000003
 72
     1
 10
-14.16674976926294
 20
-35.80000000000003
 11
-18.69788777762033
 21
-41.20000000000002
 72
     1
 10
-18.69788777762033
 20
-41.20000000000002
 11
-15.25161253378304
 21
-41.20000000000002
 72
     1
 10
-15.25161253378304
 20
-41.20000000000002
 11
-10.72047452542563
 21
-35.79999999999997
 97
        0
 75
     0
 76
     1
 98
        1
 10
0.0
 20
0.0
  0
HATCH
  5
E1
330
1F
100
AcDbEntity
  8
중심선
100
AcDbHatch
 10
0.0
 20
0.0
 30
0.0
210
0.0
220
0.0
230
1.0
  2
SOLID
 70
     1
 71
     0
 91
        1
 92
        0
 93
        4
 72
     1
 10
-5.70771053438976
 20
-35.8
 11
-9.153985778226875
 21
-35.80000000000003
 72
     1
 10
-9.153985778226875
 20
-35.80000000000003
 11
-16.20242268011613
 21
-44.20000000000002
 72
     1
 10
-16.20242268011613
 20
-44.20000000000002
 11
-12.75614743627884
 21
-44.20000000000002
 72
     1
 10
-12.75614743627884
 20
-44.20000000000002
 11
-5.70771053438976
 21
-35.8
 97
        0
 75
     0
 76
     1
 98
        1
 10
0.0
 20
0.0
  0
HATCH
  5
E2
330
1F
100
AcDbEntity
  8
중심선
100
AcDbHatch
 10
0.0
 20
0.0
 30
0.0
210
0.0
220
0.0
230
1.0
  2
SOLID
 70
     1
 71
     0
 91
        1
 92
        0
 93
        6
 72
     3
 10
-0.9078201033775601
 20
-40.00000000005127
 11
3.960054785062284
 21
1.540850780301639E-10
 40
0.3939339440162633
 50
17.09539180608433
 51
320.0019657685079
 73
     0
 72
     1
 10
0.7751795523230354
 20
-38.5878940046383
 11
3.080481426024101
 21
-36.65356729459038
 72
     3
 10
-0.9078201034304068
 20
-40.00000000000015
 11
6.600054785286829
 21
-1.249000902703301E-13
 40
0.6363583540795982
 50
39.99873849337387
 51
368.4976242363725
 73
     1
 72
     1
 10
5.517512388470203
 20
-39.03999999993002
 11
-2.227752796594457
 21
-39.03999999992999
 72
     1
 10
-2.227752796594457
 20
-39.03999999992999
 11
-2.227777841040418
 21
-40.95999999992991
 72
     1
 10
-2.227777841040418
 20
-40.95999999992991
 11
2.213601928431619
 21
-40.95999999992988
 97
        0
 75
     0
 76
     1
 98
        1
 10
0.0
 20
0.0
  0
DIMENSION
  5
E3
330
1F
100
AcDbEntity
  8
치수문자_일반주서
100
AcDbDimension
  2
_D
 10
28.14867367375088
 20
0.750000000000048
 30
0.0
 11
28.14867367375086
 21
11.72900000000005
 31
0.0
 70
   160
  1
%%c<>
 71
     2
 42
1.500000000000011
 52
-270.0
  3
SLDDIMSTYLE0
100
AcDbAlignedDimension
 13
17.39711431702996
 23
-0.7500000000000042
 33
0.0
 14
17.39711431702996
 24
0.7500000000000069
 34
0.0
 50
90.0000000000002
100
AcDbRotatedDimension
  0
DIMENSION
  5
F1
330
1F
100
AcDbEntity
  8
치수문자_일반주서
100
AcDbDimension
  2
_D_1
 10
17.39711431702995
 20
20.38913260158165
 30
0.0
 11
-7.602885682970049
 21
20.38913260158165
 31
0.0
 70
   160
  1
<>
 71
     2
 42
50.00000000000001
  3
SLDDIMSTYLE1
100
AcDbAlignedDimension
 13
-32.60288568297005
 23
2.499999999999996
 33
0.0
 14
17.39711431702995
 24
0.7500000000000029
 34
0.0
100
AcDbRotatedDimension
  0
DIMENSION
  5
FC
330
1F
100
AcDbEntity
  8
치수문자_일반주서
100
AcDbDimension
  2
_D_2
 10
-40.40775381903421
 20
-3.000000000000034
 30
0.0
 11
-40.40775381903426
 21
12.66649999999997
 31
0.0
 70
   160
  1
%%c<>
 71
     2
 42
6.000000000000005
 52
-270.0
  3
SLDDIMSTYLE2
100
AcDbAlignedDimension
 13
-32.10288568297005
 23
3.000000000000004
 33
0.0
 14
-32.10288568297005
 24
-3.000000000000001
 34
0.0
 50
90.0000000000002
100
AcDbRotatedDimension
  0
DIMENSION
  5
10A
330
1F
100
AcDbEntity
  8
치수문자_일반주서
100
AcDbDimension
  2
_D_3
 10
17.39711431702995
 20
13.16779591923048
 30
0.0
 11
3.043114317029955
 21
13.16779591923048
 31
0.0
 70
   160
  1
<>
 71
     2
 42
5.999999999999998
  3
SLDDIMSTYLE2
100
AcDbAlignedDimension
 13
11.39711431702995
 23
0.7365052775262013
 33
0.0
 14
17.39711431702995
 24
0.7500000000000029
 34
0.0
100
AcDbRotatedDimension
  0
INSERT
  5
11C
330
1F
100
AcDbEntity
  8
해칭선
100
AcDbBlockReference
  2
SW_DOWELSYMBOL_0
 10
-0.0077623743171187
 20
-0.0000000000000042
 30
0.0
  0
LINE
  5
14F
330
1F
100
AcDbEntity
  8
0
  6
Continuous
 62
     4
370
    25
100
AcDbLine
 10
11.39711431702995
 20
0.7500000000000023
 30
0.0
 11
11.39711431702995
 21
-0.7499999999999981
 31
0.0
  0
ENDSEC
  0
SECTION
  2
OBJECTS
  0
DICTIONARY
  5
C
330
0
100
AcDbDictionary
281
     1
  3
ACAD_GROUP
350
D
  3
ACAD_IMAGE_VARS
350
140
  3
ACAD_LAYOUT
350
1A
  3
ACAD_MLINESTYLE
350
17
  3
ACAD_PLOTSETTINGS
350
19
  3
ACAD_PLOTSTYLENAME
350
E
  3
ACAD_SCALELIST
350
47
  3
APPDATA
350
13E
  3
DWGPROPS
350
151
  0
DICTIONARY
  5
D
102
{ACAD_REACTORS
330
C
102
}
330
C
100
AcDbDictionary
281
     1
  0
RASTERVARIABLES
  5
140
102
{ACAD_REACTORS
330
C
102
}
330
C
100
AcDbRasterVariables
 90
        0
 70
     1
 71
     1
 72
     1
  0
DICTIONARY
  5
1A
102
{ACAD_REACTORS
330
C
102
}
330
C
100
AcDbDictionary
281
     1
  3
Layout1
350
1E
  3
Layout2
350
26
  3
Model
350
22
  0
DICTIONARY
  5
17
102
{ACAD_REACTORS
330
C
102
}
330
C
100
AcDbDictionary
281
     1
  3
Standard
350
18
  0
DICTIONARY
  5
19
102
{ACAD_REACTORS
330
C
102
}
330
C
100
AcDbDictionary
281
     1
  0
ACDBDICTIONARYWDFLT
  5
E
102
{ACAD_REACTORS
330
C
102
}
330
C
100
AcDbDictionary
281
     1
  3
Normal
350
F
100
AcDbDictionaryWithDefault
340
F
  0
DICTIONARY
  5
47
102
{ACAD_REACTORS
330
C
102
}
330
C
100
AcDbDictionary
281
     1
  3
A0
350
48
  3
A1
350
49
  3
A2
350
4A
  3
A3
350
4B
  3
A4
350
4C
  3
A5
350
4D
  3
A6
350
4E
  3
A7
350
4F
  3
A8
350
50
  3
A9
350
51
  3
B0
350
52
  3
B1
350
53
  3
B2
350
54
  3
B3
350
55
  3
B4
350
56
  3
B5
350
57
  3
B6
350
58
  3
B7
350
59
  3
B8
350
5A
  3
B9
350
5B
  3
C0
350
5C
  3
C1
350
5D
  3
C2
350
5E
  3
C3
350
5F
  3
C4
350
60
  3
C5
350
61
  3
C6
350
62
  3
C7
350
63
  3
C8
350
64
  3
C9
350
65
  3
D0
350
66
  3
D1
350
67
  3
D2
350
68
  0
DICTIONARY
  5
13E
102
{ACAD_REACTORS
330
C
102
}
330
C
100
AcDbDictionary
281
     1
  0
XRECORD
  5
151
102
{ACAD_REACTORS
330
C
102
}
330
C
100
AcDbXrecord
280
     1
  1
DWGPROPS COOKIE
  2

  3

  4

  6

  7

  8
12014102
  9

300
=
301
=
302
=
303
=
304
=
305
=
306
=
307
=
308
=
309
=
 40
0.0
 41
2458260.108715382
 42
2458266.426883993
  1

 90
        0
  0
LAYOUT
  5
1E
102
{ACAD_REACTORS
330
1A
102
}
330
1A
100
AcDbPlotSettings
  1

  2
none_device
  4

  6

 40
0.0
 41
0.0
 42
0.0
 43
0.0
 44
0.0
 45
0.0
 46
0.0
 47
0.0
 48
0.0
 49
0.0
140
0.0
141
0.0
142
1.0
143
1.0
 70
   688
 72
     1
 73
     0
 74
     5
  7

 75
    16
147
1.0
148
0.0
149
0.0
100
AcDbLayout
  1
Layout1
 70
     1
 71
     1
 10
0.0
 20
0.0
 11
420.0
 21
297.0
 12
0.0
 22
0.0
 32
0.0
 14
1.000000000000000E+20
 24
1.000000000000000E+20
 34
1.000000000000000E+20
 15
-1.000000000000000E+20
 25
-1.000000000000000E+20
 35
-1.000000000000000E+20
146
0.0
 13
0.0
 23
0.0
 33
0.0
 16
1.0
 26
0.0
 36
0.0
 17
0.0
 27
1.0
 37
0.0
 76
     0
330
1B
  0
LAYOUT
  5
26
102
{ACAD_REACTORS
330
1A
102
}
330
1A
100
AcDbPlotSettings
  1

  2
none_device
  4

  6

 40
0.0
 41
0.0
 42
0.0
 43
0.0
 44
0.0
 45
0.0
 46
0.0
 47
0.0
 48
0.0
 49
0.0
140
0.0
141
0.0
142
1.0
143
1.0
 70
   688
 72
     1
 73
     0
 74
     5
  7

 75
    16
147
1.0
148
0.0
149
0.0
100
AcDbLayout
  1
Layout2
 70
     1
 71
     2
 10
0.0
 20
0.0
 11
0.0
 21
0.0
 12
0.0
 22
0.0
 32
0.0
 14
0.0
 24
0.0
 34
0.0
 15
0.0
 25
0.0
 35
0.0
146
0.0
 13
0.0
 23
0.0
 33
0.0
 16
1.0
 26
0.0
 36
0.0
 17
0.0
 27
1.0
 37
0.0
 76
     0
330
23
  0
LAYOUT
  5
22
102
{ACAD_REACTORS
330
1A
102
}
330
1A
100
AcDbPlotSettings
  1

  2
none_device
  4
ANSI_A_(11.00_x_8.50_Inches)
  6

 40
6.35
 41
19.05
 42
6.35000508
 43
19.05000254
 44
279.4
 45
215.9
 46
156.3429265711887
 47
125.3847137330092
 48
0.0
 49
0.0
140
0.0
141
0.0
142
0.1112850254374007
143
1.0
 70
  1696
 72
     0
 73
     0
 74
     0
  7

 75
     0
147
0.0235690232323232
148
0.0
149
0.0
100
AcDbLayout
  1
Model
 70
     1
 71
     0
 10
0.0
 20
0.0
 11
420.0
 21
297.0
 12
0.0
 22
0.0
 32
0.0
 14
-44.78275381903427
 24
-49.97180738881174
 34
0.0
 15
32.28259113972197
 25
24.76413260158165
 35
0.0
146
0.0
 13
0.0
 23
0.0
 33
0.0
 16
1.0
 26
0.0
 36
0.0
 17
0.0
 27
1.0
 37
0.0
 76
     0
330
1F
331
29
  0
MLINESTYLE
  5
18
102
{ACAD_REACTORS
330
17
102
}
330
17
100
AcDbMlineStyle
  2
Standard
 70
     0
  3

 62
   256
 51
90.0
 52
90.0
 71
     2
 49
0.5
 62
   256
  6
BYLAYER
 49
-0.5
 62
   256
  6
BYLAYER
  0
ACDBPLACEHOLDER
  5
F
102
{ACAD_REACTORS
330
E
102
}
330
E
  0
SCALE
  5
48
102
{ACAD_REACTORS
330
47
102
}
330
47
100
AcDbScale
 70
     0
300
1:1
140
1.0
141
1.0
290
     1
  0
SCALE
  5
49
102
{ACAD_REACTORS
330
47
102
}
330
47
100
AcDbScale
 70
     0
300
1:2
140
1.0
141
2.0
290
     0
  0
SCALE
  5
4A
102
{ACAD_REACTORS
330
47
102
}
330
47
100
AcDbScale
 70
     0
300
1:4
140
1.0
141
4.0
290
     0
  0
SCALE
  5
4B
102
{ACAD_REACTORS
330
47
102
}
330
47
100
AcDbScale
 70
     0
300
1:5
140
1.0
141
5.0
290
     0
  0
SCALE
  5
4C
102
{ACAD_REACTORS
330
47
102
}
330
47
100
AcDbScale
 70
     0
300
1:8
140
1.0
141
8.0
290
     0
  0
SCALE
  5
4D
102
{ACAD_REACTORS
330
47
102
}
330
47
100
AcDbScale
 70
     0
300
1:10
140
1.0
141
10.0
290
     0
  0
SCALE
  5
4E
102
{ACAD_REACTORS
330
47
102
}
330
47
100
AcDbScale
 70
     0
300
1:16
140
1.0
141
16.0
290
     0
  0
SCALE
  5
4F
102
{ACAD_REACTORS
330
47
102
}
330
47
100
AcDbScale
 70
     0
300
1:20
140
1.0
141
20.0
290
     0
  0
SCALE
  5
50
102
{ACAD_REACTORS
330
47
102
}
330
47
100
AcDbScale
 70
     0
300
1:30
140
1.0
141
30.0
290
     0
  0
SCALE
  5
51
102
{ACAD_REACTORS
330
47
102
}
330
47
100
AcDbScale
 70
     0
300
1:40
140
1.0
141
40.0
290
     0
  0
SCALE
  5
52
102
{ACAD_REACTORS
330
47
102
}
330
47
100
AcDbScale
 70
     0
300
1:50
140
1.0
141
50.0
290
     0
  0
SCALE
  5
53
102
{ACAD_REACTORS
330
47
102
}
330
47
100
AcDbScale
 70
     0
300
1:100
140
1.0
141
100.0
290
     0
  0
SCALE
  5
54
102
{ACAD_REACTORS
330
47
102
}
330
47
100
AcDbScale
 70
     0
300
2:1
140
2.0
141
1.0
290
     0
  0
SCALE
  5
55
102
{ACAD_REACTORS
330
47
102
}
330
47
100
AcDbScale
 70
     0
300
4:1
140
4.0
141
1.0
290
     0
  0
SCALE
  5
56
102
{ACAD_REACTORS
330
47
102
}
330
47
100
AcDbScale
 70
     0
300
8:1
140
8.0
141
1.0
290
     0
  0
SCALE
  5
57
102
{ACAD_REACTORS
330
47
102
}
330
47
100
AcDbScale
 70
     0
300
10:1
140
10.0
141
1.0
290
     0
  0
SCALE
  5
58
102
{ACAD_REACTORS
330
47
102
}
330
47
100
AcDbScale
 70
     0
300
100:1
140
100.0
141
1.0
290
     0
  0
SCALE
  5
59
102
{ACAD_REACTORS
330
47
102
}
330
47
100
AcDbScale
 70
     0
300
1/128" = 1'-0"
140
0.0078125
141
12.0
290
     0
  0
SCALE
  5
5A
102
{ACAD_REACTORS
330
47
102
}
330
47
100
AcDbScale
 70
     0
300
1/64" = 1'-0"
140
0.015625
141
12.0
290
     0
  0
SCALE
  5
5B
102
{ACAD_REACTORS
330
47
102
}
330
47
100
AcDbScale
 70
     0
300
1/32" = 1'-0"
140
0.03125
141
12.0
290
     0
  0
SCALE
  5
5C
102
{ACAD_REACTORS
330
47
102
}
330
47
100
AcDbScale
 70
     0
300
1/16" = 1'-0"
140
0.0625
141
12.0
290
     0
  0
SCALE
  5
5D
102
{ACAD_REACTORS
330
47
102
}
330
47
100
AcDbScale
 70
     0
300
3/32" = 1'-0"
140
0.09375
141
12.0
290
     0
  0
SCALE
  5
5E
102
{ACAD_REACTORS
330
47
102
}
330
47
100
AcDbScale
 70
     0
300
1/8" = 1'-0"
140
0.125
141
12.0
290
     0
  0
SCALE
  5
5F
102
{ACAD_REACTORS
330
47
102
}
330
47
100
AcDbScale
 70
     0
300
3/16" = 1'-0"
140
0.1875
141
12.0
290
     0
  0
SCALE
  5
60
102
{ACAD_REACTORS
330
47
102
}
330
47
100
AcDbScale
 70
     0
300
1/4" = 1'-0"
140
0.25
141
12.0
290
     0
  0
SCALE
  5
61
102
{ACAD_REACTORS
330
47
102
}
330
47
100
AcDbScale
 70
     0
300
3/8" = 1'-0"
140
0.375
141
12.0
290
     0
  0
SCALE
  5
62
102
{ACAD_REACTORS
330
47
102
}
330
47
100
AcDbScale
 70
     0
300
1/2" = 1'-0"
140
0.5
141
12.0
290
     0
  0
SCALE
  5
63
102
{ACAD_REACTORS
330
47
102
}
330
47
100
AcDbScale
 70
     0
300
3/4" = 1'-0"
140
0.75
141
12.0
290
     0
  0
SCALE
  5
64
102
{ACAD_REACTORS
330
47
102
}
330
47
100
AcDbScale
 70
     0
300
1" = 1'-0"
140
1.0
141
12.0
290
     0
  0
SCALE
  5
65
102
{ACAD_REACTORS
330
47
102
}
330
47
100
AcDbScale
 70
     0
300
1-1/2" = 1'-0"
140
1.5
141
12.0
290
     0
  0
SCALE
  5
66
102
{ACAD_REACTORS
330
47
102
}
330
47
100
AcDbScale
 70
     0
300
3" = 1'-0"
140
3.0
141
12.0
290
     0
  0
SCALE
  5
67
102
{ACAD_REACTORS
330
47
102
}
330
47
100
AcDbScale
 70
     0
300
6" = 1'-0"
140
6.0
141
12.0
290
     0
  0
SCALE
  5
68
102
{ACAD_REACTORS
330
47
102
}
330
47
100
AcDbScale
 70
     0
300
1'-0" = 1'-0"
140
12.0
141
12.0
290
     0
  0
ENDSEC
  0
EOF
