  0
SECTION
  2
HEADER
  9
$ACADVER
  1
AC1015
  9
$ACADMAINTVER
 70
     6
  9
$DWGCODEPAGE
  3
ANSI_949
  9
$INSBASE
 10
0.0
 20
0.0
 30
0.0
  9
$EXTMIN
 10
-37.98943340213786
 20
-49.97180738881174
 30
0.0
  9
$EXTMAX
 10
34.28259113972197
 20
24.76413260158165
 30
0.0
  9
$LIMMIN
 10
0.0
 20
0.0
  9
$LIMMAX
 10
420.0
 20
297.0
  9
$ORTHOMODE
 70
     0
  9
$REGENMODE
 70
     1
  9
$FILLMODE
 70
     1
  9
$QTEXTMODE
 70
     0
  9
$MIRRTEXT
 70
     1
  9
$LTSCALE
 40
1.0
  9
$ATTMODE
 70
     1
  9
$TEXTSIZE
 40
3.5
  9
$TRACEWID
 40
1.0
  9
$TEXTSTYLE
  7
Standard
  9
$CLAYER
  8
0
  9
$CELTYPE
  6
ByLayer
  9
$CECOLOR
 62
   256
  9
$CELTSCALE
 40
1.0
  9
$DISPSILH
 70
     0
  9
$DIMSCALE
 40
1.0
  9
$DIMASZ
 40
3.302
  9
$DIMEXO
 40
1.0
  9
$DIMDLI
 40
3.75
  9
$DIMRND
 40
0.0
  9
$DIMDLE
 40
0.0
  9
$DIMEXE
 40
1.0
  9
$DIMTP
 40
0.0
  9
$DIMTM
 40
0.0
  9
$DIMTXT
 40
3.5
  9
$DIMCEN
 40
2.5
  9
$DIMTSZ
 40
0.0
  9
$DIMTOL
 70
     0
  9
$DIMLIM
 70
     0
  9
$DIMTIH
 70
     1
  9
$DIMTOH
 70
     1
  9
$DIMSE1
 70
     0
  9
$DIMSE2
 70
     0
  9
$DIMTAD
 70
     1
  9
$DIMZIN
 70
     0
  9
$DIMBLK
  1

  9
$DIMASO
 70
     1
  9
$DIMSHO
 70
     1
  9
$DIMPOST
  1

  9
$DIMAPOST
  1

  9
$DIMALT
 70
     0
  9
$DIMALTD
 70
     3
  9
$DIMALTF
 40
0.0393700787401575
  9
$DIMLFAC
 40
1.0
  9
$DIMTOFL
 70
     1
  9
$DIMTVP
 40
0.0
  9
$DIMTIX
 70
     0
  9
$DIMSOXD
 70
     0
  9
$DIMSAH
 70
     0
  9
$DIMBLK1
  1

  9
$DIMBLK2
  1

  9
$DIMSTYLE
  2
ISO-25
  9
$DIMCLRD
 70
     0
  9
$DIMCLRE
 70
     0
  9
$DIMCLRT
 70
     0
  9
$DIMTFAC
 40
1.0
  9
$DIMGAP
 40
1.524
  9
$DIMJUST
 70
     0
  9
$DIMSD1
 70
     0
  9
$DIMSD2
 70
     0
  9
$DIMTOLJ
 70
     0
  9
$DIMTZIN
 70
     0
  9
$DIMALTZ
 70
     0
  9
$DIMALTTZ
 70
     0
  9
$DIMUPT
 70
     0
  9
$DIMDEC
 70
     2
  9
$DIMTDEC
 70
     2
  9
$DIMALTU
 70
     2
  9
$DIMALTTD
 70
     3
  9
$DIMTXSTY
  7
Standard
  9
$DIMAUNIT
 70
     0
  9
$DIMADEC
 70
     2
  9
$DIMALTRND
 40
0.0
  9
$DIMAZIN
 70
     0
  9
$DIMDSEP
 70
    44
  9
$DIMATFIT
 70
     3
  9
$DIMFRAC
 70
     0
  9
$DIMLDRBLK
  1

  9
$DIMLUNIT
 70
     2
  9
$DIMLWD
 70
    -2
  9
$DIMLWE
 70
    -2
  9
$DIMTMOVE
 70
     0
  9
$LUNITS
 70
     2
  9
$LUPREC
 70
     2
  9
$SKETCHINC
 40
1.0
  9
$FILLETRAD
 40
10.0
  9
$AUNITS
 70
     0
  9
$AUPREC
 70
     2
  9
$MENU
  1
.
  9
$ELEVATION
 40
0.0
  9
$PELEVATION
 40
0.0
  9
$THICKNESS
 40
0.0
  9
$LIMCHECK
 70
     0
  9
$CHAMFERA
 40
0.0
  9
$CHAMFERB
 40
0.0
  9
$CHAMFERC
 40
0.0
  9
$CHAMFERD
 40
0.0
  9
$SKPOLY
 70
     0
  9
$TDCREATE
 40
2458260.483336933
  9
$TDUCREATE
 40
2458260.108336933
  9
$TDUPDATE
 40
2458266.800759166
  9
$TDUUPDATE
 40
2458266.425759166
  9
$TDINDWG
 40
0.0011895486
  9
$TDUSRTIMER
 40
2458266.424569665
  9
$USRTIMER
 70
     1
  9
$ANGBASE
 50
0.0
  9
$ANGDIR
 70
     0
  9
$PDMODE
 70
     0
  9
$PDSIZE
 40
-1.0
  9
$PLINEWID
 40
0.0
  9
$SPLFRAME
 70
     0
  9
$SPLINETYPE
 70
     6
  9
$SPLINESEGS
 70
     8
  9
$HANDSEED
  5
14C
  9
$SURFTAB1
 70
     6
  9
$SURFTAB2
 70
     6
  9
$SURFTYPE
 70
     6
  9
$SURFU
 70
     6
  9
$SURFV
 70
     6
  9
$UCSBASE
  2

  9
$UCSNAME
  2

  9
$UCSORG
 10
0.0
 20
0.0
 30
0.0
  9
$UCSXDIR
 10
1.0
 20
0.0
 30
0.0
  9
$UCSYDIR
 10
0.0
 20
1.0
 30
0.0
  9
$UCSORTHOREF
  2

  9
$UCSORTHOVIEW
 70
     0
  9
$UCSORGTOP
 10
0.0
 20
0.0
 30
0.0
  9
$UCSORGBOTTOM
 10
0.0
 20
0.0
 30
0.0
  9
$UCSORGLEFT
 10
0.0
 20
0.0
 30
0.0
  9
$UCSORGRIGHT
 10
0.0
 20
0.0
 30
0.0
  9
$UCSORGFRONT
 10
0.0
 20
0.0
 30
0.0
  9
$UCSORGBACK
 10
0.0
 20
0.0
 30
0.0
  9
$PUCSBASE
  2

  9
$PUCSNAME
  2

  9
$PUCSORG
 10
0.0
 20
0.0
 30
0.0
  9
$PUCSXDIR
 10
1.0
 20
0.0
 30
0.0
  9
$PUCSYDIR
 10
0.0
 20
1.0
 30
0.0
  9
$PUCSORTHOREF
  2

  9
$PUCSORTHOVIEW
 70
     0
  9
$PUCSORGTOP
 10
0.0
 20
0.0
 30
0.0
  9
$PUCSORGBOTTOM
 10
0.0
 20
0.0
 30
0.0
  9
$PUCSORGLEFT
 10
0.0
 20
0.0
 30
0.0
  9
$PUCSORGRIGHT
 10
0.0
 20
0.0
 30
0.0
  9
$PUCSORGFRONT
 10
0.0
 20
0.0
 30
0.0
  9
$PUCSORGBACK
 10
0.0
 20
0.0
 30
0.0
  9
$USERI1
 70
     0
  9
$USERI2
 70
     0
  9
$USERI3
 70
     0
  9
$USERI4
 70
     0
  9
$USERI5
 70
     0
  9
$USERR1
 40
0.0
  9
$USERR2
 40
0.0
  9
$USERR3
 40
0.0
  9
$USERR4
 40
0.0
  9
$USERR5
 40
0.0
  9
$WORLDVIEW
 70
     1
  9
$SHADEDGE
 70
     3
  9
$SHADEDIF
 70
    70
  9
$TILEMODE
 70
     1
  9
$MAXACTVP
 70
    64
  9
$PINSBASE
 10
0.0
 20
0.0
 30
0.0
  9
$PLIMCHECK
 70
     0
  9
$PEXTMIN
 10
1.000000000000000E+20
 20
1.000000000000000E+20
 30
1.000000000000000E+20
  9
$PEXTMAX
 10
-1.000000000000000E+20
 20
-1.000000000000000E+20
 30
-1.000000000000000E+20
  9
$PLIMMIN
 10
0.0
 20
0.0
  9
$PLIMMAX
 10
0.0
 20
0.0
  9
$UNITMODE
 70
     0
  9
$VISRETAIN
 70
     1
  9
$PLINEGEN
 70
     0
  9
$PSLTSCALE
 70
     1
  9
$TREEDEPTH
 70
  3020
  9
$CMLSTYLE
  2
Standard
  9
$CMLJUST
 70
     0
  9
$CMLSCALE
 40
20.0
  9
$PROXYGRAPHICS
 70
     1
  9
$MEASUREMENT
 70
     1
  9
$CELWEIGHT
370
    -1
  9
$ENDCAPS
280
     0
  9
$JOINSTYLE
280
     0
  9
$LWDISPLAY
290
     1
  9
$INSUNITS
 70
     4
  9
$HYPERLINKBASE
  1

  9
$STYLESHEET
  1

  9
$XEDIT
290
     1
  9
$CEPSNTYPE
380
     0
  9
$PSTYLEMODE
290
     1
  9
$FINGERPRINTGUID
  2
{988D6815-4204-4B9D-A9F0-1F59F1E184C2}
  9
$VERSIONGUID
  2
{FAEB1C32-E019-11D5-929B-00C0DF256EC4}
  9
$EXTNAMES
290
     1
  9
$PSVPSCALE
 40
0.0
  9
$OLESTARTUP
290
     0
  0
ENDSEC
  0
SECTION
  2
CLASSES
  0
CLASS
  1
ACDBDICTIONARYWDFLT
  2
AcDbDictionaryWithDefault
  3
ObjectDBX Classes
 90
        0
280
     0
281
     0
  0
CLASS
  1
VISUALSTYLE
  2
AcDbVisualStyle
  3
ObjectDBX Classes
 90
     4095
280
     0
281
     0
  0
CLASS
  1
MATERIAL
  2
AcDbMaterial
  3
ObjectDBX Classes
 90
     1153
280
     0
281
     0
  0
CLASS
  1
SCALE
  2
AcDbScale
  3
ObjectDBX Classes
 90
     1153
280
     0
281
     0
  0
CLASS
  1
TABLESTYLE
  2
AcDbTableStyle
  3
ObjectDBX Classes
 90
     4095
280
     0
281
     0
  0
CLASS
  1
MLEADERSTYLE
  2
AcDbMLeaderStyle
  3
ACDB_MLEADERSTYLE_CLASS
 90
     4095
280
     0
281
     0
  0
CLASS
  1
SUN
  2
AcDbSun
  3
SCENEOE
 90
     1153
280
     0
281
     0
  0
CLASS
  1
ACDBPLACEHOLDER
  2
AcDbPlaceHolder
  3
ObjectDBX Classes
 90
        0
280
     0
281
     0
  0
CLASS
  1
LAYOUT
  2
AcDbLayout
  3
ObjectDBX Classes
 90
        0
280
     0
281
     0
  0
CLASS
  1
RASTERVARIABLES
  2
AcDbRasterVariables
  3
ISM
 90
        0
280
     0
281
     0
  0
ENDSEC
  0
SECTION
  2
TABLES
  0
TABLE
  2
VPORT
  5
8
330
0
100
AcDbSymbolTable
 70
     1
  0
VPORT
  5
29
330
8
100
AcDbSymbolTableRecord
100
AcDbViewportTableRecord
  2
*Active
 70
     0
 10
0.0
 20
0.0
 11
1.0
 21
1.0
 12
-1.853421131207945
 22
-12.60383739361504
 13
0.0
 23
0.0
 14
10.0
 24
10.0
 15
10.0
 25
10.0
 16
0.0
 26
0.0
 36
1.0
 17
0.0
 27
0.0
 37
0.0
 40
76.23065879020126
 41
1.728553137003841
 42
50.0
 43
0.0
 44
0.0
 50
0.0
 51
0.0
 71
    16
 72
  2000
 73
     1
 74
     3
 75
     0
 76
     0
 77
     0
 78
     0
281
     0
 65
     1
110
0.0
120
0.0
130
0.0
111
1.0
121
0.0
131
0.0
112
0.0
122
1.0
132
0.0
 79
     0
146
0.0
  0
ENDTAB
  0
TABLE
  2
LTYPE
  5
5
330
0
100
AcDbSymbolTable
 70
     6
  0
LTYPE
  5
14
330
5
100
AcDbSymbolTableRecord
100
AcDbLinetypeTableRecord
  2
ByBlock
 70
     0
  3

 72
    65
 73
     0
 40
0.0
  0
LTYPE
  5
15
330
5
100
AcDbSymbolTableRecord
100
AcDbLinetypeTableRecord
  2
ByLayer
 70
     0
  3

 72
    65
 73
     0
 40
0.0
  0
LTYPE
  5
16
330
5
100
AcDbSymbolTableRecord
100
AcDbLinetypeTableRecord
  2
Continuous
 70
     0
  3
Solid line
 72
    65
 73
     0
 40
0.0
  0
LTYPE
  5
6E
330
5
100
AcDbSymbolTableRecord
100
AcDbLinetypeTableRecord
  2
HIDDEN
 70
     0
  3
Hidden __ __ __ __ __ __ __ __ __ __ __ __ __ __
 72
    65
 73
     2
 40
1.905
 49
1.27
 74
     0
 49
-0.635
 74
     0
  0
LTYPE
  5
6F
330
5
100
AcDbSymbolTableRecord
100
AcDbLinetypeTableRecord
  2
PHANTOM
 70
     0
  3
Phantom ______  __  __  ______  __  __  ______
 72
    65
 73
     6
 40
12.7
 49
6.35
 74
     0
 49
-1.27
 74
     0
 49
1.27
 74
     0
 49
-1.27
 74
     0
 49
1.27
 74
     0
 49
-1.27
 74
     0
  0
LTYPE
  5
70
330
5
100
AcDbSymbolTableRecord
100
AcDbLinetypeTableRecord
  2
CENTER
 70
     0
  3
Center ____ _ ____ _ ____ _ ____ _ ____ _ ____
 72
    65
 73
     4
 40
10.16
 49
6.35
 74
     0
 49
-1.27
 74
     0
 49
1.27
 74
     0
 49
-1.27
 74
     0
  0
LTYPE
  5
71
330
5
100
AcDbSymbolTableRecord
100
AcDbLinetypeTableRecord
  2
CENTERX2
 70
     0
  3
Center (2x) ________  __  ________  __  _____
 72
    65
 73
     4
 40
20.32
 49
12.7
 74
     0
 49
-2.54
 74
     0
 49
2.54
 74
     0
 49
-2.54
 74
     0
  0
LTYPE
  5
72
330
5
100
AcDbSymbolTableRecord
100
AcDbLinetypeTableRecord
  2
DOT2
 70
     0
  3
Dot (.5x) ........................................
 72
    65
 73
     2
 40
0.635
 49
0.0
 74
     0
 49
-0.635
 74
     0
  0
ENDTAB
  0
TABLE
  2
LAYER
  5
2
330
0
100
AcDbSymbolTable
 70
    17
  0
LAYER
  5
10
330
2
100
AcDbSymbolTableRecord
100
AcDbLayerTableRecord
  2
0
 70
     0
 62
     7
  6
Continuous
370
    -3
390
F
  0
LAYER
  5
73
330
2
100
AcDbSymbolTableRecord
100
AcDbLayerTableRecord
  2
FORMAT
 70
     0
 62
     2
  6
Continuous
370
    -3
390
F
  0
LAYER
  5
74
330
2
100
AcDbSymbolTableRecord
100
AcDbLayerTableRecord
  2
외형선
 70
     0
 62
   100
  6
Continuous
370
    35
390
F
  0
LAYER
  5
75
330
2
100
AcDbSymbolTableRecord
100
AcDbLayerTableRecord
  2
숨은선
 70
     0
 62
     2
  6
HIDDEN
370
    25
390
F
  0
LAYER
  5
76
330
2
100
AcDbSymbolTableRecord
100
AcDbLayerTableRecord
  2
중심선
 70
     0
 62
     1
  6
CENTERX2
370
    -3
390
F
  0
LAYER
  5
77
330
2
100
AcDbSymbolTableRecord
100
AcDbLayerTableRecord
  2
파단선
 70
     0
 62
     4
  6
Continuous
370
    -3
390
F
  0
LAYER
  5
78
330
2
100
AcDbSymbolTableRecord
100
AcDbLayerTableRecord
  2
해칭선
 70
     0
 62
   100
  6
Continuous
370
    -3
390
F
  0
LAYER
  5
79
330
2
100
AcDbSymbolTableRecord
100
AcDbLayerTableRecord
  2
가는실선
 70
     0
 62
     4
  6
Continuous
370
    -3
390
F
  0
LAYER
  5
7A
330
2
100
AcDbSymbolTableRecord
100
AcDbLayerTableRecord
  2
치수_보조선
 70
     0
 62
     4
  6
Continuous
370
    -3
390
F
  0
LAYER
  5
7B
330
2
100
AcDbSymbolTableRecord
100
AcDbLayerTableRecord
  2
치수문자_일반주서
 70
     0
 62
     7
  6
Continuous
370
    25
390
F
  0
LAYER
  5
7C
330
2
100
AcDbSymbolTableRecord
100
AcDbLayerTableRecord
  2
개별주서
 70
     0
 62
   100
  6
Continuous
370
    35
390
F
  0
LAYER
  5
7D
330
2
100
AcDbSymbolTableRecord
100
AcDbLayerTableRecord
  2
중간선
 70
     0
 62
     2
  6
Continuous
370
    25
390
F
  0
LAYER
  5
7E
330
2
100
AcDbSymbolTableRecord
100
AcDbLayerTableRecord
  2
윤곽선
 70
     0
 62
     3
  6
Continuous
370
    50
390
F
  0
LAYER
  5
7F
330
2
100
AcDbSymbolTableRecord
100
AcDbLayerTableRecord
  2
중심마크
 70
     0
 62
   100
  6
Continuous
370
    35
390
F
  0
LAYER
  5
80
330
2
100
AcDbSymbolTableRecord
100
AcDbLayerTableRecord
  2
가상선
 70
     0
 62
     4
  6
PHANTOM
370
    -3
390
F
  0
LAYER
  5
81
330
2
100
AcDbSymbolTableRecord
100
AcDbLayerTableRecord
  2
특수지정선
 70
     0
 62
     5
  6
CENTERX2
370
    70
390
F
  0
LAYER
  5
139
330
2
100
AcDbSymbolTableRecord
100
AcDbLayerTableRecord
  2
Defpoints
 70
     0
 62
     7
  6
Continuous
290
     0
370
    -3
390
F
  0
ENDTAB
  0
TABLE
  2
STYLE
  5
3
330
0
100
AcDbSymbolTable
 70
     2
  0
STYLE
  5
11
330
3
100
AcDbSymbolTableRecord
100
AcDbTextStyleTableRecord
  2
Standard
 70
     0
 40
0.0
 41
1.0
 50
0.0
 71
     0
 42
3.5
  3
txt
  4

  0
STYLE
  5
97
330
3
100
AcDbSymbolTableRecord
100
AcDbTextStyleTableRecord
  2
SLDTEXTSTYLE0
 70
     0
 40
0.0
 41
0.75
 50
0.0
 71
     0
 42
3.5
  3
TXT
  4

  0
ENDTAB
  0
TABLE
  2
VIEW
  5
6
330
0
100
AcDbSymbolTable
 70
     0
  0
ENDTAB
  0
TABLE
  2
UCS
  5
7
330
0
100
AcDbSymbolTable
 70
     0
  0
ENDTAB
  0
TABLE
  2
APPID
  5
9
330
0
100
AcDbSymbolTable
 70
     1
  0
APPID
  5
12
330
9
100
AcDbSymbolTableRecord
100
AcDbRegAppTableRecord
  2
ACAD
 70
     0
  0
ENDTAB
  0
TABLE
  2
DIMSTYLE
  5
A
330
0
100
AcDbSymbolTable
 70
     4
100
AcDbDimStyleTable
  0
DIMSTYLE
105
27
330
A
100
AcDbSymbolTableRecord
100
AcDbDimStyleTableRecord
  2
ISO-25
 70
     0
 41
2.5
 42
0.625
 43
3.75
 44
1.25
 73
     0
 74
     0
 77
     1
 78
     8
140
2.5
141
2.5
143
0.03937007874016
147
0.625
171
     3
172
     1
178
     0
271
     2
272
     2
274
     3
278
    44
283
     0
284
     8
340
11
  0
DIMSTYLE
105
DC
102
{ACAD_REACTORS
330
DB
102
}
330
A
100
AcDbSymbolTableRecord
100
AcDbDimStyleTableRecord
  2
SLDDIMSTYLE0
 70
     0
 41
3.302
 44
0.0
 45
0.000000001
 73
     0
 74
     0
 77
     1
 78
    12
 79
     3
140
3.5
147
0.875
172
     1
173
     1
178
     0
271
     1
272
     1
276
     2
284
    12
289
     0
340
97
  0
DIMSTYLE
105
EA
102
{ACAD_REACTORS
330
E9
102
}
330
A
100
AcDbSymbolTableRecord
100
AcDbDimStyleTableRecord
  2
SLDDIMSTYLE1
 70
     0
 41
3.302
 44
0.0
 45
0.000000001
 73
     0
 74
     0
 77
     1
 78
    12
 79
     3
140
3.5
147
0.875
173
     1
178
     0
271
     2
272
     2
276
     2
284
    12
340
97
  0
DIMSTYLE
105
F5
102
{ACAD_REACTORS
330
F4
330
102
102
}
330
A
100
AcDbSymbolTableRecord
100
AcDbDimStyleTableRecord
  2
SLDDIMSTYLE2
 70
     0
 41
3.302
 44
0.0
 45
0.000000001
 73
     0
 74
     0
 77
     1
 78
    12
 79
     3
140
3.5
147
0.875
172
     1
173
     1
178
     0
271
     2
272
     2
276
     2
284
    12
289
     0
340
97
  0
ENDTAB
  0
TABLE
  2
BLOCK_RECORD
  5
1
330
0
100
AcDbSymbolTable
 70
     7
  0
BLOCK_RECORD
  5
1F
330
1
100
AcDbSymbolTableRecord
100
AcDbBlockTableRecord
  2
*Model_Space
340
22
  0
BLOCK_RECORD
  5
1B
330
1
100
AcDbSymbolTableRecord
100
AcDbBlockTableRecord
  2
*Paper_Space
340
1E
  0
BLOCK_RECORD
  5
23
330
1
100
AcDbSymbolTableRecord
100
AcDbBlockTableRecord
  2
*Paper_Space0
340
26
  0
BLOCK_RECORD
  5
82
330
1
100
AcDbSymbolTableRecord
100
AcDbBlockTableRecord
  2
블럭10
340
0
102
{BLKREFS
331
D4
102
}
  0
BLOCK_RECORD
  5
DD
330
1
100
AcDbSymbolTableRecord
100
AcDbBlockTableRecord
  2
_D
340
0
  0
BLOCK_RECORD
  5
EB
330
1
100
AcDbSymbolTableRecord
100
AcDbBlockTableRecord
  2
_D_1
340
0
  0
BLOCK_RECORD
  5
F6
330
1
100
AcDbSymbolTableRecord
100
AcDbBlockTableRecord
  2
_D_2
340
0
  0
BLOCK_RECORD
  5
103
330
1
100
AcDbSymbolTableRecord
100
AcDbBlockTableRecord
  2
_D_3
340
0
  0
BLOCK_RECORD
  5
10E
330
1
100
AcDbSymbolTableRecord
100
AcDbBlockTableRecord
  2
SW_DOWELSYMBOL_0
340
0
102
{BLKREFS
331
114
102
}
  0
ENDTAB
  0
ENDSEC
  0
SECTION
  2
BLOCKS
  0
BLOCK
  5
20
330
1F
100
AcDbEntity
  8
0
100
AcDbBlockBegin
  2
*Model_Space
 70
     0
 10
0.0
 20
0.0
 30
0.0
  3
*Model_Space
  1

  0
ENDBLK
  5
21
330
1F
100
AcDbEntity
  8
0
100
AcDbBlockEnd
  0
BLOCK
  5
1C
330
1B
100
AcDbEntity
 67
     1
  8
0
100
AcDbBlockBegin
  2
*Paper_Space
 70
     0
 10
0.0
 20
0.0
 30
0.0
  3
*Paper_Space
  1

  0
ENDBLK
  5
1D
330
1B
100
AcDbEntity
 67
     1
  8
0
100
AcDbBlockEnd
  0
BLOCK
  5
24
330
23
100
AcDbEntity
  8
0
100
AcDbBlockBegin
  2
*Paper_Space0
 70
     0
 10
0.0
 20
0.0
 30
0.0
  3
*Paper_Space0
  1

  0
ENDBLK
  5
25
330
23
100
AcDbEntity
  8
0
100
AcDbBlockEnd
  0
BLOCK
  5
83
330
82
100
AcDbEntity
  8
0
100
AcDbBlockBegin
  2
블럭10
 70
     2
 10
0.0
 20
0.0
 30
0.0
  3
블럭10
  1

  0
ELLIPSE
  5
85
330
82
100
AcDbEntity
  8
중심선
100
AcDbEllipse
 10
20.54032771741204
 20
12.0471743016438
 30
0.0
 11
6.600054785286829
 21
-1.261213355974178E-13
 31
0.0
210
0.0
220
0.0
230
1.0
 40
0.636358354079598
 41
0.9219305317359503
 42
6.513795318482858
  0
ELLIPSE
  5
86
330
82
100
AcDbEntity
  8
중심선
100
AcDbEllipse
 10
20.54032771746488
 20
12.04717430159265
 30
0.0
 11
3.960054785062283
 21
1.540847449632565E-10
 31
0.0
210
0.0
220
0.0
230
1.0
 40
0.3939339440162632
 41
1.131841032648279
 42
5.62031148352944
  0
LINE
  5
87
330
82
100
AcDbEntity
  8
중심선
100
AcDbLine
 10
2.268634060543552
 20
16.24717430164393
 30
0.0
 11
5.714909304380834
 21
16.24717430164393
 31
0.0
  0
LINE
  5
88
330
82
100
AcDbEntity
  8
중심선
100
AcDbLine
 10
5.245725140726316
 20
7.84717430164391
 30
0.0
 11
8.692000384563599
 21
7.84717430164391
 31
0.0
  0
LINE
  5
89
330
82
100
AcDbEntity
  8
중심선
100
AcDbLine
 10
15.74043728645272
 20
16.24717430164393
 30
0.0
 11
8.692000384563599
 21
7.84717430164391
 31
0.0
  0
LINE
  5
8A
330
82
100
AcDbEntity
  8
중심선
100
AcDbLine
 10
0.1404042013395286
 20
13.71084872107135
 30
0.0
 11
3.58671253028996
 21
13.71088815037384
 31
0.0
  0
LINE
  5
8B
330
82
100
AcDbEntity
  8
중심선
100
AcDbLine
 10
2.750260043222114
 20
10.84717430164391
 30
0.0
 11
6.196535287059397
 21
10.84717430164391
 31
0.0
  0
LINE
  5
8C
330
82
100
AcDbEntity
  8
중심선
100
AcDbLine
 10
12.29416204261559
 20
16.24717430164393
 30
0.0
 11
5.245725140726316
 21
7.84717430164391
 31
0.0
  0
LINE
  5
8D
330
82
100
AcDbEntity
  8
중심선
100
AcDbLine
 10
10.72767329541681
 20
16.24717430164393
 30
0.0
 11
6.196535287059397
 21
10.84717430164391
 31
0.0
  0
LINE
  5
8E
330
82
100
AcDbEntity
  8
중심선
100
AcDbLine
 10
7.28139805157953
 20
16.24717430164393
 30
0.0
 11
2.750260043222114
 21
10.84717430164391
 31
0.0
  0
LINE
  5
8F
330
82
100
AcDbEntity
  8
중심선
100
AcDbLine
 10
5.714909304380834
 20
16.24717430164393
 30
0.0
 11
3.58671253028996
 21
13.71088815037384
 31
0.0
  0
LINE
  5
90
330
82
100
AcDbEntity
  8
중심선
100
AcDbLine
 10
2.268634060543552
 20
16.24717430164393
 30
0.0
 11
0.1404042013395286
 21
13.71084872107135
 31
0.0
  0
LINE
  5
91
330
82
100
AcDbEntity
  8
중심선
100
AcDbLine
 10
7.28139805157953
 20
16.24717430164393
 30
0.0
 11
10.72767329541681
 21
16.24717430164393
 31
0.0
  0
LINE
  5
92
330
82
100
AcDbEntity
  8
중심선
100
AcDbLine
 10
12.29416204261559
 20
16.24717430164393
 30
0.0
 11
15.74043728645272
 21
16.24717430164393
 31
0.0
  0
LINE
  5
93
330
82
100
AcDbEntity
  8
중심선
100
AcDbLine
 10
19.22036997980202
 20
11.08717430171403
 30
0.0
 11
23.66174974927406
 21
11.08717430171406
 31
0.0
  0
LINE
  5
94
330
82
100
AcDbEntity
  8
중심선
100
AcDbLine
 10
19.22039502424796
 20
13.00717430171391
 30
0.0
 11
19.22036997980202
 21
11.08717430171403
 31
0.0
  0
LINE
  5
95
330
82
100
AcDbEntity
  8
중심선
100
AcDbLine
 10
19.22039502424796
 20
13.00717430171391
 30
0.0
 11
26.96566020931264
 21
13.00717430171391
 31
0.0
  0
LINE
  5
96
330
82
100
AcDbEntity
  8
중심선
100
AcDbLine
 10
22.22332737316547
 20
13.45928029700563
 30
0.0
 11
24.52862924686651
 21
15.39360700705356
 31
0.0
  0
ATTDEF
  5
98
330
82
100
AcDbEntity
  8
FORMAT
 62
     2
100
AcDbText
 10
-16.11926103943555
 20
2.075366912832191
 30
0.0
 40
4.233333333333333
  1
SEME7101503E [ 4 FLUTE ]
 41
0.75
  7
SLDTEXTSTYLE0
 11
-16.11926103943555
 21
-0.0412997538344756
 31
0.0
100
AcDbAttributeDefinition
  3

  2
AUTOATTR0
 70
     0
 74
     1
  0
ENDBLK
  5
84
330
82
100
AcDbEntity
  8
0
100
AcDbBlockEnd
  0
BLOCK
  5
DE
330
DD
100
AcDbEntity
  8
0
100
AcDbBlockBegin
  2
_D
 70
     0
 10
0.0
 20
0.0
 30
0.0
  3
_D
  1

  0
LINE
  5
E0
330
DD
100
AcDbEntity
  8
치수문자_일반주서
 62
     0
370
    -2
100
AcDbLine
 10
14.45961431702996
 20
-0.7500000000000053
 30
0.0
 11
24.62312691944149
 21
-0.749999999999968
 31
0.0
  0
LINE
  5
E1
330
DD
100
AcDbEntity
  8
치수문자_일반주서
 62
     0
370
    -2
100
AcDbLine
 10
14.45961431702996
 20
0.7500000000000058
 30
0.0
 11
24.62312691944148
 21
0.7500000000000426
 31
0.0
  0
LINE
  5
E2
330
DD
100
AcDbEntity
  8
치수문자_일반주서
 62
     0
370
    -2
100
AcDbLine
 10
24.62312691944149
 20
-0.749999999999968
 30
0.0
 11
24.62312691944145
 21
16.10400000000004
 31
0.0
  0
LINE
  5
E3
330
DD
100
AcDbEntity
  8
치수문자_일반주서
 62
     0
370
    -2
100
AcDbLine
 10
24.62312691944149
 20
-0.749999999999968
 30
0.0
 11
24.62312691944148
 21
0.7500000000000426
 31
0.0
  0
LINE
  5
E4
330
DD
100
AcDbEntity
  8
치수문자_일반주서
 62
     0
370
    -2
100
AcDbLine
 10
24.62312691944149
 20
-4.051999999999968
 30
0.0
 11
24.6231269194415
 21
-7.353999999999967
 31
0.0
  0
LINE
  5
E5
330
DD
100
AcDbEntity
  8
치수문자_일반주서
 62
     0
370
    -2
100
AcDbLine
 10
24.62312691944148
 20
4.052000000000042
 30
0.0
 11
24.62312691944147
 21
7.354000000000042
 31
0.0
  0
SOLID
  5
E6
330
DD
100
AcDbEntity
  8
치수문자_일반주서
 62
     0
100
AcDbTrace
 10
25.17346025277483
 20
-4.051999999999967
 30
0.0
 11
24.07279358610816
 21
-4.051999999999969
 31
0.0
 12
24.62312691944149
 22
-0.749999999999968
 32
0.0
 13
24.62312691944149
 23
-0.749999999999968
 33
0.0
  0
SOLID
  5
E7
330
DD
100
AcDbEntity
  8
치수문자_일반주서
 62
     0
100
AcDbTrace
 10
24.07279358610814
 20
4.052000000000041
 30
0.0
 11
25.17346025277481
 21
4.052000000000043
 31
0.0
 12
24.62312691944148
 22
0.7500000000000426
 32
0.0
 13
24.62312691944148
 23
0.7500000000000426
 33
0.0
  0
MTEXT
  5
E8
330
DD
100
AcDbEntity
  8
치수문자_일반주서
 62
     0
100
AcDbMText
 10
20.24812691944146
 20
11.72900000000003
 30
0.0
 40
3.5
 41
0.0
 71
     2
 72
     1
  1
\A1;%%c1.5
  7
SLDTEXTSTYLE0
 11
-2.368475785866983E-15
 21
1.0
 31
0.0
 73
     1
 44
1.0
  0
POINT
  5
141
330
DD
100
AcDbEntity
  8
Defpoints
 62
     0
100
AcDbPoint
 10
14.39711431702996
 20
-0.7500000000000056
 30
0.0
  0
POINT
  5
142
330
DD
100
AcDbEntity
  8
Defpoints
 62
     0
100
AcDbPoint
 10
14.39711431702996
 20
0.7500000000000056
 30
0.0
  0
POINT
  5
143
330
DD
100
AcDbEntity
  8
Defpoints
 62
     0
100
AcDbPoint
 10
24.62312691944148
 20
0.7500000000000437
 30
0.0
  0
ENDBLK
  5
DF
330
DD
100
AcDbEntity
  8
0
100
AcDbBlockEnd
  0
BLOCK
  5
EC
330
EB
100
AcDbEntity
  8
0
100
AcDbBlockBegin
  2
_D_1
 70
     0
 10
0.0
 20
0.0
 30
0.0
  3
_D_1
  1

  0
LINE
  5
EE
330
EB
100
AcDbEntity
  8
치수문자_일반주서
 62
     0
370
    -2
100
AcDbLine
 10
-25.60288568297005
 20
2.562499999999996
 30
0.0
 11
-25.60288568297005
 21
20.38913260158165
 31
0.0
  0
LINE
  5
EF
330
EB
100
AcDbEntity
  8
치수문자_일반주서
 62
     0
370
    -2
100
AcDbLine
 10
14.39711431702995
 20
0.8125000000000011
 30
0.0
 11
14.39711431702995
 21
20.38913260158165
 31
0.0
  0
LINE
  5
F0
330
EB
100
AcDbEntity
  8
치수문자_일반주서
 62
     0
370
    -2
100
AcDbLine
 10
-22.30088568297005
 20
20.38913260158165
 30
0.0
 11
11.09511431702995
 21
20.38913260158165
 31
0.0
  0
SOLID
  5
F1
330
EB
100
AcDbEntity
  8
치수문자_일반주서
 62
     0
100
AcDbTrace
 10
-22.30088568297005
 20
20.93946593491498
 30
0.0
 11
-22.30088568297005
 21
19.83879926824831
 31
0.0
 12
-25.60288568297005
 22
20.38913260158165
 32
0.0
 13
-25.60288568297005
 23
20.38913260158165
 33
0.0
  0
SOLID
  5
F2
330
EB
100
AcDbEntity
  8
치수문자_일반주서
 62
     0
100
AcDbTrace
 10
11.09511431702995
 20
19.83879926824831
 30
0.0
 11
11.09511431702995
 21
20.93946593491498
 31
0.0
 12
14.39711431702995
 22
20.38913260158165
 32
0.0
 13
14.39711431702995
 23
20.38913260158165
 33
0.0
  0
MTEXT
  5
F3
330
EB
100
AcDbEntity
  8
치수문자_일반주서
 62
     0
100
AcDbMText
 10
-5.602885682970049
 20
24.76413260158165
 30
0.0
 40
3.5
 41
0.0
 71
     2
 72
     1
  1
\A1;40
  7
SLDTEXTSTYLE0
 73
     1
 44
1.0
  0
POINT
  5
13A
330
EB
100
AcDbEntity
  8
Defpoints
 62
     0
100
AcDbPoint
 10
-25.60288568297005
 20
2.499999999999996
 30
0.0
  0
POINT
  5
13B
330
EB
100
AcDbEntity
  8
Defpoints
 62
     0
100
AcDbPoint
 10
14.39711431702995
 20
0.7500000000000011
 30
0.0
  0
POINT
  5
13C
330
EB
100
AcDbEntity
  8
Defpoints
 62
     0
100
AcDbPoint
 10
14.39711431702995
 20
20.38913260158165
 30
0.0
  0
ENDBLK
  5
ED
330
EB
100
AcDbEntity
  8
0
100
AcDbBlockEnd
  0
BLOCK
  5
F7
330
F6
100
AcDbEntity
  8
0
100
AcDbBlockBegin
  2
_D_2
 70
     0
 10
0.0
 20
0.0
 30
0.0
  3
_D_2
  1

  0
LINE
  5
F9
330
F6
100
AcDbEntity
  8
치수문자_일반주서
 62
     0
370
    -2
100
AcDbLine
 10
-25.16538568297005
 20
3.000000000000003
 30
0.0
 11
-33.61443340213782
 21
2.999999999999972
 31
0.0
  0
LINE
  5
FA
330
F6
100
AcDbEntity
  8
치수문자_일반주서
 62
     0
370
    -2
100
AcDbLine
 10
-25.16538568297005
 20
-3.000000000000003
 30
0.0
 11
-33.6144334021378
 21
-3.000000000000034
 31
0.0
  0
LINE
  5
FB
330
F6
100
AcDbEntity
  8
치수문자_일반주서
 62
     0
370
    -2
100
AcDbLine
 10
-33.61443340213782
 20
2.999999999999972
 30
0.0
 11
-33.61443340213787
 21
15.72899999999997
 31
0.0
  0
LINE
  5
FC
330
F6
100
AcDbEntity
  8
치수문자_일반주서
 62
     0
370
    -2
100
AcDbLine
 10
-33.61443340213782
 20
2.999999999999972
 30
0.0
 11
-33.6144334021378
 21
-3.000000000000034
 31
0.0
  0
LINE
  5
FD
330
F6
100
AcDbEntity
  8
치수문자_일반주서
 62
     0
370
    -2
100
AcDbLine
 10
-33.61443340213783
 20
6.301999999999971
 30
0.0
 11
-33.61443340213785
 21
9.60399999999997
 31
0.0
  0
LINE
  5
FE
330
F6
100
AcDbEntity
  8
치수문자_일반주서
 62
     0
370
    -2
100
AcDbLine
 10
-33.61443340213778
 20
-6.302000000000033
 30
0.0
 11
-33.61443340213777
 21
-9.604000000000033
 31
0.0
  0
SOLID
  5
FF
330
F6
100
AcDbEntity
  8
치수문자_일반주서
 62
     0
100
AcDbTrace
 10
-34.16476673547117
 20
6.301999999999969
 30
0.0
 11
-33.0641000688045
 21
6.301999999999973
 31
0.0
 12
-33.61443340213782
 22
2.999999999999972
 32
0.0
 13
-33.61443340213782
 23
2.999999999999972
 33
0.0
  0
SOLID
  5
100
330
F6
100
AcDbEntity
  8
치수문자_일반주서
 62
     0
100
AcDbTrace
 10
-33.06410006880445
 20
-6.302000000000032
 30
0.0
 11
-34.16476673547112
 21
-6.302000000000035
 31
0.0
 12
-33.6144334021378
 22
-3.000000000000034
 32
0.0
 13
-33.6144334021378
 23
-3.000000000000034
 33
0.0
  0
MTEXT
  5
101
330
F6
100
AcDbEntity
  8
치수문자_일반주서
 62
     0
100
AcDbMText
 10
-37.98943340213786
 20
12.66649999999996
 30
0.0
 40
3.5
 41
0.0
 71
     2
 72
     1
  1
\A1;%%c6
  7
SLDTEXTSTYLE0
 11
-3.552713678800498E-15
 21
1.0
 31
0.0
 73
     1
 44
1.0
  0
POINT
  5
13E
330
F6
100
AcDbEntity
  8
Defpoints
 62
     0
100
AcDbPoint
 10
-25.10288568297005
 20
3.000000000000003
 30
0.0
  0
POINT
  5
13F
330
F6
100
AcDbEntity
  8
Defpoints
 62
     0
100
AcDbPoint
 10
-25.10288568297005
 20
-3.000000000000002
 30
0.0
  0
POINT
  5
140
330
F6
100
AcDbEntity
  8
Defpoints
 62
     0
100
AcDbPoint
 10
-33.61443340213778
 20
-3.000000000000034
 30
0.0
  0
ENDBLK
  5
F8
330
F6
100
AcDbEntity
  8
0
100
AcDbBlockEnd
  0
BLOCK
  5
104
330
103
100
AcDbEntity
  8
0
100
AcDbBlockBegin
  2
_D_3
 70
     0
 10
0.0
 20
0.0
 30
0.0
  3
_D_3
  1

  0
LINE
  5
106
330
103
100
AcDbEntity
  8
치수문자_일반주서
 62
     0
370
    -2
100
AcDbLine
 10
11.39711431702995
 20
0.7909982665946981
 30
0.0
 11
11.39711431702995
 21
12.73618899407084
 31
0.0
  0
LINE
  5
107
330
103
100
AcDbEntity
  8
치수문자_일반주서
 62
     0
370
    -2
100
AcDbLine
 10
14.39711431702995
 20
0.8125000000000011
 30
0.0
 11
14.39711431702995
 21
12.73618899407084
 31
0.0
  0
LINE
  5
108
330
103
100
AcDbEntity
  8
치수문자_일반주서
 62
     0
370
    -2
100
AcDbLine
 10
11.39711431702995
 20
12.73618899407084
 30
0.0
 11
1.293114317029953
 21
12.73618899407084
 31
0.0
  0
LINE
  5
109
330
103
100
AcDbEntity
  8
치수문자_일반주서
 62
     0
370
    -2
100
AcDbLine
 10
11.39711431702995
 20
12.73618899407084
 30
0.0
 11
14.39711431702995
 21
12.73618899407084
 31
0.0
  0
LINE
  5
10A
330
103
100
AcDbEntity
  8
치수문자_일반주서
 62
     0
370
    -2
100
AcDbLine
 10
8.095114317029953
 20
12.73618899407084
 30
0.0
 11
4.793114317029953
 21
12.73618899407084
 31
0.0
  0
LINE
  5
10B
330
103
100
AcDbEntity
  8
치수문자_일반주서
 62
     0
370
    -2
100
AcDbLine
 10
17.69911431702995
 20
12.73618899407084
 30
0.0
 11
21.00111431702995
 21
12.73618899407084
 31
0.0
  0
SOLID
  5
10C
330
103
100
AcDbEntity
  8
치수문자_일반주서
 62
     0
100
AcDbTrace
 10
8.095114317029953
 20
12.18585566073751
 30
0.0
 11
8.095114317029953
 21
13.28652232740417
 31
0.0
 12
11.39711431702995
 22
12.73618899407084
 32
0.0
 13
11.39711431702995
 23
12.73618899407084
 33
0.0
  0
SOLID
  5
10D
330
103
100
AcDbEntity
  8
치수문자_일반주서
 62
     0
100
AcDbTrace
 10
17.69911431702995
 20
13.28652232740417
 30
0.0
 11
17.69911431702995
 21
12.18585566073751
 31
0.0
 12
14.39711431702995
 22
12.73618899407084
 32
0.0
 13
14.39711431702995
 23
12.73618899407084
 33
0.0
  0
MTEXT
  5
13D
330
103
100
AcDbEntity
  8
치수문자_일반주서
 62
     0
100
AcDbMText
 10
3.043114317029953
 20
17.11118899407084
 30
0.0
 40
3.5
 41
0.0
 71
     2
 72
     1
  1
\A1;3
  7
SLDTEXTSTYLE0
 73
     1
 44
1.0
  0
POINT
  5
144
330
103
100
AcDbEntity
  8
Defpoints
 62
     0
100
AcDbPoint
 10
11.39711431702995
 20
0.7284982665946981
 30
0.0
  0
POINT
  5
145
330
103
100
AcDbEntity
  8
Defpoints
 62
     0
100
AcDbPoint
 10
14.39711431702995
 20
0.7500000000000011
 30
0.0
  0
POINT
  5
146
330
103
100
AcDbEntity
  8
Defpoints
 62
     0
100
AcDbPoint
 10
14.39711431702995
 20
12.73618899407084
 30
0.0
  0
ENDBLK
  5
105
330
103
100
AcDbEntity
  8
0
100
AcDbBlockEnd
  0
BLOCK
  5
10F
330
10E
100
AcDbEntity
  8
0
100
AcDbBlockBegin
  2
SW_DOWELSYMBOL_0
 70
     0
 10
0.0
 20
0.0
 30
0.0
  3
SW_DOWELSYMBOL_0
  1

  0
CIRCLE
  5
111
330
10E
100
AcDbEntity
  8
해칭선
 62
     0
100
AcDbCircle
 10
0.0
 20
0.0
 30
0.0
 40
3.000000000000001
  0
HATCH
  5
112
330
10E
100
AcDbEntity
  8
0
  6
Continuous
 62
     0
370
    18
100
AcDbHatch
 10
0.0
 20
0.0
 30
0.0
210
0.0
220
0.0
230
1.0
  2
SOLID
 70
     1
 71
     0
 91
        1
 92
        0
 93
        3
 72
     2
 10
0.0
 20
0.0
 40
3.000000000000001
 50
0.0
 51
90.0
 73
     1
 72
     1
 10
0.0
 20
3.000000000000001
 11
0.0
 21
0.0
 72
     1
 10
0.0
 20
0.0
 11
3.000000000000001
 21
0.0
 97
        0
 75
     0
 76
     1
 98
        1
 10
0.0
 20
0.0
  0
HATCH
  5
113
330
10E
100
AcDbEntity
  8
0
  6
Continuous
 62
     0
370
    18
100
AcDbHatch
 10
0.0
 20
0.0
 30
0.0
210
0.0
220
0.0
230
1.0
  2
SOLID
 70
     1
 71
     0
 91
        1
 92
        0
 93
        3
 72
     2
 10
0.0
 20
0.0
 40
3.000000000000001
 50
180.0
 51
270.0000000000008
 73
     1
 72
     1
 10
0.0
 20
-3.000000000000001
 11
0.0
 21
0.0
 72
     1
 10
0.0
 20
0.0
 11
-3.000000000000001
 21
0.0
 97
        0
 75
     0
 76
     1
 98
        1
 10
0.0
 20
0.0
  0
ENDBLK
  5
110
330
10E
100
AcDbEntity
  8
0
100
AcDbBlockEnd
  0
ENDSEC
  0
SECTION
  2
ENTITIES
  0
LINE
  5
99
330
1F
100
AcDbEntity
  8
0
  6
Continuous
 62
     4
370
    25
100
AcDbLine
 10
2.0
 20
2.999999999999998
 30
0.0
 11
-25.10288568297005
 21
2.999999999999996
 31
0.0
  0
LINE
  5
9A
330
1F
100
AcDbEntity
  8
0
  6
Continuous
 62
     4
370
    25
100
AcDbLine
 10
-25.10288568297005
 20
-3.0
 30
0.0
 11
2.0
 21
-2.999999999999998
 31
0.0
  0
LINE
  5
9B
330
1F
100
AcDbEntity
  8
0
  6
Continuous
 62
     4
370
    25
100
AcDbLine
 10
2.0
 20
-2.999999999999998
 30
0.0
 11
10.08652930924183
 21
-0.8332210020180398
 31
0.0
  0
LINE
  5
9C
330
1F
100
AcDbEntity
  8
0
  6
Continuous
 62
     4
370
    25
100
AcDbLine
 10
10.08247457495256
 20
0.8343074647963736
 30
0.0
 11
2.0
 21
2.999999999999999
 31
0.0
  0
LINE
  5
9D
330
1F
100
AcDbEntity
  8
0
  6
Continuous
 62
     4
370
    25
100
AcDbLine
 10
-25.10288568297005
 20
2.999999999999996
 30
0.0
 11
-25.60288568297005
 21
2.499999999999996
 31
0.0
  0
LINE
  5
9E
330
1F
100
AcDbEntity
  8
0
  6
Continuous
 62
     4
370
    25
100
AcDbLine
 10
-25.60288568297005
 20
-2.5
 30
0.0
 11
-25.10288568297005
 21
-2.999999999999999
 31
0.0
  0
LINE
  5
9F
330
1F
100
AcDbEntity
  8
0
  6
Continuous
 62
     4
370
    25
100
AcDbLine
 10
11.16711718219589
 20
-0.7499999999999996
 30
0.0
 11
11.39711431702995
 21
-0.7499999999999994
 31
0.0
  0
LINE
  5
A0
330
1F
100
AcDbEntity
  8
0
  6
Continuous
 62
     4
370
    25
100
AcDbLine
 10
11.39711431702995
 20
0.7500000000000006
 30
0.0
 11
11.16711718219588
 21
0.7500000000000004
 31
0.0
  0
LINE
  5
A1
330
1F
100
AcDbEntity
  8
0
  6
Continuous
 62
     1
370
    25
100
AcDbLine
 10
12.67456353768781
 20
-0.7499999999999998
 30
0.0
 11
13.10375392488226
 21
-0.7499999999999998
 31
0.0
  0
LINE
  5
A2
330
1F
100
AcDbEntity
  8
0
  6
Continuous
 62
     1
370
    25
100
AcDbLine
 10
14.18215159024423
 20
-0.7499999999999998
 30
0.0
 11
14.39711431702995
 21
-0.7499999999999998
 31
0.0
  0
LINE
  5
A3
330
1F
100
AcDbEntity
  8
0
  6
Continuous
 62
     1
370
    25
100
AcDbLine
 10
11.59611625025218
 20
0.7500000000000007
 30
0.0
 11
11.39711431702995
 21
0.7500000000000007
 31
0.0
  0
LINE
  5
A4
330
1F
100
AcDbEntity
  8
0
  6
Continuous
 62
     1
370
    25
100
AcDbLine
 10
13.10375392488226
 20
0.7500000000000007
 30
0.0
 11
12.67456353768782
 21
0.7500000000000007
 31
0.0
  0
LINE
  5
A5
330
1F
100
AcDbEntity
  8
0
  6
Continuous
 62
     1
370
    25
100
AcDbLine
 10
11.39711431702995
 20
-0.7499999999999998
 30
0.0
 11
11.59611625025217
 21
-0.7499999999999998
 31
0.0
  0
LINE
  5
A6
330
1F
100
AcDbEntity
  8
0
  6
Continuous
 62
     1
370
    25
100
AcDbLine
 10
14.39711431702995
 20
0.7500000000000007
 30
0.0
 11
14.18215159024423
 21
0.7500000000000007
 31
0.0
  0
LINE
  5
A7
330
1F
100
AcDbEntity
  8
0
  6
Continuous
 62
     4
370
    25
100
AcDbLine
 10
2.0
 20
2.999999999999999
 30
0.0
 11
2.0
 21
-2.999999999999999
 31
0.0
  0
LINE
  5
A8
330
1F
100
AcDbEntity
  8
0
  6
Continuous
 62
     4
370
    25
100
AcDbLine
 10
-25.10288568297005
 20
2.999999999999996
 30
0.0
 11
-25.10288568297005
 21
-2.999999999999999
 31
0.0
  0
SPLINE
  5
A9
330
1F
100
AcDbEntity
  8
0
  6
Continuous
 62
     4
370
    25
100
AcDbSpline
210
0.0
220
0.0
230
1.0
 70
     8
 71
     3
 72
     8
 73
     4
 74
     0
 42
0.000000001
 43
0.00000001
 40
0.0
 40
0.0
 40
0.0
 40
0.0
 40
1.0
 40
1.0
 40
1.0
 40
1.0
 10
10.14474517786877
 20
-0.3920449677446365
 30
0.0
 10
10.22734273367653
 20
-0.4436471986955505
 30
0.0
 10
10.31209452774809
 20
-0.4870052857667418
 30
0.0
 10
10.39711431703079
 20
-0.5211306423929689
 30
0.0
  0
SPLINE
  5
AA
330
1F
100
AcDbEntity
  8
0
  6
Continuous
 62
     4
370
    25
100
AcDbSpline
210
0.0
220
0.0
230
1.0
 70
     8
 71
     3
 72
    26
 73
    22
 74
     0
 42
0.000000001
 43
0.00000001
 40
0.0
 40
0.0
 40
0.0
 40
0.0
 40
0.0000473702381865
 40
0.0000473702381865
 40
0.0000473702381865
 40
0.0000946305873761
 40
0.0000946305873761
 40
0.0000946305873761
 40
0.0001434997287036
 40
0.0001434997287036
 40
0.0001434997287036
 40
0.0001951481974923
 40
0.0001951481974923
 40
0.0001951481974923
 40
0.0002483561343461
 40
0.0002483561343461
 40
0.0002483561343461
 40
0.0003014719244335
 40
0.0003014719244335
 40
0.0003014719244335
 40
0.0003491244580754
 40
0.0003491244580754
 40
0.0003491244580754
 40
0.0003491244580754
 10
9.897183282796783
 20
-0.5233672537074647
 30
0.0
 10
9.897183282796783
 20
-0.5106422852970384
 30
0.0
 10
9.899756677165751
 20
-0.4970704817507059
 30
0.0
 10
9.904628248033115
 20
-0.4838440619426497
 30
0.0
 10
9.909493390957175
 20
-0.4706350941390767
 30
0.0
 10
9.91676449061273
 20
-0.4574187288115618
 30
0.0
 10
9.925809818728652
 20
-0.4452594992187688
 30
0.0
 10
9.935163829395561
 20
-0.4326853214935726
 30
0.0
 10
9.946650776315021
 20
-0.4209151825192231
 30
0.0
 10
9.959404014373336
 20
-0.4108672633047559
 30
0.0
 10
9.972869885013147
 20
-0.4002578808308596
 30
0.0
 10
9.988107546604287
 20
-0.3912917471869607
 30
0.0
 10
10.00396290650084
 20
-0.3847365814037346
 30
0.0
 10
10.02028276245465
 20
-0.3779893765447172
 30
0.0
 10
10.0377119066395
 20
-0.3736207614102315
 30
0.0
 10
10.05482379202628
 20
-0.3720573771990321
 30
0.0
 10
10.07190203962501
 20
-0.3704970662194231
 30
0.0
 10
10.08914275004696
 20
-0.371694600452036
 30
0.0
 10
10.10504216526338
 20
-0.3755346508551903
 30
0.0
 10
10.11934522322344
 20
-0.378989146680242
 30
0.0
 10
10.13291287209147
 20
-0.3846528195213497
 30
0.0
 10
10.14474517786725
 20
-0.3920449677435776
 30
0.0
  0
LINE
  5
AB
330
1F
100
AcDbEntity
  8
0
  6
Continuous
 62
     4
370
    25
100
AcDbLine
 10
9.897183282796783
 20
-0.5233672537074646
 30
0.0
 11
9.897183282796783
 21
-0.8515707849696247
 31
0.0
  0
SPLINE
  5
AC
330
1F
100
AcDbEntity
  8
0
  6
Continuous
 62
     4
370
    25
100
AcDbSpline
210
0.0
220
0.0
230
1.0
 70
     8
 71
     3
 72
    14
 73
    10
 74
     0
 42
0.000000001
 43
0.00000001
 40
0.0
 40
0.0
 40
0.0
 40
0.0
 40
0.000049988632855
 40
0.000049988632855
 40
0.000049988632855
 40
0.0001001294311498
 40
0.0001001294311498
 40
0.0001001294311498
 40
0.0001269326105509
 40
0.0001269326105509
 40
0.0001269326105509
 40
0.0001269326105509
 10
9.946947884062315
 20
-0.8616849930561347
 30
0.0
 10
9.934953583758324
 20
-0.8632779254113214
 30
0.0
 10
9.924503530358322
 20
-0.8639274470081884
 30
0.0
 10
9.916475720976146
 20
-0.863345209492388
 30
0.0
 10
9.90843366179074
 20
-0.8627619384729709
 30
0.0
 10
9.90260974250663
 20
-0.8609081771038429
 30
0.0
 10
9.899621529625062
 20
-0.8577703235885881
 30
0.0
 10
9.89800627803034
 20
-0.8560741850953166
 30
0.0
 10
9.897183282796783
 20
-0.8539907439726035
 30
0.0
 10
9.897183282796783
 20
-0.851570784969625
 30
0.0
  0
SPLINE
  5
AD
330
1F
100
AcDbEntity
  8
0
  6
Continuous
 62
     4
370
    25
100
AcDbSpline
210
0.0
220
0.0
230
1.0
 70
     8
 71
     3
 72
    10
 73
     6
 74
     0
 42
0.000000001
 43
0.00000001
 40
0.0
 40
0.0
 40
0.0
 40
0.0
 40
0.5000000000000001
 40
0.5000000000000001
 40
1.0
 40
1.0
 40
1.0
 40
1.0
 10
10.39711431702995
 20
-0.7115619526869909
 30
0.0
 10
10.3179645438828
 20
-0.7501847404163484
 30
0.0
 10
10.24143800192944
 20
-0.7829321114830811
 30
0.0
 10
10.09233609966933
 20
-0.833946505120732
 30
0.0
 10
10.01936459093428
 20
-0.8520675153786877
 30
0.0
 10
9.946947884062347
 20
-0.8616849930563131
 30
0.0
  0
SPLINE
  5
AE
330
1F
100
AcDbEntity
  8
0
  6
Continuous
 62
     4
370
    25
100
AcDbSpline
210
0.0
220
0.0
230
1.0
 70
     8
 71
     3
 72
    11
 73
     7
 74
     0
 42
0.000000001
 43
0.00000001
 40
0.0
 40
0.0
 40
0.0
 40
0.0
 40
0.3089526582711407
 40
0.6197409682056355
 40
0.9365989104713507
 40
1.0
 40
1.0
 40
1.0
 40
1.0
 10
10.39711431702995
 20
0.7115619526869917
 30
0.0
 10
10.36377549593707
 20
0.7273862989742602
 30
0.0
 10
10.29689977012666
 20
0.7591290123859898
 30
0.0
 10
10.19833989457893
 20
0.7979544812495291
 30
0.0
 10
10.12692843557408
 20
0.8232264899328936
 30
0.0
 10
10.08867480682464
 20
0.8321550617060623
 30
0.0
 10
10.08229672888736
 20
0.8336437342451009
 30
0.0
  0
LINE
  5
AF
330
1F
100
AcDbEntity
  8
0
  6
Continuous
 62
     4
370
    25
100
AcDbLine
 10
10.39711431702995
 20
0.711561952686992
 30
0.0
 11
10.39711431702995
 21
0.5393726481392087
 31
0.0
  0
SPLINE
  5
B0
330
1F
100
AcDbEntity
  8
0
  6
Continuous
 62
     4
370
    25
100
AcDbSpline
210
0.0
220
0.0
230
1.0
 70
     8
 71
     3
 72
     8
 73
     4
 74
     0
 42
0.000000001
 43
0.00000001
 40
0.0
 40
0.0
 40
0.0
 40
0.0
 40
1.0
 40
1.0
 40
1.0
 40
1.0
 10
10.14474517786877
 20
0.7175002809583044
 30
0.0
 10
10.22734273367653
 20
0.6640843224571942
 30
0.0
 10
10.31209452774809
 20
0.6040209150667726
 30
0.0
 10
10.39711431703079
 20
0.5393726481403659
 30
0.0
  0
SPLINE
  5
B1
330
1F
100
AcDbEntity
  8
0
  6
Continuous
 62
     4
370
    25
100
AcDbSpline
210
0.0
220
0.0
230
1.0
 70
     8
 71
     3
 72
    26
 73
    22
 74
     0
 42
0.000000001
 43
0.00000001
 40
0.0
 40
0.0
 40
0.0
 40
0.0
 40
0.0000473702381865
 40
0.0000473702381865
 40
0.0000473702381865
 40
0.0000946305873761
 40
0.0000946305873761
 40
0.0000946305873761
 40
0.0001434997287036
 40
0.0001434997287036
 40
0.0001434997287036
 40
0.0001951481974923
 40
0.0001951481974923
 40
0.0001951481974923
 40
0.0002483561343461
 40
0.0002483561343461
 40
0.0002483561343461
 40
0.0003014719244335
 40
0.0003014719244335
 40
0.0003014719244335
 40
0.0003491244580754
 40
0.0003491244580754
 40
0.0003491244580754
 40
0.0003491244580754
 10
9.897183282796783
 20
0.7123658711231726
 30
0.0
 10
9.897183282796783
 20
0.7217147633714477
 30
0.0
 10
9.899756677165751
 20
0.7302771216508154
 30
0.0
 10
9.904628248033115
 20
0.7373944402232503
 30
0.0
 10
9.909493390957175
 20
0.74450236763183
 30
0.0
 10
9.91676449061273
 20
0.7503727085757422
 30
0.0
 10
9.925809818728652
 20
0.7547320953603748
 30
0.0
 10
9.935163829395561
 20
0.7592402513898763
 30
0.0
 10
9.946650776315021
 20
0.7622616640400524
 30
0.0
 10
9.959404014373336
 20
0.76378651494925
 30
0.0
 10
9.972869885013147
 20
0.7653965723318824
 30
0.0
 10
9.988107546604287
 20
0.7653874781775434
 30
0.0
 10
10.00396290650084
 20
0.7639320341058067
 30
0.0
 10
10.02028276245465
 20
0.7624339515801168
 30
0.0
 10
10.0377119066395
 20
0.7593643178892404
 30
0.0
 10
10.05482379202628
 20
0.7550231278065583
 30
0.0
 10
10.07190203962501
 20
0.7506904714434873
 30
0.0
 10
10.08914275004696
 20
0.7449669968016671
 30
0.0
 10
10.10504216526338
 20
0.738233822867032
 30
0.0
 10
10.11934522322344
 20
0.7321766832973436
 30
0.0
 10
10.13291287209147
 20
0.7251522501742335
 30
0.0
 10
10.14474517786725
 20
0.7175002809590492
 30
0.0
  0
LINE
  5
B2
330
1F
100
AcDbEntity
  8
0
  6
Continuous
 62
     4
370
    25
100
AcDbLine
 10
9.897183282796783
 20
0.7123658711231725
 30
0.0
 11
9.897183282796783
 21
0.2370772337880424
 31
0.0
  0
SPLINE
  5
B3
330
1F
100
AcDbEntity
  8
0
  6
Continuous
 62
     4
370
    25
100
AcDbSpline
210
0.0
220
0.0
230
1.0
 70
     8
 71
     3
 72
    14
 73
    10
 74
     0
 42
0.000000001
 43
0.00000001
 40
0.0
 40
0.0
 40
0.0
 40
0.0
 40
0.000049988632855
 40
0.000049988632855
 40
0.000049988632855
 40
0.0001001294311498
 40
0.0001001294311498
 40
0.0001001294311498
 40
0.0001269326105509
 40
0.0001269326105509
 40
0.0001269326105509
 40
0.0001269326105509
 10
9.946947884062311
 20
0.1244233630550137
 30
0.0
 10
9.934953583758324
 20
0.1358798379602063
 30
0.0
 10
9.924503530358322
 20
0.1494257612087807
 30
0.0
 10
9.916475720976146
 20
0.1640157155103691
 30
0.0
 10
9.90843366179074
 20
0.1786315677833704
 30
0.0
 10
9.90260974250663
 20
0.1947206642991789
 30
0.0
 10
9.899621529625062
 20
0.2108409160894289
 30
0.0
 10
9.89800627803034
 20
0.2195545731960295
 30
0.0
 10
9.897183282796783
 20
0.2283848496445563
 30
0.0
 10
9.897183282796783
 20
0.2370772337880422
 30
0.0
  0
SPLINE
  5
B4
330
1F
100
AcDbEntity
  8
0
  6
Continuous
 62
     4
370
    25
100
AcDbSpline
210
0.0
220
0.0
230
1.0
 70
     8
 71
     3
 72
    10
 73
     6
 74
     0
 42
0.000000001
 43
0.00000001
 40
0.0
 40
0.0
 40
0.0
 40
0.0
 40
0.5
 40
0.5
 40
1.0
 40
1.0
 40
1.0
 40
1.0
 10
10.39711431702995
 20
-0.2370223354206926
 30
0.0
 10
10.3179645438828
 20
-0.1881812931305008
 30
0.0
 10
10.24143800192944
 20
-0.1332938696021951
 30
0.0
 10
10.09233609966933
 20
-0.0118303327016224
 30
0.0
 10
10.01936459093428
 20
0.0552538271947928
 30
0.0
 10
9.946947884062347
 20
0.1244233630550244
 30
0.0
  0
LINE
  5
B5
330
1F
100
AcDbEntity
  8
0
  6
Continuous
 62
     4
370
    25
100
AcDbLine
 10
10.39711431702995
 20
-0.2370223354206928
 30
0.0
 11
10.39711431702995
 21
-0.5211306423914139
 31
0.0
  0
LINE
  5
B6
330
1F
100
AcDbEntity
  8
0
  6
Continuous
 62
     4
370
    25
100
AcDbLine
 10
-25.60288568297005
 20
2.499999999999996
 30
0.0
 11
-25.60288568297005
 21
-2.5
 31
0.0
  0
SPLINE
  5
B7
330
1F
100
AcDbEntity
  8
0
  6
Continuous
 62
     4
370
    25
100
AcDbSpline
210
0.0
220
0.0
230
1.0
 70
     8
 71
     3
 72
    14
 73
    10
 74
     0
 42
0.000000001
 43
0.00000001
 40
0.0
 40
0.0
 40
0.0
 40
0.0
 40
0.2499999999999999
 40
0.2499999999999999
 40
0.4999999999999999
 40
0.4999999999999999
 40
0.7499999999999999
 40
0.7499999999999999
 40
1.0
 40
1.0
 40
1.0
 40
1.0
 10
11.39711431702995
 20
-0.1782982769649479
 30
0.0
 10
11.31531686411544
 20
-0.1153909115996778
 30
0.0
 10
11.23138852456309
 20
-0.0499251858867385
 30
0.0
 10
11.06243313250333
 20
0.0809693591252004
 30
0.0
 10
10.98041752108212
 20
0.1455919046725449
 30
0.0
 10
10.81499898234779
 20
0.2704949267814199
 30
0.0
 10
10.72951773955912
 20
0.3312477644212951
 30
0.0
 10
10.56159830854496
 20
0.4431444602975858
 30
0.0
 10
10.48103282528368
 20
0.4939879693396302
 30
0.0
 10
10.39711431702995
 20
0.5393726481392108
 30
0.0
  0
SPLINE
  5
B8
330
1F
100
AcDbEntity
  8
0
  6
Continuous
 62
     4
370
    25
100
AcDbSpline
210
0.0
220
0.0
230
1.0
 70
     8
 71
     3
 72
    14
 73
    10
 74
     0
 42
0.000000001
 43
0.00000001
 40
0.0
 40
0.0
 40
0.0
 40
0.0
 40
0.25
 40
0.25
 40
0.5
 40
0.5
 40
0.75
 40
0.75
 40
1.0
 40
1.0
 40
1.0
 40
1.0
 10
11.39711431702995
 20
-0.7340462910272109
 30
0.0
 10
11.31531686411545
 20
-0.7207592728024816
 30
0.0
 10
11.23138852456309
 20
-0.6990645287563825
 30
0.0
 10
11.06243313250333
 20
-0.6400805132844214
 30
0.0
 10
10.98041752108213
 20
-0.6032507723245599
 30
0.0
 10
10.81499898234779
 20
-0.516774225796908
 30
0.0
 10
10.72951773955912
 20
-0.4666429418897441
 30
0.0
 10
10.56159830854496
 20
-0.3574741905568081
 30
0.0
 10
10.48103282528368
 20
-0.2989914618579829
 30
0.0
 10
10.39711431702995
 20
-0.2370223354206895
 30
0.0
  0
SPLINE
  5
B9
330
1F
100
AcDbEntity
  8
0
  6
Continuous
 62
     4
370
    25
100
AcDbSpline
210
0.0
220
0.0
230
1.0
 70
     8
 71
     3
 72
    11
 73
     7
 74
     0
 42
0.000000001
 43
0.00000001
 40
0.0
 40
0.0
 40
0.0
 40
0.0
 40
0.106316118967821
 40
0.5116186930433204
 40
0.7569899562016187
 40
1.0
 40
1.0
 40
1.0
 40
1.0
 10
10.62687091206147
 20
0.6281280716636866
 30
0.0
 10
10.65415759064316
 20
0.6413955391187308
 30
0.0
 10
10.78546764004108
 20
0.7052417782896606
 30
0.0
 10
10.97965903521732
 20
0.7420919531417693
 30
0.0
 10
11.20981338240655
 20
0.7556649515127545
 30
0.0
 10
11.33488223255251
 20
0.7375245933142012
 30
0.0
 10
11.39711431703005
 20
0.7284982665945757
 30
0.0
  0
SPLINE
  5
BA
330
1F
100
AcDbEntity
  8
0
  6
Continuous
 62
     4
370
    25
100
AcDbSpline
210
0.0
220
0.0
230
1.0
 70
     8
 71
     3
 72
    14
 73
    10
 74
     0
 42
0.000000001
 43
0.00000001
 40
0.0
 40
0.0
 40
0.0
 40
0.0
 40
0.25
 40
0.25
 40
0.5
 40
0.5
 40
0.75
 40
0.75
 40
1.0
 40
1.0
 40
1.0
 40
1.0
 10
11.39711431702995
 20
0.1538702135866359
 30
0.0
 10
11.31531686411545
 20
0.2172566625901829
 30
0.0
 10
11.23138852456309
 20
0.2794529756170121
 30
0.0
 10
11.06243313250333
 20
0.3963358644636368
 30
0.0
 10
10.98041752108213
 20
0.4503485508820077
 30
0.0
 10
10.81499898234779
 20
0.5474209633761838
 30
0.0
 10
10.72951773955912
 20
0.5907723963543182
 30
0.0
 10
10.56159830854496
 20
0.6625555543465721
 30
0.0
 10
10.48103282528368
 20
0.690919945316191
 30
0.0
 10
10.39711431702995
 20
0.7115619526869924
 30
0.0
  0
SPLINE
  5
BB
330
1F
100
AcDbEntity
  8
0
  6
Continuous
 62
     4
370
    25
100
AcDbSpline
210
0.0
220
0.0
230
1.0
 70
     8
 71
     3
 72
    10
 73
     6
 74
     0
 42
0.000000001
 43
0.00000001
 40
0.0
 40
0.0
 40
0.0
 40
0.0
 40
0.4049267789162082
 40
0.8104327367269452
 40
1.0
 40
1.0
 40
1.0
 40
1.0
 10
10.39711431702994
 20
-0.5211306423914095
 30
0.0
 10
10.50098662391902
 20
-0.5739527051323253
 30
0.0
 10
10.70887980936743
 20
-0.6796723835918752
 30
0.0
 10
10.9653859274452
 20
-0.7441461680138558
 30
0.0
 10
11.11837939381746
 20
-0.7466641017154868
 30
0.0
 10
11.16711718219589
 20
-0.7474662177980286
 30
0.0
  0
LINE
  5
BC
330
1F
100
AcDbEntity
  8
0
  6
Continuous
 62
     4
370
    25
100
AcDbLine
 10
10.62687091206147
 20
-0.6281280716636856
 30
0.0
 11
10.39711431702994
 21
-0.7115619526869925
 31
0.0
  0
SPLINE
  5
BD
330
1F
100
AcDbEntity
  8
0
  6
Continuous
 62
     1
370
    25
100
AcDbSpline
210
0.0
220
0.0
230
1.0
 70
     8
 71
     3
 72
    17
 73
    13
 74
     0
 42
0.000000001
 43
0.00000001
 40
0.0
 40
0.0
 40
0.0
 40
0.0
 40
0.1148570642531687
 40
0.2305887804903703
 40
0.3458185802651301
 40
0.4551570520463905
 40
0.5654484358270623
 40
0.6751558100462157
 40
0.784540209133453
 40
0.882710600896763
 40
0.9797894772938143
 40
1.0
 40
1.0
 40
1.0
 40
1.0
 10
14.15753148563996
 20
-0.6677577045649308
 30
0.0
 10
14.05962928764211
 20
-0.6266129201053083
 30
0.0
 10
13.86307935324806
 20
-0.5440100281214857
 30
0.0
 10
13.56698881616659
 20
-0.3534099944199277
 30
0.0
 10
13.27635137520959
 20
-0.1370141697853867
 30
0.0
 10
12.99126396978205
 20
0.0899652071443775
 30
0.0
 10
12.70917580413856
 20
0.3032597231275527
 30
0.0
 10
12.42803972092187
 20
0.4917779682400094
 30
0.0
 10
12.15798156784064
 20
0.6345769160894673
 30
0.0
 10
11.89662092506383
 20
0.7183799178103484
 30
0.0
 10
11.71364931562473
 20
0.7546339318657709
 30
0.0
 10
11.61339193052298
 20
0.747130929256679
 30
0.0
 10
11.59611625025218
 20
0.7458380621625083
 30
0.0
  0
SPLINE
  5
BE
330
1F
100
AcDbEntity
  8
0
  6
Continuous
 62
     1
370
    25
100
AcDbSpline
210
0.0
220
0.0
230
1.0
 70
     8
 71
     3
 72
    16
 73
    12
 74
     0
 42
0.000000001
 43
0.00000001
 40
0.0
 40
0.0
 40
0.0
 40
0.0
 40
0.0054136597557118
 40
0.1293107007089586
 40
0.2535735677167414
 40
0.3784979281108232
 40
0.5023429483247596
 40
0.626770070771262
 40
0.7515645097360567
 40
0.8753835000613744
 40
0.9999999999999999
 40
0.9999999999999999
 40
0.9999999999999999
 40
0.9999999999999999
 10
12.13578213718414
 20
0.6336192303816494
 30
0.0
 10
12.13987097695618
 20
0.6356242737542289
 30
0.0
 10
12.23753702171492
 20
0.6835167485604932
 30
0.0
 10
12.42801305288332
 20
0.7327497297339055
 30
0.0
 10
12.7091820066292
 20
0.7611108882288686
 30
0.0
 10
12.99126605067775
 20
0.719974386915106
 30
0.0
 10
13.27175889190827
 20
0.6181459623819336
 30
0.0
 10
13.55310813970281
 20
0.4635651395582494
 30
0.0
 10
13.83501708494022
 20
0.2707267251655661
 30
0.0
 10
14.11547499946299
 20
0.0517790047052987
 30
0.0
 10
14.30303384856431
 20
-0.0933233394519039
 30
0.0
 10
14.39711431702995
 20
-0.1661074100472507
 30
0.0
  0
LINE
  5
BF
330
1F
100
AcDbEntity
  8
0
  6
Continuous
 62
     1
370
    25
100
AcDbLine
 10
14.39711431702995
 20
-0.5
 30
0.0
 11
14.39711431702995
 21
-0.1666447553771766
 31
0.0
  0
SPLINE
  5
C0
330
1F
100
AcDbEntity
  8
0
  6
Continuous
 62
     1
370
    25
100
AcDbSpline
210
0.0
220
0.0
230
1.0
 70
    24
 71
     3
 72
     8
 73
     4
 74
     0
 42
0.000000001
 43
0.00000001
 40
0.0
 40
0.0
 40
0.0
 40
0.0
 40
1.0
 40
1.0
 40
1.0
 40
1.0
 10
14.39711431702995
 20
-0.5
 30
0.0
 10
14.30729481895334
 20
-0.562892289631454
 30
0.0
 10
14.22606903602635
 20
-0.6197671951339191
 30
0.0
 10
14.15753148563994
 20
-0.6677577045649163
 30
0.0
  0
SPLINE
  5
C1
330
1F
100
AcDbEntity
  8
0
  6
Continuous
 62
     1
370
    25
100
AcDbSpline
210
0.0
220
0.0
230
1.0
 70
     8
 71
     3
 72
    12
 73
     8
 74
     0
 42
0.000000001
 43
0.00000001
 40
0.0
 40
0.0
 40
0.0
 40
0.0
 40
0.1961565633150856
 40
0.3907820531505842
 40
0.5875958327634814
 40
0.8068916573839092
 40
1.0
 40
1.0
 40
1.0
 40
1.0
 10
11.39711431703005
 20
-0.1782982769650292
 30
0.0
 10
11.48080472749821
 20
-0.2403065017206159
 30
0.0
 10
11.64753231427402
 20
-0.3638389544343583
 30
0.0
 10
11.89666919509168
 20
-0.5236870417841762
 30
0.0
 10
12.157979218146
 20
-0.6505340738708458
 30
0.0
 10
12.41659634243517
 20
-0.7360311630673283
 30
0.0
 10
12.59229336702414
 20
-0.7432094162519391
 30
0.0
 10
12.67456353768781
 20
-0.7465706348949214
 30
0.0
  0
SPLINE
  5
C2
330
1F
100
AcDbEntity
  8
0
  6
Continuous
 62
     1
370
    25
100
AcDbSpline
210
0.0
220
0.0
230
1.0
 70
     8
 71
     3
 72
    16
 73
    12
 74
     0
 42
0.000000001
 43
0.00000001
 40
0.0
 40
0.0
 40
0.0
 40
0.0
 40
0.0342243780789399
 40
0.1656062513113051
 40
0.2902709931321326
 40
0.4160222192109645
 40
0.5411075735246118
 40
0.6658246804064181
 40
0.7777558821531035
 40
0.8884425678652103
 40
1.0
 40
1.0
 40
1.0
 40
1.0
 10
13.64369485226467
 20
-0.6287534804269111
 30
0.0
 10
13.61802188377444
 20
-0.6410668656200089
 30
0.0
 10
13.49379452566457
 20
-0.7006493526436623
 30
0.0
 10
13.27634702225271
 20
-0.7463130342548825
 30
0.0
 10
12.99126541339694
 20
-0.7561884821449377
 30
0.0
 10
12.70917431404328
 20
-0.6975145765834141
 30
0.0
 10
12.42804420441748
 20
-0.580483414985546
 30
0.0
 10
12.15796587785388
 20
-0.4186739044319435
 30
0.0
 10
11.89667254566924
 20
-0.2353128083249922
 30
0.0
 10
11.64753147287621
 20
-0.0396227014375424
 30
0.0
 10
11.48080444630064
 20
0.0892043283096823
 30
0.0
 10
11.39711431703003
 20
0.1538702135865792
 30
0.0
  0
SPLINE
  5
C3
330
1F
100
AcDbEntity
  8
0
  6
Continuous
 62
     1
370
    25
100
AcDbSpline
210
0.0
220
0.0
230
1.0
 70
     8
 71
     3
 72
    18
 73
    14
 74
     0
 42
0.000000001
 43
0.00000001
 40
0.0
 40
0.0
 40
0.0
 40
0.0
 40
0.0899852223911768
 40
0.1792680773202129
 40
0.2695547923238121
 40
0.3701549619761936
 40
0.4710521699021805
 40
0.5724864878864353
 40
0.6730444184735428
 40
0.7740749962110636
 40
0.8754038224279025
 40
0.9759406176336408
 40
1.0
 40
1.0
 40
1.0
 40
1.0
 10
11.39711431703005
 20
0.7284982665945756
 30
0.0
 10
11.48080444554863
 20
0.7083016470888448
 30
0.0
 10
11.647531470626
 20
0.6680660500546889
 30
0.0
 10
11.89667255463
 20
0.5482013717358597
 30
0.0
 10
12.15796584217676
 20
0.390882645262965
 30
0.0
 10
12.4280443547945
 20
0.1929716968559882
 30
0.0
 10
12.70917375174406
 20
-0.0278845767557644
 30
0.0
 10
12.99126751590022
 20
-0.2452791836141904
 30
0.0
 10
13.27176119767457
 20
-0.4434962581317021
 30
0.0
 10
13.55309736936463
 20
-0.6040280638413318
 30
0.0
 10
13.83505783776038
 20
-0.707805681206165
 30
0.0
 10
14.04399718807614
 20
-0.7551043925330656
 30
0.0
 10
14.15979178352907
 20
-0.7459430315731831
 30
0.0
 10
14.18215159024423
 20
-0.7441739830307229
 30
0.0
  0
LINE
  5
C4
330
1F
100
AcDbEntity
  8
0
  6
Continuous
 62
     1
370
    25
100
AcDbLine
 10
14.15753148563993
 20
-0.6677577045649203
 30
0.0
 11
14.11737298322208
 21
-0.6958769906811089
 31
0.0
  0
ELLIPSE
  5
C5
330
1F
100
AcDbEntity
  8
0
  6
Continuous
 62
     1
370
    25
100
AcDbEllipse
 10
14.15288662405185
 20
0.0000000000000007
 30
0.0
 11
1.041992479244973
 21
-0.4127557545313226
 31
0.0
210
0.0
220
0.0
230
1.0
 40
0.6009688174887261
 41
4.912933762914534
 42
5.176132609328194
  0
LINE
  5
C6
330
1F
100
AcDbEntity
  8
0
  6
Continuous
 62
     1
370
    25
100
AcDbLine
 10
14.39711431702995
 20
-0.7500000000000001
 30
0.0
 11
14.39711431702995
 21
-0.7446933086021944
 31
0.0
  0
SPLINE
  5
C7
330
1F
100
AcDbEntity
  8
0
  6
Continuous
 62
     1
370
    25
100
AcDbSpline
210
0.0
220
0.0
230
1.0
 70
     8
 71
     3
 72
    11
 73
     7
 74
     0
 42
0.000000001
 43
0.00000001
 40
0.0
 40
0.0
 40
0.0
 40
0.0
 40
0.2791939371736566
 40
0.5605139737097403
 40
0.8406139543947313
 40
1.0
 40
1.0
 40
1.0
 40
1.0
 10
14.15753148563994
 20
0.3414669061478569
 30
0.0
 10
14.05963063810014
 20
0.4069078082423772
 30
0.0
 10
13.86308341490614
 20
0.538287953697809
 30
0.0
 10
13.56697245473122
 20
0.6722654856585631
 30
0.0
 10
13.31378273027648
 20
0.7452270201315001
 30
0.0
 10
13.15965177406568
 20
0.7430906946738762
 30
0.0
 10
13.10375392488226
 20
0.7423159249509553
 30
0.0
  0
ELLIPSE
  5
C8
330
1F
100
AcDbEntity
  8
0
  6
Continuous
 62
     1
370
    25
100
AcDbEllipse
 10
15.11118832040101
 20
0.0000000000000004
 30
0.0
 11
1.071111005056581
 21
0.0
 31
0.0
210
0.0
220
0.0
230
1.0
 40
0.7002075382097132
 41
2.668895638805576
 42
2.759364833374628
  0
ELLIPSE
  5
C9
330
1F
100
AcDbEntity
  8
0
  6
Continuous
 62
     1
370
    25
100
AcDbEllipse
 10
14.15288662405185
 20
0.0000000000000004
 30
0.0
 11
1.064326924485586
 21
-0.7291305528055543
 31
0.0
210
0.0
220
0.0
230
1.0
 40
0.1650759015746656
 41
1.453368357947249
 42
1.71656720436091
  0
LINE
  5
CA
330
1F
100
AcDbEntity
  8
0
  6
Continuous
 62
     1
370
    25
100
AcDbLine
 10
14.39711431702995
 20
-0.1661074100472508
 30
0.0
 11
14.39711431702995
 21
0.0890610808553126
 31
0.0
  0
SPLINE
  5
CB
330
1F
100
AcDbEntity
  8
0
  6
Continuous
 62
     1
370
    25
100
AcDbSpline
210
0.0
220
0.0
230
1.0
 70
     8
 71
     3
 72
    10
 73
     6
 74
     0
 42
0.000000001
 43
0.00000001
 40
0.0
 40
0.0
 40
0.0
 40
0.0
 40
0.2542651622450293
 40
0.6259356291462568
 40
1.0
 40
1.0
 40
1.0
 40
1.0
 10
13.64369485226467
 20
0.6287534804269121
 30
0.0
 10
13.70767026613047
 20
0.6551029021344131
 30
0.0
 10
13.8651613300828
 20
0.7199684216908465
 30
0.0
 10
14.11546900203208
 20
0.7606390456294674
 30
0.0
 10
14.30303184514691
 20
0.7411500517728604
 30
0.0
 10
14.39711431702995
 20
0.7313742737664432
 30
0.0
  0
SPLINE
  5
CC
330
1F
100
AcDbEntity
  8
0
  6
Continuous
 62
     1
370
    25
100
AcDbSpline
210
0.0
220
0.0
230
1.0
 70
     8
 71
     3
 72
     8
 73
     4
 74
     0
 42
0.000000001
 43
0.00000001
 40
0.0
 40
0.0
 40
0.0
 40
0.0
 40
1.0
 40
1.0
 40
1.0
 40
1.0
 10
14.39711431702995
 20
0.1997949506173557
 30
0.0
 10
14.30729481895334
 20
0.2156915477424785
 30
0.0
 10
14.22606903602635
 20
0.2695069165939478
 30
0.0
 10
14.15753148563994
 20
0.3414669061478559
 30
0.0
  0
LINE
  5
CD
330
1F
100
AcDbEntity
  8
0
  6
Continuous
 62
     1
370
    25
100
AcDbLine
 10
14.39711431702995
 20
0.1997949506173558
 30
0.0
 11
14.39711431702995
 21
0.7313742737664461
 31
0.0
  0
SPLINE
  5
CE
330
1F
100
AcDbEntity
  8
0
  6
Continuous
 62
     1
370
    25
100
AcDbSpline
210
0.0
220
0.0
230
1.0
 70
     8
 71
     3
 72
    10
 73
     6
 74
     0
 42
0.000000001
 43
0.00000001
 40
0.0
 40
0.0
 40
0.0
 40
0.0
 40
0.3239225535135734
 40
0.6606368502124804
 40
1.0
 40
1.0
 40
1.0
 40
1.0
 10
12.13578213718413
 20
-0.6336192303816477
 30
0.0
 10
12.05580067835655
 20
-0.6631468920054696
 30
0.0
 10
11.89267928263368
 20
-0.7233682663979266
 30
0.0
 10
11.64751364329548
 20
-0.7591485036394777
 30
0.0
 10
11.48079848760379
 20
-0.7424355222338438
 30
0.0
 10
11.39711431703003
 20
-0.7340462910272232
 30
0.0
  0
LINE
  5
CF
330
1F
100
AcDbEntity
  8
0
  6
Continuous
 62
     1
370
    25
100
AcDbLine
 10
14.39711431702995
 20
0.089061080855313
 30
0.0
 11
14.39711431702995
 21
0.1997949506173558
 31
0.0
  0
LINE
  5
D0
330
1F
100
AcDbEntity
  8
0
  6
Continuous
 62
     1
370
    25
100
AcDbLine
 10
14.39711431702995
 20
-0.4999999999999993
 30
0.0
 11
14.39711431702995
 21
-0.7446933086021944
 31
0.0
  0
LINE
  5
D1
330
1F
100
AcDbEntity
  8
0
  6
Continuous
 62
     1
370
    25
100
AcDbLine
 10
14.39711431702995
 20
0.7313742737664461
 30
0.0
 11
14.39711431702995
 21
0.750000000000001
 31
0.0
  0
LINE
  5
D2
330
1F
100
AcDbEntity
  8
중심선
100
AcDbLine
 10
-28.60288568297005
 20
-0.0000000000000039
 30
0.0
 11
15.89711431702995
 21
0.0000000000000015
 31
0.0
  0
CIRCLE
  5
D3
330
1F
100
AcDbEntity
  8
해칭선
100
AcDbCircle
 10
-0.0078059229504154
 20
-0.000000000000004
 30
0.0
 40
3.000000000000001
  0
INSERT
  5
D4
330
1F
100
AcDbEntity
  8
0
  6
Continuous
 62
     7
100
AcDbBlockReference
 66
     1
  2
블럭10
 10
-19.44814782084245
 20
-52.04717430164393
 30
0.0
  0
ATTRIB
  5
D5
330
D4
100
AcDbEntity
  8
FORMAT
 62
     2
100
AcDbText
 10
-35.56740886027801
 20
-49.97180738881174
 30
0.0
 40
4.233333333333333
  1
SEME7101503E [ 4 FLUTE ]
 41
0.75
  7
SLDTEXTSTYLE0
 11
-35.56740886027801
 21
-52.08847405547841
 31
0.0
100
AcDbAttribute
  2
AUTOATTR0
 70
     0
 74
     1
  0
SEQEND
  5
D6
330
D4
100
AcDbEntity
  8
0
  6
Continuous
 62
     7
  0
HATCH
  5
D7
330
1F
100
AcDbEntity
  8
중심선
100
AcDbHatch
 10
0.0
 20
0.0
 30
0.0
210
0.0
220
0.0
230
1.0
  2
SOLID
 70
     1
 71
     0
 91
        1
 92
        0
 93
        4
 72
     1
 10
-13.7332385164616
 20
-35.8
 11
-17.17951376029889
 21
-35.8
 72
     1
 10
-17.17951376029889
 20
-35.8
 11
-19.30774361950291
 21
-38.33632558057259
 72
     1
 10
-19.30774361950291
 20
-38.33632558057259
 11
-15.86143529055248
 21
-38.3362861512701
 72
     1
 10
-15.86143529055248
 20
-38.3362861512701
 11
-13.7332385164616
 21
-35.8
 97
        0
 75
     0
 76
     1
 98
        1
 10
0.0
 20
0.0
  0
HATCH
  5
D8
330
1F
100
AcDbEntity
  8
중심선
100
AcDbHatch
 10
0.0
 20
0.0
 30
0.0
210
0.0
220
0.0
230
1.0
  2
SOLID
 70
     1
 71
     0
 91
        1
 92
        0
 93
        4
 72
     1
 10
-8.720474525425653
 20
-35.8
 11
-12.16674976926291
 21
-35.8
 72
     1
 10
-12.16674976926291
 20
-35.8
 11
-16.69788777762032
 21
-41.20000000000002
 72
     1
 10
-16.69788777762032
 20
-41.20000000000002
 11
-13.25161253378304
 21
-41.20000000000002
 72
     1
 10
-13.25161253378304
 20
-41.20000000000002
 11
-8.720474525425653
 21
-35.8
 97
        0
 75
     0
 76
     1
 98
        1
 10
0.0
 20
0.0
  0
HATCH
  5
D9
330
1F
100
AcDbEntity
  8
중심선
100
AcDbHatch
 10
0.0
 20
0.0
 30
0.0
210
0.0
220
0.0
230
1.0
  2
SOLID
 70
     1
 71
     0
 91
        1
 92
        0
 93
        4
 72
     1
 10
-3.707710534389758
 20
-35.8
 11
-7.153985778226874
 21
-35.8
 72
     1
 10
-7.153985778226874
 20
-35.8
 11
-14.20242268011612
 21
-44.20000000000002
 72
     1
 10
-14.20242268011612
 20
-44.20000000000002
 11
-10.75614743627884
 21
-44.20000000000002
 72
     1
 10
-10.75614743627884
 20
-44.20000000000002
 11
-3.707710534389758
 21
-35.8
 97
        0
 75
     0
 76
     1
 98
        1
 10
0.0
 20
0.0
  0
HATCH
  5
DA
330
1F
100
AcDbEntity
  8
중심선
100
AcDbHatch
 10
0.0
 20
0.0
 30
0.0
210
0.0
220
0.0
230
1.0
  2
SOLID
 70
     1
 71
     0
 91
        1
 92
        0
 93
        6
 72
     3
 10
1.092179896622442
 20
-40.00000000005127
 11
3.960054785062284
 21
1.540850780301639E-10
 40
0.3939339440162633
 50
17.09539180608434
 51
320.0019657685086
 73
     0
 72
     1
 10
2.775179552323037
 20
-38.58789400463833
 11
5.080481426024075
 21
-36.65356729459038
 72
     3
 10
1.092179896569595
 20
-40.00000000000015
 11
6.600054785286829
 21
-1.249000902703301E-13
 40
0.6363583540795982
 50
39.99873849337408
 51
368.4976242363725
 73
     1
 72
     1
 10
7.517512388470204
 20
-39.03999999993002
 11
-0.2277527965944826
 21
-39.03999999993002
 72
     1
 10
-0.2277527965944826
 20
-39.03999999993002
 11
-0.2277778410404163
 21
-40.95999999992991
 72
     1
 10
-0.2277778410404163
 20
-40.95999999992991
 11
4.21360192843162
 21
-40.95999999992988
 97
        0
 75
     0
 76
     1
 98
        1
 10
0.0
 20
0.0
  0
DIMENSION
  5
DB
330
1F
100
AcDbEntity
  8
치수문자_일반주서
100
AcDbDimension
  2
_D
 10
24.62312691944148
 20
0.7500000000000426
 30
0.0
 11
24.62312691944146
 21
11.72900000000004
 31
0.0
 70
   160
  1
%%c<>
 71
     2
 42
1.500000000000011
 52
-270.0
  3
SLDDIMSTYLE0
100
AcDbAlignedDimension
 13
14.39711431702996
 23
-0.7500000000000056
 33
0.0
 14
14.39711431702996
 24
0.7500000000000056
 34
0.0
 50
90.0000000000002
100
AcDbRotatedDimension
  0
DIMENSION
  5
E9
330
1F
100
AcDbEntity
  8
치수문자_일반주서
100
AcDbDimension
  2
_D_1
 10
14.39711431702995
 20
20.38913260158165
 30
0.0
 11
-5.602885682970049
 21
20.38913260158165
 31
0.0
 70
   160
  1
<>
 71
     2
 42
40.00000000000001
  3
SLDDIMSTYLE1
100
AcDbAlignedDimension
 13
-25.60288568297005
 23
2.499999999999996
 33
0.0
 14
14.39711431702995
 24
0.7500000000000011
 34
0.0
100
AcDbRotatedDimension
  0
DIMENSION
  5
F4
330
1F
100
AcDbEntity
  8
치수문자_일반주서
100
AcDbDimension
  2
_D_2
 10
-33.6144334021378
 20
-3.000000000000034
 30
0.0
 11
-33.61443340213786
 21
12.66649999999997
 31
0.0
 70
   160
  1
%%c<>
 71
     2
 42
6.000000000000005
 52
-270.0
  3
SLDDIMSTYLE2
100
AcDbAlignedDimension
 13
-25.10288568297005
 23
3.000000000000003
 33
0.0
 14
-25.10288568297005
 24
-3.000000000000002
 34
0.0
 50
90.0000000000002
100
AcDbRotatedDimension
  0
DIMENSION
  5
102
330
1F
100
AcDbEntity
  8
치수문자_일반주서
100
AcDbDimension
  2
_D_3
 10
14.39711431702995
 20
12.73618899407084
 30
0.0
 11
3.043114317029953
 21
12.73618899407084
 31
0.0
 70
   160
  1
<>
 71
     2
 42
2.999999999999998
  3
SLDDIMSTYLE2
100
AcDbAlignedDimension
 13
11.39711431702995
 23
0.7284982665946981
 33
0.0
 14
14.39711431702995
 24
0.7500000000000011
 34
0.0
100
AcDbRotatedDimension
  0
INSERT
  5
114
330
1F
100
AcDbEntity
  8
해칭선
100
AcDbBlockReference
  2
SW_DOWELSYMBOL_0
 10
-0.0078059229504154
 20
-0.000000000000004
 30
0.0
  0
LINE
  5
147
330
1F
100
AcDbEntity
  8
0
  6
Continuous
 62
     4
370
    25
100
AcDbLine
 10
11.39711431702995
 20
0.7500000000000006
 30
0.0
 11
11.39711431702995
 21
-0.7499999999999994
 31
0.0
  0
ENDSEC
  0
SECTION
  2
OBJECTS
  0
DICTIONARY
  5
C
330
0
100
AcDbDictionary
281
     1
  3
ACAD_GROUP
350
D
  3
ACAD_IMAGE_VARS
350
138
  3
ACAD_LAYOUT
350
1A
  3
ACAD_MLINESTYLE
350
17
  3
ACAD_PLOTSETTINGS
350
19
  3
ACAD_PLOTSTYLENAME
350
E
  3
ACAD_SCALELIST
350
47
  3
APPDATA
350
136
  3
DWGPROPS
350
14B
  0
DICTIONARY
  5
D
102
{ACAD_REACTORS
330
C
102
}
330
C
100
AcDbDictionary
281
     1
  0
RASTERVARIABLES
  5
138
102
{ACAD_REACTORS
330
C
102
}
330
C
100
AcDbRasterVariables
 90
        0
 70
     1
 71
     1
 72
     1
  0
DICTIONARY
  5
1A
102
{ACAD_REACTORS
330
C
102
}
330
C
100
AcDbDictionary
281
     1
  3
Layout1
350
1E
  3
Layout2
350
26
  3
Model
350
22
  0
DICTIONARY
  5
17
102
{ACAD_REACTORS
330
C
102
}
330
C
100
AcDbDictionary
281
     1
  3
Standard
350
18
  0
DICTIONARY
  5
19
102
{ACAD_REACTORS
330
C
102
}
330
C
100
AcDbDictionary
281
     1
  0
ACDBDICTIONARYWDFLT
  5
E
102
{ACAD_REACTORS
330
C
102
}
330
C
100
AcDbDictionary
281
     1
  3
Normal
350
F
100
AcDbDictionaryWithDefault
340
F
  0
DICTIONARY
  5
47
102
{ACAD_REACTORS
330
C
102
}
330
C
100
AcDbDictionary
281
     1
  3
A0
350
48
  3
A1
350
49
  3
A2
350
4A
  3
A3
350
4B
  3
A4
350
4C
  3
A5
350
4D
  3
A6
350
4E
  3
A7
350
4F
  3
A8
350
50
  3
A9
350
51
  3
B0
350
52
  3
B1
350
53
  3
B2
350
54
  3
B3
350
55
  3
B4
350
56
  3
B5
350
57
  3
B6
350
58
  3
B7
350
59
  3
B8
350
5A
  3
B9
350
5B
  3
C0
350
5C
  3
C1
350
5D
  3
C2
350
5E
  3
C3
350
5F
  3
C4
350
60
  3
C5
350
61
  3
C6
350
62
  3
C7
350
63
  3
C8
350
64
  3
C9
350
65
  3
D0
350
66
  3
D1
350
67
  3
D2
350
68
  0
DICTIONARY
  5
136
102
{ACAD_REACTORS
330
C
102
}
330
C
100
AcDbDictionary
281
     1
  0
XRECORD
  5
14B
102
{ACAD_REACTORS
330
C
102
}
330
C
100
AcDbXrecord
280
     1
  1
DWGPROPS COOKIE
  2

  3

  4

  6

  7

  8
12014102
  9

300
=
301
=
302
=
303
=
304
=
305
=
306
=
307
=
308
=
309
=
 40
0.0
 41
2458260.108336933
 42
2458266.425759166
  1

 90
        0
  0
LAYOUT
  5
1E
102
{ACAD_REACTORS
330
1A
102
}
330
1A
100
AcDbPlotSettings
  1

  2
none_device
  4

  6

 40
0.0
 41
0.0
 42
0.0
 43
0.0
 44
0.0
 45
0.0
 46
0.0
 47
0.0
 48
0.0
 49
0.0
140
0.0
141
0.0
142
1.0
143
1.0
 70
   688
 72
     1
 73
     0
 74
     5
  7

 75
    16
147
1.0
148
0.0
149
0.0
100
AcDbLayout
  1
Layout1
 70
     1
 71
     1
 10
0.0
 20
0.0
 11
420.0
 21
297.0
 12
0.0
 22
0.0
 32
0.0
 14
1.000000000000000E+20
 24
1.000000000000000E+20
 34
1.000000000000000E+20
 15
-1.000000000000000E+20
 25
-1.000000000000000E+20
 35
-1.000000000000000E+20
146
0.0
 13
0.0
 23
0.0
 33
0.0
 16
1.0
 26
0.0
 36
0.0
 17
0.0
 27
1.0
 37
0.0
 76
     0
330
1B
  0
LAYOUT
  5
26
102
{ACAD_REACTORS
330
1A
102
}
330
1A
100
AcDbPlotSettings
  1

  2
none_device
  4

  6

 40
0.0
 41
0.0
 42
0.0
 43
0.0
 44
0.0
 45
0.0
 46
0.0
 47
0.0
 48
0.0
 49
0.0
140
0.0
141
0.0
142
1.0
143
1.0
 70
   688
 72
     1
 73
     0
 74
     5
  7

 75
    16
147
1.0
148
0.0
149
0.0
100
AcDbLayout
  1
Layout2
 70
     1
 71
     2
 10
0.0
 20
0.0
 11
0.0
 21
0.0
 12
0.0
 22
0.0
 32
0.0
 14
0.0
 24
0.0
 34
0.0
 15
0.0
 25
0.0
 35
0.0
146
0.0
 13
0.0
 23
0.0
 33
0.0
 16
1.0
 26
0.0
 36
0.0
 17
0.0
 27
1.0
 37
0.0
 76
     0
330
23
  0
LAYOUT
  5
22
102
{ACAD_REACTORS
330
1A
102
}
330
1A
100
AcDbPlotSettings
  1

  2
none_device
  4
ANSI_A_(11.00_x_8.50_Inches)
  6

 40
6.35
 41
19.05
 42
6.35000508
 43
19.05000254
 44
279.4
 45
215.9
 46
149.2027926272459
 47
125.3847137330092
 48
0.0
 49
0.0
140
0.0
141
0.0
142
0.1112850254374007
143
1.0
 70
  1696
 72
     0
 73
     0
 74
     0
  7

 75
     0
147
0.0235690232323232
148
0.0
149
0.0
100
AcDbLayout
  1
Model
 70
     1
 71
     0
 10
0.0
 20
0.0
 11
420.0
 21
297.0
 12
0.0
 22
0.0
 32
0.0
 14
-37.98943340213786
 24
-49.97180738881174
 34
0.0
 15
34.28259113972197
 25
24.76413260158165
 35
0.0
146
0.0
 13
0.0
 23
0.0
 33
0.0
 16
1.0
 26
0.0
 36
0.0
 17
0.0
 27
1.0
 37
0.0
 76
     0
330
1F
331
29
  0
MLINESTYLE
  5
18
102
{ACAD_REACTORS
330
17
102
}
330
17
100
AcDbMlineStyle
  2
Standard
 70
     0
  3

 62
   256
 51
90.0
 52
90.0
 71
     2
 49
0.5
 62
   256
  6
BYLAYER
 49
-0.5
 62
   256
  6
BYLAYER
  0
ACDBPLACEHOLDER
  5
F
102
{ACAD_REACTORS
330
E
102
}
330
E
  0
SCALE
  5
48
102
{ACAD_REACTORS
330
47
102
}
330
47
100
AcDbScale
 70
     0
300
1:1
140
1.0
141
1.0
290
     1
  0
SCALE
  5
49
102
{ACAD_REACTORS
330
47
102
}
330
47
100
AcDbScale
 70
     0
300
1:2
140
1.0
141
2.0
290
     0
  0
SCALE
  5
4A
102
{ACAD_REACTORS
330
47
102
}
330
47
100
AcDbScale
 70
     0
300
1:4
140
1.0
141
4.0
290
     0
  0
SCALE
  5
4B
102
{ACAD_REACTORS
330
47
102
}
330
47
100
AcDbScale
 70
     0
300
1:5
140
1.0
141
5.0
290
     0
  0
SCALE
  5
4C
102
{ACAD_REACTORS
330
47
102
}
330
47
100
AcDbScale
 70
     0
300
1:8
140
1.0
141
8.0
290
     0
  0
SCALE
  5
4D
102
{ACAD_REACTORS
330
47
102
}
330
47
100
AcDbScale
 70
     0
300
1:10
140
1.0
141
10.0
290
     0
  0
SCALE
  5
4E
102
{ACAD_REACTORS
330
47
102
}
330
47
100
AcDbScale
 70
     0
300
1:16
140
1.0
141
16.0
290
     0
  0
SCALE
  5
4F
102
{ACAD_REACTORS
330
47
102
}
330
47
100
AcDbScale
 70
     0
300
1:20
140
1.0
141
20.0
290
     0
  0
SCALE
  5
50
102
{ACAD_REACTORS
330
47
102
}
330
47
100
AcDbScale
 70
     0
300
1:30
140
1.0
141
30.0
290
     0
  0
SCALE
  5
51
102
{ACAD_REACTORS
330
47
102
}
330
47
100
AcDbScale
 70
     0
300
1:40
140
1.0
141
40.0
290
     0
  0
SCALE
  5
52
102
{ACAD_REACTORS
330
47
102
}
330
47
100
AcDbScale
 70
     0
300
1:50
140
1.0
141
50.0
290
     0
  0
SCALE
  5
53
102
{ACAD_REACTORS
330
47
102
}
330
47
100
AcDbScale
 70
     0
300
1:100
140
1.0
141
100.0
290
     0
  0
SCALE
  5
54
102
{ACAD_REACTORS
330
47
102
}
330
47
100
AcDbScale
 70
     0
300
2:1
140
2.0
141
1.0
290
     0
  0
SCALE
  5
55
102
{ACAD_REACTORS
330
47
102
}
330
47
100
AcDbScale
 70
     0
300
4:1
140
4.0
141
1.0
290
     0
  0
SCALE
  5
56
102
{ACAD_REACTORS
330
47
102
}
330
47
100
AcDbScale
 70
     0
300
8:1
140
8.0
141
1.0
290
     0
  0
SCALE
  5
57
102
{ACAD_REACTORS
330
47
102
}
330
47
100
AcDbScale
 70
     0
300
10:1
140
10.0
141
1.0
290
     0
  0
SCALE
  5
58
102
{ACAD_REACTORS
330
47
102
}
330
47
100
AcDbScale
 70
     0
300
100:1
140
100.0
141
1.0
290
     0
  0
SCALE
  5
59
102
{ACAD_REACTORS
330
47
102
}
330
47
100
AcDbScale
 70
     0
300
1/128" = 1'-0"
140
0.0078125
141
12.0
290
     0
  0
SCALE
  5
5A
102
{ACAD_REACTORS
330
47
102
}
330
47
100
AcDbScale
 70
     0
300
1/64" = 1'-0"
140
0.015625
141
12.0
290
     0
  0
SCALE
  5
5B
102
{ACAD_REACTORS
330
47
102
}
330
47
100
AcDbScale
 70
     0
300
1/32" = 1'-0"
140
0.03125
141
12.0
290
     0
  0
SCALE
  5
5C
102
{ACAD_REACTORS
330
47
102
}
330
47
100
AcDbScale
 70
     0
300
1/16" = 1'-0"
140
0.0625
141
12.0
290
     0
  0
SCALE
  5
5D
102
{ACAD_REACTORS
330
47
102
}
330
47
100
AcDbScale
 70
     0
300
3/32" = 1'-0"
140
0.09375
141
12.0
290
     0
  0
SCALE
  5
5E
102
{ACAD_REACTORS
330
47
102
}
330
47
100
AcDbScale
 70
     0
300
1/8" = 1'-0"
140
0.125
141
12.0
290
     0
  0
SCALE
  5
5F
102
{ACAD_REACTORS
330
47
102
}
330
47
100
AcDbScale
 70
     0
300
3/16" = 1'-0"
140
0.1875
141
12.0
290
     0
  0
SCALE
  5
60
102
{ACAD_REACTORS
330
47
102
}
330
47
100
AcDbScale
 70
     0
300
1/4" = 1'-0"
140
0.25
141
12.0
290
     0
  0
SCALE
  5
61
102
{ACAD_REACTORS
330
47
102
}
330
47
100
AcDbScale
 70
     0
300
3/8" = 1'-0"
140
0.375
141
12.0
290
     0
  0
SCALE
  5
62
102
{ACAD_REACTORS
330
47
102
}
330
47
100
AcDbScale
 70
     0
300
1/2" = 1'-0"
140
0.5
141
12.0
290
     0
  0
SCALE
  5
63
102
{ACAD_REACTORS
330
47
102
}
330
47
100
AcDbScale
 70
     0
300
3/4" = 1'-0"
140
0.75
141
12.0
290
     0
  0
SCALE
  5
64
102
{ACAD_REACTORS
330
47
102
}
330
47
100
AcDbScale
 70
     0
300
1" = 1'-0"
140
1.0
141
12.0
290
     0
  0
SCALE
  5
65
102
{ACAD_REACTORS
330
47
102
}
330
47
100
AcDbScale
 70
     0
300
1-1/2" = 1'-0"
140
1.5
141
12.0
290
     0
  0
SCALE
  5
66
102
{ACAD_REACTORS
330
47
102
}
330
47
100
AcDbScale
 70
     0
300
3" = 1'-0"
140
3.0
141
12.0
290
     0
  0
SCALE
  5
67
102
{ACAD_REACTORS
330
47
102
}
330
47
100
AcDbScale
 70
     0
300
6" = 1'-0"
140
6.0
141
12.0
290
     0
  0
SCALE
  5
68
102
{ACAD_REACTORS
330
47
102
}
330
47
100
AcDbScale
 70
     0
300
1'-0" = 1'-0"
140
12.0
141
12.0
290
     0
  0
ENDSEC
  0
EOF
