  0
SECTION
  2
HEADER
  9
$ACADVER
  1
AC1015
  9
$ACADMAINTVER
 70
     6
  9
$DWGCODEPAGE
  3
ANSI_949
  9
$INSBASE
 10
0.0
 20
0.0
 30
0.0
  9
$EXTMIN
 10
-43.15341216846502
 20
-49.97180738881174
 30
0.0
  9
$EXTMAX
 10
32.28259113972197
 20
24.76413260158165
 30
0.0
  9
$LIMMIN
 10
0.0
 20
0.0
  9
$LIMMAX
 10
420.0
 20
297.0
  9
$ORTHOMODE
 70
     0
  9
$REGENMODE
 70
     1
  9
$FILLMODE
 70
     1
  9
$QTEXTMODE
 70
     0
  9
$MIRRTEXT
 70
     1
  9
$LTSCALE
 40
1.0
  9
$ATTMODE
 70
     1
  9
$TEXTSIZE
 40
3.5
  9
$TRACEWID
 40
1.0
  9
$TEXTSTYLE
  7
Standard
  9
$CLAYER
  8
0
  9
$CELTYPE
  6
ByLayer
  9
$CECOLOR
 62
   256
  9
$CELTSCALE
 40
1.0
  9
$DISPSILH
 70
     0
  9
$DIMSCALE
 40
1.0
  9
$DIMASZ
 40
3.302
  9
$DIMEXO
 40
1.0
  9
$DIMDLI
 40
3.75
  9
$DIMRND
 40
0.0
  9
$DIMDLE
 40
0.0
  9
$DIMEXE
 40
1.0
  9
$DIMTP
 40
0.0
  9
$DIMTM
 40
0.0
  9
$DIMTXT
 40
3.5
  9
$DIMCEN
 40
2.5
  9
$DIMTSZ
 40
0.0
  9
$DIMTOL
 70
     0
  9
$DIMLIM
 70
     0
  9
$DIMTIH
 70
     1
  9
$DIMTOH
 70
     1
  9
$DIMSE1
 70
     0
  9
$DIMSE2
 70
     0
  9
$DIMTAD
 70
     1
  9
$DIMZIN
 70
     0
  9
$DIMBLK
  1

  9
$DIMASO
 70
     1
  9
$DIMSHO
 70
     1
  9
$DIMPOST
  1

  9
$DIMAPOST
  1

  9
$DIMALT
 70
     0
  9
$DIMALTD
 70
     3
  9
$DIMALTF
 40
0.0393700787401575
  9
$DIMLFAC
 40
1.0
  9
$DIMTOFL
 70
     1
  9
$DIMTVP
 40
0.0
  9
$DIMTIX
 70
     0
  9
$DIMSOXD
 70
     0
  9
$DIMSAH
 70
     0
  9
$DIMBLK1
  1

  9
$DIMBLK2
  1

  9
$DIMSTYLE
  2
ISO-25
  9
$DIMCLRD
 70
     0
  9
$DIMCLRE
 70
     0
  9
$DIMCLRT
 70
     0
  9
$DIMTFAC
 40
1.0
  9
$DIMGAP
 40
1.524
  9
$DIMJUST
 70
     0
  9
$DIMSD1
 70
     0
  9
$DIMSD2
 70
     0
  9
$DIMTOLJ
 70
     0
  9
$DIMTZIN
 70
     0
  9
$DIMALTZ
 70
     0
  9
$DIMALTTZ
 70
     0
  9
$DIMUPT
 70
     0
  9
$DIMDEC
 70
     2
  9
$DIMTDEC
 70
     2
  9
$DIMALTU
 70
     2
  9
$DIMALTTD
 70
     3
  9
$DIMTXSTY
  7
Standard
  9
$DIMAUNIT
 70
     0
  9
$DIMADEC
 70
     2
  9
$DIMALTRND
 40
0.0
  9
$DIMAZIN
 70
     0
  9
$DIMDSEP
 70
    44
  9
$DIMATFIT
 70
     3
  9
$DIMFRAC
 70
     0
  9
$DIMLDRBLK
  1

  9
$DIMLUNIT
 70
     2
  9
$DIMLWD
 70
    -2
  9
$DIMLWE
 70
    -2
  9
$DIMTMOVE
 70
     0
  9
$LUNITS
 70
     2
  9
$LUPREC
 70
     2
  9
$SKETCHINC
 40
1.0
  9
$FILLETRAD
 40
10.0
  9
$AUNITS
 70
     0
  9
$AUPREC
 70
     2
  9
$MENU
  1
.
  9
$ELEVATION
 40
0.0
  9
$PELEVATION
 40
0.0
  9
$THICKNESS
 40
0.0
  9
$LIMCHECK
 70
     0
  9
$CHAMFERA
 40
0.0
  9
$CHAMFERB
 40
0.0
  9
$CHAMFERC
 40
0.0
  9
$CHAMFERD
 40
0.0
  9
$SKPOLY
 70
     0
  9
$TDCREATE
 40
2458260.482203044
  9
$TDUCREATE
 40
2458260.107203044
  9
$TDUPDATE
 40
2458266.799466262
  9
$TDUUPDATE
 40
2458266.424466262
  9
$TDINDWG
 40
0.000917037
  9
$TDUSRTIMER
 40
2458266.423549259
  9
$USRTIMER
 70
     1
  9
$ANGBASE
 50
0.0
  9
$ANGDIR
 70
     0
  9
$PDMODE
 70
     0
  9
$PDSIZE
 40
-1.0
  9
$PLINEWID
 40
0.0
  9
$SPLFRAME
 70
     0
  9
$SPLINETYPE
 70
     6
  9
$SPLINESEGS
 70
     8
  9
$HANDSEED
  5
15A
  9
$SURFTAB1
 70
     6
  9
$SURFTAB2
 70
     6
  9
$SURFTYPE
 70
     6
  9
$SURFU
 70
     6
  9
$SURFV
 70
     6
  9
$UCSBASE
  2

  9
$UCSNAME
  2

  9
$UCSORG
 10
0.0
 20
0.0
 30
0.0
  9
$UCSXDIR
 10
1.0
 20
0.0
 30
0.0
  9
$UCSYDIR
 10
0.0
 20
1.0
 30
0.0
  9
$UCSORTHOREF
  2

  9
$UCSORTHOVIEW
 70
     0
  9
$UCSORGTOP
 10
0.0
 20
0.0
 30
0.0
  9
$UCSORGBOTTOM
 10
0.0
 20
0.0
 30
0.0
  9
$UCSORGLEFT
 10
0.0
 20
0.0
 30
0.0
  9
$UCSORGRIGHT
 10
0.0
 20
0.0
 30
0.0
  9
$UCSORGFRONT
 10
0.0
 20
0.0
 30
0.0
  9
$UCSORGBACK
 10
0.0
 20
0.0
 30
0.0
  9
$PUCSBASE
  2

  9
$PUCSNAME
  2

  9
$PUCSORG
 10
0.0
 20
0.0
 30
0.0
  9
$PUCSXDIR
 10
1.0
 20
0.0
 30
0.0
  9
$PUCSYDIR
 10
0.0
 20
1.0
 30
0.0
  9
$PUCSORTHOREF
  2

  9
$PUCSORTHOVIEW
 70
     0
  9
$PUCSORGTOP
 10
0.0
 20
0.0
 30
0.0
  9
$PUCSORGBOTTOM
 10
0.0
 20
0.0
 30
0.0
  9
$PUCSORGLEFT
 10
0.0
 20
0.0
 30
0.0
  9
$PUCSORGRIGHT
 10
0.0
 20
0.0
 30
0.0
  9
$PUCSORGFRONT
 10
0.0
 20
0.0
 30
0.0
  9
$PUCSORGBACK
 10
0.0
 20
0.0
 30
0.0
  9
$USERI1
 70
     0
  9
$USERI2
 70
     0
  9
$USERI3
 70
     0
  9
$USERI4
 70
     0
  9
$USERI5
 70
     0
  9
$USERR1
 40
0.0
  9
$USERR2
 40
0.0
  9
$USERR3
 40
0.0
  9
$USERR4
 40
0.0
  9
$USERR5
 40
0.0
  9
$WORLDVIEW
 70
     1
  9
$SHADEDGE
 70
     3
  9
$SHADEDIF
 70
    70
  9
$TILEMODE
 70
     1
  9
$MAXACTVP
 70
    64
  9
$PINSBASE
 10
0.0
 20
0.0
 30
0.0
  9
$PLIMCHECK
 70
     0
  9
$PEXTMIN
 10
1.000000000000000E+20
 20
1.000000000000000E+20
 30
1.000000000000000E+20
  9
$PEXTMAX
 10
-1.000000000000000E+20
 20
-1.000000000000000E+20
 30
-1.000000000000000E+20
  9
$PLIMMIN
 10
0.0
 20
0.0
  9
$PLIMMAX
 10
0.0
 20
0.0
  9
$UNITMODE
 70
     0
  9
$VISRETAIN
 70
     1
  9
$PLINEGEN
 70
     0
  9
$PSLTSCALE
 70
     1
  9
$TREEDEPTH
 70
  3020
  9
$CMLSTYLE
  2
Standard
  9
$CMLJUST
 70
     0
  9
$CMLSCALE
 40
20.0
  9
$PROXYGRAPHICS
 70
     1
  9
$MEASUREMENT
 70
     1
  9
$CELWEIGHT
370
    -1
  9
$ENDCAPS
280
     0
  9
$JOINSTYLE
280
     0
  9
$LWDISPLAY
290
     1
  9
$INSUNITS
 70
     4
  9
$HYPERLINKBASE
  1

  9
$STYLESHEET
  1

  9
$XEDIT
290
     1
  9
$CEPSNTYPE
380
     0
  9
$PSTYLEMODE
290
     1
  9
$FINGERPRINTGUID
  2
{6EB14029-CF33-481E-B589-5C9AA9FEC8E2}
  9
$VERSIONGUID
  2
{FAEB1C32-E019-11D5-929B-00C0DF256EC4}
  9
$EXTNAMES
290
     1
  9
$PSVPSCALE
 40
0.0
  9
$OLESTARTUP
290
     0
  0
ENDSEC
  0
SECTION
  2
CLASSES
  0
CLASS
  1
ACDBDICTIONARYWDFLT
  2
AcDbDictionaryWithDefault
  3
ObjectDBX Classes
 90
        0
280
     0
281
     0
  0
CLASS
  1
VISUALSTYLE
  2
AcDbVisualStyle
  3
ObjectDBX Classes
 90
     4095
280
     0
281
     0
  0
CLASS
  1
MATERIAL
  2
AcDbMaterial
  3
ObjectDBX Classes
 90
     1153
280
     0
281
     0
  0
CLASS
  1
SCALE
  2
AcDbScale
  3
ObjectDBX Classes
 90
     1153
280
     0
281
     0
  0
CLASS
  1
TABLESTYLE
  2
AcDbTableStyle
  3
ObjectDBX Classes
 90
     4095
280
     0
281
     0
  0
CLASS
  1
MLEADERSTYLE
  2
AcDbMLeaderStyle
  3
ACDB_MLEADERSTYLE_CLASS
 90
     4095
280
     0
281
     0
  0
CLASS
  1
SUN
  2
AcDbSun
  3
SCENEOE
 90
     1153
280
     0
281
     0
  0
CLASS
  1
ACDBPLACEHOLDER
  2
AcDbPlaceHolder
  3
ObjectDBX Classes
 90
        0
280
     0
281
     0
  0
CLASS
  1
LAYOUT
  2
AcDbLayout
  3
ObjectDBX Classes
 90
        0
280
     0
281
     0
  0
CLASS
  1
RASTERVARIABLES
  2
AcDbRasterVariables
  3
ISM
 90
        0
280
     0
281
     0
  0
ENDSEC
  0
SECTION
  2
TABLES
  0
TABLE
  2
VPORT
  5
8
330
0
100
AcDbSymbolTable
 70
     1
  0
VPORT
  5
29
330
8
100
AcDbSymbolTableRecord
100
AcDbViewportTableRecord
  2
*Active
 70
     0
 10
0.0
 20
0.0
 11
1.0
 21
1.0
 12
-5.435410514371526
 22
-12.60383739361504
 13
0.0
 23
0.0
 14
10.0
 24
10.0
 15
10.0
 25
10.0
 16
0.0
 26
0.0
 36
1.0
 17
0.0
 27
0.0
 37
0.0
 40
76.23065879020126
 41
1.728553137003841
 42
50.0
 43
0.0
 44
0.0
 50
0.0
 51
0.0
 71
    16
 72
  2000
 73
     1
 74
     3
 75
     0
 76
     0
 77
     0
 78
     0
281
     0
 65
     1
110
0.0
120
0.0
130
0.0
111
1.0
121
0.0
131
0.0
112
0.0
122
1.0
132
0.0
 79
     0
146
0.0
  0
ENDTAB
  0
TABLE
  2
LTYPE
  5
5
330
0
100
AcDbSymbolTable
 70
     6
  0
LTYPE
  5
14
330
5
100
AcDbSymbolTableRecord
100
AcDbLinetypeTableRecord
  2
ByBlock
 70
     0
  3

 72
    65
 73
     0
 40
0.0
  0
LTYPE
  5
15
330
5
100
AcDbSymbolTableRecord
100
AcDbLinetypeTableRecord
  2
ByLayer
 70
     0
  3

 72
    65
 73
     0
 40
0.0
  0
LTYPE
  5
16
330
5
100
AcDbSymbolTableRecord
100
AcDbLinetypeTableRecord
  2
Continuous
 70
     0
  3
Solid line
 72
    65
 73
     0
 40
0.0
  0
LTYPE
  5
6E
330
5
100
AcDbSymbolTableRecord
100
AcDbLinetypeTableRecord
  2
HIDDEN
 70
     0
  3
Hidden __ __ __ __ __ __ __ __ __ __ __ __ __ __
 72
    65
 73
     2
 40
1.905
 49
1.27
 74
     0
 49
-0.635
 74
     0
  0
LTYPE
  5
6F
330
5
100
AcDbSymbolTableRecord
100
AcDbLinetypeTableRecord
  2
PHANTOM
 70
     0
  3
Phantom ______  __  __  ______  __  __  ______
 72
    65
 73
     6
 40
12.7
 49
6.35
 74
     0
 49
-1.27
 74
     0
 49
1.27
 74
     0
 49
-1.27
 74
     0
 49
1.27
 74
     0
 49
-1.27
 74
     0
  0
LTYPE
  5
70
330
5
100
AcDbSymbolTableRecord
100
AcDbLinetypeTableRecord
  2
CENTER
 70
     0
  3
Center ____ _ ____ _ ____ _ ____ _ ____ _ ____
 72
    65
 73
     4
 40
10.16
 49
6.35
 74
     0
 49
-1.27
 74
     0
 49
1.27
 74
     0
 49
-1.27
 74
     0
  0
LTYPE
  5
71
330
5
100
AcDbSymbolTableRecord
100
AcDbLinetypeTableRecord
  2
CENTERX2
 70
     0
  3
Center (2x) ________  __  ________  __  _____
 72
    65
 73
     4
 40
20.32
 49
12.7
 74
     0
 49
-2.54
 74
     0
 49
2.54
 74
     0
 49
-2.54
 74
     0
  0
LTYPE
  5
72
330
5
100
AcDbSymbolTableRecord
100
AcDbLinetypeTableRecord
  2
DOT2
 70
     0
  3
Dot (.5x) ........................................
 72
    65
 73
     2
 40
0.635
 49
0.0
 74
     0
 49
-0.635
 74
     0
  0
ENDTAB
  0
TABLE
  2
LAYER
  5
2
330
0
100
AcDbSymbolTable
 70
    17
  0
LAYER
  5
10
330
2
100
AcDbSymbolTableRecord
100
AcDbLayerTableRecord
  2
0
 70
     0
 62
     7
  6
Continuous
370
    -3
390
F
  0
LAYER
  5
73
330
2
100
AcDbSymbolTableRecord
100
AcDbLayerTableRecord
  2
FORMAT
 70
     0
 62
     2
  6
Continuous
370
    -3
390
F
  0
LAYER
  5
74
330
2
100
AcDbSymbolTableRecord
100
AcDbLayerTableRecord
  2
외형선
 70
     0
 62
   100
  6
Continuous
370
    35
390
F
  0
LAYER
  5
75
330
2
100
AcDbSymbolTableRecord
100
AcDbLayerTableRecord
  2
숨은선
 70
     0
 62
     2
  6
HIDDEN
370
    25
390
F
  0
LAYER
  5
76
330
2
100
AcDbSymbolTableRecord
100
AcDbLayerTableRecord
  2
중심선
 70
     0
 62
     1
  6
CENTERX2
370
    -3
390
F
  0
LAYER
  5
77
330
2
100
AcDbSymbolTableRecord
100
AcDbLayerTableRecord
  2
파단선
 70
     0
 62
     4
  6
Continuous
370
    -3
390
F
  0
LAYER
  5
78
330
2
100
AcDbSymbolTableRecord
100
AcDbLayerTableRecord
  2
해칭선
 70
     0
 62
   100
  6
Continuous
370
    -3
390
F
  0
LAYER
  5
79
330
2
100
AcDbSymbolTableRecord
100
AcDbLayerTableRecord
  2
가는실선
 70
     0
 62
     4
  6
Continuous
370
    -3
390
F
  0
LAYER
  5
7A
330
2
100
AcDbSymbolTableRecord
100
AcDbLayerTableRecord
  2
치수_보조선
 70
     0
 62
     4
  6
Continuous
370
    -3
390
F
  0
LAYER
  5
7B
330
2
100
AcDbSymbolTableRecord
100
AcDbLayerTableRecord
  2
치수문자_일반주서
 70
     0
 62
     7
  6
Continuous
370
    25
390
F
  0
LAYER
  5
7C
330
2
100
AcDbSymbolTableRecord
100
AcDbLayerTableRecord
  2
개별주서
 70
     0
 62
   100
  6
Continuous
370
    35
390
F
  0
LAYER
  5
7D
330
2
100
AcDbSymbolTableRecord
100
AcDbLayerTableRecord
  2
중간선
 70
     0
 62
     2
  6
Continuous
370
    25
390
F
  0
LAYER
  5
7E
330
2
100
AcDbSymbolTableRecord
100
AcDbLayerTableRecord
  2
윤곽선
 70
     0
 62
     3
  6
Continuous
370
    50
390
F
  0
LAYER
  5
7F
330
2
100
AcDbSymbolTableRecord
100
AcDbLayerTableRecord
  2
중심마크
 70
     0
 62
   100
  6
Continuous
370
    35
390
F
  0
LAYER
  5
80
330
2
100
AcDbSymbolTableRecord
100
AcDbLayerTableRecord
  2
가상선
 70
     0
 62
     4
  6
PHANTOM
370
    -3
390
F
  0
LAYER
  5
81
330
2
100
AcDbSymbolTableRecord
100
AcDbLayerTableRecord
  2
특수지정선
 70
     0
 62
     5
  6
CENTERX2
370
    70
390
F
  0
LAYER
  5
149
330
2
100
AcDbSymbolTableRecord
100
AcDbLayerTableRecord
  2
Defpoints
 70
     0
 62
     7
  6
Continuous
290
     0
370
    -3
390
F
  0
ENDTAB
  0
TABLE
  2
STYLE
  5
3
330
0
100
AcDbSymbolTable
 70
     2
  0
STYLE
  5
11
330
3
100
AcDbSymbolTableRecord
100
AcDbTextStyleTableRecord
  2
Standard
 70
     0
 40
0.0
 41
1.0
 50
0.0
 71
     0
 42
3.5
  3
txt
  4

  0
STYLE
  5
97
330
3
100
AcDbSymbolTableRecord
100
AcDbTextStyleTableRecord
  2
SLDTEXTSTYLE0
 70
     0
 40
0.0
 41
0.75
 50
0.0
 71
     0
 42
3.5
  3
TXT
  4

  0
ENDTAB
  0
TABLE
  2
VIEW
  5
6
330
0
100
AcDbSymbolTable
 70
     0
  0
ENDTAB
  0
TABLE
  2
UCS
  5
7
330
0
100
AcDbSymbolTable
 70
     0
  0
ENDTAB
  0
TABLE
  2
APPID
  5
9
330
0
100
AcDbSymbolTable
 70
     1
  0
APPID
  5
12
330
9
100
AcDbSymbolTableRecord
100
AcDbRegAppTableRecord
  2
ACAD
 70
     0
  0
ENDTAB
  0
TABLE
  2
DIMSTYLE
  5
A
330
0
100
AcDbSymbolTable
 70
     4
100
AcDbDimStyleTable
  0
DIMSTYLE
105
27
330
A
100
AcDbSymbolTableRecord
100
AcDbDimStyleTableRecord
  2
ISO-25
 70
     0
 41
2.5
 42
0.625
 43
3.75
 44
1.25
 73
     0
 74
     0
 77
     1
 78
     8
140
2.5
141
2.5
143
0.03937007874016
147
0.625
171
     3
172
     1
178
     0
271
     2
272
     2
274
     3
278
    44
283
     0
284
     8
340
11
  0
DIMSTYLE
105
EC
102
{ACAD_REACTORS
330
EB
102
}
330
A
100
AcDbSymbolTableRecord
100
AcDbDimStyleTableRecord
  2
SLDDIMSTYLE0
 70
     0
 41
3.302
 44
0.0
 45
0.000000001
 73
     0
 74
     0
 77
     1
 78
    12
 79
     3
140
3.5
147
0.875
172
     1
173
     1
178
     0
271
     1
272
     1
276
     2
284
    12
289
     0
340
97
  0
DIMSTYLE
105
FA
102
{ACAD_REACTORS
330
F9
102
}
330
A
100
AcDbSymbolTableRecord
100
AcDbDimStyleTableRecord
  2
SLDDIMSTYLE1
 70
     0
 41
3.302
 44
0.0
 45
0.000000001
 73
     0
 74
     0
 77
     1
 78
    12
 79
     3
140
3.5
147
0.875
173
     1
178
     0
271
     2
272
     2
276
     2
284
    12
340
97
  0
DIMSTYLE
105
105
102
{ACAD_REACTORS
330
104
330
112
102
}
330
A
100
AcDbSymbolTableRecord
100
AcDbDimStyleTableRecord
  2
SLDDIMSTYLE2
 70
     0
 41
3.302
 44
0.0
 45
0.000000001
 73
     0
 74
     0
 77
     1
 78
    12
 79
     3
140
3.5
147
0.875
172
     1
173
     1
178
     0
271
     2
272
     2
276
     2
284
    12
289
     0
340
97
  0
ENDTAB
  0
TABLE
  2
BLOCK_RECORD
  5
1
330
0
100
AcDbSymbolTable
 70
     7
  0
BLOCK_RECORD
  5
1F
330
1
100
AcDbSymbolTableRecord
100
AcDbBlockTableRecord
  2
*Model_Space
340
22
  0
BLOCK_RECORD
  5
1B
330
1
100
AcDbSymbolTableRecord
100
AcDbBlockTableRecord
  2
*Paper_Space
340
1E
  0
BLOCK_RECORD
  5
23
330
1
100
AcDbSymbolTableRecord
100
AcDbBlockTableRecord
  2
*Paper_Space0
340
26
  0
BLOCK_RECORD
  5
82
330
1
100
AcDbSymbolTableRecord
100
AcDbBlockTableRecord
  2
블럭10
340
0
102
{BLKREFS
331
E4
102
}
  0
BLOCK_RECORD
  5
ED
330
1
100
AcDbSymbolTableRecord
100
AcDbBlockTableRecord
  2
_D
340
0
  0
BLOCK_RECORD
  5
FB
330
1
100
AcDbSymbolTableRecord
100
AcDbBlockTableRecord
  2
_D_1
340
0
  0
BLOCK_RECORD
  5
106
330
1
100
AcDbSymbolTableRecord
100
AcDbBlockTableRecord
  2
_D_2
340
0
  0
BLOCK_RECORD
  5
113
330
1
100
AcDbSymbolTableRecord
100
AcDbBlockTableRecord
  2
_D_3
340
0
  0
BLOCK_RECORD
  5
11E
330
1
100
AcDbSymbolTableRecord
100
AcDbBlockTableRecord
  2
SW_DOWELSYMBOL_0
340
0
102
{BLKREFS
331
124
102
}
  0
ENDTAB
  0
ENDSEC
  0
SECTION
  2
BLOCKS
  0
BLOCK
  5
20
330
1F
100
AcDbEntity
  8
0
100
AcDbBlockBegin
  2
*Model_Space
 70
     0
 10
0.0
 20
0.0
 30
0.0
  3
*Model_Space
  1

  0
ENDBLK
  5
21
330
1F
100
AcDbEntity
  8
0
100
AcDbBlockEnd
  0
BLOCK
  5
1C
330
1B
100
AcDbEntity
 67
     1
  8
0
100
AcDbBlockBegin
  2
*Paper_Space
 70
     0
 10
0.0
 20
0.0
 30
0.0
  3
*Paper_Space
  1

  0
ENDBLK
  5
1D
330
1B
100
AcDbEntity
 67
     1
  8
0
100
AcDbBlockEnd
  0
BLOCK
  5
24
330
23
100
AcDbEntity
  8
0
100
AcDbBlockBegin
  2
*Paper_Space0
 70
     0
 10
0.0
 20
0.0
 30
0.0
  3
*Paper_Space0
  1

  0
ENDBLK
  5
25
330
23
100
AcDbEntity
  8
0
100
AcDbBlockEnd
  0
BLOCK
  5
83
330
82
100
AcDbEntity
  8
0
100
AcDbBlockBegin
  2
블럭10
 70
     2
 10
0.0
 20
0.0
 30
0.0
  3
블럭10
  1

  0
ELLIPSE
  5
85
330
82
100
AcDbEntity
  8
중심선
100
AcDbEllipse
 10
20.54032771741204
 20
12.0471743016438
 30
0.0
 11
6.600054785286829
 21
-1.261213355974178E-13
 31
0.0
210
0.0
220
0.0
230
1.0
 40
0.636358354079598
 41
0.9219305317359503
 42
6.513795318482858
  0
ELLIPSE
  5
86
330
82
100
AcDbEntity
  8
중심선
100
AcDbEllipse
 10
20.54032771746488
 20
12.04717430159265
 30
0.0
 11
3.960054785062283
 21
1.540847449632565E-10
 31
0.0
210
0.0
220
0.0
230
1.0
 40
0.3939339440162632
 41
1.131841032648279
 42
5.62031148352944
  0
LINE
  5
87
330
82
100
AcDbEntity
  8
중심선
100
AcDbLine
 10
2.268634060543552
 20
16.24717430164393
 30
0.0
 11
5.714909304380834
 21
16.24717430164393
 31
0.0
  0
LINE
  5
88
330
82
100
AcDbEntity
  8
중심선
100
AcDbLine
 10
5.245725140726316
 20
7.84717430164391
 30
0.0
 11
8.692000384563599
 21
7.84717430164391
 31
0.0
  0
LINE
  5
89
330
82
100
AcDbEntity
  8
중심선
100
AcDbLine
 10
15.74043728645272
 20
16.24717430164393
 30
0.0
 11
8.692000384563599
 21
7.84717430164391
 31
0.0
  0
LINE
  5
8A
330
82
100
AcDbEntity
  8
중심선
100
AcDbLine
 10
0.1404042013395286
 20
13.71084872107135
 30
0.0
 11
3.58671253028996
 21
13.71088815037384
 31
0.0
  0
LINE
  5
8B
330
82
100
AcDbEntity
  8
중심선
100
AcDbLine
 10
2.750260043222114
 20
10.84717430164391
 30
0.0
 11
6.196535287059397
 21
10.84717430164391
 31
0.0
  0
LINE
  5
8C
330
82
100
AcDbEntity
  8
중심선
100
AcDbLine
 10
12.29416204261559
 20
16.24717430164393
 30
0.0
 11
5.245725140726316
 21
7.84717430164391
 31
0.0
  0
LINE
  5
8D
330
82
100
AcDbEntity
  8
중심선
100
AcDbLine
 10
10.72767329541681
 20
16.24717430164393
 30
0.0
 11
6.196535287059397
 21
10.84717430164391
 31
0.0
  0
LINE
  5
8E
330
82
100
AcDbEntity
  8
중심선
100
AcDbLine
 10
7.28139805157953
 20
16.24717430164393
 30
0.0
 11
2.750260043222114
 21
10.84717430164391
 31
0.0
  0
LINE
  5
8F
330
82
100
AcDbEntity
  8
중심선
100
AcDbLine
 10
5.714909304380834
 20
16.24717430164393
 30
0.0
 11
3.58671253028996
 21
13.71088815037384
 31
0.0
  0
LINE
  5
90
330
82
100
AcDbEntity
  8
중심선
100
AcDbLine
 10
2.268634060543552
 20
16.24717430164393
 30
0.0
 11
0.1404042013395286
 21
13.71084872107135
 31
0.0
  0
LINE
  5
91
330
82
100
AcDbEntity
  8
중심선
100
AcDbLine
 10
7.28139805157953
 20
16.24717430164393
 30
0.0
 11
10.72767329541681
 21
16.24717430164393
 31
0.0
  0
LINE
  5
92
330
82
100
AcDbEntity
  8
중심선
100
AcDbLine
 10
12.29416204261559
 20
16.24717430164393
 30
0.0
 11
15.74043728645272
 21
16.24717430164393
 31
0.0
  0
LINE
  5
93
330
82
100
AcDbEntity
  8
중심선
100
AcDbLine
 10
19.22036997980202
 20
11.08717430171403
 30
0.0
 11
23.66174974927406
 21
11.08717430171406
 31
0.0
  0
LINE
  5
94
330
82
100
AcDbEntity
  8
중심선
100
AcDbLine
 10
19.22039502424796
 20
13.00717430171391
 30
0.0
 11
19.22036997980202
 21
11.08717430171403
 31
0.0
  0
LINE
  5
95
330
82
100
AcDbEntity
  8
중심선
100
AcDbLine
 10
19.22039502424796
 20
13.00717430171391
 30
0.0
 11
26.96566020931264
 21
13.00717430171391
 31
0.0
  0
LINE
  5
96
330
82
100
AcDbEntity
  8
중심선
100
AcDbLine
 10
22.22332737316547
 20
13.45928029700563
 30
0.0
 11
24.52862924686651
 21
15.39360700705356
 31
0.0
  0
ATTDEF
  5
98
330
82
100
AcDbEntity
  8
FORMAT
 62
     2
100
AcDbText
 10
-16.11926103943555
 20
2.075366912832191
 30
0.0
 40
4.233333333333333
  1
SEME7101206E [ 4 FLUTE ]
 41
0.75
  7
SLDTEXTSTYLE0
 11
-16.11926103943555
 21
-0.0412997538344756
 31
0.0
100
AcDbAttributeDefinition
  3

  2
AUTOATTR0
 70
     0
 74
     1
  0
ENDBLK
  5
84
330
82
100
AcDbEntity
  8
0
100
AcDbBlockEnd
  0
BLOCK
  5
EE
330
ED
100
AcDbEntity
  8
0
100
AcDbBlockBegin
  2
_D
 70
     0
 10
0.0
 20
0.0
 30
0.0
  3
_D
  1

  0
LINE
  5
F0
330
ED
100
AcDbEntity
  8
치수문자_일반주서
 62
     0
370
    -2
100
AcDbLine
 10
18.01942193816529
 20
-0.6000000000000022
 30
0.0
 11
29.97147020356518
 21
-0.5999999999999588
 31
0.0
  0
LINE
  5
F1
330
ED
100
AcDbEntity
  8
치수문자_일반주서
 62
     0
370
    -2
100
AcDbLine
 10
18.01942193816529
 20
0.6000000000000053
 30
0.0
 11
29.97147020356517
 21
0.6000000000000494
 31
0.0
  0
LINE
  5
F2
330
ED
100
AcDbEntity
  8
치수문자_일반주서
 62
     0
370
    -2
100
AcDbLine
 10
29.97147020356518
 20
-0.5999999999999588
 30
0.0
 11
29.97147020356513
 21
15.95400000000005
 31
0.0
  0
LINE
  5
F3
330
ED
100
AcDbEntity
  8
치수문자_일반주서
 62
     0
370
    -2
100
AcDbLine
 10
29.97147020356518
 20
-0.5999999999999588
 30
0.0
 11
29.97147020356517
 21
0.6000000000000494
 31
0.0
  0
LINE
  5
F4
330
ED
100
AcDbEntity
  8
치수문자_일반주서
 62
     0
370
    -2
100
AcDbLine
 10
29.97147020356519
 20
-3.901999999999958
 30
0.0
 11
29.9714702035652
 21
-7.203999999999958
 31
0.0
  0
LINE
  5
F5
330
ED
100
AcDbEntity
  8
치수문자_일반주서
 62
     0
370
    -2
100
AcDbLine
 10
29.97147020356516
 20
3.902000000000049
 30
0.0
 11
29.97147020356515
 21
7.204000000000049
 31
0.0
  0
SOLID
  5
F6
330
ED
100
AcDbEntity
  8
치수문자_일반주서
 62
     0
100
AcDbTrace
 10
30.52180353689852
 20
-3.901999999999957
 30
0.0
 11
29.42113687023185
 21
-3.90199999999996
 31
0.0
 12
29.97147020356518
 22
-0.5999999999999588
 32
0.0
 13
29.97147020356518
 23
-0.5999999999999588
 33
0.0
  0
SOLID
  5
F7
330
ED
100
AcDbEntity
  8
치수문자_일반주서
 62
     0
100
AcDbTrace
 10
29.42113687023183
 20
3.902000000000047
 30
0.0
 11
30.5218035368985
 21
3.902000000000051
 31
0.0
 12
29.97147020356517
 22
0.6000000000000494
 32
0.0
 13
29.97147020356517
 23
0.6000000000000494
 33
0.0
  0
MTEXT
  5
F8
330
ED
100
AcDbEntity
  8
치수문자_일반주서
 62
     0
100
AcDbMText
 10
25.59647020356514
 20
11.57900000000004
 30
0.0
 40
3.5
 41
0.0
 71
     2
 72
     1
  1
\A1;%%c1.2
  7
SLDTEXTSTYLE0
 11
-2.960594732333732E-15
 21
1.0
 31
0.0
 73
     1
 44
1.0
  0
POINT
  5
151
330
ED
100
AcDbEntity
  8
Defpoints
 62
     0
100
AcDbPoint
 10
17.95692193816529
 20
-0.6000000000000024
 30
0.0
  0
POINT
  5
152
330
ED
100
AcDbEntity
  8
Defpoints
 62
     0
100
AcDbPoint
 10
17.95692193816529
 20
0.6000000000000051
 30
0.0
  0
POINT
  5
153
330
ED
100
AcDbEntity
  8
Defpoints
 62
     0
100
AcDbPoint
 10
29.97147020356517
 20
0.6000000000000499
 30
0.0
  0
ENDBLK
  5
EF
330
ED
100
AcDbEntity
  8
0
100
AcDbBlockEnd
  0
BLOCK
  5
FC
330
FB
100
AcDbEntity
  8
0
100
AcDbBlockBegin
  2
_D_1
 70
     0
 10
0.0
 20
0.0
 30
0.0
  3
_D_1
  1

  0
LINE
  5
FE
330
FB
100
AcDbEntity
  8
치수문자_일반주서
 62
     0
370
    -2
100
AcDbLine
 10
-32.04307806183473
 20
2.562499999999996
 30
0.0
 11
-32.04307806183473
 21
20.38913260158165
 31
0.0
  0
LINE
  5
FF
330
FB
100
AcDbEntity
  8
치수문자_일반주서
 62
     0
370
    -2
100
AcDbLine
 10
17.95692193816528
 20
0.6625000000000028
 30
0.0
 11
17.95692193816528
 21
20.38913260158165
 31
0.0
  0
LINE
  5
100
330
FB
100
AcDbEntity
  8
치수문자_일반주서
 62
     0
370
    -2
100
AcDbLine
 10
-28.74107806183473
 20
20.38913260158165
 30
0.0
 11
14.65492193816528
 21
20.38913260158165
 31
0.0
  0
SOLID
  5
101
330
FB
100
AcDbEntity
  8
치수문자_일반주서
 62
     0
100
AcDbTrace
 10
-28.74107806183473
 20
20.93946593491498
 30
0.0
 11
-28.74107806183473
 21
19.83879926824831
 31
0.0
 12
-32.04307806183473
 22
20.38913260158165
 32
0.0
 13
-32.04307806183473
 23
20.38913260158165
 33
0.0
  0
SOLID
  5
102
330
FB
100
AcDbEntity
  8
치수문자_일반주서
 62
     0
100
AcDbTrace
 10
14.65492193816528
 20
19.83879926824831
 30
0.0
 11
14.65492193816528
 21
20.93946593491498
 31
0.0
 12
17.95692193816528
 22
20.38913260158165
 32
0.0
 13
17.95692193816528
 23
20.38913260158165
 33
0.0
  0
MTEXT
  5
103
330
FB
100
AcDbEntity
  8
치수문자_일반주서
 62
     0
100
AcDbMText
 10
-7.043078061834719
 20
24.76413260158165
 30
0.0
 40
3.5
 41
0.0
 71
     2
 72
     1
  1
\A1;50
  7
SLDTEXTSTYLE0
 73
     1
 44
1.0
  0
POINT
  5
14A
330
FB
100
AcDbEntity
  8
Defpoints
 62
     0
100
AcDbPoint
 10
-32.04307806183473
 20
2.499999999999996
 30
0.0
  0
POINT
  5
14B
330
FB
100
AcDbEntity
  8
Defpoints
 62
     0
100
AcDbPoint
 10
17.95692193816528
 20
0.6000000000000028
 30
0.0
  0
POINT
  5
14C
330
FB
100
AcDbEntity
  8
Defpoints
 62
     0
100
AcDbPoint
 10
17.95692193816528
 20
20.38913260158165
 30
0.0
  0
ENDBLK
  5
FD
330
FB
100
AcDbEntity
  8
0
100
AcDbBlockEnd
  0
BLOCK
  5
107
330
106
100
AcDbEntity
  8
0
100
AcDbBlockBegin
  2
_D_2
 70
     0
 10
0.0
 20
0.0
 30
0.0
  3
_D_2
  1

  0
LINE
  5
109
330
106
100
AcDbEntity
  8
치수문자_일반주서
 62
     0
370
    -2
100
AcDbLine
 10
-31.60557806183473
 20
3.000000000000004
 30
0.0
 11
-38.77841216846497
 21
2.999999999999979
 31
0.0
  0
LINE
  5
10A
330
106
100
AcDbEntity
  8
치수문자_일반주서
 62
     0
370
    -2
100
AcDbLine
 10
-31.60557806183473
 20
-3.000000000000001
 30
0.0
 11
-38.77841216846495
 21
-3.000000000000028
 31
0.0
  0
LINE
  5
10B
330
106
100
AcDbEntity
  8
치수문자_일반주서
 62
     0
370
    -2
100
AcDbLine
 10
-38.77841216846497
 20
2.999999999999979
 30
0.0
 11
-38.77841216846502
 21
15.72899999999998
 31
0.0
  0
LINE
  5
10C
330
106
100
AcDbEntity
  8
치수문자_일반주서
 62
     0
370
    -2
100
AcDbLine
 10
-38.77841216846497
 20
2.999999999999979
 30
0.0
 11
-38.77841216846495
 21
-3.000000000000028
 31
0.0
  0
LINE
  5
10D
330
106
100
AcDbEntity
  8
치수문자_일반주서
 62
     0
370
    -2
100
AcDbLine
 10
-38.77841216846499
 20
6.301999999999978
 30
0.0
 11
-38.778412168465
 21
9.603999999999978
 31
0.0
  0
LINE
  5
10E
330
106
100
AcDbEntity
  8
치수문자_일반주서
 62
     0
370
    -2
100
AcDbLine
 10
-38.77841216846494
 20
-6.302000000000028
 30
0.0
 11
-38.77841216846493
 21
-9.604000000000028
 31
0.0
  0
SOLID
  5
10F
330
106
100
AcDbEntity
  8
치수문자_일반주서
 62
     0
100
AcDbTrace
 10
-39.32874550179832
 20
6.301999999999977
 30
0.0
 11
-38.22807883513165
 21
6.30199999999998
 31
0.0
 12
-38.77841216846497
 22
2.999999999999979
 32
0.0
 13
-38.77841216846497
 23
2.999999999999979
 33
0.0
  0
SOLID
  5
110
330
106
100
AcDbEntity
  8
치수문자_일반주서
 62
     0
100
AcDbTrace
 10
-38.2280788351316
 20
-6.302000000000026
 30
0.0
 11
-39.32874550179827
 21
-6.30200000000003
 31
0.0
 12
-38.77841216846495
 22
-3.000000000000028
 32
0.0
 13
-38.77841216846495
 23
-3.000000000000028
 33
0.0
  0
MTEXT
  5
111
330
106
100
AcDbEntity
  8
치수문자_일반주서
 62
     0
100
AcDbMText
 10
-43.15341216846501
 20
12.66649999999996
 30
0.0
 40
3.5
 41
0.0
 71
     2
 72
     1
  1
\A1;%%c6
  7
SLDTEXTSTYLE0
 11
-3.552713678800498E-15
 21
1.0
 31
0.0
 73
     1
 44
1.0
  0
POINT
  5
14E
330
106
100
AcDbEntity
  8
Defpoints
 62
     0
100
AcDbPoint
 10
-31.54307806183473
 20
3.000000000000004
 30
0.0
  0
POINT
  5
14F
330
106
100
AcDbEntity
  8
Defpoints
 62
     0
100
AcDbPoint
 10
-31.54307806183473
 20
-3.000000000000001
 30
0.0
  0
POINT
  5
150
330
106
100
AcDbEntity
  8
Defpoints
 62
     0
100
AcDbPoint
 10
-38.77841216846493
 20
-3.000000000000028
 30
0.0
  0
ENDBLK
  5
108
330
106
100
AcDbEntity
  8
0
100
AcDbBlockEnd
  0
BLOCK
  5
114
330
113
100
AcDbEntity
  8
0
100
AcDbBlockBegin
  2
_D_3
 70
     0
 10
0.0
 20
0.0
 30
0.0
  3
_D_3
  1

  0
LINE
  5
116
330
113
100
AcDbEntity
  8
치수문자_일반주서
 62
     0
370
    -2
100
AcDbLine
 10
11.95692193816528
 20
0.6415245010652414
 30
0.0
 11
11.95692193816528
 21
14.10366913974836
 31
0.0
  0
LINE
  5
117
330
113
100
AcDbEntity
  8
치수문자_일반주서
 62
     0
370
    -2
100
AcDbLine
 10
17.95692193816528
 20
0.6625000000000028
 30
0.0
 11
17.95692193816528
 21
14.10366913974836
 31
0.0
  0
LINE
  5
118
330
113
100
AcDbEntity
  8
치수문자_일반주서
 62
     0
370
    -2
100
AcDbLine
 10
11.95692193816528
 20
14.10366913974836
 30
0.0
 11
1.852921938165284
 21
14.10366913974836
 31
0.0
  0
LINE
  5
119
330
113
100
AcDbEntity
  8
치수문자_일반주서
 62
     0
370
    -2
100
AcDbLine
 10
11.95692193816528
 20
14.10366913974836
 30
0.0
 11
17.95692193816528
 21
14.10366913974836
 31
0.0
  0
LINE
  5
11A
330
113
100
AcDbEntity
  8
치수문자_일반주서
 62
     0
370
    -2
100
AcDbLine
 10
8.654921938165284
 20
14.10366913974836
 30
0.0
 11
5.352921938165284
 21
14.10366913974836
 31
0.0
  0
LINE
  5
11B
330
113
100
AcDbEntity
  8
치수문자_일반주서
 62
     0
370
    -2
100
AcDbLine
 10
21.25892193816528
 20
14.10366913974836
 30
0.0
 11
24.56092193816528
 21
14.10366913974836
 31
0.0
  0
SOLID
  5
11C
330
113
100
AcDbEntity
  8
치수문자_일반주서
 62
     0
100
AcDbTrace
 10
8.654921938165284
 20
13.55333580641503
 30
0.0
 11
8.654921938165284
 21
14.65400247308169
 31
0.0
 12
11.95692193816528
 22
14.10366913974836
 32
0.0
 13
11.95692193816528
 23
14.10366913974836
 33
0.0
  0
SOLID
  5
11D
330
113
100
AcDbEntity
  8
치수문자_일반주서
 62
     0
100
AcDbTrace
 10
21.25892193816528
 20
14.65400247308169
 30
0.0
 11
21.25892193816528
 21
13.55333580641503
 31
0.0
 12
17.95692193816528
 22
14.10366913974836
 32
0.0
 13
17.95692193816528
 23
14.10366913974836
 33
0.0
  0
MTEXT
  5
14D
330
113
100
AcDbEntity
  8
치수문자_일반주서
 62
     0
100
AcDbMText
 10
3.602921938165284
 20
18.47866913974836
 30
0.0
 40
3.5
 41
0.0
 71
     2
 72
     1
  1
\A1;6
  7
SLDTEXTSTYLE0
 73
     1
 44
1.0
  0
POINT
  5
154
330
113
100
AcDbEntity
  8
Defpoints
 62
     0
100
AcDbPoint
 10
11.95692193816528
 20
0.5790245010652414
 30
0.0
  0
POINT
  5
155
330
113
100
AcDbEntity
  8
Defpoints
 62
     0
100
AcDbPoint
 10
17.95692193816528
 20
0.6000000000000028
 30
0.0
  0
POINT
  5
156
330
113
100
AcDbEntity
  8
Defpoints
 62
     0
100
AcDbPoint
 10
17.95692193816528
 20
14.10366913974836
 30
0.0
  0
ENDBLK
  5
115
330
113
100
AcDbEntity
  8
0
100
AcDbBlockEnd
  0
BLOCK
  5
11F
330
11E
100
AcDbEntity
  8
0
100
AcDbBlockBegin
  2
SW_DOWELSYMBOL_0
 70
     0
 10
0.0
 20
0.0
 30
0.0
  3
SW_DOWELSYMBOL_0
  1

  0
CIRCLE
  5
121
330
11E
100
AcDbEntity
  8
해칭선
 62
     0
100
AcDbCircle
 10
0.0
 20
0.0
 30
0.0
 40
3.000000000000001
  0
HATCH
  5
122
330
11E
100
AcDbEntity
  8
0
  6
Continuous
 62
     0
370
    18
100
AcDbHatch
 10
0.0
 20
0.0
 30
0.0
210
0.0
220
0.0
230
1.0
  2
SOLID
 70
     1
 71
     0
 91
        1
 92
        0
 93
        3
 72
     2
 10
0.0
 20
0.0
 40
3.000000000000001
 50
0.0
 51
90.0
 73
     1
 72
     1
 10
0.0
 20
3.000000000000001
 11
0.0
 21
0.0
 72
     1
 10
0.0
 20
0.0
 11
3.000000000000001
 21
0.0
 97
        0
 75
     0
 76
     1
 98
        1
 10
0.0
 20
0.0
  0
HATCH
  5
123
330
11E
100
AcDbEntity
  8
0
  6
Continuous
 62
     0
370
    18
100
AcDbHatch
 10
0.0
 20
0.0
 30
0.0
210
0.0
220
0.0
230
1.0
  2
SOLID
 70
     1
 71
     0
 91
        1
 92
        0
 93
        3
 72
     2
 10
0.0
 20
0.0
 40
3.000000000000001
 50
180.0
 51
270.0000000000008
 73
     1
 72
     1
 10
0.0
 20
-3.000000000000001
 11
0.0
 21
0.0
 72
     1
 10
0.0
 20
0.0
 11
-3.000000000000001
 21
0.0
 97
        0
 75
     0
 76
     1
 98
        1
 10
0.0
 20
0.0
  0
ENDBLK
  5
120
330
11E
100
AcDbEntity
  8
0
100
AcDbBlockEnd
  0
ENDSEC
  0
SECTION
  2
ENTITIES
  0
LINE
  5
99
330
1F
100
AcDbEntity
  8
0
  6
Continuous
 62
     4
370
    25
100
AcDbLine
 10
2.0
 20
3.0
 30
0.0
 11
-31.54307806183473
 21
2.999999999999997
 31
0.0
  0
LINE
  5
9A
330
1F
100
AcDbEntity
  8
0
  6
Continuous
 62
     4
370
    25
100
AcDbLine
 10
-31.54307806183473
 20
-2.999999999999999
 30
0.0
 11
2.000000000000002
 21
-2.999999999999997
 31
0.0
  0
LINE
  5
9B
330
1F
100
AcDbEntity
  8
0
  6
Continuous
 62
     4
370
    25
100
AcDbLine
 10
2.0
 20
-2.999999999999998
 30
0.0
 11
10.88783860412261
 21
-0.6185108235671832
 31
0.0
  0
LINE
  5
9C
330
1F
100
AcDbEntity
  8
0
  6
Continuous
 62
     4
370
    25
100
AcDbLine
 10
10.88783860412261
 20
0.6185108235671849
 30
0.0
 11
2.0
 21
3.000000000000001
 31
0.0
  0
LINE
  5
9D
330
1F
100
AcDbEntity
  8
0
  6
Continuous
 62
     4
370
    25
100
AcDbLine
 10
-31.54307806183473
 20
2.999999999999996
 30
0.0
 11
-32.04307806183473
 21
2.499999999999996
 31
0.0
  0
LINE
  5
9E
330
1F
100
AcDbEntity
  8
0
  6
Continuous
 62
     4
370
    25
100
AcDbLine
 10
-32.04307806183473
 20
-2.499999999999999
 30
0.0
 11
-31.54307806183473
 21
-2.999999999999998
 31
0.0
  0
LINE
  5
9F
330
1F
100
AcDbEntity
  8
0
  6
Continuous
 62
     4
370
    25
100
AcDbLine
 10
11.75301240443324
 20
-0.5999999999999981
 30
0.0
 11
11.95692193816528
 21
-0.599999999999998
 31
0.0
  0
LINE
  5
A0
330
1F
100
AcDbEntity
  8
0
  6
Continuous
 62
     4
370
    25
100
AcDbLine
 10
11.95692193816528
 20
0.6000000000000018
 30
0.0
 11
11.75301240443324
 21
0.6000000000000016
 31
0.0
  0
LINE
  5
A1
330
1F
100
AcDbEntity
  8
0
  6
Continuous
 62
     1
370
    25
100
AcDbLine
 10
16.57810037335346
 20
-0.5999999999999988
 30
0.0
 11
16.92315728084323
 21
-0.5999999999999988
 31
0.0
  0
LINE
  5
A2
330
1F
100
AcDbEntity
  8
0
  6
Continuous
 62
     1
370
    25
100
AcDbLine
 10
11.95692193816528
 20
-0.5999999999999988
 30
0.0
 11
12.09710111637249
 21
-0.5999999999999988
 31
0.0
  0
LINE
  5
A3
330
1F
100
AcDbEntity
  8
0
  6
Continuous
 62
     1
370
    25
100
AcDbLine
 10
14.50941640666802
 20
0.6000000000000023
 30
0.0
 11
14.16753622567424
 21
0.6000000000000023
 31
0.0
  0
LINE
  5
A4
330
1F
100
AcDbEntity
  8
0
  6
Continuous
 62
     1
370
    25
100
AcDbLine
 10
15.37380859308246
 20
-0.5999999999999988
 30
0.0
 11
15.71658315667101
 21
-0.5999999999999988
 31
0.0
  0
LINE
  5
A5
330
1F
100
AcDbEntity
  8
0
  6
Continuous
 62
     1
370
    25
100
AcDbLine
 10
13.30217371044897
 20
0.6000000000000023
 30
0.0
 11
12.96040941220764
 21
0.6000000000000023
 31
0.0
  0
LINE
  5
A6
330
1F
100
AcDbEntity
  8
0
  6
Continuous
 62
     1
370
    25
100
AcDbLine
 10
17.95692193816528
 20
0.6000000000000023
 30
0.0
 11
17.78570325176406
 21
0.6000000000000023
 31
0.0
  0
LINE
  5
A7
330
1F
100
AcDbEntity
  8
0
  6
Continuous
 62
     1
370
    25
100
AcDbLine
 10
17.78570325176406
 20
-0.5999999999999988
 30
0.0
 11
17.95692193816528
 21
-0.5999999999999988
 31
0.0
  0
LINE
  5
A8
330
1F
100
AcDbEntity
  8
0
  6
Continuous
 62
     1
370
    25
100
AcDbLine
 10
12.96040941220764
 20
-0.5999999999999988
 30
0.0
 11
13.30217371044898
 21
-0.5999999999999988
 31
0.0
  0
LINE
  5
A9
330
1F
100
AcDbEntity
  8
0
  6
Continuous
 62
     1
370
    25
100
AcDbLine
 10
15.71658315667102
 20
0.6000000000000023
 30
0.0
 11
15.37380859308247
 21
0.6000000000000023
 31
0.0
  0
LINE
  5
AA
330
1F
100
AcDbEntity
  8
0
  6
Continuous
 62
     1
370
    25
100
AcDbLine
 10
15.5160933500613
 20
-0.1087319587469249
 30
0.0
 11
15.48404212492173
 21
-0.0859822913485611
 31
0.0
  0
LINE
  5
AB
330
1F
100
AcDbEntity
  8
0
  6
Continuous
 62
     4
370
    25
100
AcDbLine
 10
11.95580317065878
 20
0.1070009801147926
 30
0.0
 11
11.98558577109298
 21
0.0859822913490898
 31
0.0
  0
SPLINE
  5
AC
330
1F
100
AcDbEntity
  8
0
  6
Continuous
 62
     1
370
    25
100
AcDbSpline
210
0.0
220
0.0
230
1.0
 70
     8
 71
     3
 72
     9
 73
     5
 74
     0
 42
0.000000001
 43
0.00000001
 40
0.0
 40
0.0
 40
0.0
 40
0.0
 40
0.4954374524569697
 40
1.0
 40
1.0
 40
1.0
 40
1.0
 10
17.95692193816528
 20
-0.1335779226344748
 30
0.0
 10
17.92810033407389
 20
-0.1122852610509229
 30
0.0
 10
17.86992628213563
 20
-0.069307764137927
 30
0.0
 10
17.81111703969895
 20
-0.0210326404089538
 30
0.0
 10
17.78144409851602
 20
0.0033251790026919
 30
0.0
  0
LINE
  5
AD
330
1F
100
AcDbEntity
  8
0
  6
Continuous
 62
     1
370
    25
100
AcDbLine
 10
16.74767321036243
 20
0.1305699450197484
 30
0.0
 11
16.81085204555879
 21
0.0859822913490901
 31
0.0
  0
LINE
  5
AE
330
1F
100
AcDbEntity
  8
0
  6
Continuous
 62
     1
370
    25
100
AcDbLine
 10
14.16753622567425
 20
-0.5999999999999988
 30
0.0
 11
14.50941640666802
 21
-0.5999999999999988
 31
0.0
  0
LINE
  5
AF
330
1F
100
AcDbEntity
  8
0
  6
Continuous
 62
     1
370
    25
100
AcDbLine
 10
12.0971011163726
 20
0.6000000000000023
 30
0.0
 11
11.95692193816528
 21
0.6000000000000023
 31
0.0
  0
LINE
  5
B0
330
1F
100
AcDbEntity
  8
0
  6
Continuous
 62
     1
370
    25
100
AcDbLine
 10
16.92315728084323
 20
0.6000000000000023
 30
0.0
 11
16.57810037335346
 21
0.6000000000000023
 31
0.0
  0
LINE
  5
B1
330
1F
100
AcDbEntity
  8
0
  6
Continuous
 62
     4
370
    25
100
AcDbLine
 10
2.0
 20
3.000000000000001
 30
0.0
 11
2.0
 21
-3.0
 31
0.0
  0
LINE
  5
B2
330
1F
100
AcDbEntity
  8
0
  6
Continuous
 62
     4
370
    25
100
AcDbLine
 10
-31.54307806183473
 20
2.999999999999996
 30
0.0
 11
-31.54307806183473
 21
-3.0
 31
0.0
  0
LINE
  5
B3
330
1F
100
AcDbEntity
  8
0
  6
Continuous
 62
     4
370
    25
100
AcDbLine
 10
10.95692193816524
 20
0.5977865735519499
 30
0.0
 11
10.88775676299007
 21
0.6182053883023784
 31
0.0
  0
LINE
  5
B4
330
1F
100
AcDbEntity
  8
0
  6
Continuous
 62
     4
370
    25
100
AcDbLine
 10
10.95692193816528
 20
0.5977865735516664
 30
0.0
 11
10.95692193816528
 21
0.5169002753767069
 31
0.0
  0
SPLINE
  5
B5
330
1F
100
AcDbEntity
  8
0
  6
Continuous
 62
     4
370
    25
100
AcDbSpline
210
0.0
220
0.0
230
1.0
 70
     8
 71
     3
 72
     8
 73
     4
 74
     0
 42
0.000000001
 43
0.00000001
 40
0.0
 40
0.0
 40
0.0
 40
0.0
 40
1.0
 40
1.0
 40
1.0
 40
1.0
 10
10.65642750824712
 20
0.6743133770339388
 30
0.0
 10
10.75476579852768
 20
0.6366025002807079
 30
0.0
 10
10.85474236976609
 20
0.5826124507128052
 30
0.0
 10
10.95692193816528
 20
0.516900275376708
 30
0.0
  0
SPLINE
  5
B6
330
1F
100
AcDbEntity
  8
0
  6
Continuous
 62
     4
370
    25
100
AcDbSpline
210
0.0
220
0.0
230
1.0
 70
     8
 71
     3
 72
    26
 73
    22
 74
     0
 42
0.000000001
 43
0.00000001
 40
0.0
 40
0.0
 40
0.0
 40
0.0
 40
0.0000388024241254
 40
0.0000388024241254
 40
0.0000388024241254
 40
0.000077490859417
 40
0.000077490859417
 40
0.000077490859417
 40
0.0001178518095378
 40
0.0001178518095378
 40
0.0001178518095378
 40
0.0001603300777467
 40
0.0001603300777467
 40
0.0001603300777467
 40
0.0002034914905945
 40
0.0002034914905945
 40
0.0002034914905945
 40
0.0002458975740542
 40
0.0002458975740542
 40
0.0002458975740542
 40
0.0002828086114374
 40
0.0002828086114374
 40
0.0002828086114374
 40
0.0002828086114374
 10
10.45669927882901
 20
0.7079823718338081
 30
0.0
 10
10.45669927882901
 20
0.7113976492914434
 30
0.0
 10
10.45883784628002
 20
0.7139590153541089
 30
0.0
 10
10.46284371886949
 20
0.7155242385863839
 30
0.0
 10
10.4668426577057
 20
0.7170867525783017
 30
0.0
 10
10.47279560465792
 20
0.7177098555218869
 30
0.0
 10
10.48018939032212
 20
0.7174951909971562
 30
0.0
 10
10.48790106142804
 20
0.7172712972723423
 30
0.0
 10
10.49737772139438
 20
0.7161380568554625
 30
0.0
 10
10.5079121228193
 20
0.7143528388070834
 30
0.0
 10
10.51898700949668
 20
0.7124760271323886
 30
0.0
 10
10.53153469173075
 20
0.7098334544021803
 30
0.0
 10
10.54459281730923
 20
0.7067815146719971
 30
0.0
 10
10.55785023057535
 20
0.7036829975055676
 30
0.0
 10
10.57201227479765
 20
0.7000794673372223
 30
0.0
 10
10.58588526483359
 20
0.6963246137540337
 30
0.0
 10
10.59951577160453
 20
0.6926353905183109
 30
0.0
 10
10.6132547515482
 20
0.6886947832624771
 30
0.0
 10
10.6258744088299
 20
0.6847595931035688
 30
0.0
 10
10.63689674303473
 20
0.6813224965071406
 30
0.0
 10
10.64733060748054
 20
0.6778018666412752
 30
0.0
 10
10.65642750824716
 20
0.6743133770339468
 30
0.0
  0
LINE
  5
B7
330
1F
100
AcDbEntity
  8
0
  6
Continuous
 62
     4
370
    25
100
AcDbLine
 10
10.45669927882901
 20
0.7079823718334596
 30
0.0
 11
10.45669927882901
 21
0.4375353238546569
 31
0.0
  0
SPLINE
  5
B8
330
1F
100
AcDbEntity
  8
0
  6
Continuous
 62
     4
370
    25
100
AcDbSpline
210
0.0
220
0.0
230
1.0
 70
     8
 71
     3
 72
    14
 73
    10
 74
     0
 42
0.000000001
 43
0.00000001
 40
0.0
 40
0.0
 40
0.0
 40
0.0
 40
0.0000411139747319
 40
0.0000411139747319
 40
0.0000411139747319
 40
0.0000823548384303
 40
0.0000823548384303
 40
0.0000823548384303
 40
0.0001010428330313
 40
0.0001010428330313
 40
0.0001010428330313
 40
0.0001010428330313
 10
10.49538939885972
 20
0.356402524688791
 30
0.0
 10
10.48574271209678
 20
0.3658434250819063
 30
0.0
 10
10.47741159384788
 20
0.376569065094461
 30
0.0
 10
10.47109400921791
 20
0.3876734669285687
 30
0.0
 10
10.46476520186809
 20
0.3987975949077416
 30
0.0
 10
10.46028773667339
 20
0.4106238793065853
 30
0.0
 10
10.45816820834175
 20
0.4220361171580889
 30
0.0
 10
10.45719562065015
 20
0.4272728492660288
 30
0.0
 10
10.45669927882901
 20
0.4324769858876497
 30
0.0
 10
10.45669927882901
 20
0.4375353238546563
 30
0.0
  0
SPLINE
  5
B9
330
1F
100
AcDbEntity
  8
0
  6
Continuous
 62
     4
370
    25
100
AcDbSpline
210
0.0
220
0.0
230
1.0
 70
     8
 71
     3
 72
    10
 73
     6
 74
     0
 42
0.000000001
 43
0.00000001
 40
0.0
 40
0.0
 40
0.0
 40
0.0
 40
0.5
 40
0.5
 40
1.0
 40
1.0
 40
1.0
 40
1.0
 10
10.95692193816524
 20
-0.0514899260148128
 30
0.0
 10
10.87461846716854
 20
0.0068535450261325
 30
0.0
 10
10.79610844570477
 20
0.0715520060418143
 30
0.0
 10
10.64428111382477
 20
0.2119117190296975
 30
0.0
 10
10.56866989489907
 20
0.2846852728626081
 30
0.0
 10
10.49538939885971
 20
0.3564025246887742
 30
0.0
  0
LINE
  5
BA
330
1F
100
AcDbEntity
  8
0
  6
Continuous
 62
     4
370
    25
100
AcDbLine
 10
10.95692193816528
 20
-0.0514899260148747
 30
0.0
 11
10.95692193816528
 21
-0.3046540748381456
 31
0.0
  0
SPLINE
  5
BB
330
1F
100
AcDbEntity
  8
0
  6
Continuous
 62
     4
370
    25
100
AcDbSpline
210
0.0
220
0.0
230
1.0
 70
     8
 71
     3
 72
     8
 73
     4
 74
     0
 42
0.000000001
 43
0.00000001
 40
0.0
 40
0.0
 40
0.0
 40
0.0
 40
1.0
 40
1.0
 40
1.0
 40
1.0
 10
10.65642750824712
 20
-0.0916797865088305
 30
0.0
 10
10.75476579852768
 20
-0.173459504010323
 30
0.0
 10
10.85474236976609
 20
-0.2470829367043953
 30
0.0
 10
10.95692193816528
 20
-0.3046540748381461
 30
0.0
  0
SPLINE
  5
BC
330
1F
100
AcDbEntity
  8
0
  6
Continuous
 62
     4
370
    25
100
AcDbSpline
210
0.0
220
0.0
230
1.0
 70
     8
 71
     3
 72
    26
 73
    22
 74
     0
 42
0.000000001
 43
0.00000001
 40
0.0
 40
0.0
 40
0.0
 40
0.0
 40
0.0000388024241254
 40
0.0000388024241254
 40
0.0000388024241254
 40
0.000077490859417
 40
0.000077490859417
 40
0.000077490859417
 40
0.0001178518095378
 40
0.0001178518095378
 40
0.0001178518095378
 40
0.0001603300777467
 40
0.0001603300777467
 40
0.0001603300777467
 40
0.0002034914905945
 40
0.0002034914905945
 40
0.0002034914905945
 40
0.0002458975740542
 40
0.0002458975740542
 40
0.0002458975740542
 40
0.0002828086114374
 40
0.0002828086114374
 40
0.0002828086114374
 40
0.0002828086114374
 10
10.45669927882901
 20
-0.193822734762179
 30
0.0
 10
10.45669927882901
 20
-0.1813476438607213
 30
0.0
 10
10.45883784628002
 20
-0.1684576903880105
 30
0.0
 10
10.46284371886949
 20
-0.1562595317506438
 30
0.0
 10
10.4668426577057
 20
-0.1440824868707167
 30
0.0
 10
10.47279560465792
 20
-0.1322641336585728
 30
0.0
 10
10.48018939032212
 20
-0.121681164486732
 30
0.0
 10
10.48790106142804
 20
-0.1106431954024292
 30
0.0
 10
10.49737772139438
 20
-0.100658863367639
 30
0.0
 10
10.5079121228193
 20
-0.0924615379324541
 30
0.0
 10
10.51898700949668
 20
-0.0838436348746191
 30
0.0
 10
10.53153469173075
 20
-0.0769720184563007
 30
0.0
 10
10.54459281730923
 20
-0.0724316649069323
 30
0.0
 10
10.55785023057535
 20
-0.0678220183679647
 30
0.0
 10
10.57201227479765
 20
-0.0654952900814414
 30
0.0
 10
10.58588526483359
 20
-0.0657186247743203
 30
0.0
 10
10.59951577160453
 20
-0.0659380558440165
 30
0.0
 10
10.6132547515482
 20
-0.0686322072376177
 30
0.0
 10
10.6258744088299
 20
-0.0736028974729446
 30
0.0
 10
10.63689674303473
 20
-0.0779444265477379
 30
0.0
 10
10.64733060748054
 20
-0.0841146562558256
 30
0.0
 10
10.65642750824716
 20
-0.0916797865088563
 30
0.0
  0
LINE
  5
BD
330
1F
100
AcDbEntity
  8
0
  6
Continuous
 62
     4
370
    25
100
AcDbLine
 10
10.45669927882901
 20
-0.1938227347620836
 30
0.0
 11
10.45669927882901
 21
-0.5893802946459813
 31
0.0
  0
SPLINE
  5
BE
330
1F
100
AcDbEntity
  8
0
  6
Continuous
 62
     4
370
    25
100
AcDbSpline
210
0.0
220
0.0
230
1.0
 70
     8
 71
     3
 72
    14
 73
    10
 74
     0
 42
0.000000001
 43
0.00000001
 40
0.0
 40
0.0
 40
0.0
 40
0.0
 40
0.0000411139747319
 40
0.0000411139747319
 40
0.0000411139747319
 40
0.0000823548384303
 40
0.0000823548384303
 40
0.0000823548384303
 40
0.0001010428330313
 40
0.0001010428330313
 40
0.0001010428330313
 40
0.0001010428330313
 10
10.49538939885972
 20
-0.6298186721459148
 30
0.0
 10
10.48574271209678
 20
-0.6274462278686135
 30
0.0
 10
10.47741159384788
 20
-0.6237229468033962
 30
0.0
 10
10.47109400921791
 20
-0.618763305492403
 30
0.0
 10
10.46476520186809
 20
-0.6137948537470042
 30
0.0
 10
10.46028773667339
 20
-0.6074268124944877
 30
0.0
 10
10.45816820834175
 20
-0.6000951029130511
 30
0.0
 10
10.45719562065015
 20
-0.596730802285007
 30
0.0
 10
10.45669927882901
 20
-0.5931354278946933
 30
0.0
 10
10.45669927882901
 20
-0.5893802946459814
 30
0.0
  0
SPLINE
  5
BF
330
1F
100
AcDbEntity
  8
0
  6
Continuous
 62
     4
370
    25
100
AcDbSpline
210
0.0
220
0.0
230
1.0
 70
     8
 71
     3
 72
    10
 73
     6
 74
     0
 42
0.000000001
 43
0.00000001
 40
0.0
 40
0.0
 40
0.0
 40
0.0
 40
0.5
 40
0.5
 40
1.0
 40
1.0
 40
1.0
 40
1.0
 10
10.95692193816524
 20
-0.597786573551946
 30
0.0
 10
10.87461846716854
 20
-0.6249467522484681
 30
0.0
 10
10.79610844570477
 20
-0.6426400906152281
 30
0.0
 10
10.64428111382477
 20
-0.6535891685740723
 30
0.0
 10
10.56866989489907
 20
-0.6478408073865841
 30
0.0
 10
10.49538939885971
 20
-0.6298186721458792
 30
0.0
  0
LINE
  5
C0
330
1F
100
AcDbEntity
  8
0
  6
Continuous
 62
     4
370
    25
100
AcDbLine
 10
-32.04307806183473
 20
2.499999999999996
 30
0.0
 11
-32.04307806183473
 21
-2.499999999999999
 31
0.0
  0
SPLINE
  5
C1
330
1F
100
AcDbEntity
  8
0
  6
Continuous
 62
     4
370
    25
100
AcDbSpline
210
0.0
220
0.0
230
1.0
 70
     8
 71
     3
 72
    16
 73
    12
 74
     0
 42
0.000000001
 43
0.00000001
 40
0.0
 40
0.0
 40
0.0
 40
0.0
 40
0.2500000000000001
 40
0.2500000000000001
 40
0.3750000000000001
 40
0.3750000000000001
 40
0.5000000000000001
 40
0.5000000000000001
 40
0.75
 40
0.75
 40
1.0
 40
1.0
 40
1.0
 40
1.0
 10
11.95692193816534
 20
-0.1572597442649388
 30
0.0
 10
11.87506309817822
 20
-0.094737034979389
 30
0.0
 10
11.79199285338778
 20
-0.0291302274647359
 30
0.0
 10
11.66468677999867
 20
0.0690435494018215
 30
0.0
 10
11.62237174947988
 20
0.1015712992969853
 30
0.0
 10
11.53964248435685
 20
0.1649621726170173
 30
0.0
 10
11.4997927436108
 20
0.1956949105596478
 30
0.0
 10
11.37538141066693
 20
0.2861218734531228
 30
0.0
 10
11.28880560154579
 20
0.3431651217233217
 30
0.0
 10
11.121888316162
 20
0.441802949018074
 30
0.0
 10
11.04168044932886
 20
0.4836216319222293
 30
0.0
 10
10.95692193816528
 20
0.5169002753767069
 30
0.0
  0
SPLINE
  5
C2
330
1F
100
AcDbEntity
  8
0
  6
Continuous
 62
     4
370
    25
100
AcDbSpline
210
0.0
220
0.0
230
1.0
 70
     8
 71
     3
 72
    16
 73
    12
 74
     0
 42
0.000000001
 43
0.00000001
 40
0.0
 40
0.0
 40
0.0
 40
0.0
 40
0.2500000000000001
 40
0.2500000000000001
 40
0.3750000000000001
 40
0.3750000000000001
 40
0.5
 40
0.5
 40
0.75
 40
0.75
 40
1.0
 40
1.0
 40
1.0
 40
1.0
 10
11.95692193816534
 20
-0.5901488079433748
 30
0.0
 10
11.87506309817822
 20
-0.5784568868979085
 30
0.0
 10
11.79199285338779
 20
-0.5563079980301546
 30
0.0
 10
11.66468677999868
 20
-0.5085321049691822
 30
0.0
 10
11.62237174947988
 20
-0.4902588047556981
 30
0.0
 10
11.53964248435685
 20
-0.4498530881565066
 30
0.0
 10
11.4997927436108
 20
-0.4278557190179351
 30
0.0
 10
11.37538141066693
 20
-0.3556616509004142
 30
0.0
 10
11.28880560154579
 20
-0.2995395869217469
 30
0.0
 10
11.121888316162
 20
-0.1799958354136039
 30
0.0
 10
11.04168044932886
 20
-0.1167886627991076
 30
0.0
 10
10.95692193816528
 20
-0.0514899260148747
 30
0.0
  0
SPLINE
  5
C3
330
1F
100
AcDbEntity
  8
0
  6
Continuous
 62
     4
370
    25
100
AcDbSpline
210
0.0
220
0.0
230
1.0
 70
     8
 71
     3
 72
    10
 73
     6
 74
     0
 42
0.000000001
 43
0.00000001
 40
0.0
 40
0.0
 40
0.0
 40
0.0
 40
0.1162671718206305
 40
0.55707455997851
 40
0.9999999999999999
 40
0.9999999999999999
 40
0.9999999999999999
 40
0.9999999999999999
 10
11.32218081077454
 20
0.5030653087321286
 30
0.0
 10
11.34684922182364
 20
0.5144308790002966
 30
0.0
 10
11.46504375614801
 20
0.568887093569722
 30
0.0
 10
11.67585049598224
 20
0.6119507656202114
 30
0.0
 10
11.86308187763041
 20
0.5900174451894475
 30
0.0
 10
11.95692193817586
 20
0.579024501062949
 30
0.0
  0
SPLINE
  5
C4
330
1F
100
AcDbEntity
  8
0
  6
Continuous
 62
     4
370
    25
100
AcDbSpline
210
0.0
220
0.0
230
1.0
 70
     8
 71
     3
 72
    16
 73
    12
 74
     0
 42
0.000000001
 43
0.00000001
 40
0.0
 40
0.0
 40
0.0
 40
0.0
 40
0.2499999999999997
 40
0.2499999999999997
 40
0.3749999999999997
 40
0.3749999999999997
 40
0.4999999999999997
 40
0.4999999999999997
 40
0.7499999999999998
 40
0.7499999999999998
 40
1.0
 40
1.0
 40
1.0
 40
1.0
 10
11.95692193816534
 20
0.1082791969062781
 30
0.0
 10
11.87506309817822
 20
0.1720031020024937
 30
0.0
 10
11.79199285338779
 20
0.234138335651788
 30
0.0
 10
11.66468677999868
 20
0.3201092554720671
 30
0.0
 10
11.62237174947989
 20
0.347423426512067
 30
0.0
 10
11.53964248435685
 20
0.398357793956546
 30
0.0
 10
11.4997927436108
 20
0.4218981015024482
 30
0.0
 10
11.37538141066693
 20
0.4875847490136704
 30
0.0
 10
11.28880560154579
 20
0.5239538682562784
 30
0.0
 10
11.121888316162
 20
0.5760669400579485
 30
0.0
 10
11.04168044932886
 20
0.5921621127915176
 30
0.0
 10
10.95692193816528
 20
0.5977865735516664
 30
0.0
  0
SPLINE
  5
C5
330
1F
100
AcDbEntity
  8
0
  6
Continuous
 62
     4
370
    25
100
AcDbSpline
210
0.0
220
0.0
230
1.0
 70
     8
 71
     3
 72
    11
 73
     7
 74
     0
 42
0.000000001
 43
0.00000001
 40
0.0
 40
0.0
 40
0.0
 40
0.0
 40
0.2738627805479067
 40
0.5515390269213255
 40
0.9028869520773047
 40
1.0
 40
1.0
 40
1.0
 40
1.0
 10
10.95692193816528
 20
-0.3046540748381455
 30
0.0
 10
11.02934056116906
 20
-0.3516259248326544
 30
0.0
 10
11.17518621709417
 20
-0.4462236952446655
 30
0.0
 10
11.41612077579659
 20
-0.5484707942109638
 30
0.0
 10
11.6080617471808
 20
-0.6052707356005139
 30
0.0
 10
11.72721095571626
 20
-0.5943682458496133
 30
0.0
 10
11.75301240443324
 20
-0.5920073402787506
 30
0.0
  0
SPLINE
  5
C6
330
1F
100
AcDbEntity
  8
0
  6
Continuous
 62
     4
370
    25
100
AcDbSpline
210
0.0
220
0.0
230
1.0
 70
     8
 71
     3
 72
     9
 73
     5
 74
     0
 42
0.000000001
 43
0.00000001
 40
0.0
 40
0.0
 40
0.0
 40
0.0
 40
0.4031769657139215
 40
1.0
 40
1.0
 40
1.0
 40
1.0
 10
11.32218081077453
 20
-0.503065308732125
 30
0.0
 10
11.27290971728999
 20
-0.5238072889807427
 30
0.0
 10
11.15070260310803
 20
-0.5752536314370613
 30
0.0
 10
11.02934872682869
 20
-0.5893647393249026
 30
0.0
 10
10.95692193816528
 20
-0.5977865735516624
 30
0.0
  0
SPLINE
  5
C7
330
1F
100
AcDbEntity
  8
0
  6
Continuous
 62
     1
370
    25
100
AcDbSpline
210
0.0
220
0.0
230
1.0
 70
     8
 71
     3
 72
    17
 73
    13
 74
     0
 42
0.000000001
 43
0.00000001
 40
0.0
 40
0.0
 40
0.0
 40
0.0
 40
0.0565325513939115
 40
0.16644855149049
 40
0.275980850760397
 40
0.3856188411081755
 40
0.4958454908656061
 40
0.6061180036510433
 40
0.7157764089036313
 40
0.8253016112964133
 40
0.9482928462594729
 40
1.0
 40
1.0
 40
1.0
 40
1.0
 10
13.73481394800744
 20
0.4971810970780842
 30
0.0
 10
13.78849653410025
 20
0.5213588995989588
 30
0.0
 10
13.94655394483257
 20
0.592545501098358
 30
0.0
 10
14.20804645977075
 20
0.6132627530221961
 30
0.0
 10
14.51951875856063
 20
0.5533620532810765
 30
0.0
 10
14.83131917583466
 20
0.3988020152323352
 30
0.0
 10
15.14464147549556
 20
0.1804478375551541
 30
0.0
 10
15.45805922063415
 20
-0.0670718548164322
 30
0.0
 10
15.76994903055573
 20
-0.3057674809131551
 30
0.0
 10
16.09371547880595
 20
-0.4954810468224828
 30
0.0
 10
16.36330273629034
 20
-0.600770233354017
 30
0.0
 10
16.52904426667504
 20
-0.5884637175081434
 30
0.0
 10
16.57810037335346
 20
-0.5848212402559202
 30
0.0
  0
SPLINE
  5
C8
330
1F
100
AcDbEntity
  8
0
  6
Continuous
 62
     1
370
    25
100
AcDbSpline
210
0.0
220
0.0
230
1.0
 70
     8
 71
     3
 72
    18
 73
    14
 74
     0
 42
0.000000001
 43
0.00000001
 40
0.0
 40
0.0
 40
0.0
 40
0.0
 40
0.0206545705817859
 40
0.1188981487041933
 40
0.228550259415072
 40
0.3387606517159666
 40
0.4483958964993534
 40
0.5576753201397396
 40
0.6670876477276089
 40
0.7771127047674845
 40
0.8870920016977458
 40
0.9964839601926346
 40
0.9999999999999999
 40
0.9999999999999999
 40
0.9999999999999999
 40
0.9999999999999999
 10
17.35872589616534
 20
-0.5000608105137805
 30
0.0
 10
17.33911026775775
 20
-0.5099496765793264
 30
0.0
 10
17.22619279537086
 20
-0.5668749882589592
 30
0.0
 10
17.00994884398838
 20
-0.6073940652629548
 30
0.0
 10
16.70766819437239
 20
-0.593731459811961
 30
0.0
 10
16.39388827517116
 20
-0.4768150730479604
 30
0.0
 10
16.08138024593349
 20
-0.2833497781143851
 30
0.0
 10
15.76993068827221
 20
-0.043037142625257
 30
0.0
 10
15.45806372015242
 20
0.2035781223603025
 30
0.0
 10
15.14464195254298
 20
0.419455360878107
 30
0.0
 10
14.83131277820124
 20
0.5558265917885628
 30
0.0
 10
14.61987896188794
 20
0.615200203014516
 30
0.0
 10
14.5127524079585
 20
0.5989822586275545
 30
0.0
 10
14.50941640666802
 20
0.598477219667378
 30
0.0
  0
SPLINE
  5
C9
330
1F
100
AcDbEntity
  8
0
  6
Continuous
 62
     1
370
    25
100
AcDbSpline
210
0.0
220
0.0
230
1.0
 70
     8
 71
     3
 72
    10
 73
     6
 74
     0
 42
0.000000001
 43
0.00000001
 40
0.0
 40
0.0
 40
0.0
 40
0.0
 40
0.1020124425258506
 40
0.5872351842459744
 40
1.0
 40
1.0
 40
1.0
 40
1.0
 10
12.53345962169953
 20
-0.500060810513781
 30
0.0
 10
12.51384315482337
 20
-0.5099310592125975
 30
0.0
 10
12.40092085578754
 20
-0.5667491999186616
 30
0.0
 10
12.20948556101832
 20
-0.605613971584299
 30
0.0
 10
12.03645593664728
 20
-0.5950188929057082
 30
0.0
 10
11.95692193817586
 20
-0.5901488079448776
 30
0.0
  0
SPLINE
  5
CA
330
1F
100
AcDbEntity
  8
0
  6
Continuous
 62
     1
370
    25
100
AcDbSpline
210
0.0
220
0.0
230
1.0
 70
     8
 71
     3
 72
    17
 73
    13
 74
     0
 42
0.000000001
 43
0.00000001
 40
0.0
 40
0.0
 40
0.0
 40
0.0
 40
0.039669989397926
 40
0.149451569913315
 40
0.2590860503711587
 40
0.3690639381523019
 40
0.4796340959265484
 40
0.5896627464571638
 40
0.6993073029147684
 40
0.8090576587706508
 40
0.9193972773399623
 40
1.0
 40
1.0
 40
1.0
 40
1.0
 10
12.53345962169953
 20
0.5000608105137848
 30
0.0
 10
12.57107299421435
 20
0.5180222169796541
 30
0.0
 10
12.71277652520568
 20
0.5856894998530817
 30
0.0
 10
12.95771305610025
 20
0.6133916739618729
 30
0.0
 10
13.26918266088122
 20
0.5681883777251668
 30
0.0
 10
13.58162428957365
 20
0.424688379318481
 30
0.0
 10
13.89546682514143
 20
0.2139841838456199
 30
0.0
 10
14.2080439947689
 20
-0.0325482180619306
 30
0.0
 10
14.51952226707361
 20
-0.2744046551190296
 30
0.0
 10
14.83130756253331
 20
-0.4682546692806528
 30
0.0
 10
15.11644278967738
 20
-0.5860805068029156
 30
0.0
 10
15.29741470038225
 20
-0.5890058985129868
 30
0.0
 10
15.37380859308246
 20
-0.5902407976723915
 30
0.0
  0
SPLINE
  5
CB
330
1F
100
AcDbEntity
  8
0
  6
Continuous
 62
     1
370
    25
100
AcDbSpline
210
0.0
220
0.0
230
1.0
 70
     8
 71
     3
 72
    10
 73
     6
 74
     0
 42
0.000000001
 43
0.00000001
 40
0.0
 40
0.0
 40
0.0
 40
0.0
 40
0.1881966219952753
 40
0.7090065068443668
 40
1.0
 40
1.0
 40
1.0
 40
1.0
 10
17.35872589616534
 20
0.5000608105137847
 30
0.0
 10
17.39633720707329
 20
0.5179835139960194
 30
0.0
 10
17.53803297122655
 20
0.5855049883690591
 30
0.0
 10
17.73742402649709
 20
0.6101618814411867
 30
0.0
 10
17.89900332620052
 20
0.5917126164928906
 30
0.0
 10
17.95692193816528
 20
0.585099419013159
 30
0.0
  0
SPLINE
  5
CC
330
1F
100
AcDbEntity
  8
0
  6
Continuous
 62
     1
370
    25
100
AcDbSpline
210
0.0
220
0.0
230
1.0
 70
     8
 71
     3
 72
    17
 73
    13
 74
     0
 42
0.000000001
 43
0.00000001
 40
0.0
 40
0.0
 40
0.0
 40
0.0
 40
0.0238756393754474
 40
0.1332595002775868
 40
0.2427763921421941
 40
0.3529065990382703
 40
0.4629910020922492
 40
0.5724875053973358
 40
0.6818784540181311
 40
0.7916526083024243
 40
0.9019670173242043
 40
0.9999999999999999
 40
0.9999999999999999
 40
0.9999999999999999
 40
0.9999999999999999
 10
16.14906052442026
 20
-0.4999866548374042
 30
0.0
 10
16.12640209627677
 20
-0.5115237143230454
 30
0.0
 10
15.99993633910913
 20
-0.5759166613580201
 30
0.0
 10
15.76995904083389
 20
-0.611098862056733
 30
0.0
 10
15.45805650510901
 20
-0.5831676317813506
 30
0.0
 10
15.14464226133084
 20
-0.4536677477123569
 30
0.0
 10
14.83131875556622
 20
-0.2519441858685822
 30
0.0
 10
14.51951965283165
 20
-0.0083457396173949
 30
0.0
 10
14.20804329896108
 20
0.2369798818660856
 30
0.0
 10
13.89547226485105
 20
0.4413071309426593
 30
0.0
 10
13.59272857570953
 20
0.5771099234051222
 30
0.0
 10
13.39514298150856
 20
0.5894930428306503
 30
0.0
 10
13.30217371044897
 20
0.5953196294858708
 30
0.0
  0
LINE
  5
CD
330
1F
100
AcDbEntity
  8
0
  6
Continuous
 62
     1
370
    25
100
AcDbLine
 10
17.95692193816528
 20
0.585099419013159
 30
0.0
 11
17.95692193816528
 21
0.6000000000000028
 31
0.0
  0
SPLINE
  5
CE
330
1F
100
AcDbEntity
  8
0
  6
Continuous
 62
     1
370
    25
100
AcDbSpline
210
0.0
220
0.0
230
1.0
 70
     8
 71
     3
 72
    12
 73
     8
 74
     0
 42
0.000000001
 43
0.00000001
 40
0.0
 40
0.0
 40
0.0
 40
0.0
 40
0.1878285106579531
 40
0.3744150677773768
 40
0.686822383817703
 40
0.9974601745912164
 40
1.0
 40
1.0
 40
1.0
 40
1.0
 10
11.95692193817586
 20
-0.1572597442729761
 30
0.0
 10
12.01981367714995
 20
-0.2034123926290101
 30
0.0
 10
12.14518130439746
 20
-0.2954125203082327
 30
0.0
 10
12.37404299154084
 20
-0.4423761157182145
 30
0.0
 10
12.64597631108771
 20
-0.5578072664398793
 30
0.0
 10
12.85489494500447
 20
-0.6160231054977312
 30
0.0
 10
12.95956058889447
 20
-0.5997353960655483
 30
0.0
 10
12.96040941220764
 20
-0.5996033050854488
 30
0.0
  0
SPLINE
  5
CF
330
1F
100
AcDbEntity
  8
0
  6
Continuous
 62
     1
370
    25
100
AcDbSpline
210
0.0
220
0.0
230
1.0
 70
     8
 71
     3
 72
    18
 73
    14
 74
     0
 42
0.000000001
 43
0.00000001
 40
0.0
 40
0.0
 40
0.0
 40
0.0
 40
0.0714653798810584
 40
0.1816923894035569
 40
0.29130554480084
 40
0.4007855523036445
 40
0.5237260357025806
 40
0.6470896026528039
 40
0.7133741948000344
 40
0.7792205021337464
 40
0.8894688954953598
 40
0.9990928242312674
 40
1.0
 40
1.0
 40
1.0
 40
1.0
 10
14.94113125532897
 20
0.4981310845626977
 30
0.0
 10
15.00894915727335
 20
0.5267004116837263
 30
0.0
 10
15.18136825962917
 20
0.5993345922745349
 30
0.0
 10
15.45807219716978
 20
0.6109719191380865
 30
0.0
 10
15.76994523399961
 20
0.5368157421208894
 30
0.0
 10
16.09371798285808
 20
0.3650936270133422
 30
0.0
 10
16.43131093874263
 20
0.1182334029770817
 30
0.0
 10
16.72804956900471
 20
-0.1198955876603644
 30
0.0
 10
16.97044223045751
 20
-0.2950501367330082
 30
0.0
 10
17.19932040998652
 20
-0.442088988754732
 30
0.0
 10
17.47117891201
 20
-0.5611007666204941
 30
0.0
 10
17.68030497374236
 20
-0.6089014936796483
 30
0.0
 10
17.78484524530835
 20
-0.5998502367232794
 30
0.0
 10
17.78570325176406
 20
-0.5997759492091522
 30
0.0
  0
SPLINE
  5
D0
330
1F
100
AcDbEntity
  8
0
  6
Continuous
 62
     1
370
    25
100
AcDbSpline
210
0.0
220
0.0
230
1.0
 70
     8
 71
     3
 72
    15
 73
    11
 74
     0
 42
0.000000001
 43
0.00000001
 40
0.0
 40
0.0
 40
0.0
 40
0.0
 40
0.1317035205542708
 40
0.2627210264262752
 40
0.3930436221923743
 40
0.5384999255170397
 40
0.6846968035171169
 40
0.8301307337616
 40
0.9750926582437673
 40
1.0
 40
1.0
 40
1.0
 40
1.0
 10
17.86453510799572
 20
-0.5646899549160268
 30
0.0
 10
17.77007044103878
 20
-0.5325011817622431
 30
0.0
 10
17.58163315280609
 20
-0.4682912996970192
 30
0.0
 10
17.30024472294878
 20
-0.2898158012059041
 30
0.0
 10
17.0099053528375
 20
-0.0696971039027506
 30
0.0
 10
16.70767905416197
 20
0.170459105665764
 30
0.0
 10
16.39389057485302
 20
0.3923731249895657
 30
0.0
 10
16.0813603848025
 20
0.5422995980812458
 30
0.0
 10
15.85595777171368
 20
0.6102678169229051
 30
0.0
 10
15.73440588807984
 20
0.5952154372462612
 30
0.0
 10
15.71658315667102
 20
0.5930083589845317
 30
0.0
  0
SPLINE
  5
D1
330
1F
100
AcDbEntity
  8
0
  6
Continuous
 62
     1
370
    25
100
AcDbSpline
210
0.0
220
0.0
230
1.0
 70
     8
 71
     3
 72
    14
 73
    10
 74
     0
 42
0.000000001
 43
0.00000001
 40
0.0
 40
0.0
 40
0.0
 40
0.0
 40
0.0861996759680799
 40
0.2618224380151808
 40
0.3914037114253081
 40
0.550469873273769
 40
0.708707494457405
 40
0.8661058314449098
 40
1.0
 40
1.0
 40
1.0
 40
1.0
 10
13.73481394800744
 20
-0.4971810970780803
 30
0.0
 10
13.68361775909758
 20
-0.5205066418229823
 30
0.0
 10
13.52811472678423
 20
-0.5913555275589791
 30
0.0
 10
13.29577403012657
 20
-0.6108291048080221
 30
0.0
 10
13.0222559746617
 20
-0.5710144962975552
 30
0.0
 10
12.75623196746851
 20
-0.464680619747683
 30
0.0
 10
12.47498204285154
 20
-0.2909836112842954
 30
0.0
 10
12.20944304518442
 20
-0.0874438577395403
 30
0.0
 10
12.03644254812271
 20
0.0466446790163123
 30
0.0
 10
11.95692193817586
 20
0.1082791968980922
 30
0.0
  0
LINE
  5
D2
330
1F
100
AcDbEntity
  8
0
  6
Continuous
 62
     1
370
    25
100
AcDbLine
 10
17.86453510799533
 20
-0.5646899549162967
 30
0.0
 11
17.83267939799209
 21
-0.5869955631955924
 31
0.0
  0
ELLIPSE
  5
D3
330
1F
100
AcDbEntity
  8
0
  6
Continuous
 62
     1
370
    25
100
AcDbEllipse
 10
17.71269424518718
 20
0.0000000000000022
 30
0.0
 11
0.8335939833959783
 21
-0.3302046036250577
 31
0.0
210
0.0
220
0.0
230
1.0
 40
0.6009688174887271
 41
5.086581568774595
 42
5.235119673336828
  0
LINE
  5
D4
330
1F
100
AcDbEntity
  8
0
  6
Continuous
 62
     4
370
    25
100
AcDbLine
 10
17.95692193816528
 20
-0.5999999999999993
 30
0.0
 11
17.95692193816528
 21
-0.5989188155876854
 31
0.0
  0
SPLINE
  5
D5
330
1F
100
AcDbEntity
  8
0
  6
Continuous
 62
     1
370
    25
100
AcDbSpline
210
0.0
220
0.0
230
1.0
 70
     8
 71
     3
 72
    15
 73
    11
 74
     0
 42
0.000000001
 43
0.00000001
 40
0.0
 40
0.0
 40
0.0
 40
0.0
 40
0.0852827919365994
 40
0.1700016797840364
 40
0.3118489852863254
 40
0.4528928448440795
 40
0.5937477149578854
 40
0.7350437838051325
 40
0.877100782175669
 40
1.0
 40
1.0
 40
1.0
 40
1.0
 10
11.95692193817586
 20
0.5790245010629487
 30
0.0
 10
12.01981354428604
 20
0.5628892095342465
 30
0.0
 10
12.14518090668427
 20
0.5307253157240657
 30
0.0
 10
12.37404501337168
 20
0.4216365469215412
 30
0.0
 10
12.64596286655489
 20
0.2466380828901721
 30
0.0
 10
12.95769652289663
 20
0.0022536484469145
 30
0.0
 10
13.26918892337762
 20
-0.2425432335930251
 30
0.0
 10
13.58161576553334
 20
-0.4454416575501787
 30
0.0
 10
13.88185059564715
 20
-0.5784861136598414
 30
0.0
 10
14.077011413091
 20
-0.5893647622273268
 30
0.0
 10
14.16753622567425
 20
-0.5944107936778456
 30
0.0
  0
SPLINE
  5
D6
330
1F
100
AcDbEntity
  8
0
  6
Continuous
 62
     1
370
    25
100
AcDbSpline
210
0.0
220
0.0
230
1.0
 70
     8
 71
     3
 72
    14
 73
    10
 74
     0
 42
0.000000001
 43
0.00000001
 40
0.0
 40
0.0
 40
0.0
 40
0.0
 40
0.1558277819017319
 40
0.3498955171280079
 40
0.4541702312630236
 40
0.5577554635417153
 40
0.7311912399298687
 40
0.9036446481956044
 40
1.0
 40
1.0
 40
1.0
 40
1.0
 10
16.14906052442027
 20
0.499986654837408
 30
0.0
 10
16.24300286793305
 20
0.5358143047513727
 30
0.0
 10
16.45394089491692
 20
0.6162616674818088
 30
0.0
 10
16.72805577253049
 20
0.5998196949455913
 30
0.0
 10
16.97044149678804
 20
0.529409529360293
 30
0.0
 10
17.19931852976853
 20
0.422219632640767
 30
0.0
 10
17.47119506162367
 20
0.2467299165058466
 30
0.0
 10
17.73741472103027
 20
0.0371857551868609
 30
0.0
 10
17.89900087077979
 20
-0.0880093469713971
 30
0.0
 10
17.95692193816528
 20
-0.1328859280377989
 30
0.0
  0
LINE
  5
D7
330
1F
100
AcDbEntity
  8
0
  6
Continuous
 62
     1
370
    25
100
AcDbLine
 10
17.95692193816528
 20
-0.499999999999998
 30
0.0
 11
17.95692193816528
 21
-0.1333930422902745
 31
0.0
  0
SPLINE
  5
D8
330
1F
100
AcDbEntity
  8
0
  6
Continuous
 62
     1
370
    25
100
AcDbSpline
210
0.0
220
0.0
230
1.0
 70
    24
 71
     3
 72
     8
 73
     4
 74
     0
 42
0.000000001
 43
0.00000001
 40
0.0
 40
0.0
 40
0.0
 40
0.0
 40
1.0
 40
1.0
 40
1.0
 40
1.0
 10
17.95692193816528
 20
-0.4999999999999979
 30
0.0
 10
17.92398651308369
 20
-0.5230616329162656
 30
0.0
 10
17.89330662385071
 20
-0.5445439226286412
 30
0.0
 10
17.86453510799572
 20
-0.5646899549160234
 30
0.0
  0
SPLINE
  5
D9
330
1F
100
AcDbEntity
  8
0
  6
Continuous
 62
     1
370
    25
100
AcDbSpline
210
0.0
220
0.0
230
1.0
 70
     8
 71
     3
 72
    11
 73
     7
 74
     0
 42
0.000000001
 43
0.00000001
 40
0.0
 40
0.0
 40
0.0
 40
0.0
 40
0.3004307275209365
 40
0.5992965774348344
 40
0.896577258267449
 40
1.0
 40
1.0
 40
1.0
 40
1.0
 10
17.86453510799573
 20
0.2027936261734849
 30
0.0
 10
17.77007365638713
 20
0.2695238746939837
 30
0.0
 10
17.58164278210309
 20
0.4026367885417323
 30
0.0
 10
17.30020652427093
 20
0.5361315734808437
 30
0.0
 10
17.08146467503349
 20
0.6042387891770579
 30
0.0
 10
16.95563443815662
 20
0.5924416238947027
 30
0.0
 10
16.92315728084323
 20
0.5893967405484049
 30
0.0
  0
SPLINE
  5
DA
330
1F
100
AcDbEntity
  8
0
  6
Continuous
 62
     1
370
    25
100
AcDbSpline
210
0.0
220
0.0
230
1.0
 70
     8
 71
     3
 72
    18
 73
    14
 74
     0
 42
0.000000001
 43
0.00000001
 40
0.0
 40
0.0
 40
0.0
 40
0.0
 40
0.0387059369337528
 40
0.1482708074111926
 40
0.2577300572983523
 40
0.3675727521140721
 40
0.4779560389902763
 40
0.5877480568489365
 40
0.668756858433418
 40
0.7681983811540956
 40
0.867121934846107
 40
0.965520803102267
 40
1.0
 40
1.0
 40
1.0
 40
1.0
 10
14.94113125532897
 20
-0.4981310845626936
 30
0.0
 10
14.90437795075373
 20
-0.5158924418340682
 30
0.0
 10
14.76358709084697
 20
-0.5839308615693328
 30
0.0
 10
14.5195379131342
 20
-0.613312809383923
 30
0.0
 10
14.20804701908602
 20
-0.5705367550081457
 30
0.0
 10
13.89543885743627
 20
-0.4290693013450055
 30
0.0
 10
13.58173346170532
 20
-0.2196715739686665
 30
0.0
 10
13.29577932170401
 20
0.0052755478515315
 30
0.0
 10
13.02225286268857
 20
0.2196623061025949
 30
0.0
 10
12.75624057319007
 20
0.4010282251327008
 30
0.0
 10
12.47495173588108
 20
0.5376781487776926
 30
0.0
 10
12.25603714884143
 20
0.6010675312248264
 30
0.0
 10
12.12984535878227
 20
0.5947319603054761
 30
0.0
 10
12.0971011163726
 20
0.5930880065277414
 30
0.0
  0
LINE
  5
DB
330
1F
100
AcDbEntity
  8
0
  6
Continuous
 62
     1
370
    25
100
AcDbLine
 10
17.95692193816528
 20
0.1347180389801073
 30
0.0
 11
17.95692193816528
 21
0.585099419013159
 31
0.0
  0
SPLINE
  5
DC
330
1F
100
AcDbEntity
  8
0
  6
Continuous
 62
     1
370
    25
100
AcDbSpline
210
0.0
220
0.0
230
1.0
 70
     8
 71
     3
 72
     8
 73
     4
 74
     0
 42
0.000000001
 43
0.00000001
 40
0.0
 40
0.0
 40
0.0
 40
0.0
 40
1.0
 40
1.0
 40
1.0
 40
1.0
 10
17.95692193816528
 20
0.1347180389801075
 30
0.0
 10
17.92398651308369
 20
0.1530821145149087
 30
0.0
 10
17.89330662385071
 20
0.1760080228718135
 30
0.0
 10
17.86453510799572
 20
0.2027936261734846
 30
0.0
  0
ELLIPSE
  5
DD
330
1F
100
AcDbEntity
  8
0
  6
Continuous
 62
     1
370
    25
100
AcDbEllipse
 10
18.67099594153634
 20
0.0000000000000018
 30
0.0
 11
0.8568888040452691
 21
-5.350968460038305E-17
 31
0.0
210
0.0
220
0.0
230
1.0
 40
0.70020753820971
 41
2.79681292507637
 42
2.933012639234687
  0
ELLIPSE
  5
DE
330
1F
100
AcDbEntity
  8
0
  6
Continuous
 62
     1
370
    25
100
AcDbEllipse
 10
17.71269424518718
 20
0.0000000000000018
 30
0.0
 11
0.851461539588474
 21
-0.5833044422444442
 31
0.0
210
0.0
220
0.0
230
1.0
 40
0.1650759015746633
 41
1.394381293938615
 42
1.542919398500849
  0
LINE
  5
DF
330
1F
100
AcDbEntity
  8
0
  6
Continuous
 62
     1
370
    25
100
AcDbLine
 10
17.95692193816528
 20
-0.1328859280377989
 30
0.0
 11
17.95692193816528
 21
0.0360035044827874
 31
0.0
  0
LINE
  5
E0
330
1F
100
AcDbEntity
  8
0
  6
Continuous
 62
     1
370
    25
100
AcDbLine
 10
17.95692193816528
 20
0.036003504482788
 30
0.0
 11
17.95692193816528
 21
0.1347180389801073
 31
0.0
  0
LINE
  5
E1
330
1F
100
AcDbEntity
  8
0
  6
Continuous
 62
     1
370
    25
100
AcDbLine
 10
17.95692193816528
 20
-0.4999999999999978
 30
0.0
 11
17.95692193816528
 21
-0.5989188155876854
 31
0.0
  0
LINE
  5
E2
330
1F
100
AcDbEntity
  8
중심선
100
AcDbLine
 10
-35.04307806183471
 20
-0.0000000000000026
 30
0.0
 11
19.45692193816529
 21
0.0000000000000041
 31
0.0
  0
CIRCLE
  5
E3
330
1F
100
AcDbEntity
  8
해칭선
100
AcDbCircle
 10
-0.0080975480535161
 20
-0.0000000000000042
 30
0.0
 40
3.000000000000001
  0
INSERT
  5
E4
330
1F
100
AcDbEntity
  8
0
  6
Continuous
 62
     7
100
AcDbBlockReference
 66
     1
  2
블럭10
 10
-21.44814782084246
 20
-52.04717430164393
 30
0.0
  0
ATTRIB
  5
E5
330
E4
100
AcDbEntity
  8
FORMAT
 62
     2
100
AcDbText
 10
-37.56740886027801
 20
-49.97180738881174
 30
0.0
 40
4.233333333333333
  1
SEME7101206E [ 4 FLUTE ]
 41
0.75
  7
SLDTEXTSTYLE0
 11
-37.56740886027801
 21
-52.08847405547841
 31
0.0
100
AcDbAttribute
  2
AUTOATTR0
 70
     0
 74
     1
  0
SEQEND
  5
E6
330
E4
100
AcDbEntity
  8
0
  6
Continuous
 62
     7
  0
HATCH
  5
E7
330
1F
100
AcDbEntity
  8
중심선
100
AcDbHatch
 10
0.0
 20
0.0
 30
0.0
210
0.0
220
0.0
230
1.0
  2
SOLID
 70
     1
 71
     0
 91
        1
 92
        0
 93
        4
 72
     1
 10
-15.73323851646161
 20
-35.8
 11
-19.17951376029889
 21
-35.8
 72
     1
 10
-19.17951376029889
 20
-35.8
 11
-21.30774361950294
 21
-38.33632558057259
 72
     1
 10
-21.30774361950294
 20
-38.33632558057259
 11
-17.86143529055248
 21
-38.3362861512701
 72
     1
 10
-17.86143529055248
 20
-38.3362861512701
 11
-15.73323851646161
 21
-35.8
 97
        0
 75
     0
 76
     1
 98
        1
 10
0.0
 20
0.0
  0
HATCH
  5
E8
330
1F
100
AcDbEntity
  8
중심선
100
AcDbHatch
 10
0.0
 20
0.0
 30
0.0
210
0.0
220
0.0
230
1.0
  2
SOLID
 70
     1
 71
     0
 91
        1
 92
        0
 93
        4
 72
     1
 10
-10.72047452542563
 20
-35.79999999999997
 11
-14.16674976926294
 21
-35.80000000000003
 72
     1
 10
-14.16674976926294
 20
-35.80000000000003
 11
-18.69788777762033
 21
-41.20000000000002
 72
     1
 10
-18.69788777762033
 20
-41.20000000000002
 11
-15.25161253378304
 21
-41.20000000000002
 72
     1
 10
-15.25161253378304
 20
-41.20000000000002
 11
-10.72047452542563
 21
-35.79999999999997
 97
        0
 75
     0
 76
     1
 98
        1
 10
0.0
 20
0.0
  0
HATCH
  5
E9
330
1F
100
AcDbEntity
  8
중심선
100
AcDbHatch
 10
0.0
 20
0.0
 30
0.0
210
0.0
220
0.0
230
1.0
  2
SOLID
 70
     1
 71
     0
 91
        1
 92
        0
 93
        4
 72
     1
 10
-5.70771053438976
 20
-35.8
 11
-9.153985778226875
 21
-35.80000000000003
 72
     1
 10
-9.153985778226875
 20
-35.80000000000003
 11
-16.20242268011613
 21
-44.20000000000002
 72
     1
 10
-16.20242268011613
 20
-44.20000000000002
 11
-12.75614743627884
 21
-44.20000000000002
 72
     1
 10
-12.75614743627884
 20
-44.20000000000002
 11
-5.70771053438976
 21
-35.8
 97
        0
 75
     0
 76
     1
 98
        1
 10
0.0
 20
0.0
  0
HATCH
  5
EA
330
1F
100
AcDbEntity
  8
중심선
100
AcDbHatch
 10
0.0
 20
0.0
 30
0.0
210
0.0
220
0.0
230
1.0
  2
SOLID
 70
     1
 71
     0
 91
        1
 92
        0
 93
        6
 72
     3
 10
-0.9078201033775601
 20
-40.00000000005127
 11
3.960054785062284
 21
1.540850780301639E-10
 40
0.3939339440162633
 50
17.09539180608433
 51
320.0019657685079
 73
     0
 72
     1
 10
0.7751795523230354
 20
-38.5878940046383
 11
3.080481426024101
 21
-36.65356729459038
 72
     3
 10
-0.9078201034304068
 20
-40.00000000000015
 11
6.600054785286829
 21
-1.249000902703301E-13
 40
0.6363583540795982
 50
39.99873849337387
 51
368.4976242363725
 73
     1
 72
     1
 10
5.517512388470203
 20
-39.03999999993002
 11
-2.227752796594457
 21
-39.03999999992999
 72
     1
 10
-2.227752796594457
 20
-39.03999999992999
 11
-2.227777841040418
 21
-40.95999999992991
 72
     1
 10
-2.227777841040418
 20
-40.95999999992991
 11
2.213601928431619
 21
-40.95999999992988
 97
        0
 75
     0
 76
     1
 98
        1
 10
0.0
 20
0.0
  0
DIMENSION
  5
EB
330
1F
100
AcDbEntity
  8
치수문자_일반주서
100
AcDbDimension
  2
_D
 10
29.97147020356517
 20
0.6000000000000494
 30
0.0
 11
29.97147020356514
 21
11.57900000000005
 31
0.0
 70
   160
  1
%%c<>
 71
     2
 42
1.200000000000008
 52
-270.0
  3
SLDDIMSTYLE0
100
AcDbAlignedDimension
 13
17.95692193816529
 23
-0.6000000000000024
 33
0.0
 14
17.95692193816529
 24
0.6000000000000051
 34
0.0
 50
90.0000000000002
100
AcDbRotatedDimension
  0
DIMENSION
  5
F9
330
1F
100
AcDbEntity
  8
치수문자_일반주서
100
AcDbDimension
  2
_D_1
 10
17.95692193816528
 20
20.38913260158165
 30
0.0
 11
-7.043078061834719
 21
20.38913260158165
 31
0.0
 70
   160
  1
<>
 71
     2
 42
50.00000000000001
  3
SLDDIMSTYLE1
100
AcDbAlignedDimension
 13
-32.04307806183473
 23
2.499999999999996
 33
0.0
 14
17.95692193816528
 24
0.6000000000000028
 34
0.0
100
AcDbRotatedDimension
  0
DIMENSION
  5
104
330
1F
100
AcDbEntity
  8
치수문자_일반주서
100
AcDbDimension
  2
_D_2
 10
-38.77841216846495
 20
-3.000000000000028
 30
0.0
 11
-38.77841216846501
 21
12.66649999999998
 31
0.0
 70
   160
  1
%%c<>
 71
     2
 42
6.000000000000005
 52
-270.0
  3
SLDDIMSTYLE2
100
AcDbAlignedDimension
 13
-31.54307806183473
 23
3.000000000000004
 33
0.0
 14
-31.54307806183473
 24
-3.000000000000001
 34
0.0
 50
90.0000000000002
100
AcDbRotatedDimension
  0
DIMENSION
  5
112
330
1F
100
AcDbEntity
  8
치수문자_일반주서
100
AcDbDimension
  2
_D_3
 10
17.95692193816528
 20
14.10366913974836
 30
0.0
 11
3.602921938165284
 21
14.10366913974836
 31
0.0
 70
   160
  1
<>
 71
     2
 42
5.999999999999996
  3
SLDDIMSTYLE2
100
AcDbAlignedDimension
 13
11.95692193816528
 23
0.5790245010652414
 33
0.0
 14
17.95692193816528
 24
0.6000000000000028
 34
0.0
100
AcDbRotatedDimension
  0
INSERT
  5
124
330
1F
100
AcDbEntity
  8
해칭선
100
AcDbBlockReference
  2
SW_DOWELSYMBOL_0
 10
-0.0080975480535161
 20
-0.0000000000000042
 30
0.0
  0
LINE
  5
157
330
1F
100
AcDbEntity
  8
0
  6
Continuous
 62
     4
370
    25
100
AcDbLine
 10
11.95692193816528
 20
0.6000000000000023
 30
0.0
 11
11.95692193816528
 21
-0.5999999999999979
 31
0.0
  0
ENDSEC
  0
SECTION
  2
OBJECTS
  0
DICTIONARY
  5
C
330
0
100
AcDbDictionary
281
     1
  3
ACAD_GROUP
350
D
  3
ACAD_IMAGE_VARS
350
148
  3
ACAD_LAYOUT
350
1A
  3
ACAD_MLINESTYLE
350
17
  3
ACAD_PLOTSETTINGS
350
19
  3
ACAD_PLOTSTYLENAME
350
E
  3
ACAD_SCALELIST
350
47
  3
APPDATA
350
146
  3
DWGPROPS
350
159
  0
DICTIONARY
  5
D
102
{ACAD_REACTORS
330
C
102
}
330
C
100
AcDbDictionary
281
     1
  0
RASTERVARIABLES
  5
148
102
{ACAD_REACTORS
330
C
102
}
330
C
100
AcDbRasterVariables
 90
        0
 70
     1
 71
     1
 72
     1
  0
DICTIONARY
  5
1A
102
{ACAD_REACTORS
330
C
102
}
330
C
100
AcDbDictionary
281
     1
  3
Layout1
350
1E
  3
Layout2
350
26
  3
Model
350
22
  0
DICTIONARY
  5
17
102
{ACAD_REACTORS
330
C
102
}
330
C
100
AcDbDictionary
281
     1
  3
Standard
350
18
  0
DICTIONARY
  5
19
102
{ACAD_REACTORS
330
C
102
}
330
C
100
AcDbDictionary
281
     1
  0
ACDBDICTIONARYWDFLT
  5
E
102
{ACAD_REACTORS
330
C
102
}
330
C
100
AcDbDictionary
281
     1
  3
Normal
350
F
100
AcDbDictionaryWithDefault
340
F
  0
DICTIONARY
  5
47
102
{ACAD_REACTORS
330
C
102
}
330
C
100
AcDbDictionary
281
     1
  3
A0
350
48
  3
A1
350
49
  3
A2
350
4A
  3
A3
350
4B
  3
A4
350
4C
  3
A5
350
4D
  3
A6
350
4E
  3
A7
350
4F
  3
A8
350
50
  3
A9
350
51
  3
B0
350
52
  3
B1
350
53
  3
B2
350
54
  3
B3
350
55
  3
B4
350
56
  3
B5
350
57
  3
B6
350
58
  3
B7
350
59
  3
B8
350
5A
  3
B9
350
5B
  3
C0
350
5C
  3
C1
350
5D
  3
C2
350
5E
  3
C3
350
5F
  3
C4
350
60
  3
C5
350
61
  3
C6
350
62
  3
C7
350
63
  3
C8
350
64
  3
C9
350
65
  3
D0
350
66
  3
D1
350
67
  3
D2
350
68
  0
DICTIONARY
  5
146
102
{ACAD_REACTORS
330
C
102
}
330
C
100
AcDbDictionary
281
     1
  0
XRECORD
  5
159
102
{ACAD_REACTORS
330
C
102
}
330
C
100
AcDbXrecord
280
     1
  1
DWGPROPS COOKIE
  2

  3

  4

  6

  7

  8
12014102
  9

300
=
301
=
302
=
303
=
304
=
305
=
306
=
307
=
308
=
309
=
 40
0.0
 41
2458260.107203044
 42
2458266.424466262
  1

 90
        0
  0
LAYOUT
  5
1E
102
{ACAD_REACTORS
330
1A
102
}
330
1A
100
AcDbPlotSettings
  1

  2
none_device
  4

  6

 40
0.0
 41
0.0
 42
0.0
 43
0.0
 44
0.0
 45
0.0
 46
0.0
 47
0.0
 48
0.0
 49
0.0
140
0.0
141
0.0
142
1.0
143
1.0
 70
   688
 72
     1
 73
     0
 74
     5
  7

 75
    16
147
1.0
148
0.0
149
0.0
100
AcDbLayout
  1
Layout1
 70
     1
 71
     1
 10
0.0
 20
0.0
 11
420.0
 21
297.0
 12
0.0
 22
0.0
 32
0.0
 14
1.000000000000000E+20
 24
1.000000000000000E+20
 34
1.000000000000000E+20
 15
-1.000000000000000E+20
 25
-1.000000000000000E+20
 35
-1.000000000000000E+20
146
0.0
 13
0.0
 23
0.0
 33
0.0
 16
1.0
 26
0.0
 36
0.0
 17
0.0
 27
1.0
 37
0.0
 76
     0
330
1B
  0
LAYOUT
  5
26
102
{ACAD_REACTORS
330
1A
102
}
330
1A
100
AcDbPlotSettings
  1

  2
none_device
  4

  6

 40
0.0
 41
0.0
 42
0.0
 43
0.0
 44
0.0
 45
0.0
 46
0.0
 47
0.0
 48
0.0
 49
0.0
140
0.0
141
0.0
142
1.0
143
1.0
 70
   688
 72
     1
 73
     0
 74
     5
  7

 75
    16
147
1.0
148
0.0
149
0.0
100
AcDbLayout
  1
Layout2
 70
     1
 71
     2
 10
0.0
 20
0.0
 11
0.0
 21
0.0
 12
0.0
 22
0.0
 32
0.0
 14
0.0
 24
0.0
 34
0.0
 15
0.0
 25
0.0
 35
0.0
146
0.0
 13
0.0
 23
0.0
 33
0.0
 16
1.0
 26
0.0
 36
0.0
 17
0.0
 27
1.0
 37
0.0
 76
     0
330
23
  0
LAYOUT
  5
22
102
{ACAD_REACTORS
330
1A
102
}
330
1A
100
AcDbPlotSettings
  1

  2
none_device
  4
ANSI_A_(11.00_x_8.50_Inches)
  6

 40
6.35
 41
19.05
 42
6.35000508
 43
19.05000254
 44
279.4
 45
215.9
 46
156.3429265711887
 47
125.3847137330092
 48
0.0
 49
0.0
140
0.0
141
0.0
142
0.1112850254374007
143
1.0
 70
  1696
 72
     0
 73
     0
 74
     0
  7

 75
     0
147
0.0235690232323232
148
0.0
149
0.0
100
AcDbLayout
  1
Model
 70
     1
 71
     0
 10
0.0
 20
0.0
 11
420.0
 21
297.0
 12
0.0
 22
0.0
 32
0.0
 14
-43.15341216846502
 24
-49.97180738881174
 34
0.0
 15
32.28259113972197
 25
24.76413260158165
 35
0.0
146
0.0
 13
0.0
 23
0.0
 33
0.0
 16
1.0
 26
0.0
 36
0.0
 17
0.0
 27
1.0
 37
0.0
 76
     0
330
1F
331
29
  0
MLINESTYLE
  5
18
102
{ACAD_REACTORS
330
17
102
}
330
17
100
AcDbMlineStyle
  2
Standard
 70
     0
  3

 62
   256
 51
90.0
 52
90.0
 71
     2
 49
0.5
 62
   256
  6
BYLAYER
 49
-0.5
 62
   256
  6
BYLAYER
  0
ACDBPLACEHOLDER
  5
F
102
{ACAD_REACTORS
330
E
102
}
330
E
  0
SCALE
  5
48
102
{ACAD_REACTORS
330
47
102
}
330
47
100
AcDbScale
 70
     0
300
1:1
140
1.0
141
1.0
290
     1
  0
SCALE
  5
49
102
{ACAD_REACTORS
330
47
102
}
330
47
100
AcDbScale
 70
     0
300
1:2
140
1.0
141
2.0
290
     0
  0
SCALE
  5
4A
102
{ACAD_REACTORS
330
47
102
}
330
47
100
AcDbScale
 70
     0
300
1:4
140
1.0
141
4.0
290
     0
  0
SCALE
  5
4B
102
{ACAD_REACTORS
330
47
102
}
330
47
100
AcDbScale
 70
     0
300
1:5
140
1.0
141
5.0
290
     0
  0
SCALE
  5
4C
102
{ACAD_REACTORS
330
47
102
}
330
47
100
AcDbScale
 70
     0
300
1:8
140
1.0
141
8.0
290
     0
  0
SCALE
  5
4D
102
{ACAD_REACTORS
330
47
102
}
330
47
100
AcDbScale
 70
     0
300
1:10
140
1.0
141
10.0
290
     0
  0
SCALE
  5
4E
102
{ACAD_REACTORS
330
47
102
}
330
47
100
AcDbScale
 70
     0
300
1:16
140
1.0
141
16.0
290
     0
  0
SCALE
  5
4F
102
{ACAD_REACTORS
330
47
102
}
330
47
100
AcDbScale
 70
     0
300
1:20
140
1.0
141
20.0
290
     0
  0
SCALE
  5
50
102
{ACAD_REACTORS
330
47
102
}
330
47
100
AcDbScale
 70
     0
300
1:30
140
1.0
141
30.0
290
     0
  0
SCALE
  5
51
102
{ACAD_REACTORS
330
47
102
}
330
47
100
AcDbScale
 70
     0
300
1:40
140
1.0
141
40.0
290
     0
  0
SCALE
  5
52
102
{ACAD_REACTORS
330
47
102
}
330
47
100
AcDbScale
 70
     0
300
1:50
140
1.0
141
50.0
290
     0
  0
SCALE
  5
53
102
{ACAD_REACTORS
330
47
102
}
330
47
100
AcDbScale
 70
     0
300
1:100
140
1.0
141
100.0
290
     0
  0
SCALE
  5
54
102
{ACAD_REACTORS
330
47
102
}
330
47
100
AcDbScale
 70
     0
300
2:1
140
2.0
141
1.0
290
     0
  0
SCALE
  5
55
102
{ACAD_REACTORS
330
47
102
}
330
47
100
AcDbScale
 70
     0
300
4:1
140
4.0
141
1.0
290
     0
  0
SCALE
  5
56
102
{ACAD_REACTORS
330
47
102
}
330
47
100
AcDbScale
 70
     0
300
8:1
140
8.0
141
1.0
290
     0
  0
SCALE
  5
57
102
{ACAD_REACTORS
330
47
102
}
330
47
100
AcDbScale
 70
     0
300
10:1
140
10.0
141
1.0
290
     0
  0
SCALE
  5
58
102
{ACAD_REACTORS
330
47
102
}
330
47
100
AcDbScale
 70
     0
300
100:1
140
100.0
141
1.0
290
     0
  0
SCALE
  5
59
102
{ACAD_REACTORS
330
47
102
}
330
47
100
AcDbScale
 70
     0
300
1/128" = 1'-0"
140
0.0078125
141
12.0
290
     0
  0
SCALE
  5
5A
102
{ACAD_REACTORS
330
47
102
}
330
47
100
AcDbScale
 70
     0
300
1/64" = 1'-0"
140
0.015625
141
12.0
290
     0
  0
SCALE
  5
5B
102
{ACAD_REACTORS
330
47
102
}
330
47
100
AcDbScale
 70
     0
300
1/32" = 1'-0"
140
0.03125
141
12.0
290
     0
  0
SCALE
  5
5C
102
{ACAD_REACTORS
330
47
102
}
330
47
100
AcDbScale
 70
     0
300
1/16" = 1'-0"
140
0.0625
141
12.0
290
     0
  0
SCALE
  5
5D
102
{ACAD_REACTORS
330
47
102
}
330
47
100
AcDbScale
 70
     0
300
3/32" = 1'-0"
140
0.09375
141
12.0
290
     0
  0
SCALE
  5
5E
102
{ACAD_REACTORS
330
47
102
}
330
47
100
AcDbScale
 70
     0
300
1/8" = 1'-0"
140
0.125
141
12.0
290
     0
  0
SCALE
  5
5F
102
{ACAD_REACTORS
330
47
102
}
330
47
100
AcDbScale
 70
     0
300
3/16" = 1'-0"
140
0.1875
141
12.0
290
     0
  0
SCALE
  5
60
102
{ACAD_REACTORS
330
47
102
}
330
47
100
AcDbScale
 70
     0
300
1/4" = 1'-0"
140
0.25
141
12.0
290
     0
  0
SCALE
  5
61
102
{ACAD_REACTORS
330
47
102
}
330
47
100
AcDbScale
 70
     0
300
3/8" = 1'-0"
140
0.375
141
12.0
290
     0
  0
SCALE
  5
62
102
{ACAD_REACTORS
330
47
102
}
330
47
100
AcDbScale
 70
     0
300
1/2" = 1'-0"
140
0.5
141
12.0
290
     0
  0
SCALE
  5
63
102
{ACAD_REACTORS
330
47
102
}
330
47
100
AcDbScale
 70
     0
300
3/4" = 1'-0"
140
0.75
141
12.0
290
     0
  0
SCALE
  5
64
102
{ACAD_REACTORS
330
47
102
}
330
47
100
AcDbScale
 70
     0
300
1" = 1'-0"
140
1.0
141
12.0
290
     0
  0
SCALE
  5
65
102
{ACAD_REACTORS
330
47
102
}
330
47
100
AcDbScale
 70
     0
300
1-1/2" = 1'-0"
140
1.5
141
12.0
290
     0
  0
SCALE
  5
66
102
{ACAD_REACTORS
330
47
102
}
330
47
100
AcDbScale
 70
     0
300
3" = 1'-0"
140
3.0
141
12.0
290
     0
  0
SCALE
  5
67
102
{ACAD_REACTORS
330
47
102
}
330
47
100
AcDbScale
 70
     0
300
6" = 1'-0"
140
6.0
141
12.0
290
     0
  0
SCALE
  5
68
102
{ACAD_REACTORS
330
47
102
}
330
47
100
AcDbScale
 70
     0
300
1'-0" = 1'-0"
140
12.0
141
12.0
290
     0
  0
ENDSEC
  0
EOF
