  0
SECTION
  2
HEADER
  9
$ACADVER
  1
AC1015
  9
$ACADMAINTVER
 70
     6
  9
$DWGCODEPAGE
  3
ANSI_949
  9
$INSBASE
 10
0.0
 20
0.0
 30
0.0
  9
$EXTMIN
 10
-47.01347507945503
 20
-49.97180738881174
 30
0.0
  9
$EXTMAX
 10
30.28259113972197
 20
24.76413260158165
 30
0.0
  9
$LIMMIN
 10
0.0
 20
0.0
  9
$LIMMAX
 10
420.0
 20
297.0
  9
$ORTHOMODE
 70
     0
  9
$REGENMODE
 70
     1
  9
$FILLMODE
 70
     1
  9
$QTEXTMODE
 70
     0
  9
$MIRRTEXT
 70
     1
  9
$LTSCALE
 40
1.0
  9
$ATTMODE
 70
     1
  9
$TEXTSIZE
 40
3.5
  9
$TRACEWID
 40
1.0
  9
$TEXTSTYLE
  7
Standard
  9
$CLAYER
  8
0
  9
$CELTYPE
  6
ByLayer
  9
$CECOLOR
 62
   256
  9
$CELTSCALE
 40
1.0
  9
$DISPSILH
 70
     0
  9
$DIMSCALE
 40
1.0
  9
$DIMASZ
 40
3.302
  9
$DIMEXO
 40
1.0
  9
$DIMDLI
 40
3.75
  9
$DIMRND
 40
0.0
  9
$DIMDLE
 40
0.0
  9
$DIMEXE
 40
1.0
  9
$DIMTP
 40
0.0
  9
$DIMTM
 40
0.0
  9
$DIMTXT
 40
3.5
  9
$DIMCEN
 40
2.5
  9
$DIMTSZ
 40
0.0
  9
$DIMTOL
 70
     0
  9
$DIMLIM
 70
     0
  9
$DIMTIH
 70
     1
  9
$DIMTOH
 70
     1
  9
$DIMSE1
 70
     0
  9
$DIMSE2
 70
     0
  9
$DIMTAD
 70
     1
  9
$DIMZIN
 70
     0
  9
$DIMBLK
  1

  9
$DIMASO
 70
     1
  9
$DIMSHO
 70
     1
  9
$DIMPOST
  1

  9
$DIMAPOST
  1

  9
$DIMALT
 70
     0
  9
$DIMALTD
 70
     3
  9
$DIMALTF
 40
0.0393700787401575
  9
$DIMLFAC
 40
1.0
  9
$DIMTOFL
 70
     1
  9
$DIMTVP
 40
0.0
  9
$DIMTIX
 70
     0
  9
$DIMSOXD
 70
     0
  9
$DIMSAH
 70
     0
  9
$DIMBLK1
  1

  9
$DIMBLK2
  1

  9
$DIMSTYLE
  2
ISO-25
  9
$DIMCLRD
 70
     0
  9
$DIMCLRE
 70
     0
  9
$DIMCLRT
 70
     0
  9
$DIMTFAC
 40
1.0
  9
$DIMGAP
 40
1.524
  9
$DIMJUST
 70
     0
  9
$DIMSD1
 70
     0
  9
$DIMSD2
 70
     0
  9
$DIMTOLJ
 70
     0
  9
$DIMTZIN
 70
     0
  9
$DIMALTZ
 70
     0
  9
$DIMALTTZ
 70
     0
  9
$DIMUPT
 70
     0
  9
$DIMDEC
 70
     2
  9
$DIMTDEC
 70
     2
  9
$DIMALTU
 70
     2
  9
$DIMALTTD
 70
     3
  9
$DIMTXSTY
  7
Standard
  9
$DIMAUNIT
 70
     0
  9
$DIMADEC
 70
     2
  9
$DIMALTRND
 40
0.0
  9
$DIMAZIN
 70
     0
  9
$DIMDSEP
 70
    44
  9
$DIMATFIT
 70
     3
  9
$DIMFRAC
 70
     0
  9
$DIMLDRBLK
  1

  9
$DIMLUNIT
 70
     2
  9
$DIMLWD
 70
    -2
  9
$DIMLWE
 70
    -2
  9
$DIMTMOVE
 70
     0
  9
$LUNITS
 70
     2
  9
$LUPREC
 70
     2
  9
$SKETCHINC
 40
1.0
  9
$FILLETRAD
 40
10.0
  9
$AUNITS
 70
     0
  9
$AUPREC
 70
     2
  9
$MENU
  1
.
  9
$ELEVATION
 40
0.0
  9
$PELEVATION
 40
0.0
  9
$THICKNESS
 40
0.0
  9
$LIMCHECK
 70
     0
  9
$CHAMFERA
 40
0.0
  9
$CHAMFERB
 40
0.0
  9
$CHAMFERC
 40
0.0
  9
$CHAMFERD
 40
0.0
  9
$SKPOLY
 70
     0
  9
$TDCREATE
 40
2458260.48182478
  9
$TDUCREATE
 40
2458260.10682478
  9
$TDUPDATE
 40
2458266.798440937
  9
$TDUUPDATE
 40
2458266.423440937
  9
$TDINDWG
 40
0.0013531713
  9
$TDUSRTIMER
 40
2458266.42208779
  9
$USRTIMER
 70
     1
  9
$ANGBASE
 50
0.0
  9
$ANGDIR
 70
     0
  9
$PDMODE
 70
     0
  9
$PDSIZE
 40
-1.0
  9
$PLINEWID
 40
0.0
  9
$SPLFRAME
 70
     0
  9
$SPLINETYPE
 70
     6
  9
$SPLINESEGS
 70
     8
  9
$HANDSEED
  5
15A
  9
$SURFTAB1
 70
     6
  9
$SURFTAB2
 70
     6
  9
$SURFTYPE
 70
     6
  9
$SURFU
 70
     6
  9
$SURFV
 70
     6
  9
$UCSBASE
  2

  9
$UCSNAME
  2

  9
$UCSORG
 10
0.0
 20
0.0
 30
0.0
  9
$UCSXDIR
 10
1.0
 20
0.0
 30
0.0
  9
$UCSYDIR
 10
0.0
 20
1.0
 30
0.0
  9
$UCSORTHOREF
  2

  9
$UCSORTHOVIEW
 70
     0
  9
$UCSORGTOP
 10
0.0
 20
0.0
 30
0.0
  9
$UCSORGBOTTOM
 10
0.0
 20
0.0
 30
0.0
  9
$UCSORGLEFT
 10
0.0
 20
0.0
 30
0.0
  9
$UCSORGRIGHT
 10
0.0
 20
0.0
 30
0.0
  9
$UCSORGFRONT
 10
0.0
 20
0.0
 30
0.0
  9
$UCSORGBACK
 10
0.0
 20
0.0
 30
0.0
  9
$PUCSBASE
  2

  9
$PUCSNAME
  2

  9
$PUCSORG
 10
0.0
 20
0.0
 30
0.0
  9
$PUCSXDIR
 10
1.0
 20
0.0
 30
0.0
  9
$PUCSYDIR
 10
0.0
 20
1.0
 30
0.0
  9
$PUCSORTHOREF
  2

  9
$PUCSORTHOVIEW
 70
     0
  9
$PUCSORGTOP
 10
0.0
 20
0.0
 30
0.0
  9
$PUCSORGBOTTOM
 10
0.0
 20
0.0
 30
0.0
  9
$PUCSORGLEFT
 10
0.0
 20
0.0
 30
0.0
  9
$PUCSORGRIGHT
 10
0.0
 20
0.0
 30
0.0
  9
$PUCSORGFRONT
 10
0.0
 20
0.0
 30
0.0
  9
$PUCSORGBACK
 10
0.0
 20
0.0
 30
0.0
  9
$USERI1
 70
     0
  9
$USERI2
 70
     0
  9
$USERI3
 70
     0
  9
$USERI4
 70
     0
  9
$USERI5
 70
     0
  9
$USERR1
 40
0.0
  9
$USERR2
 40
0.0
  9
$USERR3
 40
0.0
  9
$USERR4
 40
0.0
  9
$USERR5
 40
0.0
  9
$WORLDVIEW
 70
     1
  9
$SHADEDGE
 70
     3
  9
$SHADEDIF
 70
    70
  9
$TILEMODE
 70
     1
  9
$MAXACTVP
 70
    64
  9
$PINSBASE
 10
0.0
 20
0.0
 30
0.0
  9
$PLIMCHECK
 70
     0
  9
$PEXTMIN
 10
1.000000000000000E+20
 20
1.000000000000000E+20
 30
1.000000000000000E+20
  9
$PEXTMAX
 10
-1.000000000000000E+20
 20
-1.000000000000000E+20
 30
-1.000000000000000E+20
  9
$PLIMMIN
 10
0.0
 20
0.0
  9
$PLIMMAX
 10
0.0
 20
0.0
  9
$UNITMODE
 70
     0
  9
$VISRETAIN
 70
     1
  9
$PLINEGEN
 70
     0
  9
$PSLTSCALE
 70
     1
  9
$TREEDEPTH
 70
  3020
  9
$CMLSTYLE
  2
Standard
  9
$CMLJUST
 70
     0
  9
$CMLSCALE
 40
20.0
  9
$PROXYGRAPHICS
 70
     1
  9
$MEASUREMENT
 70
     1
  9
$CELWEIGHT
370
    -1
  9
$ENDCAPS
280
     0
  9
$JOINSTYLE
280
     0
  9
$LWDISPLAY
290
     1
  9
$INSUNITS
 70
     4
  9
$HYPERLINKBASE
  1

  9
$STYLESHEET
  1

  9
$XEDIT
290
     1
  9
$CEPSNTYPE
380
     0
  9
$PSTYLEMODE
290
     1
  9
$FINGERPRINTGUID
  2
{28629CCF-083B-4024-9585-6DB8BE3C592B}
  9
$VERSIONGUID
  2
{FAEB1C32-E019-11D5-929B-00C0DF256EC4}
  9
$EXTNAMES
290
     1
  9
$PSVPSCALE
 40
0.0
  9
$OLESTARTUP
290
     0
  0
ENDSEC
  0
SECTION
  2
CLASSES
  0
CLASS
  1
ACDBDICTIONARYWDFLT
  2
AcDbDictionaryWithDefault
  3
ObjectDBX Classes
 90
        0
280
     0
281
     0
  0
CLASS
  1
VISUALSTYLE
  2
AcDbVisualStyle
  3
ObjectDBX Classes
 90
     4095
280
     0
281
     0
  0
CLASS
  1
MATERIAL
  2
AcDbMaterial
  3
ObjectDBX Classes
 90
     1153
280
     0
281
     0
  0
CLASS
  1
SCALE
  2
AcDbScale
  3
ObjectDBX Classes
 90
     1153
280
     0
281
     0
  0
CLASS
  1
TABLESTYLE
  2
AcDbTableStyle
  3
ObjectDBX Classes
 90
     4095
280
     0
281
     0
  0
CLASS
  1
MLEADERSTYLE
  2
AcDbMLeaderStyle
  3
ACDB_MLEADERSTYLE_CLASS
 90
     4095
280
     0
281
     0
  0
CLASS
  1
SUN
  2
AcDbSun
  3
SCENEOE
 90
     1153
280
     0
281
     0
  0
CLASS
  1
ACDBPLACEHOLDER
  2
AcDbPlaceHolder
  3
ObjectDBX Classes
 90
        0
280
     0
281
     0
  0
CLASS
  1
LAYOUT
  2
AcDbLayout
  3
ObjectDBX Classes
 90
        0
280
     0
281
     0
  0
CLASS
  1
RASTERVARIABLES
  2
AcDbRasterVariables
  3
ISM
 90
        0
280
     0
281
     0
  0
ENDSEC
  0
SECTION
  2
TABLES
  0
TABLE
  2
VPORT
  5
8
330
0
100
AcDbSymbolTable
 70
     1
  0
VPORT
  5
29
330
8
100
AcDbSymbolTableRecord
100
AcDbViewportTableRecord
  2
*Active
 70
     0
 10
0.0
 20
0.0
 11
1.0
 21
1.0
 12
-8.365441969866538
 22
-12.60383739361504
 13
0.0
 23
0.0
 14
10.0
 24
10.0
 15
10.0
 25
10.0
 16
0.0
 26
0.0
 36
1.0
 17
0.0
 27
0.0
 37
0.0
 40
76.23065879020126
 41
1.728553137003841
 42
50.0
 43
0.0
 44
0.0
 50
0.0
 51
0.0
 71
    16
 72
  2000
 73
     1
 74
     3
 75
     0
 76
     0
 77
     0
 78
     0
281
     0
 65
     1
110
0.0
120
0.0
130
0.0
111
1.0
121
0.0
131
0.0
112
0.0
122
1.0
132
0.0
 79
     0
146
0.0
  0
ENDTAB
  0
TABLE
  2
LTYPE
  5
5
330
0
100
AcDbSymbolTable
 70
     6
  0
LTYPE
  5
14
330
5
100
AcDbSymbolTableRecord
100
AcDbLinetypeTableRecord
  2
ByBlock
 70
     0
  3

 72
    65
 73
     0
 40
0.0
  0
LTYPE
  5
15
330
5
100
AcDbSymbolTableRecord
100
AcDbLinetypeTableRecord
  2
ByLayer
 70
     0
  3

 72
    65
 73
     0
 40
0.0
  0
LTYPE
  5
16
330
5
100
AcDbSymbolTableRecord
100
AcDbLinetypeTableRecord
  2
Continuous
 70
     0
  3
Solid line
 72
    65
 73
     0
 40
0.0
  0
LTYPE
  5
6E
330
5
100
AcDbSymbolTableRecord
100
AcDbLinetypeTableRecord
  2
HIDDEN
 70
     0
  3
Hidden __ __ __ __ __ __ __ __ __ __ __ __ __ __
 72
    65
 73
     2
 40
1.905
 49
1.27
 74
     0
 49
-0.635
 74
     0
  0
LTYPE
  5
6F
330
5
100
AcDbSymbolTableRecord
100
AcDbLinetypeTableRecord
  2
PHANTOM
 70
     0
  3
Phantom ______  __  __  ______  __  __  ______
 72
    65
 73
     6
 40
12.7
 49
6.35
 74
     0
 49
-1.27
 74
     0
 49
1.27
 74
     0
 49
-1.27
 74
     0
 49
1.27
 74
     0
 49
-1.27
 74
     0
  0
LTYPE
  5
70
330
5
100
AcDbSymbolTableRecord
100
AcDbLinetypeTableRecord
  2
CENTER
 70
     0
  3
Center ____ _ ____ _ ____ _ ____ _ ____ _ ____
 72
    65
 73
     4
 40
10.16
 49
6.35
 74
     0
 49
-1.27
 74
     0
 49
1.27
 74
     0
 49
-1.27
 74
     0
  0
LTYPE
  5
71
330
5
100
AcDbSymbolTableRecord
100
AcDbLinetypeTableRecord
  2
CENTERX2
 70
     0
  3
Center (2x) ________  __  ________  __  _____
 72
    65
 73
     4
 40
20.32
 49
12.7
 74
     0
 49
-2.54
 74
     0
 49
2.54
 74
     0
 49
-2.54
 74
     0
  0
LTYPE
  5
72
330
5
100
AcDbSymbolTableRecord
100
AcDbLinetypeTableRecord
  2
DOT2
 70
     0
  3
Dot (.5x) ........................................
 72
    65
 73
     2
 40
0.635
 49
0.0
 74
     0
 49
-0.635
 74
     0
  0
ENDTAB
  0
TABLE
  2
LAYER
  5
2
330
0
100
AcDbSymbolTable
 70
    17
  0
LAYER
  5
10
330
2
100
AcDbSymbolTableRecord
100
AcDbLayerTableRecord
  2
0
 70
     0
 62
     7
  6
Continuous
370
    -3
390
F
  0
LAYER
  5
73
330
2
100
AcDbSymbolTableRecord
100
AcDbLayerTableRecord
  2
FORMAT
 70
     0
 62
     2
  6
Continuous
370
    -3
390
F
  0
LAYER
  5
74
330
2
100
AcDbSymbolTableRecord
100
AcDbLayerTableRecord
  2
외형선
 70
     0
 62
   100
  6
Continuous
370
    35
390
F
  0
LAYER
  5
75
330
2
100
AcDbSymbolTableRecord
100
AcDbLayerTableRecord
  2
숨은선
 70
     0
 62
     2
  6
HIDDEN
370
    25
390
F
  0
LAYER
  5
76
330
2
100
AcDbSymbolTableRecord
100
AcDbLayerTableRecord
  2
중심선
 70
     0
 62
     1
  6
CENTERX2
370
    -3
390
F
  0
LAYER
  5
77
330
2
100
AcDbSymbolTableRecord
100
AcDbLayerTableRecord
  2
파단선
 70
     0
 62
     4
  6
Continuous
370
    -3
390
F
  0
LAYER
  5
78
330
2
100
AcDbSymbolTableRecord
100
AcDbLayerTableRecord
  2
해칭선
 70
     0
 62
   100
  6
Continuous
370
    -3
390
F
  0
LAYER
  5
79
330
2
100
AcDbSymbolTableRecord
100
AcDbLayerTableRecord
  2
가는실선
 70
     0
 62
     4
  6
Continuous
370
    -3
390
F
  0
LAYER
  5
7A
330
2
100
AcDbSymbolTableRecord
100
AcDbLayerTableRecord
  2
치수_보조선
 70
     0
 62
     4
  6
Continuous
370
    -3
390
F
  0
LAYER
  5
7B
330
2
100
AcDbSymbolTableRecord
100
AcDbLayerTableRecord
  2
치수문자_일반주서
 70
     0
 62
     7
  6
Continuous
370
    25
390
F
  0
LAYER
  5
7C
330
2
100
AcDbSymbolTableRecord
100
AcDbLayerTableRecord
  2
개별주서
 70
     0
 62
   100
  6
Continuous
370
    35
390
F
  0
LAYER
  5
7D
330
2
100
AcDbSymbolTableRecord
100
AcDbLayerTableRecord
  2
중간선
 70
     0
 62
     2
  6
Continuous
370
    25
390
F
  0
LAYER
  5
7E
330
2
100
AcDbSymbolTableRecord
100
AcDbLayerTableRecord
  2
윤곽선
 70
     0
 62
     3
  6
Continuous
370
    50
390
F
  0
LAYER
  5
7F
330
2
100
AcDbSymbolTableRecord
100
AcDbLayerTableRecord
  2
중심마크
 70
     0
 62
   100
  6
Continuous
370
    35
390
F
  0
LAYER
  5
80
330
2
100
AcDbSymbolTableRecord
100
AcDbLayerTableRecord
  2
가상선
 70
     0
 62
     4
  6
PHANTOM
370
    -3
390
F
  0
LAYER
  5
81
330
2
100
AcDbSymbolTableRecord
100
AcDbLayerTableRecord
  2
특수지정선
 70
     0
 62
     5
  6
CENTERX2
370
    70
390
F
  0
LAYER
  5
148
330
2
100
AcDbSymbolTableRecord
100
AcDbLayerTableRecord
  2
Defpoints
 70
     0
 62
     7
  6
Continuous
290
     0
370
    -3
390
F
  0
ENDTAB
  0
TABLE
  2
STYLE
  5
3
330
0
100
AcDbSymbolTable
 70
     2
  0
STYLE
  5
11
330
3
100
AcDbSymbolTableRecord
100
AcDbTextStyleTableRecord
  2
Standard
 70
     0
 40
0.0
 41
1.0
 50
0.0
 71
     0
 42
3.5
  3
txt
  4

  0
STYLE
  5
97
330
3
100
AcDbSymbolTableRecord
100
AcDbTextStyleTableRecord
  2
SLDTEXTSTYLE0
 70
     0
 40
0.0
 41
0.75
 50
0.0
 71
     0
 42
3.5
  3
TXT
  4

  0
ENDTAB
  0
TABLE
  2
VIEW
  5
6
330
0
100
AcDbSymbolTable
 70
     0
  0
ENDTAB
  0
TABLE
  2
UCS
  5
7
330
0
100
AcDbSymbolTable
 70
     0
  0
ENDTAB
  0
TABLE
  2
APPID
  5
9
330
0
100
AcDbSymbolTable
 70
     1
  0
APPID
  5
12
330
9
100
AcDbSymbolTableRecord
100
AcDbRegAppTableRecord
  2
ACAD
 70
     0
  0
ENDTAB
  0
TABLE
  2
DIMSTYLE
  5
A
330
0
100
AcDbSymbolTable
 70
     4
100
AcDbDimStyleTable
  0
DIMSTYLE
105
27
330
A
100
AcDbSymbolTableRecord
100
AcDbDimStyleTableRecord
  2
ISO-25
 70
     0
 41
2.5
 42
0.625
 43
3.75
 44
1.25
 73
     0
 74
     0
 77
     1
 78
     8
140
2.5
141
2.5
143
0.03937007874016
147
0.625
171
     3
172
     1
178
     0
271
     2
272
     2
274
     3
278
    44
283
     0
284
     8
340
11
  0
DIMSTYLE
105
EB
102
{ACAD_REACTORS
330
EA
102
}
330
A
100
AcDbSymbolTableRecord
100
AcDbDimStyleTableRecord
  2
SLDDIMSTYLE0
 70
     0
 41
3.302
 44
0.0
 45
0.000000001
 73
     0
 74
     0
 77
     1
 78
    12
 79
     3
140
3.5
147
0.875
172
     1
173
     1
178
     0
271
     1
272
     1
276
     2
284
    12
289
     0
340
97
  0
DIMSTYLE
105
F9
102
{ACAD_REACTORS
330
F8
102
}
330
A
100
AcDbSymbolTableRecord
100
AcDbDimStyleTableRecord
  2
SLDDIMSTYLE1
 70
     0
 41
3.302
 44
0.0
 45
0.000000001
 73
     0
 74
     0
 77
     1
 78
    12
 79
     3
140
3.5
147
0.875
173
     1
178
     0
271
     2
272
     2
276
     2
284
    12
340
97
  0
DIMSTYLE
105
104
102
{ACAD_REACTORS
330
103
330
111
102
}
330
A
100
AcDbSymbolTableRecord
100
AcDbDimStyleTableRecord
  2
SLDDIMSTYLE2
 70
     0
 41
3.302
 44
0.0
 45
0.000000001
 73
     0
 74
     0
 77
     1
 78
    12
 79
     3
140
3.5
147
0.875
172
     1
173
     1
178
     0
271
     2
272
     2
276
     2
284
    12
289
     0
340
97
  0
ENDTAB
  0
TABLE
  2
BLOCK_RECORD
  5
1
330
0
100
AcDbSymbolTable
 70
     7
  0
BLOCK_RECORD
  5
1F
330
1
100
AcDbSymbolTableRecord
100
AcDbBlockTableRecord
  2
*Model_Space
340
22
  0
BLOCK_RECORD
  5
1B
330
1
100
AcDbSymbolTableRecord
100
AcDbBlockTableRecord
  2
*Paper_Space
340
1E
  0
BLOCK_RECORD
  5
23
330
1
100
AcDbSymbolTableRecord
100
AcDbBlockTableRecord
  2
*Paper_Space0
340
26
  0
BLOCK_RECORD
  5
82
330
1
100
AcDbSymbolTableRecord
100
AcDbBlockTableRecord
  2
블럭10
340
0
102
{BLKREFS
331
E3
102
}
  0
BLOCK_RECORD
  5
EC
330
1
100
AcDbSymbolTableRecord
100
AcDbBlockTableRecord
  2
_D
340
0
  0
BLOCK_RECORD
  5
FA
330
1
100
AcDbSymbolTableRecord
100
AcDbBlockTableRecord
  2
_D_1
340
0
  0
BLOCK_RECORD
  5
105
330
1
100
AcDbSymbolTableRecord
100
AcDbBlockTableRecord
  2
_D_2
340
0
  0
BLOCK_RECORD
  5
112
330
1
100
AcDbSymbolTableRecord
100
AcDbBlockTableRecord
  2
_D_3
340
0
  0
BLOCK_RECORD
  5
11D
330
1
100
AcDbSymbolTableRecord
100
AcDbBlockTableRecord
  2
SW_DOWELSYMBOL_0
340
0
102
{BLKREFS
331
123
102
}
  0
ENDTAB
  0
ENDSEC
  0
SECTION
  2
BLOCKS
  0
BLOCK
  5
20
330
1F
100
AcDbEntity
  8
0
100
AcDbBlockBegin
  2
*Model_Space
 70
     0
 10
0.0
 20
0.0
 30
0.0
  3
*Model_Space
  1

  0
ENDBLK
  5
21
330
1F
100
AcDbEntity
  8
0
100
AcDbBlockEnd
  0
BLOCK
  5
1C
330
1B
100
AcDbEntity
 67
     1
  8
0
100
AcDbBlockBegin
  2
*Paper_Space
 70
     0
 10
0.0
 20
0.0
 30
0.0
  3
*Paper_Space
  1

  0
ENDBLK
  5
1D
330
1B
100
AcDbEntity
 67
     1
  8
0
100
AcDbBlockEnd
  0
BLOCK
  5
24
330
23
100
AcDbEntity
  8
0
100
AcDbBlockBegin
  2
*Paper_Space0
 70
     0
 10
0.0
 20
0.0
 30
0.0
  3
*Paper_Space0
  1

  0
ENDBLK
  5
25
330
23
100
AcDbEntity
  8
0
100
AcDbBlockEnd
  0
BLOCK
  5
83
330
82
100
AcDbEntity
  8
0
100
AcDbBlockBegin
  2
블럭10
 70
     2
 10
0.0
 20
0.0
 30
0.0
  3
블럭10
  1

  0
ELLIPSE
  5
85
330
82
100
AcDbEntity
  8
중심선
100
AcDbEllipse
 10
20.54032771741204
 20
12.0471743016438
 30
0.0
 11
6.600054785286829
 21
-1.261213355974178E-13
 31
0.0
210
0.0
220
0.0
230
1.0
 40
0.636358354079598
 41
0.9219305317359503
 42
6.513795318482858
  0
ELLIPSE
  5
86
330
82
100
AcDbEntity
  8
중심선
100
AcDbEllipse
 10
20.54032771746488
 20
12.04717430159265
 30
0.0
 11
3.960054785062283
 21
1.540847449632565E-10
 31
0.0
210
0.0
220
0.0
230
1.0
 40
0.3939339440162632
 41
1.131841032648279
 42
5.62031148352944
  0
LINE
  5
87
330
82
100
AcDbEntity
  8
중심선
100
AcDbLine
 10
2.268634060543552
 20
16.24717430164393
 30
0.0
 11
5.714909304380834
 21
16.24717430164393
 31
0.0
  0
LINE
  5
88
330
82
100
AcDbEntity
  8
중심선
100
AcDbLine
 10
5.245725140726316
 20
7.84717430164391
 30
0.0
 11
8.692000384563599
 21
7.84717430164391
 31
0.0
  0
LINE
  5
89
330
82
100
AcDbEntity
  8
중심선
100
AcDbLine
 10
15.74043728645272
 20
16.24717430164393
 30
0.0
 11
8.692000384563599
 21
7.84717430164391
 31
0.0
  0
LINE
  5
8A
330
82
100
AcDbEntity
  8
중심선
100
AcDbLine
 10
0.1404042013395286
 20
13.71084872107135
 30
0.0
 11
3.58671253028996
 21
13.71088815037384
 31
0.0
  0
LINE
  5
8B
330
82
100
AcDbEntity
  8
중심선
100
AcDbLine
 10
2.750260043222114
 20
10.84717430164391
 30
0.0
 11
6.196535287059397
 21
10.84717430164391
 31
0.0
  0
LINE
  5
8C
330
82
100
AcDbEntity
  8
중심선
100
AcDbLine
 10
12.29416204261559
 20
16.24717430164393
 30
0.0
 11
5.245725140726316
 21
7.84717430164391
 31
0.0
  0
LINE
  5
8D
330
82
100
AcDbEntity
  8
중심선
100
AcDbLine
 10
10.72767329541681
 20
16.24717430164393
 30
0.0
 11
6.196535287059397
 21
10.84717430164391
 31
0.0
  0
LINE
  5
8E
330
82
100
AcDbEntity
  8
중심선
100
AcDbLine
 10
7.28139805157953
 20
16.24717430164393
 30
0.0
 11
2.750260043222114
 21
10.84717430164391
 31
0.0
  0
LINE
  5
8F
330
82
100
AcDbEntity
  8
중심선
100
AcDbLine
 10
5.714909304380834
 20
16.24717430164393
 30
0.0
 11
3.58671253028996
 21
13.71088815037384
 31
0.0
  0
LINE
  5
90
330
82
100
AcDbEntity
  8
중심선
100
AcDbLine
 10
2.268634060543552
 20
16.24717430164393
 30
0.0
 11
0.1404042013395286
 21
13.71084872107135
 31
0.0
  0
LINE
  5
91
330
82
100
AcDbEntity
  8
중심선
100
AcDbLine
 10
7.28139805157953
 20
16.24717430164393
 30
0.0
 11
10.72767329541681
 21
16.24717430164393
 31
0.0
  0
LINE
  5
92
330
82
100
AcDbEntity
  8
중심선
100
AcDbLine
 10
12.29416204261559
 20
16.24717430164393
 30
0.0
 11
15.74043728645272
 21
16.24717430164393
 31
0.0
  0
LINE
  5
93
330
82
100
AcDbEntity
  8
중심선
100
AcDbLine
 10
19.22036997980202
 20
11.08717430171403
 30
0.0
 11
23.66174974927406
 21
11.08717430171406
 31
0.0
  0
LINE
  5
94
330
82
100
AcDbEntity
  8
중심선
100
AcDbLine
 10
19.22039502424796
 20
13.00717430171391
 30
0.0
 11
19.22036997980202
 21
11.08717430171403
 31
0.0
  0
LINE
  5
95
330
82
100
AcDbEntity
  8
중심선
100
AcDbLine
 10
19.22039502424796
 20
13.00717430171391
 30
0.0
 11
26.96566020931264
 21
13.00717430171391
 31
0.0
  0
LINE
  5
96
330
82
100
AcDbEntity
  8
중심선
100
AcDbLine
 10
22.22332737316547
 20
13.45928029700563
 30
0.0
 11
24.52862924686651
 21
15.39360700705356
 31
0.0
  0
ATTDEF
  5
98
330
82
100
AcDbEntity
  8
FORMAT
 62
     2
100
AcDbText
 10
-16.11926103943555
 20
2.075366912832191
 30
0.0
 40
4.233333333333333
  1
SEME7101204E [ 4 FLUTE ]
 41
0.75
  7
SLDTEXTSTYLE0
 11
-16.11926103943555
 21
-0.0412997538344756
 31
0.0
100
AcDbAttributeDefinition
  3

  2
AUTOATTR0
 70
     0
 74
     1
  0
ENDBLK
  5
84
330
82
100
AcDbEntity
  8
0
100
AcDbBlockEnd
  0
BLOCK
  5
ED
330
EC
100
AcDbEntity
  8
0
100
AcDbBlockBegin
  2
_D
 70
     0
 10
0.0
 20
0.0
 30
0.0
  3
_D
  1

  0
LINE
  5
EF
330
EC
100
AcDbEntity
  8
치수문자_일반주서
 62
     0
370
    -2
100
AcDbLine
 10
16.01942193816529
 20
-0.6000000000000022
 30
0.0
 11
28.12237277329265
 21
-0.599999999999957
 31
0.0
  0
LINE
  5
F0
330
EC
100
AcDbEntity
  8
치수문자_일반주서
 62
     0
370
    -2
100
AcDbLine
 10
16.01942193816529
 20
0.6000000000000053
 30
0.0
 11
28.12237277329265
 21
0.6000000000000512
 31
0.0
  0
LINE
  5
F1
330
EC
100
AcDbEntity
  8
치수문자_일반주서
 62
     0
370
    -2
100
AcDbLine
 10
28.12237277329265
 20
-0.599999999999957
 30
0.0
 11
28.1223727732926
 21
15.95400000000005
 31
0.0
  0
LINE
  5
F2
330
EC
100
AcDbEntity
  8
치수문자_일반주서
 62
     0
370
    -2
100
AcDbLine
 10
28.12237277329265
 20
-0.599999999999957
 30
0.0
 11
28.12237277329265
 21
0.6000000000000512
 31
0.0
  0
LINE
  5
F3
330
EC
100
AcDbEntity
  8
치수문자_일반주서
 62
     0
370
    -2
100
AcDbLine
 10
28.12237277329266
 20
-3.901999999999957
 30
0.0
 11
28.12237277329267
 21
-7.203999999999956
 31
0.0
  0
LINE
  5
F4
330
EC
100
AcDbEntity
  8
치수문자_일반주서
 62
     0
370
    -2
100
AcDbLine
 10
28.12237277329264
 20
3.902000000000051
 30
0.0
 11
28.12237277329263
 21
7.20400000000005
 31
0.0
  0
SOLID
  5
F5
330
EC
100
AcDbEntity
  8
치수문자_일반주서
 62
     0
100
AcDbTrace
 10
28.672706106626
 20
-3.901999999999955
 30
0.0
 11
27.57203943995933
 21
-3.901999999999958
 31
0.0
 12
28.12237277329265
 22
-0.599999999999957
 32
0.0
 13
28.12237277329265
 23
-0.599999999999957
 33
0.0
  0
SOLID
  5
F6
330
EC
100
AcDbEntity
  8
치수문자_일반주서
 62
     0
100
AcDbTrace
 10
27.5720394399593
 20
3.902000000000049
 30
0.0
 11
28.67270610662597
 21
3.902000000000053
 31
0.0
 12
28.12237277329265
 22
0.6000000000000512
 32
0.0
 13
28.12237277329265
 23
0.6000000000000512
 33
0.0
  0
MTEXT
  5
F7
330
EC
100
AcDbEntity
  8
치수문자_일반주서
 62
     0
100
AcDbMText
 10
23.74737277329262
 20
11.57900000000004
 30
0.0
 40
3.5
 41
0.0
 71
     2
 72
     1
  1
\A1;%%c1.2
  7
SLDTEXTSTYLE0
 11
-2.960594732333732E-15
 21
1.0
 31
0.0
 73
     1
 44
1.0
  0
POINT
  5
150
330
EC
100
AcDbEntity
  8
Defpoints
 62
     0
100
AcDbPoint
 10
15.95692193816529
 20
-0.6000000000000024
 30
0.0
  0
POINT
  5
151
330
EC
100
AcDbEntity
  8
Defpoints
 62
     0
100
AcDbPoint
 10
15.95692193816529
 20
0.6000000000000051
 30
0.0
  0
POINT
  5
152
330
EC
100
AcDbEntity
  8
Defpoints
 62
     0
100
AcDbPoint
 10
28.12237277329265
 20
0.6000000000000505
 30
0.0
  0
ENDBLK
  5
EE
330
EC
100
AcDbEntity
  8
0
100
AcDbBlockEnd
  0
BLOCK
  5
FB
330
FA
100
AcDbEntity
  8
0
100
AcDbBlockBegin
  2
_D_1
 70
     0
 10
0.0
 20
0.0
 30
0.0
  3
_D_1
  1

  0
LINE
  5
FD
330
FA
100
AcDbEntity
  8
치수문자_일반주서
 62
     0
370
    -2
100
AcDbLine
 10
-34.04307806183473
 20
2.562499999999996
 30
0.0
 11
-34.04307806183473
 21
20.38913260158165
 31
0.0
  0
LINE
  5
FE
330
FA
100
AcDbEntity
  8
치수문자_일반주서
 62
     0
370
    -2
100
AcDbLine
 10
15.95692193816529
 20
0.6625000000000023
 30
0.0
 11
15.95692193816529
 21
20.38913260158165
 31
0.0
  0
LINE
  5
FF
330
FA
100
AcDbEntity
  8
치수문자_일반주서
 62
     0
370
    -2
100
AcDbLine
 10
-30.74107806183473
 20
20.38913260158165
 30
0.0
 11
12.65492193816529
 21
20.38913260158165
 31
0.0
  0
SOLID
  5
100
330
FA
100
AcDbEntity
  8
치수문자_일반주서
 62
     0
100
AcDbTrace
 10
-30.74107806183473
 20
20.93946593491498
 30
0.0
 11
-30.74107806183473
 21
19.83879926824831
 31
0.0
 12
-34.04307806183473
 22
20.38913260158165
 32
0.0
 13
-34.04307806183473
 23
20.38913260158165
 33
0.0
  0
SOLID
  5
101
330
FA
100
AcDbEntity
  8
치수문자_일반주서
 62
     0
100
AcDbTrace
 10
12.65492193816529
 20
19.83879926824831
 30
0.0
 11
12.65492193816529
 21
20.93946593491498
 31
0.0
 12
15.95692193816529
 22
20.38913260158165
 32
0.0
 13
15.95692193816529
 23
20.38913260158165
 33
0.0
  0
MTEXT
  5
102
330
FA
100
AcDbEntity
  8
치수문자_일반주서
 62
     0
100
AcDbMText
 10
-9.04307806183472
 20
24.76413260158165
 30
0.0
 40
3.5
 41
0.0
 71
     2
 72
     1
  1
\A1;50
  7
SLDTEXTSTYLE0
 73
     1
 44
1.0
  0
POINT
  5
149
330
FA
100
AcDbEntity
  8
Defpoints
 62
     0
100
AcDbPoint
 10
-34.04307806183473
 20
2.499999999999996
 30
0.0
  0
POINT
  5
14A
330
FA
100
AcDbEntity
  8
Defpoints
 62
     0
100
AcDbPoint
 10
15.95692193816529
 20
0.6000000000000023
 30
0.0
  0
POINT
  5
14B
330
FA
100
AcDbEntity
  8
Defpoints
 62
     0
100
AcDbPoint
 10
15.95692193816529
 20
20.38913260158165
 30
0.0
  0
ENDBLK
  5
FC
330
FA
100
AcDbEntity
  8
0
100
AcDbBlockEnd
  0
BLOCK
  5
106
330
105
100
AcDbEntity
  8
0
100
AcDbBlockBegin
  2
_D_2
 70
     0
 10
0.0
 20
0.0
 30
0.0
  3
_D_2
  1

  0
LINE
  5
108
330
105
100
AcDbEntity
  8
치수문자_일반주서
 62
     0
370
    -2
100
AcDbLine
 10
-33.60557806183473
 20
3.000000000000004
 30
0.0
 11
-42.63847507945498
 21
2.99999999999997
 31
0.0
  0
LINE
  5
109
330
105
100
AcDbEntity
  8
치수문자_일반주서
 62
     0
370
    -2
100
AcDbLine
 10
-33.60557806183473
 20
-3.000000000000001
 30
0.0
 11
-42.63847507945496
 21
-3.000000000000034
 31
0.0
  0
LINE
  5
10A
330
105
100
AcDbEntity
  8
치수문자_일반주서
 62
     0
370
    -2
100
AcDbLine
 10
-42.63847507945498
 20
2.99999999999997
 30
0.0
 11
-42.63847507945503
 21
15.72899999999997
 31
0.0
  0
LINE
  5
10B
330
105
100
AcDbEntity
  8
치수문자_일반주서
 62
     0
370
    -2
100
AcDbLine
 10
-42.63847507945498
 20
2.99999999999997
 30
0.0
 11
-42.63847507945496
 21
-3.000000000000034
 31
0.0
  0
LINE
  5
10C
330
105
100
AcDbEntity
  8
치수문자_일반주서
 62
     0
370
    -2
100
AcDbLine
 10
-42.638475079455
 20
6.301999999999969
 30
0.0
 11
-42.63847507945501
 21
9.603999999999969
 31
0.0
  0
LINE
  5
10D
330
105
100
AcDbEntity
  8
치수문자_일반주서
 62
     0
370
    -2
100
AcDbLine
 10
-42.63847507945495
 20
-6.302000000000033
 30
0.0
 11
-42.63847507945493
 21
-9.604000000000033
 31
0.0
  0
SOLID
  5
10E
330
105
100
AcDbEntity
  8
치수문자_일반주서
 62
     0
100
AcDbTrace
 10
-43.18880841278833
 20
6.301999999999968
 30
0.0
 11
-42.08814174612166
 21
6.301999999999971
 31
0.0
 12
-42.63847507945498
 22
2.99999999999997
 32
0.0
 13
-42.63847507945498
 23
2.99999999999997
 33
0.0
  0
SOLID
  5
10F
330
105
100
AcDbEntity
  8
치수문자_일반주서
 62
     0
100
AcDbTrace
 10
-42.08814174612161
 20
-6.302000000000032
 30
0.0
 11
-43.18880841278828
 21
-6.302000000000035
 31
0.0
 12
-42.63847507945496
 22
-3.000000000000034
 32
0.0
 13
-42.63847507945496
 23
-3.000000000000034
 33
0.0
  0
MTEXT
  5
110
330
105
100
AcDbEntity
  8
치수문자_일반주서
 62
     0
100
AcDbMText
 10
-47.01347507945502
 20
12.66649999999996
 30
0.0
 40
3.5
 41
0.0
 71
     2
 72
     1
  1
\A1;%%c6
  7
SLDTEXTSTYLE0
 11
-3.552713678800498E-15
 21
1.0
 31
0.0
 73
     1
 44
1.0
  0
POINT
  5
14D
330
105
100
AcDbEntity
  8
Defpoints
 62
     0
100
AcDbPoint
 10
-33.54307806183473
 20
3.000000000000004
 30
0.0
  0
POINT
  5
14E
330
105
100
AcDbEntity
  8
Defpoints
 62
     0
100
AcDbPoint
 10
-33.54307806183473
 20
-3.000000000000001
 30
0.0
  0
POINT
  5
14F
330
105
100
AcDbEntity
  8
Defpoints
 62
     0
100
AcDbPoint
 10
-42.63847507945496
 20
-3.000000000000035
 30
0.0
  0
ENDBLK
  5
107
330
105
100
AcDbEntity
  8
0
100
AcDbBlockEnd
  0
BLOCK
  5
113
330
112
100
AcDbEntity
  8
0
100
AcDbBlockBegin
  2
_D_3
 70
     0
 10
0.0
 20
0.0
 30
0.0
  3
_D_3
  1

  0
LINE
  5
115
330
112
100
AcDbEntity
  8
치수문자_일반주서
 62
     0
370
    -2
100
AcDbLine
 10
11.95692193816529
 20
0.6403912167046418
 30
0.0
 11
11.95692193816529
 21
13.2495206784983
 31
0.0
  0
LINE
  5
116
330
112
100
AcDbEntity
  8
치수문자_일반주서
 62
     0
370
    -2
100
AcDbLine
 10
15.95692193816529
 20
0.6625000000000023
 30
0.0
 11
15.95692193816529
 21
13.2495206784983
 31
0.0
  0
LINE
  5
117
330
112
100
AcDbEntity
  8
치수문자_일반주서
 62
     0
370
    -2
100
AcDbLine
 10
11.95692193816529
 20
13.2495206784983
 30
0.0
 11
1.852921938165288
 21
13.2495206784983
 31
0.0
  0
LINE
  5
118
330
112
100
AcDbEntity
  8
치수문자_일반주서
 62
     0
370
    -2
100
AcDbLine
 10
11.95692193816529
 20
13.2495206784983
 30
0.0
 11
15.95692193816529
 21
13.2495206784983
 31
0.0
  0
LINE
  5
119
330
112
100
AcDbEntity
  8
치수문자_일반주서
 62
     0
370
    -2
100
AcDbLine
 10
8.654921938165288
 20
13.2495206784983
 30
0.0
 11
5.352921938165288
 21
13.2495206784983
 31
0.0
  0
LINE
  5
11A
330
112
100
AcDbEntity
  8
치수문자_일반주서
 62
     0
370
    -2
100
AcDbLine
 10
19.25892193816529
 20
13.2495206784983
 30
0.0
 11
22.56092193816529
 21
13.2495206784983
 31
0.0
  0
SOLID
  5
11B
330
112
100
AcDbEntity
  8
치수문자_일반주서
 62
     0
100
AcDbTrace
 10
8.654921938165288
 20
12.69918734516496
 30
0.0
 11
8.654921938165288
 21
13.79985401183163
 31
0.0
 12
11.95692193816529
 22
13.2495206784983
 32
0.0
 13
11.95692193816529
 23
13.2495206784983
 33
0.0
  0
SOLID
  5
11C
330
112
100
AcDbEntity
  8
치수문자_일반주서
 62
     0
100
AcDbTrace
 10
19.25892193816529
 20
13.79985401183163
 30
0.0
 11
19.25892193816529
 21
12.69918734516496
 31
0.0
 12
15.95692193816529
 22
13.2495206784983
 32
0.0
 13
15.95692193816529
 23
13.2495206784983
 33
0.0
  0
MTEXT
  5
14C
330
112
100
AcDbEntity
  8
치수문자_일반주서
 62
     0
100
AcDbMText
 10
3.602921938165288
 20
17.6245206784983
 30
0.0
 40
3.5
 41
0.0
 71
     2
 72
     1
  1
\A1;4
  7
SLDTEXTSTYLE0
 73
     1
 44
1.0
  0
POINT
  5
153
330
112
100
AcDbEntity
  8
Defpoints
 62
     0
100
AcDbPoint
 10
11.95692193816529
 20
0.5778912167046418
 30
0.0
  0
POINT
  5
154
330
112
100
AcDbEntity
  8
Defpoints
 62
     0
100
AcDbPoint
 10
15.95692193816529
 20
0.6000000000000023
 30
0.0
  0
POINT
  5
155
330
112
100
AcDbEntity
  8
Defpoints
 62
     0
100
AcDbPoint
 10
15.95692193816529
 20
13.2495206784983
 30
0.0
  0
ENDBLK
  5
114
330
112
100
AcDbEntity
  8
0
100
AcDbBlockEnd
  0
BLOCK
  5
11E
330
11D
100
AcDbEntity
  8
0
100
AcDbBlockBegin
  2
SW_DOWELSYMBOL_0
 70
     0
 10
0.0
 20
0.0
 30
0.0
  3
SW_DOWELSYMBOL_0
  1

  0
CIRCLE
  5
120
330
11D
100
AcDbEntity
  8
해칭선
 62
     0
100
AcDbCircle
 10
0.0
 20
0.0
 30
0.0
 40
3.000000000000001
  0
HATCH
  5
121
330
11D
100
AcDbEntity
  8
0
  6
Continuous
 62
     0
370
    18
100
AcDbHatch
 10
0.0
 20
0.0
 30
0.0
210
0.0
220
0.0
230
1.0
  2
SOLID
 70
     1
 71
     0
 91
        1
 92
        0
 93
        3
 72
     2
 10
0.0
 20
0.0
 40
3.000000000000001
 50
0.0
 51
90.0
 73
     1
 72
     1
 10
0.0
 20
3.000000000000001
 11
0.0
 21
0.0
 72
     1
 10
0.0
 20
0.0
 11
3.000000000000001
 21
0.0
 97
        0
 75
     0
 76
     1
 98
        1
 10
0.0
 20
0.0
  0
HATCH
  5
122
330
11D
100
AcDbEntity
  8
0
  6
Continuous
 62
     0
370
    18
100
AcDbHatch
 10
0.0
 20
0.0
 30
0.0
210
0.0
220
0.0
230
1.0
  2
SOLID
 70
     1
 71
     0
 91
        1
 92
        0
 93
        3
 72
     2
 10
0.0
 20
0.0
 40
3.000000000000001
 50
180.0
 51
270.0000000000008
 73
     1
 72
     1
 10
0.0
 20
-3.000000000000001
 11
0.0
 21
0.0
 72
     1
 10
0.0
 20
0.0
 11
-3.000000000000001
 21
0.0
 97
        0
 75
     0
 76
     1
 98
        1
 10
0.0
 20
0.0
  0
ENDBLK
  5
11F
330
11D
100
AcDbEntity
  8
0
100
AcDbBlockEnd
  0
ENDSEC
  0
SECTION
  2
ENTITIES
  0
LINE
  5
99
330
1F
100
AcDbEntity
  8
0
  6
Continuous
 62
     4
370
    25
100
AcDbLine
 10
2.0
 20
3.0
 30
0.0
 11
-33.54307806183473
 21
2.999999999999998
 31
0.0
  0
LINE
  5
9A
330
1F
100
AcDbEntity
  8
0
  6
Continuous
 62
     4
370
    25
100
AcDbLine
 10
-33.54307806183473
 20
-3.0
 30
0.0
 11
2.000000000000004
 21
-2.999999999999998
 31
0.0
  0
LINE
  5
9B
330
1F
100
AcDbEntity
  8
0
  6
Continuous
 62
     4
370
    25
100
AcDbLine
 10
2.0
 20
-2.999999999999999
 30
0.0
 11
10.45667045934764
 21
-0.7340419797616605
 31
0.0
  0
LINE
  5
9C
330
1F
100
AcDbEntity
  8
0
  6
Continuous
 62
     4
370
    25
100
AcDbLine
 10
10.45667045934764
 20
0.734041979761664
 30
0.0
 11
2.0
 21
3.000000000000001
 31
0.0
  0
LINE
  5
9D
330
1F
100
AcDbEntity
  8
0
  6
Continuous
 62
     4
370
    25
100
AcDbLine
 10
-33.54307806183473
 20
2.999999999999997
 30
0.0
 11
-34.04307806183473
 21
2.499999999999996
 31
0.0
  0
LINE
  5
9E
330
1F
100
AcDbEntity
  8
0
  6
Continuous
 62
     4
370
    25
100
AcDbLine
 10
-34.04307806183473
 20
-2.499999999999999
 30
0.0
 11
-33.54307806183473
 21
-2.999999999999999
 31
0.0
  0
LINE
  5
9F
330
1F
100
AcDbEntity
  8
0
  6
Continuous
 62
     4
370
    25
100
AcDbLine
 10
11.30322339781455
 20
0.6000000000000016
 30
0.0
 11
10.95692193816528
 21
0.6000000000000016
 31
0.0
  0
LINE
  5
A0
330
1F
100
AcDbEntity
  8
0
  6
Continuous
 62
     4
370
    25
100
AcDbLine
 10
10.95692193816528
 20
-0.5999999999999981
 30
0.0
 11
11.30322339781456
 21
-0.5999999999999981
 31
0.0
  0
LINE
  5
A1
330
1F
100
AcDbEntity
  8
0
  6
Continuous
 62
     1
370
    25
100
AcDbLine
 10
14.57952069689302
 20
-0.5999999999999985
 30
0.0
 11
14.9218841198673
 21
-0.5999999999999985
 31
0.0
  0
LINE
  5
A2
330
1F
100
AcDbEntity
  8
0
  6
Continuous
 62
     1
370
    25
100
AcDbLine
 10
12.5094043315917
 20
0.6000000000000021
 30
0.0
 11
12.16729890030765
 21
0.6000000000000021
 31
0.0
  0
LINE
  5
A3
330
1F
100
AcDbEntity
  8
0
  6
Continuous
 62
     1
370
    25
100
AcDbLine
 10
13.37221995118722
 20
-0.5999999999999985
 30
0.0
 11
13.71602729205716
 21
-0.5999999999999985
 31
0.0
  0
LINE
  5
A4
330
1F
100
AcDbEntity
  8
0
  6
Continuous
 62
     1
370
    25
100
AcDbLine
 10
15.95692193816529
 20
0.6000000000000021
 30
0.0
 11
15.78501348407524
 21
0.6000000000000021
 31
0.0
  0
LINE
  5
A5
330
1F
100
AcDbEntity
  8
0
  6
Continuous
 62
     1
370
    25
100
AcDbLine
 10
15.78501348407524
 20
-0.5999999999999985
 30
0.0
 11
15.95692193816529
 21
-0.5999999999999985
 31
0.0
  0
LINE
  5
A6
330
1F
100
AcDbEntity
  8
0
  6
Continuous
 62
     1
370
    25
100
AcDbLine
 10
13.71602729205717
 20
0.6000000000000021
 30
0.0
 11
13.37221995118722
 21
0.6000000000000021
 31
0.0
  0
LINE
  5
A7
330
1F
100
AcDbEntity
  8
0
  6
Continuous
 62
     1
370
    25
100
AcDbLine
 10
12.3083305761082
 20
0.1474506333306687
 30
0.0
 11
12.39821890832588
 21
0.0859822913490903
 31
0.0
  0
LINE
  5
A8
330
1F
100
AcDbEntity
  8
0
  6
Continuous
 62
     1
370
    25
100
AcDbLine
 10
13.52577875482934
 20
-0.1156065707510511
 30
0.0
 11
13.48404212492173
 21
-0.085982291348553
 31
0.0
  0
LINE
  5
A9
330
1F
100
AcDbEntity
  8
0
  6
Continuous
 62
     1
370
    25
100
AcDbLine
 10
14.71759786826015
 20
-0.1057684279712975
 30
0.0
 11
14.69035869353819
 21
-0.0859822913485527
 31
0.0
  0
LINE
  5
AA
330
1F
100
AcDbEntity
  8
0
  6
Continuous
 62
     1
370
    25
100
AcDbLine
 10
14.75862976461368
 20
-0.1355733950978021
 30
0.0
 11
14.74560242288256
 21
-0.1261105253172691
 31
0.0
  0
LINE
  5
AB
330
1F
100
AcDbEntity
  8
0
  6
Continuous
 62
     1
370
    25
100
AcDbLine
 10
13.571583259387
 20
0.1092378967978311
 30
0.0
 11
13.60453547694234
 21
0.0859822913490904
 31
0.0
  0
SPLINE
  5
AC
330
1F
100
AcDbEntity
  8
0
  6
Continuous
 62
     1
370
    25
100
AcDbSpline
210
0.0
220
0.0
230
1.0
 70
     8
 71
     3
 72
     9
 73
     5
 74
     0
 42
0.000000001
 43
0.00000001
 40
0.0
 40
0.0
 40
0.0
 40
0.0
 40
0.6083562805560386
 40
1.0
 40
1.0
 40
1.0
 40
1.0
 10
15.95692193816529
 20
-0.1335779226344748
 30
0.0
 10
15.92811217915215
 20
-0.1123840515781481
 30
0.0
 10
15.88075545755013
 20
-0.0775461256230558
 30
0.0
 10
15.8328814450572
 20
-0.038393881204155
 30
0.0
 10
15.81413188873976
 20
-0.0230601505753576
 30
0.0
  0
LINE
  5
AD
330
1F
100
AcDbEntity
  8
0
  6
Continuous
 62
     1
370
    25
100
AcDbLine
 10
14.77280857846615
 20
0.1128309809440394
 30
0.0
 11
14.81085204555879
 21
0.0859822913490901
 31
0.0
  0
LINE
  5
AE
330
1F
100
AcDbEntity
  8
0
  6
Continuous
 62
     1
370
    25
100
AcDbLine
 10
12.30235261067249
 20
-0.1034623500176332
 30
0.0
 11
12.27772555630528
 21
-0.0859822913485523
 31
0.0
  0
LINE
  5
AF
330
1F
100
AcDbEntity
  8
0
  6
Continuous
 62
     1
370
    25
100
AcDbLine
 10
12.16729890030765
 20
-0.5999999999999985
 30
0.0
 11
12.5094043315917
 21
-0.5999999999999985
 31
0.0
  0
LINE
  5
B0
330
1F
100
AcDbEntity
  8
0
  6
Continuous
 62
     1
370
    25
100
AcDbLine
 10
14.9218841198673
 20
0.6000000000000021
 30
0.0
 11
14.57952069689303
 21
0.6000000000000021
 31
0.0
  0
LINE
  5
B1
330
1F
100
AcDbEntity
  8
0
  6
Continuous
 62
     4
370
    25
100
AcDbLine
 10
2.0
 20
3.000000000000002
 30
0.0
 11
2.0
 21
-3.000000000000001
 31
0.0
  0
LINE
  5
B2
330
1F
100
AcDbEntity
  8
0
  6
Continuous
 62
     4
370
    25
100
AcDbLine
 10
-33.54307806183473
 20
2.999999999999997
 30
0.0
 11
-33.54307806183473
 21
-3.000000000000001
 31
0.0
  0
SPLINE
  5
B3
330
1F
100
AcDbEntity
  8
0
  6
Continuous
 62
     4
370
    25
100
AcDbSpline
210
0.0
220
0.0
230
1.0
 70
     8
 71
     3
 72
     8
 73
     4
 74
     0
 42
0.000000001
 43
0.00000001
 40
0.0
 40
0.0
 40
0.0
 40
0.0
 40
1.0
 40
1.0
 40
1.0
 40
1.0
 10
10.65629287653165
 20
0.6261942712535408
 30
0.0
 10
10.75480415316887
 20
0.6356083424402981
 30
0.0
 10
10.85465851292456
 20
0.6270144345421345
 30
0.0
 10
10.95692193816528
 20
0.5999936973421369
 30
0.0
  0
SPLINE
  5
B4
330
1F
100
AcDbEntity
  8
0
  6
Continuous
 62
     4
370
    25
100
AcDbSpline
210
0.0
220
0.0
230
1.0
 70
     8
 71
     3
 72
    26
 73
    22
 74
     0
 42
0.000000001
 43
0.00000001
 40
0.0
 40
0.0
 40
0.0
 40
0.0
 40
0.0000388012140804
 40
0.0000388012140804
 40
0.0000388012140804
 40
0.0000774884751709
 40
0.0000774884751709
 40
0.0000774884751709
 40
0.0001178476898469
 40
0.0001178476898469
 40
0.0001178476898469
 40
0.0001603242112878
 40
0.0001603242112878
 40
0.0001603242112878
 40
0.0002034846335382
 40
0.0002034846335382
 40
0.0002034846335382
 40
0.000245890843007
 40
0.000245890843007
 40
0.000245890843007
 40
0.0002826619989312
 40
0.0002826619989312
 40
0.0002826619989312
 40
0.0002826619989312
 10
10.45667045934764
 20
0.7074127065787139
 30
0.0
 10
10.45667045934764
 20
0.7039606069913273
 30
0.0
 10
10.45880893087691
 20
0.6995626419862757
 30
0.0
 10
10.4628146734859
 20
0.694663102597234
 30
0.0
 10
10.4668134847308
 20
0.689772041159642
 30
0.0
 10
10.47276627097063
 20
0.684257626305802
 30
0.0
 10
10.4801598736155
 20
0.6786559465229066
 30
0.0
 10
10.48787125912152
 20
0.6728135021338739
 30
0.0
 10
10.49734756055517
 20
0.6667292776786051
 30
0.0
 10
10.50788154194969
 20
0.6609997380371584
 30
0.0
 10
10.51895601117374
 20
0.6549762215669077
 30
0.0
 10
10.53150319073687
 20
0.6491888111981379
 30
0.0
 10
10.54456077717807
 20
0.6442430464563328
 30
0.0
 10
10.55781788413899
 20
0.6392217102024319
 30
0.0
 10
10.57197957951255
 20
0.6349351426151805
 30
0.0
 10
10.58585226254574
 20
0.6318238790152321
 30
0.0
 10
10.59948281560545
 20
0.6287669185498052
 30
0.0
 10
10.61322185955707
 20
0.6267607976518922
 30
0.0
 10
10.62584164628633
 20
0.6259246659794858
 30
0.0
 10
10.63682325173552
 20
0.6251970730076762
 30
0.0
 10
10.64722045737065
 20
0.6253272801563521
 30
0.0
 10
10.65629287653164
 20
0.6261942712535455
 30
0.0
  0
LINE
  5
B5
330
1F
100
AcDbEntity
  8
0
  6
Continuous
 62
     4
370
    25
100
AcDbLine
 10
10.45667045934764
 20
0.734041979761664
 30
0.0
 11
10.45667045934764
 21
0.6775179755209588
 31
0.0
  0
SPLINE
  5
B6
330
1F
100
AcDbEntity
  8
0
  6
Continuous
 62
     4
370
    25
100
AcDbSpline
210
0.0
220
0.0
230
1.0
 70
     8
 71
     3
 72
    14
 73
    10
 74
     0
 42
0.000000001
 43
0.00000001
 40
0.0
 40
0.0
 40
0.0
 40
0.0
 40
0.0000411129982345
 40
0.0000411129982345
 40
0.0000411129982345
 40
0.0000823529085672
 40
0.0000823529085672
 40
0.0000823529085672
 40
0.0001010123672929
 40
0.0001010123672929
 40
0.0001010123672929
 40
0.0001010123672929
 10
10.49533843727635
 20
0.628522124059019
 30
0.0
 10
10.48569422012593
 20
0.6354195108224104
 30
0.0
 10
10.47736591289527
 20
0.6427289900048766
 30
0.0
 10
10.47105130037907
 20
0.6497308061745898
 30
0.0
 10
10.46472546784606
 20
0.656745063407783
 30
0.0
 10
10.46025123472373
 20
0.6636459522635787
 30
0.0
 10
10.45813493727349
 20
0.6696976864860571
 30
0.0
 10
10.45716528201866
 20
0.6724704989226905
 30
0.0
 10
10.45667045934764
 20
0.6750974216486357
 30
0.0
 10
10.45667045934764
 20
0.677517975520959
 30
0.0
  0
SPLINE
  5
B7
330
1F
100
AcDbEntity
  8
0
  6
Continuous
 62
     4
370
    25
100
AcDbSpline
210
0.0
220
0.0
230
1.0
 70
     8
 71
     3
 72
    10
 73
     6
 74
     0
 42
0.000000001
 43
0.00000001
 40
0.0
 40
0.0
 40
0.0
 40
0.0
 40
0.5000000000000001
 40
0.5000000000000001
 40
1.0
 40
1.0
 40
1.0
 40
1.0
 10
10.95692193816524
 20
0.2616491964879327
 30
0.0
 10
10.87458574484658
 20
0.3256675202009191
 30
0.0
 10
10.79629951666552
 20
0.3905212695295492
 30
0.0
 10
10.64428017888704
 20
0.5165755714011905
 30
0.0
 10
10.56860181811045
 20
0.5761253493570849
 30
0.0
 10
10.49533843727633
 20
0.6285221240589811
 30
0.0
  0
LINE
  5
B8
330
1F
100
AcDbEntity
  8
0
  6
Continuous
 62
     4
370
    25
100
AcDbLine
 10
10.95692193816528
 20
0.2616491964877433
 30
0.0
 11
10.95692193816528
 21
0.0027501181274104
 31
0.0
  0
SPLINE
  5
B9
330
1F
100
AcDbEntity
  8
0
  6
Continuous
 62
     4
370
    25
100
AcDbSpline
210
0.0
220
0.0
230
1.0
 70
     8
 71
     3
 72
     8
 73
     4
 74
     0
 42
0.000000001
 43
0.00000001
 40
0.0
 40
0.0
 40
0.0
 40
0.0
 40
1.0
 40
1.0
 40
1.0
 40
1.0
 10
10.65629287653165
 20
0.2665211965960241
 30
0.0
 10
10.75480415316887
 20
0.1770013587063524
 30
0.0
 10
10.85465851292456
 20
0.0858626598327898
 30
0.0
 10
10.95692193816528
 20
0.0027501181274107
 30
0.0
  0
SPLINE
  5
BA
330
1F
100
AcDbEntity
  8
0
  6
Continuous
 62
     4
370
    25
100
AcDbSpline
210
0.0
220
0.0
230
1.0
 70
     8
 71
     3
 72
    26
 73
    22
 74
     0
 42
0.000000001
 43
0.00000001
 40
0.0
 40
0.0
 40
0.0
 40
0.0
 40
0.0000388012140803
 40
0.0000388012140803
 40
0.0000388012140803
 40
0.0000774884751709
 40
0.0000774884751709
 40
0.0000774884751709
 40
0.0001178476898469
 40
0.0001178476898469
 40
0.0001178476898469
 40
0.0001603242112877
 40
0.0001603242112877
 40
0.0001603242112877
 40
0.0002034846335381
 40
0.0002034846335381
 40
0.0002034846335381
 40
0.0002458908430069
 40
0.0002458908430069
 40
0.0002458908430069
 40
0.000282661998931
 40
0.000282661998931
 40
0.000282661998931
 40
0.000282661998931
 10
10.45667045934764
 20
0.1959206232731314
 30
0.0
 10
10.45667045934764
 20
0.2083851564687301
 30
0.0
 10
10.45880893087692
 20
0.2207689634982686
 30
0.0
 10
10.46281467348591
 20
0.2320485964387146
 30
0.0
 10
10.46681348473081
 20
0.2433087115892571
 30
0.0
 10
10.47276627097064
 20
0.2537798307209209
 30
0.0
 10
10.4801598736155
 20
0.2627608657449007
 30
0.0
 10
10.48787125912153
 20
0.2721279127231639
 30
0.0
 10
10.49734756055518
 20
0.2801243931648879
 30
0.0
 10
10.50788154194969
 20
0.2862521010097214
 30
0.0
 10
10.51895601117374
 20
0.2926942152873216
 30
0.0
 10
10.53150319073687
 20
0.2972442830844698
 30
0.0
 10
10.54456077717808
 20
0.2995822957184444
 30
0.0
 10
10.557817884139
 20
0.3019560332927008
 30
0.0
 10
10.57197957951256
 20
0.3021102084693875
 30
0.0
 10
10.58585226254574
 20
0.2999964352809956
 30
0.0
 10
10.59948281560545
 20
0.2979195553053161
 30
0.0
 10
10.61322185955708
 20
0.2935881194346009
 30
0.0
 10
10.62584164628634
 20
0.2873038309968717
 30
0.0
 10
10.63682325173553
 20
0.2818353094098885
 30
0.0
 10
10.64722045737066
 20
0.2747655470935926
 30
0.0
 10
10.65629287653164
 20
0.2665211965960421
 30
0.0
  0
LINE
  5
BB
330
1F
100
AcDbEntity
  8
0
  6
Continuous
 62
     4
370
    25
100
AcDbLine
 10
10.45667045934764
 20
0.1959206232731315
 30
0.0
 11
10.45667045934764
 21
-0.2824659641415315
 31
0.0
  0
SPLINE
  5
BC
330
1F
100
AcDbEntity
  8
0
  6
Continuous
 62
     4
370
    25
100
AcDbSpline
210
0.0
220
0.0
230
1.0
 70
     8
 71
     3
 72
    14
 73
    10
 74
     0
 42
0.000000001
 43
0.00000001
 40
0.0
 40
0.0
 40
0.0
 40
0.0
 40
0.0000411129982345
 40
0.0000411129982345
 40
0.0000411129982345
 40
0.0000823529085672
 40
0.0000823529085672
 40
0.0000823529085672
 40
0.0001010123672929
 40
0.0001010123672929
 40
0.0001010123672929
 40
0.0001010123672929
 10
10.49533843727635
 20
-0.3587116148980659
 30
0.0
 10
10.48569422012593
 20
-0.3518396524874174
 30
0.0
 10
10.47736591289527
 20
-0.3431499462086939
 30
0.0
 10
10.47105130037907
 20
-0.3332046470640034
 30
0.0
 10
10.46472546784606
 20
-0.323241676775857
 30
0.0
 10
10.46025123472373
 20
-0.3117173377982381
 30
0.0
 10
10.45813493727349
 20
-0.2995775463365117
 30
0.0
 10
10.45716528201866
 20
-0.2940152788102579
 30
0.0
 10
10.45667045934764
 20
-0.2882718627891802
 30
0.0
 10
10.45667045934764
 20
-0.2824659641415321
 30
0.0
  0
SPLINE
  5
BD
330
1F
100
AcDbEntity
  8
0
  6
Continuous
 62
     4
370
    25
100
AcDbSpline
210
0.0
220
0.0
230
1.0
 70
     8
 71
     3
 72
    10
 73
     6
 74
     0
 42
0.000000001
 43
0.00000001
 40
0.0
 40
0.0
 40
0.0
 40
0.0
 40
0.5
 40
0.5
 40
1.0
 40
1.0
 40
1.0
 40
1.0
 10
10.95692193816524
 20
-0.5399441619067752
 30
0.0
 10
10.87458574484658
 20
-0.5334375760349181
 30
0.0
 10
10.79629951666552
 20
-0.5152852695041665
 30
0.0
 10
10.64428017888704
 20
-0.4530132902790638
 30
0.0
 10
10.56860181811045
 20
-0.4109152506433537
 30
0.0
 10
10.49533843727633
 20
-0.3587116148980395
 30
0.0
  0
LINE
  5
BE
330
1F
100
AcDbEntity
  8
0
  6
Continuous
 62
     4
370
    25
100
AcDbLine
 10
10.95692193816528
 20
-0.5399441619065583
 30
0.0
 11
10.95692193816528
 21
-0.5999936973421309
 31
0.0
  0
SPLINE
  5
BF
330
1F
100
AcDbEntity
  8
0
  6
Continuous
 62
     4
370
    25
100
AcDbSpline
210
0.0
220
0.0
230
1.0
 70
     8
 71
     3
 72
     8
 73
     4
 74
     0
 42
0.000000001
 43
0.00000001
 40
0.0
 40
0.0
 40
0.0
 40
0.0
 40
1.0
 40
1.0
 40
1.0
 40
1.0
 10
10.65629287653165
 20
-0.6261942712535374
 30
0.0
 10
10.75480415316887
 20
-0.6356083424402948
 30
0.0
 10
10.85465851292456
 20
-0.6270144345421309
 30
0.0
 10
10.95692193816528
 20
-0.5999936973421334
 30
0.0
  0
SPLINE
  5
C0
330
1F
100
AcDbEntity
  8
0
  6
Continuous
 62
     4
370
    25
100
AcDbSpline
210
0.0
220
0.0
230
1.0
 70
     8
 71
     3
 72
    26
 73
    22
 74
     0
 42
0.000000001
 43
0.00000001
 40
0.0
 40
0.0
 40
0.0
 40
0.0
 40
0.0000388012140804
 40
0.0000388012140804
 40
0.0000388012140804
 40
0.0000774884751709
 40
0.0000774884751709
 40
0.0000774884751709
 40
0.0001178476898469
 40
0.0001178476898469
 40
0.0001178476898469
 40
0.0001603242112878
 40
0.0001603242112878
 40
0.0001603242112878
 40
0.0002034846335382
 40
0.0002034846335382
 40
0.0002034846335382
 40
0.000245890843007
 40
0.000245890843007
 40
0.000245890843007
 40
0.0002826619989312
 40
0.0002826619989312
 40
0.0002826619989312
 40
0.0002826619989312
 10
10.45667045934764
 20
-0.7074127065787104
 30
0.0
 10
10.45667045934764
 20
-0.7039606069913238
 30
0.0
 10
10.45880893087691
 20
-0.6995626419862722
 30
0.0
 10
10.4628146734859
 20
-0.6946631025972305
 30
0.0
 10
10.4668134847308
 20
-0.6897720411596384
 30
0.0
 10
10.47276627097063
 20
-0.6842576263057983
 30
0.0
 10
10.4801598736155
 20
-0.678655946522903
 30
0.0
 10
10.48787125912152
 20
-0.6728135021338703
 30
0.0
 10
10.49734756055517
 20
-0.6667292776786017
 30
0.0
 10
10.50788154194969
 20
-0.6609997380371551
 30
0.0
 10
10.51895601117374
 20
-0.6549762215669043
 30
0.0
 10
10.53150319073687
 20
-0.6491888111981342
 30
0.0
 10
10.54456077717807
 20
-0.6442430464563292
 30
0.0
 10
10.55781788413899
 20
-0.6392217102024284
 30
0.0
 10
10.57197957951255
 20
-0.6349351426151768
 30
0.0
 10
10.58585226254574
 20
-0.6318238790152285
 30
0.0
 10
10.59948281560544
 20
-0.6287669185498018
 30
0.0
 10
10.61322185955707
 20
-0.6267607976518889
 30
0.0
 10
10.62584164628633
 20
-0.6259246659794823
 30
0.0
 10
10.63682325173552
 20
-0.6251970730076726
 30
0.0
 10
10.64722045737065
 20
-0.6253272801563484
 30
0.0
 10
10.65629287653164
 20
-0.626194271253542
 30
0.0
  0
LINE
  5
C1
330
1F
100
AcDbEntity
  8
0
  6
Continuous
 62
     4
370
    25
100
AcDbLine
 10
10.45667045934764
 20
-0.7074127065784815
 30
0.0
 11
10.45667045934764
 21
-0.7340419797616605
 31
0.0
  0
LINE
  5
C2
330
1F
100
AcDbEntity
  8
0
  6
Continuous
 62
     4
370
    25
100
AcDbLine
 10
-34.04307806183473
 20
2.499999999999996
 30
0.0
 11
-34.04307806183473
 21
-2.499999999999999
 31
0.0
  0
SPLINE
  5
C3
330
1F
100
AcDbEntity
  8
0
  6
Continuous
 62
     4
370
    25
100
AcDbSpline
210
0.0
220
0.0
230
1.0
 70
     8
 71
     3
 72
    14
 73
    10
 74
     0
 42
0.000000001
 43
0.00000001
 40
0.0
 40
0.0
 40
0.0
 40
0.0
 40
0.25
 40
0.25
 40
0.5
 40
0.5
 40
0.75
 40
0.75
 40
1.0
 40
1.0
 40
1.0
 40
1.0
 10
11.9569219381653
 20
0.1613745384369581
 30
0.0
 10
11.87548704542672
 20
0.223651359872275
 30
0.0
 10
11.79159830289328
 20
0.2837021881647134
 30
0.0
 10
11.62202746704308
 20
0.3920095086837923
 30
0.0
 10
11.54153617642453
 20
0.4392498690149456
 30
0.0
 10
11.37513678709392
 20
0.5178165511701769
 30
0.0
 10
11.28858581061939
 20
0.5489253980277781
 30
0.0
 10
11.12227485418587
 20
0.5899538060415871
 30
0.0
 10
11.04171699572273
 20
0.6002940679873162
 30
0.0
 10
10.95692193816528
 20
0.5999936973421345
 30
0.0
  0
SPLINE
  5
C4
330
1F
100
AcDbEntity
  8
0
  6
Continuous
 62
     4
370
    25
100
AcDbSpline
210
0.0
220
0.0
230
1.0
 70
     8
 71
     3
 72
    14
 73
    10
 74
     0
 42
0.000000001
 43
0.00000001
 40
0.0
 40
0.0
 40
0.0
 40
0.0
 40
0.2499999999999999
 40
0.2499999999999999
 40
0.4999999999999998
 40
0.4999999999999998
 40
0.7499999999999999
 40
0.7499999999999999
 40
1.0
 40
1.0
 40
1.0
 40
1.0
 10
11.9569219381653
 20
-0.4514917761485657
 30
0.0
 10
11.87548704542673
 20
-0.4089065912895598
 30
0.0
 10
11.79159830289328
 20
-0.357926377539239
 30
0.0
 10
11.62202746704309
 20
-0.2445835999294366
 30
0.0
 10
11.54153617642453
 20
-0.1835455027927768
 30
0.0
 10
11.37513678709392
 20
-0.0559252505477263
 30
0.0
 10
11.28858581061939
 20
0.0108793558433818
 30
0.0
 10
11.12227485418588
 20
0.1400620678242994
 30
0.0
 10
11.04171699572273
 20
0.202675956517593
 30
0.0
 10
10.95692193816528
 20
0.2616491964877433
 30
0.0
  0
SPLINE
  5
C5
330
1F
100
AcDbEntity
  8
0
  6
Continuous
 62
     4
370
    25
100
AcDbSpline
210
0.0
220
0.0
230
1.0
 70
     8
 71
     3
 72
    14
 73
    10
 74
     0
 42
0.000000001
 43
0.00000001
 40
0.0
 40
0.0
 40
0.0
 40
0.0
 40
0.25
 40
0.25
 40
0.5
 40
0.5
 40
0.75
 40
0.75
 40
1.0
 40
1.0
 40
1.0
 40
1.0
 10
11.9569219381653
 20
-0.5778912167045418
 30
0.0
 10
11.87548704542672
 20
-0.5605005850009579
 30
0.0
 10
11.79159830289328
 20
-0.5327356422156433
 30
0.0
 10
11.62202746704308
 20
-0.4589365328211003
 30
0.0
 10
11.54153617642453
 20
-0.4138842372606863
 30
0.0
 10
11.37513678709392
 20
-0.310010691132953
 30
0.0
 10
11.28858581061939
 20
-0.2508386350671469
 30
0.0
 10
11.12227485418587
 20
-0.1272541558431376
 30
0.0
 10
11.04171699572273
 20
-0.0627817920038051
 30
0.0
 10
10.95692193816528
 20
0.0027501181274104
 30
0.0
  0
SPLINE
  5
C6
330
1F
100
AcDbEntity
  8
0
  6
Continuous
 62
     4
370
    25
100
AcDbSpline
210
0.0
220
0.0
230
1.0
 70
     8
 71
     3
 72
    10
 73
     6
 74
     0
 42
0.000000001
 43
0.00000001
 40
0.0
 40
0.0
 40
0.0
 40
0.0
 40
0.3091022552916508
 40
0.7558532596005719
 40
1.0
 40
1.0
 40
1.0
 40
1.0
 10
11.72850810124111
 20
-0.4994457538319225
 30
0.0
 10
11.64901483452
 20
-0.5315869209252477
 30
0.0
 10
11.45462853115653
 20
-0.6101822902535438
 30
0.0
 10
11.196453282053
 20
-0.6082607262531194
 30
0.0
 10
11.01946526927044
 20
-0.5577821009190402
 30
0.0
 10
10.95692193816017
 20
-0.5399441619048351
 30
0.0
  0
SPLINE
  5
C7
330
1F
100
AcDbEntity
  8
0
  6
Continuous
 62
     4
370
    25
100
AcDbSpline
210
0.0
220
0.0
230
1.0
 70
     8
 71
     3
 72
    10
 73
     6
 74
     0
 42
0.000000001
 43
0.00000001
 40
0.0
 40
0.0
 40
0.0
 40
0.0
 40
0.1894036922793094
 40
0.714981903306735
 40
0.9999999999999999
 40
0.9999999999999999
 40
0.9999999999999999
 40
0.9999999999999999
 10
11.95692193816529
 20
0.3951647454794981
 30
0.0
 10
11.91593037776413
 20
0.418263259618084
 30
0.0
 10
11.76119092404792
 20
0.5054580730011798
 30
0.0
 10
11.54234587129607
 20
0.5942112630203269
 30
0.0
 10
11.36542980181372
 20
0.5874693631739658
 30
0.0
 10
11.30322339781455
 20
0.5850988077643197
 30
0.0
  0
SPLINE
  5
C8
330
1F
100
AcDbEntity
  8
0
  6
Continuous
 62
     4
370
    25
100
AcDbSpline
210
0.0
220
0.0
230
1.0
 70
     8
 71
     3
 72
     9
 73
     5
 74
     0
 42
0.000000001
 43
0.00000001
 40
0.0
 40
0.0
 40
0.0
 40
0.0
 40
0.4591608488782725
 40
1.0
 40
1.0
 40
1.0
 40
1.0
 10
11.72850810124111
 20
0.4994457538319258
 30
0.0
 10
11.76367611737174
 20
0.5156513025139762
 30
0.0
 10
11.84026804853605
 20
0.550945140657277
 30
0.0
 10
11.91597607396123
 20
0.568433063408752
 30
0.0
 10
11.95692193816528
 20
0.5778912167045422
 30
0.0
  0
SPLINE
  5
C9
330
1F
100
AcDbEntity
  8
0
  6
Continuous
 62
     1
370
    25
100
AcDbSpline
210
0.0
220
0.0
230
1.0
 70
     8
 71
     3
 72
    15
 73
    11
 74
     0
 42
0.000000001
 43
0.00000001
 40
0.0
 40
0.0
 40
0.0
 40
0.0
 40
0.1078706075354322
 40
0.2147239026189542
 40
0.3455305911708661
 40
0.4765321432849673
 40
0.6078699466832712
 40
0.7392981636561354
 40
0.8703650546633268
 40
1.0
 40
1.0
 40
1.0
 40
1.0
 10
11.95692193816528
 20
0.5778912167045421
 30
0.0
 10
12.05138900843679
 20
0.5900829241264893
 30
0.0
 10
12.23943224339321
 20
0.614351360701013
 30
0.0
 10
12.54027191908606
 20
0.5440288497552495
 30
0.0
 10
12.86271161704396
 20
0.3822356908685863
 30
0.0
 10
13.20627539857153
 20
0.1326611647190139
 30
0.0
 10
13.55087314816084
 20
-0.1431161464925027
 30
0.0
 10
13.8956385297715
 20
-0.3883977824230485
 30
0.0
 10
14.23845799901699
 20
-0.5654207418344592
 30
0.0
 10
14.46625019236823
 20
-0.588156376828105
 30
0.0
 10
14.57952069689302
 20
-0.5994617548067556
 30
0.0
  0
SPLINE
  5
CA
330
1F
100
AcDbEntity
  8
0
  6
Continuous
 62
     1
370
    25
100
AcDbSpline
210
0.0
220
0.0
230
1.0
 70
     8
 71
     3
 72
    17
 73
    13
 74
     0
 42
0.000000001
 43
0.00000001
 40
0.0
 40
0.0
 40
0.0
 40
0.0
 40
0.0308077052174318
 40
0.1513367358144928
 40
0.2718055056982709
 40
0.3923502253193283
 40
0.5131050949089586
 40
0.6341928622237798
 40
0.7551973294822616
 40
0.8758920008826038
 40
0.9964071401077406
 40
1.0
 40
1.0
 40
1.0
 40
1.0
 10
15.35602251064692
 20
-0.4989065447513502
 30
0.0
 10
15.32678842048168
 20
-0.5132545904345772
 30
0.0
 10
15.18318175621085
 20
-0.5837365164232802
 30
0.0
 10
14.92544125645523
 20
-0.6163386427061625
 30
0.0
 10
14.5826162312057
 20
-0.5616269948986696
 30
0.0
 10
14.23950726913452
 20
-0.3901997461418592
 30
0.0
 10
13.89563907236903
 20
-0.1431410462893491
 30
0.0
 10
13.55087418819264
 20
0.1315595736980598
 30
0.0
 10
13.20627070540742
 20
0.3833157296511459
 30
0.0
 10
12.86272929003528
 20
0.5485231951206981
 30
0.0
 10
12.6302785826555
 20
0.6149790070527869
 30
0.0
 10
12.51280512507126
 20
0.5990657708205062
 30
0.0
 10
12.5094043315917
 20
0.5986050911816304
 30
0.0
  0
SPLINE
  5
CB
330
1F
100
AcDbEntity
  8
0
  6
Continuous
 62
     1
370
    25
100
AcDbSpline
210
0.0
220
0.0
230
1.0
 70
     8
 71
     3
 72
    12
 73
     8
 74
     0
 42
0.000000001
 43
0.00000001
 40
0.0
 40
0.0
 40
0.0
 40
0.0
 40
0.1998224518557145
 40
0.3977604064133373
 40
0.6400702795359512
 40
0.8827411232293596
 40
0.9999999999999999
 40
0.9999999999999999
 40
0.9999999999999999
 40
0.9999999999999999
 10
11.95692193816528
 20
0.1613745384369737
 30
0.0
 10
12.0513891774971
 20
0.0887427309791936
 30
0.0
 10
12.23943274897977
 20
-0.0558359036269042
 30
0.0
 10
12.54026973232822
 20
-0.2897830029849739
 30
0.0
 10
12.86272190610481
 20
-0.4846982839508317
 30
0.0
 10
13.14678854537636
 20
-0.5974831453470303
 30
0.0
 10
13.31682501177042
 20
-0.588089934167388
 30
0.0
 10
13.37221995118722
 20
-0.5850297884512349
 30
0.0
  0
SPLINE
  5
CC
330
1F
100
AcDbEntity
  8
0
  6
Continuous
 62
     1
370
    25
100
AcDbSpline
210
0.0
220
0.0
230
1.0
 70
     8
 71
     3
 72
     9
 73
     5
 74
     0
 42
0.000000001
 43
0.00000001
 40
0.0
 40
0.0
 40
0.0
 40
0.0
 40
0.4262210960780681
 40
1.0
 40
1.0
 40
1.0
 40
1.0
 10
15.35602251064692
 20
0.4989065447513537
 30
0.0
 10
15.44133394201148
 20
0.5336740997855236
 30
0.0
 10
15.64149163516549
 20
0.615245742658409
 30
0.0
 10
15.84192023553224
 20
0.596090368564801
 30
0.0
 10
15.95692193816529
 20
0.5850994190131561
 30
0.0
  0
SPLINE
  5
CD
330
1F
100
AcDbEntity
  8
0
  6
Continuous
 62
     1
370
    25
100
AcDbSpline
210
0.0
220
0.0
230
1.0
 70
     8
 71
     3
 72
    14
 73
    10
 74
     0
 42
0.000000001
 43
0.00000001
 40
0.0
 40
0.0
 40
0.0
 40
0.0
 40
0.1147316425241986
 40
0.2721096092029397
 40
0.4293793106639663
 40
0.5862463699479945
 40
0.7428800909740484
 40
0.8708309579986372
 40
1.0
 40
1.0
 40
1.0
 40
1.0
 10
14.14720603891189
 20
-0.4977618036073883
 30
0.0
 10
14.06344776093075
 20
-0.5314199063693774
 30
0.0
 10
13.86479783500337
 20
-0.6112469966783609
 30
0.0
 10
13.55086702241394
 20
-0.6039132725099786
 30
0.0
 10
13.20627703563579
 20
-0.4899550404492195
 30
0.0
 10
12.86271117681433
 20
-0.2755080770375666
 30
0.0
 10
12.54027201264904
 20
-0.0256223922779669
 30
0.0
 10
12.239432221761
 20
0.2148420899665937
 30
0.0
 10
12.05138900120319
 20
0.3348676424902187
 30
0.0
 10
11.9569219381651
 20
0.3951647454796106
 30
0.0
  0
LINE
  5
CE
330
1F
100
AcDbEntity
  8
0
  6
Continuous
 62
     1
370
    25
100
AcDbLine
 10
15.95692193816529
 20
0.5850994190131587
 30
0.0
 11
15.95692193816529
 21
0.6000000000000024
 31
0.0
  0
SPLINE
  5
CF
330
1F
100
AcDbEntity
  8
0
  6
Continuous
 62
     1
370
    25
100
AcDbSpline
210
0.0
220
0.0
230
1.0
 70
     8
 71
     3
 72
    16
 73
    12
 74
     0
 42
0.000000001
 43
0.00000001
 40
0.0
 40
0.0
 40
0.0
 40
0.0
 40
0.0930674611416829
 40
0.2142191404388611
 40
0.3354542211338535
 40
0.456355999105774
 40
0.5770473714441368
 40
0.6976627016460225
 40
0.8183383658733808
 40
0.939209142478661
 40
1.0
 40
1.0
 40
1.0
 40
1.0
 10
12.94145858017024
 20
0.4987651321688409
 30
0.0
 10
13.0296446419461
 20
0.5333161650351489
 30
0.0
 10
13.23262796308293
 20
0.6128444176714548
 30
0.0
 10
13.55087194531941
 20
0.6016577033158347
 30
0.0
 10
13.89563988649584
 20
0.483132135711557
 30
0.0
 10
14.23950625333996
 20
0.2659124480284574
 30
0.0
 10
14.58261947609061
 20
-0.0022033497202467
 30
0.0
 10
14.92542929575184
 20
-0.2716521795748892
 30
0.0
 10
15.26848975657872
 20
-0.4816132895237665
 30
0.0
 10
15.55497879617018
 20
-0.5964230345851704
 30
0.0
 10
15.72733618060704
 20
-0.5878681466553133
 30
0.0
 10
15.78501348407524
 20
-0.5850053574056443
 30
0.0
  0
SPLINE
  5
D0
330
1F
100
AcDbEntity
  8
0
  6
Continuous
 62
     1
370
    25
100
AcDbSpline
210
0.0
220
0.0
230
1.0
 70
     8
 71
     3
 72
    14
 73
    10
 74
     0
 42
0.000000001
 43
0.00000001
 40
0.0
 40
0.0
 40
0.0
 40
0.0
 40
0.13884351292807
 40
0.2773922881493136
 40
0.4370800807339836
 40
0.5966880344596165
 40
0.7563966132863841
 40
0.9163836178536304
 40
1.0
 40
1.0
 40
1.0
 40
1.0
 10
15.86453510799572
 20
-0.5646899549160268
 30
0.0
 10
15.76500961785406
 20
-0.5302686061003398
 30
0.0
 10
15.56616991078124
 20
-0.4614989782811728
 30
0.0
 10
15.25316720844299
 20
-0.2579240596171916
 30
0.0
 10
14.92543052097952
 20
-0.0035171833401799
 30
0.0
 10
14.58262045435669
 20
0.266766432360128
 30
0.0
 10
14.23950110684987
 20
0.4783177158758065
 30
0.0
 10
13.95066839622962
 20
0.5953684144470427
 30
0.0
 10
13.77598650632495
 20
0.5876704578504631
 30
0.0
 10
13.71602729205717
 20
0.5850281494277051
 30
0.0
  0
LINE
  5
D1
330
1F
100
AcDbEntity
  8
0
  6
Continuous
 62
     1
370
    25
100
AcDbLine
 10
15.86453510799531
 20
-0.5646899549163154
 30
0.0
 11
15.83267939799209
 21
-0.5869955631955923
 31
0.0
  0
ELLIPSE
  5
D2
330
1F
100
AcDbEntity
  8
0
  6
Continuous
 62
     1
370
    25
100
AcDbEllipse
 10
15.71269424518718
 20
0.0000000000000021
 30
0.0
 11
0.8335939833959768
 21
-0.3302046036250583
 31
0.0
210
0.0
220
0.0
230
1.0
 40
0.6009688174887271
 41
5.086581568774599
 42
5.235119673336837
  0
LINE
  5
D3
330
1F
100
AcDbEntity
  8
0
  6
Continuous
 62
     1
370
    25
100
AcDbLine
 10
15.95692193816529
 20
-0.599999999999999
 30
0.0
 11
15.95692193816529
 21
-0.5989188155876854
 31
0.0
  0
LINE
  5
D4
330
1F
100
AcDbEntity
  8
0
  6
Continuous
 62
     1
370
    25
100
AcDbLine
 10
11.95692193816528
 20
-0.5778912167045375
 30
0.0
 11
12.16729890030765
 21
-0.5923223531411792
 31
0.0
  0
SPLINE
  5
D5
330
1F
100
AcDbEntity
  8
0
  6
Continuous
 62
     1
370
    25
100
AcDbSpline
210
0.0
220
0.0
230
1.0
 70
     8
 71
     3
 72
    13
 73
     9
 74
     0
 42
0.000000001
 43
0.00000001
 40
0.0
 40
0.0
 40
0.0
 40
0.0
 40
0.0510849233984907
 40
0.2406819948098831
 40
0.4301596097423195
 40
0.6197320048923839
 40
0.8096109069180715
 40
1.0
 40
1.0
 40
1.0
 40
1.0
 10
14.14720603891189
 20
0.4977618036073926
 30
0.0
 10
14.17803194206639
 20
0.5133955932241842
 30
0.0
 10
14.32326539588147
 20
0.5870527785752461
 30
0.0
 10
14.58260509498007
 20
0.6156935046904851
 30
0.0
 10
14.9254348658589
 20
0.559368266575398
 30
0.0
 10
15.26848184959189
 20
0.3861890636566646
 30
0.0
 10
15.61224324965863
 20
0.1368056019125128
 30
0.0
 10
15.84192632299183
 20
-0.0429083795909409
 30
0.0
 10
15.95692193816529
 20
-0.1328859280377988
 30
0.0
  0
LINE
  5
D6
330
1F
100
AcDbEntity
  8
0
  6
Continuous
 62
     1
370
    25
100
AcDbLine
 10
15.95692193816529
 20
-0.4999999999999984
 30
0.0
 11
15.95692193816529
 21
-0.1333930422902744
 31
0.0
  0
SPLINE
  5
D7
330
1F
100
AcDbEntity
  8
0
  6
Continuous
 62
     1
370
    25
100
AcDbSpline
210
0.0
220
0.0
230
1.0
 70
    24
 71
     3
 72
     8
 73
     4
 74
     0
 42
0.000000001
 43
0.00000001
 40
0.0
 40
0.0
 40
0.0
 40
0.0
 40
1.0
 40
1.0
 40
1.0
 40
1.0
 10
15.95692193816529
 20
-0.4999999999999984
 30
0.0
 10
15.92398651308372
 20
-0.5230616329162499
 30
0.0
 10
15.89330662385076
 20
-0.5445439226286116
 30
0.0
 10
15.86453510799579
 20
-0.5646899549159818
 30
0.0
  0
SPLINE
  5
D8
330
1F
100
AcDbEntity
  8
0
  6
Continuous
 62
     1
370
    25
100
AcDbSpline
210
0.0
220
0.0
230
1.0
 70
     8
 71
     3
 72
    11
 73
     7
 74
     0
 42
0.000000001
 43
0.00000001
 40
0.0
 40
0.0
 40
0.0
 40
0.0
 40
0.3164807232801068
 40
0.6322896196907597
 40
0.9962829171116827
 40
1.0
 40
1.0
 40
1.0
 40
1.0
 10
15.86453510799581
 20
0.2027936261734264
 30
0.0
 10
15.76500953183073
 20
0.2733065359349177
 30
0.0
 10
15.5661696528937
 20
0.4141826702987847
 30
0.0
 10
15.25316830284132
 20
0.552520265387468
 30
0.0
 10
15.03851184513445
 20
0.6192542670206449
 30
0.0
 10
14.9230512789087
 20
0.59960188731394
 30
0.0
 10
14.9218841198673
 20
0.5994032268239612
 30
0.0
  0
SPLINE
  5
D9
330
1F
100
AcDbEntity
  8
0
  6
Continuous
 62
     1
370
    25
100
AcDbSpline
210
0.0
220
0.0
230
1.0
 70
     8
 71
     3
 72
    11
 73
     7
 74
     0
 42
0.000000001
 43
0.00000001
 40
0.0
 40
0.0
 40
0.0
 40
0.0
 40
0.0801544875839367
 40
0.4283782007166424
 40
0.7128349940685681
 40
1.0
 40
1.0
 40
1.0
 40
1.0
 10
12.94145858017024
 20
-0.498765132168837
 30
0.0
 10
12.91513747512309
 20
-0.5123197839461762
 30
0.0
 10
12.77446677831193
 20
-0.5847613591435308
 30
0.0
 10
12.54027259507632
 20
-0.6114517417258982
 30
0.0
 10
12.23943208710164
 20
-0.5792119739267598
 30
0.0
 10
12.05138895617518
 20
-0.4941994320298222
 30
0.0
 10
11.9569219381651
 20
-0.4514917761484575
 30
0.0
  0
LINE
  5
DA
330
1F
100
AcDbEntity
  8
0
  6
Continuous
 62
     1
370
    25
100
AcDbLine
 10
15.95692193816529
 20
0.1347180389801074
 30
0.0
 11
15.95692193816529
 21
0.5850994190131587
 31
0.0
  0
SPLINE
  5
DB
330
1F
100
AcDbEntity
  8
0
  6
Continuous
 62
     1
370
    25
100
AcDbSpline
210
0.0
220
0.0
230
1.0
 70
     8
 71
     3
 72
     8
 73
     4
 74
     0
 42
0.000000001
 43
0.00000001
 40
0.0
 40
0.0
 40
0.0
 40
0.0
 40
1.0
 40
1.0
 40
1.0
 40
1.0
 10
15.95692193816529
 20
0.1347180389801075
 30
0.0
 10
15.92398651308372
 20
0.1530821145148957
 30
0.0
 10
15.89330662385076
 20
0.1760080228717823
 30
0.0
 10
15.86453510799579
 20
0.2027936261734291
 30
0.0
  0
ELLIPSE
  5
DC
330
1F
100
AcDbEntity
  8
0
  6
Continuous
 62
     1
370
    25
100
AcDbEllipse
 10
16.67099594153634
 20
0.0000000000000018
 30
0.0
 11
0.8568888040452656
 21
-5.350968460038305E-17
 31
0.0
210
0.0
220
0.0
230
1.0
 40
0.7002075382097127
 41
2.796812925076458
 42
2.933012639234688
  0
ELLIPSE
  5
DD
330
1F
100
AcDbEntity
  8
0
  6
Continuous
 62
     1
370
    25
100
AcDbEllipse
 10
15.71269424518718
 20
0.0000000000000018
 30
0.0
 11
0.8514615395884684
 21
-0.5833044422444434
 31
0.0
210
0.0
220
0.0
230
1.0
 40
0.1650759015746638
 41
1.394381293938614
 42
1.542919398500848
  0
LINE
  5
DE
330
1F
100
AcDbEntity
  8
0
  6
Continuous
 62
     1
370
    25
100
AcDbLine
 10
15.95692193816529
 20
-0.1328859280377989
 30
0.0
 11
15.95692193816529
 21
0.0360035044827873
 31
0.0
  0
LINE
  5
DF
330
1F
100
AcDbEntity
  8
0
  6
Continuous
 62
     1
370
    25
100
AcDbLine
 10
15.95692193816529
 20
0.036003504482787
 30
0.0
 11
15.95692193816529
 21
0.1347180389801074
 31
0.0
  0
LINE
  5
E0
330
1F
100
AcDbEntity
  8
0
  6
Continuous
 62
     1
370
    25
100
AcDbLine
 10
15.95692193816529
 20
-0.4999999999999979
 30
0.0
 11
15.95692193816529
 21
-0.5989188155876854
 31
0.0
  0
LINE
  5
E1
330
1F
100
AcDbEntity
  8
중심선
100
AcDbLine
 10
-37.04307806183471
 20
-0.0000000000000026
 30
0.0
 11
17.45692193816529
 21
0.0000000000000041
 31
0.0
  0
CIRCLE
  5
E2
330
1F
100
AcDbEntity
  8
해칭선
100
AcDbCircle
 10
-0.0081263675348903
 20
-0.0000000000000042
 30
0.0
 40
3.000000000000001
  0
INSERT
  5
E3
330
1F
100
AcDbEntity
  8
0
  6
Continuous
 62
     7
100
AcDbBlockReference
 66
     1
  2
블럭10
 10
-23.44814782084245
 20
-52.04717430164393
 30
0.0
  0
ATTRIB
  5
E4
330
E3
100
AcDbEntity
  8
FORMAT
 62
     2
100
AcDbText
 10
-39.56740886027801
 20
-49.97180738881174
 30
0.0
 40
4.233333333333333
  1
SEME7101204E [ 4 FLUTE ]
 41
0.75
  7
SLDTEXTSTYLE0
 11
-39.56740886027801
 21
-52.08847405547841
 31
0.0
100
AcDbAttribute
  2
AUTOATTR0
 70
     0
 74
     1
  0
SEQEND
  5
E5
330
E3
100
AcDbEntity
  8
0
  6
Continuous
 62
     7
  0
HATCH
  5
E6
330
1F
100
AcDbEntity
  8
중심선
100
AcDbHatch
 10
0.0
 20
0.0
 30
0.0
210
0.0
220
0.0
230
1.0
  2
SOLID
 70
     1
 71
     0
 91
        1
 92
        0
 93
        4
 72
     1
 10
-17.73323851646161
 20
-35.8
 11
-21.17951376029889
 21
-35.8
 72
     1
 10
-21.17951376029889
 20
-35.8
 11
-23.30774361950294
 21
-38.33632558057259
 72
     1
 10
-23.30774361950294
 20
-38.33632558057259
 11
-19.86143529055248
 21
-38.3362861512701
 72
     1
 10
-19.86143529055248
 20
-38.3362861512701
 11
-17.73323851646161
 21
-35.8
 97
        0
 75
     0
 76
     1
 98
        1
 10
0.0
 20
0.0
  0
HATCH
  5
E7
330
1F
100
AcDbEntity
  8
중심선
100
AcDbHatch
 10
0.0
 20
0.0
 30
0.0
210
0.0
220
0.0
230
1.0
  2
SOLID
 70
     1
 71
     0
 91
        1
 92
        0
 93
        4
 72
     1
 10
-12.72047452542566
 20
-35.8
 11
-16.16674976926294
 21
-35.8
 72
     1
 10
-16.16674976926294
 20
-35.8
 11
-20.69788777762033
 21
-41.20000000000002
 72
     1
 10
-20.69788777762033
 20
-41.20000000000002
 11
-17.25161253378305
 21
-41.20000000000002
 72
     1
 10
-17.25161253378305
 20
-41.20000000000002
 11
-12.72047452542566
 21
-35.8
 97
        0
 75
     0
 76
     1
 98
        1
 10
0.0
 20
0.0
  0
HATCH
  5
E8
330
1F
100
AcDbEntity
  8
중심선
100
AcDbHatch
 10
0.0
 20
0.0
 30
0.0
210
0.0
220
0.0
230
1.0
  2
SOLID
 70
     1
 71
     0
 91
        1
 92
        0
 93
        4
 72
     1
 10
-7.707710534389761
 20
-35.8
 11
-11.15398577822685
 21
-35.8
 72
     1
 10
-11.15398577822685
 20
-35.8
 11
-18.20242268011613
 21
-44.20000000000002
 72
     1
 10
-18.20242268011613
 20
-44.20000000000002
 11
-14.75614743627884
 21
-44.20000000000002
 72
     1
 10
-14.75614743627884
 20
-44.20000000000002
 11
-7.707710534389761
 21
-35.8
 97
        0
 75
     0
 76
     1
 98
        1
 10
0.0
 20
0.0
  0
HATCH
  5
E9
330
1F
100
AcDbEntity
  8
중심선
100
AcDbHatch
 10
0.0
 20
0.0
 30
0.0
210
0.0
220
0.0
230
1.0
  2
SOLID
 70
     1
 71
     0
 91
        1
 92
        0
 93
        6
 72
     3
 10
-2.907820103377562
 20
-40.00000000005127
 11
3.960054785062284
 21
1.540850780301639E-10
 40
0.3939339440162633
 50
17.09539180608434
 51
320.0019657685074
 73
     0
 72
     1
 10
-1.224820447676966
 20
-38.58789400463827
 11
1.080481426024071
 21
-36.65356729459038
 72
     3
 10
-2.907820103430408
 20
-40.00000000000015
 11
6.600054785286829
 21
-1.249000902703301E-13
 40
0.6363583540795982
 50
39.99873849337408
 51
368.4976242363725
 73
     1
 72
     1
 10
3.517512388470201
 20
-39.03999999993002
 11
-4.227752796594486
 21
-39.03999999993002
 72
     1
 10
-4.227752796594486
 20
-39.03999999993002
 11
-4.22777784104042
 21
-40.95999999992991
 72
     1
 10
-4.22777784104042
 20
-40.95999999992991
 11
0.2136019284316175
 21
-40.95999999992988
 97
        0
 75
     0
 76
     1
 98
        1
 10
0.0
 20
0.0
  0
DIMENSION
  5
EA
330
1F
100
AcDbEntity
  8
치수문자_일반주서
100
AcDbDimension
  2
_D
 10
28.12237277329265
 20
0.6000000000000512
 30
0.0
 11
28.12237277329262
 21
11.57900000000005
 31
0.0
 70
   160
  1
%%c<>
 71
     2
 42
1.200000000000008
 52
-270.0
  3
SLDDIMSTYLE0
100
AcDbAlignedDimension
 13
15.95692193816529
 23
-0.6000000000000024
 33
0.0
 14
15.95692193816529
 24
0.6000000000000051
 34
0.0
 50
90.0000000000002
100
AcDbRotatedDimension
  0
DIMENSION
  5
F8
330
1F
100
AcDbEntity
  8
치수문자_일반주서
100
AcDbDimension
  2
_D_1
 10
15.95692193816529
 20
20.38913260158165
 30
0.0
 11
-9.04307806183472
 21
20.38913260158165
 31
0.0
 70
   160
  1
<>
 71
     2
 42
50.00000000000001
  3
SLDDIMSTYLE1
100
AcDbAlignedDimension
 13
-34.04307806183473
 23
2.499999999999996
 33
0.0
 14
15.95692193816529
 24
0.6000000000000023
 34
0.0
100
AcDbRotatedDimension
  0
DIMENSION
  5
103
330
1F
100
AcDbEntity
  8
치수문자_일반주서
100
AcDbDimension
  2
_D_2
 10
-42.63847507945496
 20
-3.000000000000034
 30
0.0
 11
-42.63847507945502
 21
12.66649999999997
 31
0.0
 70
   160
  1
%%c<>
 71
     2
 42
6.000000000000005
 52
-270.0
  3
SLDDIMSTYLE2
100
AcDbAlignedDimension
 13
-33.54307806183473
 23
3.000000000000004
 33
0.0
 14
-33.54307806183473
 24
-3.000000000000001
 34
0.0
 50
90.0000000000002
100
AcDbRotatedDimension
  0
DIMENSION
  5
111
330
1F
100
AcDbEntity
  8
치수문자_일반주서
100
AcDbDimension
  2
_D_3
 10
15.95692193816529
 20
13.2495206784983
 30
0.0
 11
3.602921938165288
 21
13.2495206784983
 31
0.0
 70
   160
  1
<>
 71
     2
 42
4.0
  3
SLDDIMSTYLE2
100
AcDbAlignedDimension
 13
11.95692193816529
 23
0.5778912167046418
 33
0.0
 14
15.95692193816529
 24
0.6000000000000023
 34
0.0
100
AcDbRotatedDimension
  0
INSERT
  5
123
330
1F
100
AcDbEntity
  8
해칭선
100
AcDbBlockReference
  2
SW_DOWELSYMBOL_0
 10
-0.0081263675348903
 20
-0.0000000000000042
 30
0.0
  0
LINE
  5
156
330
1F
100
AcDbEntity
  8
0
  6
Continuous
 62
     4
370
    25
100
AcDbLine
 10
11.95692193816528
 20
0.5778912167045422
 30
0.0
 11
11.95692193816528
 21
-0.5778912167045375
 31
0.0
  0
ENDSEC
  0
SECTION
  2
OBJECTS
  0
DICTIONARY
  5
C
330
0
100
AcDbDictionary
281
     1
  3
ACAD_GROUP
350
D
  3
ACAD_IMAGE_VARS
350
147
  3
ACAD_LAYOUT
350
1A
  3
ACAD_MLINESTYLE
350
17
  3
ACAD_PLOTSETTINGS
350
19
  3
ACAD_PLOTSTYLENAME
350
E
  3
ACAD_SCALELIST
350
47
  3
APPDATA
350
145
  3
DWGPROPS
350
159
  0
DICTIONARY
  5
D
102
{ACAD_REACTORS
330
C
102
}
330
C
100
AcDbDictionary
281
     1
  0
RASTERVARIABLES
  5
147
102
{ACAD_REACTORS
330
C
102
}
330
C
100
AcDbRasterVariables
 90
        0
 70
     1
 71
     1
 72
     1
  0
DICTIONARY
  5
1A
102
{ACAD_REACTORS
330
C
102
}
330
C
100
AcDbDictionary
281
     1
  3
Layout1
350
1E
  3
Layout2
350
26
  3
Model
350
22
  0
DICTIONARY
  5
17
102
{ACAD_REACTORS
330
C
102
}
330
C
100
AcDbDictionary
281
     1
  3
Standard
350
18
  0
DICTIONARY
  5
19
102
{ACAD_REACTORS
330
C
102
}
330
C
100
AcDbDictionary
281
     1
  0
ACDBDICTIONARYWDFLT
  5
E
102
{ACAD_REACTORS
330
C
102
}
330
C
100
AcDbDictionary
281
     1
  3
Normal
350
F
100
AcDbDictionaryWithDefault
340
F
  0
DICTIONARY
  5
47
102
{ACAD_REACTORS
330
C
102
}
330
C
100
AcDbDictionary
281
     1
  3
A0
350
48
  3
A1
350
49
  3
A2
350
4A
  3
A3
350
4B
  3
A4
350
4C
  3
A5
350
4D
  3
A6
350
4E
  3
A7
350
4F
  3
A8
350
50
  3
A9
350
51
  3
B0
350
52
  3
B1
350
53
  3
B2
350
54
  3
B3
350
55
  3
B4
350
56
  3
B5
350
57
  3
B6
350
58
  3
B7
350
59
  3
B8
350
5A
  3
B9
350
5B
  3
C0
350
5C
  3
C1
350
5D
  3
C2
350
5E
  3
C3
350
5F
  3
C4
350
60
  3
C5
350
61
  3
C6
350
62
  3
C7
350
63
  3
C8
350
64
  3
C9
350
65
  3
D0
350
66
  3
D1
350
67
  3
D2
350
68
  0
DICTIONARY
  5
145
102
{ACAD_REACTORS
330
C
102
}
330
C
100
AcDbDictionary
281
     1
  0
XRECORD
  5
159
102
{ACAD_REACTORS
330
C
102
}
330
C
100
AcDbXrecord
280
     1
  1
DWGPROPS COOKIE
  2

  3

  4

  6

  7

  8
12014102
  9

300
=
301
=
302
=
303
=
304
=
305
=
306
=
307
=
308
=
309
=
 40
0.0
 41
2458260.10682478
 42
2458266.423440937
  1

 90
        0
  0
LAYOUT
  5
1E
102
{ACAD_REACTORS
330
1A
102
}
330
1A
100
AcDbPlotSettings
  1

  2
none_device
  4

  6

 40
0.0
 41
0.0
 42
0.0
 43
0.0
 44
0.0
 45
0.0
 46
0.0
 47
0.0
 48
0.0
 49
0.0
140
0.0
141
0.0
142
1.0
143
1.0
 70
   688
 72
     1
 73
     0
 74
     5
  7

 75
    16
147
1.0
148
0.0
149
0.0
100
AcDbLayout
  1
Layout1
 70
     1
 71
     1
 10
0.0
 20
0.0
 11
420.0
 21
297.0
 12
0.0
 22
0.0
 32
0.0
 14
1.000000000000000E+20
 24
1.000000000000000E+20
 34
1.000000000000000E+20
 15
-1.000000000000000E+20
 25
-1.000000000000000E+20
 35
-1.000000000000000E+20
146
0.0
 13
0.0
 23
0.0
 33
0.0
 16
1.0
 26
0.0
 36
0.0
 17
0.0
 27
1.0
 37
0.0
 76
     0
330
1B
  0
LAYOUT
  5
26
102
{ACAD_REACTORS
330
1A
102
}
330
1A
100
AcDbPlotSettings
  1

  2
none_device
  4

  6

 40
0.0
 41
0.0
 42
0.0
 43
0.0
 44
0.0
 45
0.0
 46
0.0
 47
0.0
 48
0.0
 49
0.0
140
0.0
141
0.0
142
1.0
143
1.0
 70
   688
 72
     1
 73
     0
 74
     5
  7

 75
    16
147
1.0
148
0.0
149
0.0
100
AcDbLayout
  1
Layout2
 70
     1
 71
     2
 10
0.0
 20
0.0
 11
0.0
 21
0.0
 12
0.0
 22
0.0
 32
0.0
 14
0.0
 24
0.0
 34
0.0
 15
0.0
 25
0.0
 35
0.0
146
0.0
 13
0.0
 23
0.0
 33
0.0
 16
1.0
 26
0.0
 36
0.0
 17
0.0
 27
1.0
 37
0.0
 76
     0
330
23
  0
LAYOUT
  5
22
102
{ACAD_REACTORS
330
1A
102
}
330
1A
100
AcDbPlotSettings
  1

  2
none_device
  4
ANSI_A_(11.00_x_8.50_Inches)
  6

 40
6.35
 41
19.05
 42
6.35000508
 43
19.05000254
 44
279.4
 45
215.9
 46
161.9962058634086
 47
125.3847137330092
 48
0.0
 49
0.0
140
0.0
141
0.0
142
0.1112850254374007
143
1.0
 70
  1696
 72
     0
 73
     0
 74
     0
  7

 75
     0
147
0.0235690232323232
148
0.0
149
0.0
100
AcDbLayout
  1
Model
 70
     1
 71
     0
 10
0.0
 20
0.0
 11
420.0
 21
297.0
 12
0.0
 22
0.0
 32
0.0
 14
-47.01347507945503
 24
-49.97180738881174
 34
0.0
 15
30.28259113972197
 25
24.76413260158165
 35
0.0
146
0.0
 13
0.0
 23
0.0
 33
0.0
 16
1.0
 26
0.0
 36
0.0
 17
0.0
 27
1.0
 37
0.0
 76
     0
330
1F
331
29
  0
MLINESTYLE
  5
18
102
{ACAD_REACTORS
330
17
102
}
330
17
100
AcDbMlineStyle
  2
Standard
 70
     0
  3

 62
   256
 51
90.0
 52
90.0
 71
     2
 49
0.5
 62
   256
  6
BYLAYER
 49
-0.5
 62
   256
  6
BYLAYER
  0
ACDBPLACEHOLDER
  5
F
102
{ACAD_REACTORS
330
E
102
}
330
E
  0
SCALE
  5
48
102
{ACAD_REACTORS
330
47
102
}
330
47
100
AcDbScale
 70
     0
300
1:1
140
1.0
141
1.0
290
     1
  0
SCALE
  5
49
102
{ACAD_REACTORS
330
47
102
}
330
47
100
AcDbScale
 70
     0
300
1:2
140
1.0
141
2.0
290
     0
  0
SCALE
  5
4A
102
{ACAD_REACTORS
330
47
102
}
330
47
100
AcDbScale
 70
     0
300
1:4
140
1.0
141
4.0
290
     0
  0
SCALE
  5
4B
102
{ACAD_REACTORS
330
47
102
}
330
47
100
AcDbScale
 70
     0
300
1:5
140
1.0
141
5.0
290
     0
  0
SCALE
  5
4C
102
{ACAD_REACTORS
330
47
102
}
330
47
100
AcDbScale
 70
     0
300
1:8
140
1.0
141
8.0
290
     0
  0
SCALE
  5
4D
102
{ACAD_REACTORS
330
47
102
}
330
47
100
AcDbScale
 70
     0
300
1:10
140
1.0
141
10.0
290
     0
  0
SCALE
  5
4E
102
{ACAD_REACTORS
330
47
102
}
330
47
100
AcDbScale
 70
     0
300
1:16
140
1.0
141
16.0
290
     0
  0
SCALE
  5
4F
102
{ACAD_REACTORS
330
47
102
}
330
47
100
AcDbScale
 70
     0
300
1:20
140
1.0
141
20.0
290
     0
  0
SCALE
  5
50
102
{ACAD_REACTORS
330
47
102
}
330
47
100
AcDbScale
 70
     0
300
1:30
140
1.0
141
30.0
290
     0
  0
SCALE
  5
51
102
{ACAD_REACTORS
330
47
102
}
330
47
100
AcDbScale
 70
     0
300
1:40
140
1.0
141
40.0
290
     0
  0
SCALE
  5
52
102
{ACAD_REACTORS
330
47
102
}
330
47
100
AcDbScale
 70
     0
300
1:50
140
1.0
141
50.0
290
     0
  0
SCALE
  5
53
102
{ACAD_REACTORS
330
47
102
}
330
47
100
AcDbScale
 70
     0
300
1:100
140
1.0
141
100.0
290
     0
  0
SCALE
  5
54
102
{ACAD_REACTORS
330
47
102
}
330
47
100
AcDbScale
 70
     0
300
2:1
140
2.0
141
1.0
290
     0
  0
SCALE
  5
55
102
{ACAD_REACTORS
330
47
102
}
330
47
100
AcDbScale
 70
     0
300
4:1
140
4.0
141
1.0
290
     0
  0
SCALE
  5
56
102
{ACAD_REACTORS
330
47
102
}
330
47
100
AcDbScale
 70
     0
300
8:1
140
8.0
141
1.0
290
     0
  0
SCALE
  5
57
102
{ACAD_REACTORS
330
47
102
}
330
47
100
AcDbScale
 70
     0
300
10:1
140
10.0
141
1.0
290
     0
  0
SCALE
  5
58
102
{ACAD_REACTORS
330
47
102
}
330
47
100
AcDbScale
 70
     0
300
100:1
140
100.0
141
1.0
290
     0
  0
SCALE
  5
59
102
{ACAD_REACTORS
330
47
102
}
330
47
100
AcDbScale
 70
     0
300
1/128" = 1'-0"
140
0.0078125
141
12.0
290
     0
  0
SCALE
  5
5A
102
{ACAD_REACTORS
330
47
102
}
330
47
100
AcDbScale
 70
     0
300
1/64" = 1'-0"
140
0.015625
141
12.0
290
     0
  0
SCALE
  5
5B
102
{ACAD_REACTORS
330
47
102
}
330
47
100
AcDbScale
 70
     0
300
1/32" = 1'-0"
140
0.03125
141
12.0
290
     0
  0
SCALE
  5
5C
102
{ACAD_REACTORS
330
47
102
}
330
47
100
AcDbScale
 70
     0
300
1/16" = 1'-0"
140
0.0625
141
12.0
290
     0
  0
SCALE
  5
5D
102
{ACAD_REACTORS
330
47
102
}
330
47
100
AcDbScale
 70
     0
300
3/32" = 1'-0"
140
0.09375
141
12.0
290
     0
  0
SCALE
  5
5E
102
{ACAD_REACTORS
330
47
102
}
330
47
100
AcDbScale
 70
     0
300
1/8" = 1'-0"
140
0.125
141
12.0
290
     0
  0
SCALE
  5
5F
102
{ACAD_REACTORS
330
47
102
}
330
47
100
AcDbScale
 70
     0
300
3/16" = 1'-0"
140
0.1875
141
12.0
290
     0
  0
SCALE
  5
60
102
{ACAD_REACTORS
330
47
102
}
330
47
100
AcDbScale
 70
     0
300
1/4" = 1'-0"
140
0.25
141
12.0
290
     0
  0
SCALE
  5
61
102
{ACAD_REACTORS
330
47
102
}
330
47
100
AcDbScale
 70
     0
300
3/8" = 1'-0"
140
0.375
141
12.0
290
     0
  0
SCALE
  5
62
102
{ACAD_REACTORS
330
47
102
}
330
47
100
AcDbScale
 70
     0
300
1/2" = 1'-0"
140
0.5
141
12.0
290
     0
  0
SCALE
  5
63
102
{ACAD_REACTORS
330
47
102
}
330
47
100
AcDbScale
 70
     0
300
3/4" = 1'-0"
140
0.75
141
12.0
290
     0
  0
SCALE
  5
64
102
{ACAD_REACTORS
330
47
102
}
330
47
100
AcDbScale
 70
     0
300
1" = 1'-0"
140
1.0
141
12.0
290
     0
  0
SCALE
  5
65
102
{ACAD_REACTORS
330
47
102
}
330
47
100
AcDbScale
 70
     0
300
1-1/2" = 1'-0"
140
1.5
141
12.0
290
     0
  0
SCALE
  5
66
102
{ACAD_REACTORS
330
47
102
}
330
47
100
AcDbScale
 70
     0
300
3" = 1'-0"
140
3.0
141
12.0
290
     0
  0
SCALE
  5
67
102
{ACAD_REACTORS
330
47
102
}
330
47
100
AcDbScale
 70
     0
300
6" = 1'-0"
140
6.0
141
12.0
290
     0
  0
SCALE
  5
68
102
{ACAD_REACTORS
330
47
102
}
330
47
100
AcDbScale
 70
     0
300
1'-0" = 1'-0"
140
12.0
141
12.0
290
     0
  0
ENDSEC
  0
EOF
