  0
SECTION
  2
HEADER
  9
$ACADVER
  1
AC1015
  9
$ACADMAINTVER
 70
     6
  9
$DWGCODEPAGE
  3
ANSI_949
  9
$INSBASE
 10
0.0
 20
0.0
 30
0.0
  9
$EXTMIN
 10
-89.69538262772157
 20
-49.97073246008785
 30
0.0
  9
$EXTMAX
 10
100.67543885032
 20
37.6634104402427
 30
0.0
  9
$LIMMIN
 10
0.0
 20
0.0
  9
$LIMMAX
 10
420.0
 20
297.0
  9
$ORTHOMODE
 70
     0
  9
$REGENMODE
 70
     1
  9
$FILLMODE
 70
     1
  9
$QTEXTMODE
 70
     0
  9
$MIRRTEXT
 70
     1
  9
$LTSCALE
 40
1.0
  9
$ATTMODE
 70
     1
  9
$TEXTSIZE
 40
3.5
  9
$TRACEWID
 40
1.0
  9
$TEXTSTYLE
  7
Standard
  9
$CLAYER
  8
0
  9
$CELTYPE
  6
ByLayer
  9
$CECOLOR
 62
   256
  9
$CELTSCALE
 40
1.0
  9
$DISPSILH
 70
     0
  9
$DIMSCALE
 40
1.0
  9
$DIMASZ
 40
3.302
  9
$DIMEXO
 40
1.0
  9
$DIMDLI
 40
3.75
  9
$DIMRND
 40
0.0
  9
$DIMDLE
 40
0.0
  9
$DIMEXE
 40
1.0
  9
$DIMTP
 40
0.0
  9
$DIMTM
 40
0.0
  9
$DIMTXT
 40
3.5
  9
$DIMCEN
 40
2.5
  9
$DIMTSZ
 40
0.0
  9
$DIMTOL
 70
     0
  9
$DIMLIM
 70
     0
  9
$DIMTIH
 70
     1
  9
$DIMTOH
 70
     1
  9
$DIMSE1
 70
     0
  9
$DIMSE2
 70
     0
  9
$DIMTAD
 70
     1
  9
$DIMZIN
 70
     0
  9
$DIMBLK
  1

  9
$DIMASO
 70
     1
  9
$DIMSHO
 70
     1
  9
$DIMPOST
  1

  9
$DIMAPOST
  1

  9
$DIMALT
 70
     0
  9
$DIMALTD
 70
     3
  9
$DIMALTF
 40
0.0393700787401575
  9
$DIMLFAC
 40
1.0
  9
$DIMTOFL
 70
     1
  9
$DIMTVP
 40
0.0
  9
$DIMTIX
 70
     0
  9
$DIMSOXD
 70
     0
  9
$DIMSAH
 70
     0
  9
$DIMBLK1
  1

  9
$DIMBLK2
  1

  9
$DIMSTYLE
  2
ISO-25
  9
$DIMCLRD
 70
     0
  9
$DIMCLRE
 70
     0
  9
$DIMCLRT
 70
     0
  9
$DIMTFAC
 40
1.0
  9
$DIMGAP
 40
1.524
  9
$DIMJUST
 70
     0
  9
$DIMSD1
 70
     0
  9
$DIMSD2
 70
     0
  9
$DIMTOLJ
 70
     0
  9
$DIMTZIN
 70
     0
  9
$DIMALTZ
 70
     0
  9
$DIMALTTZ
 70
     0
  9
$DIMUPT
 70
     0
  9
$DIMDEC
 70
     2
  9
$DIMTDEC
 70
     2
  9
$DIMALTU
 70
     2
  9
$DIMALTTD
 70
     3
  9
$DIMTXSTY
  7
Standard
  9
$DIMAUNIT
 70
     0
  9
$DIMADEC
 70
     2
  9
$DIMALTRND
 40
0.0
  9
$DIMAZIN
 70
     0
  9
$DIMDSEP
 70
    44
  9
$DIMATFIT
 70
     3
  9
$DIMFRAC
 70
     0
  9
$DIMLDRBLK
  1

  9
$DIMLUNIT
 70
     2
  9
$DIMLWD
 70
    -2
  9
$DIMLWE
 70
    -2
  9
$DIMTMOVE
 70
     0
  9
$LUNITS
 70
     2
  9
$LUPREC
 70
     2
  9
$SKETCHINC
 40
1.0
  9
$FILLETRAD
 40
10.0
  9
$AUNITS
 70
     0
  9
$AUPREC
 70
     2
  9
$MENU
  1
.
  9
$ELEVATION
 40
0.0
  9
$PELEVATION
 40
0.0
  9
$THICKNESS
 40
0.0
  9
$LIMCHECK
 70
     0
  9
$CHAMFERA
 40
0.0
  9
$CHAMFERB
 40
0.0
  9
$CHAMFERC
 40
0.0
  9
$CHAMFERD
 40
0.0
  9
$SKPOLY
 70
     0
  9
$TDCREATE
 40
2458262.555058472
  9
$TDUCREATE
 40
2458262.180058472
  9
$TDUPDATE
 40
2458266.611444653
  9
$TDUUPDATE
 40
2458266.236444653
  9
$TDINDWG
 40
0.0021599537
  9
$TDUSRTIMER
 40
2458266.234284734
  9
$USRTIMER
 70
     1
  9
$ANGBASE
 50
0.0
  9
$ANGDIR
 70
     0
  9
$PDMODE
 70
     0
  9
$PDSIZE
 40
-1.0
  9
$PLINEWID
 40
0.0
  9
$SPLFRAME
 70
     0
  9
$SPLINETYPE
 70
     6
  9
$SPLINESEGS
 70
     8
  9
$HANDSEED
  5
13E
  9
$SURFTAB1
 70
     6
  9
$SURFTAB2
 70
     6
  9
$SURFTYPE
 70
     6
  9
$SURFU
 70
     6
  9
$SURFV
 70
     6
  9
$UCSBASE
  2

  9
$UCSNAME
  2

  9
$UCSORG
 10
0.0
 20
0.0
 30
0.0
  9
$UCSXDIR
 10
1.0
 20
0.0
 30
0.0
  9
$UCSYDIR
 10
0.0
 20
1.0
 30
0.0
  9
$UCSORTHOREF
  2

  9
$UCSORTHOVIEW
 70
     0
  9
$UCSORGTOP
 10
0.0
 20
0.0
 30
0.0
  9
$UCSORGBOTTOM
 10
0.0
 20
0.0
 30
0.0
  9
$UCSORGLEFT
 10
0.0
 20
0.0
 30
0.0
  9
$UCSORGRIGHT
 10
0.0
 20
0.0
 30
0.0
  9
$UCSORGFRONT
 10
0.0
 20
0.0
 30
0.0
  9
$UCSORGBACK
 10
0.0
 20
0.0
 30
0.0
  9
$PUCSBASE
  2

  9
$PUCSNAME
  2

  9
$PUCSORG
 10
0.0
 20
0.0
 30
0.0
  9
$PUCSXDIR
 10
1.0
 20
0.0
 30
0.0
  9
$PUCSYDIR
 10
0.0
 20
1.0
 30
0.0
  9
$PUCSORTHOREF
  2

  9
$PUCSORTHOVIEW
 70
     0
  9
$PUCSORGTOP
 10
0.0
 20
0.0
 30
0.0
  9
$PUCSORGBOTTOM
 10
0.0
 20
0.0
 30
0.0
  9
$PUCSORGLEFT
 10
0.0
 20
0.0
 30
0.0
  9
$PUCSORGRIGHT
 10
0.0
 20
0.0
 30
0.0
  9
$PUCSORGFRONT
 10
0.0
 20
0.0
 30
0.0
  9
$PUCSORGBACK
 10
0.0
 20
0.0
 30
0.0
  9
$USERI1
 70
     0
  9
$USERI2
 70
     0
  9
$USERI3
 70
     0
  9
$USERI4
 70
     0
  9
$USERI5
 70
     0
  9
$USERR1
 40
0.0
  9
$USERR2
 40
0.0
  9
$USERR3
 40
0.0
  9
$USERR4
 40
0.0
  9
$USERR5
 40
0.0
  9
$WORLDVIEW
 70
     1
  9
$SHADEDGE
 70
     3
  9
$SHADEDIF
 70
    70
  9
$TILEMODE
 70
     1
  9
$MAXACTVP
 70
    64
  9
$PINSBASE
 10
0.0
 20
0.0
 30
0.0
  9
$PLIMCHECK
 70
     0
  9
$PEXTMIN
 10
1.000000000000000E+20
 20
1.000000000000000E+20
 30
1.000000000000000E+20
  9
$PEXTMAX
 10
-1.000000000000000E+20
 20
-1.000000000000000E+20
 30
-1.000000000000000E+20
  9
$PLIMMIN
 10
0.0
 20
0.0
  9
$PLIMMAX
 10
0.0
 20
0.0
  9
$UNITMODE
 70
     0
  9
$VISRETAIN
 70
     1
  9
$PLINEGEN
 70
     0
  9
$PSLTSCALE
 70
     1
  9
$TREEDEPTH
 70
  3020
  9
$CMLSTYLE
  2
Standard
  9
$CMLJUST
 70
     0
  9
$CMLSCALE
 40
20.0
  9
$PROXYGRAPHICS
 70
     1
  9
$MEASUREMENT
 70
     1
  9
$CELWEIGHT
370
    -1
  9
$ENDCAPS
280
     0
  9
$JOINSTYLE
280
     0
  9
$LWDISPLAY
290
     1
  9
$INSUNITS
 70
     4
  9
$HYPERLINKBASE
  1

  9
$STYLESHEET
  1

  9
$XEDIT
290
     1
  9
$CEPSNTYPE
380
     0
  9
$PSTYLEMODE
290
     1
  9
$FINGERPRINTGUID
  2
{39BADA7A-A0BC-4483-9907-9399A80C9815}
  9
$VERSIONGUID
  2
{FAEB1C32-E019-11D5-929B-00C0DF256EC4}
  9
$EXTNAMES
290
     1
  9
$PSVPSCALE
 40
0.0
  9
$OLESTARTUP
290
     0
  0
ENDSEC
  0
SECTION
  2
CLASSES
  0
CLASS
  1
ACDBDICTIONARYWDFLT
  2
AcDbDictionaryWithDefault
  3
ObjectDBX Classes
 90
        0
280
     0
281
     0
  0
CLASS
  1
VISUALSTYLE
  2
AcDbVisualStyle
  3
ObjectDBX Classes
 90
     4095
280
     0
281
     0
  0
CLASS
  1
MATERIAL
  2
AcDbMaterial
  3
ObjectDBX Classes
 90
     1153
280
     0
281
     0
  0
CLASS
  1
SCALE
  2
AcDbScale
  3
ObjectDBX Classes
 90
     1153
280
     0
281
     0
  0
CLASS
  1
SUN
  2
AcDbSun
  3
SCENEOE
 90
     1153
280
     0
281
     0
  0
CLASS
  1
ACDBPLACEHOLDER
  2
AcDbPlaceHolder
  3
ObjectDBX Classes
 90
        0
280
     0
281
     0
  0
CLASS
  1
LAYOUT
  2
AcDbLayout
  3
ObjectDBX Classes
 90
        0
280
     0
281
     0
  0
CLASS
  1
TABLESTYLE
  2
AcDbTableStyle
  3
ObjectDBX Classes
 90
     4095
280
     0
281
     0
  0
CLASS
  1
MLEADERSTYLE
  2
AcDbMLeaderStyle
  3
ACDB_MLEADERSTYLE_CLASS
 90
     4095
280
     0
281
     0
  0
CLASS
  1
RASTERVARIABLES
  2
AcDbRasterVariables
  3
ISM
 90
        0
280
     0
281
     0
  0
ENDSEC
  0
SECTION
  2
TABLES
  0
TABLE
  2
VPORT
  5
8
330
0
100
AcDbSymbolTable
 70
     1
  0
VPORT
  5
29
330
8
100
AcDbSymbolTableRecord
100
AcDbViewportTableRecord
  2
*Active
 70
     0
 10
0.0
 20
0.0
 11
1.0
 21
1.0
 12
5.490028111299196
 22
-6.15366100992258
 13
0.0
 23
0.0
 14
10.0
 24
10.0
 15
10.0
 25
10.0
 16
0.0
 26
0.0
 36
1.0
 17
0.0
 27
0.0
 37
0.0
 40
168.4909822202738
 41
1.152454780361757
 42
50.0
 43
0.0
 44
0.0
 50
0.0
 51
0.0
 71
    16
 72
  2000
 73
     1
 74
     3
 75
     0
 76
     0
 77
     0
 78
     0
281
     0
 65
     1
110
0.0
120
0.0
130
0.0
111
1.0
121
0.0
131
0.0
112
0.0
122
1.0
132
0.0
 79
     0
146
0.0
  0
ENDTAB
  0
TABLE
  2
LTYPE
  5
5
330
0
100
AcDbSymbolTable
 70
     6
  0
LTYPE
  5
14
330
5
100
AcDbSymbolTableRecord
100
AcDbLinetypeTableRecord
  2
ByBlock
 70
     0
  3

 72
    65
 73
     0
 40
0.0
  0
LTYPE
  5
15
330
5
100
AcDbSymbolTableRecord
100
AcDbLinetypeTableRecord
  2
ByLayer
 70
     0
  3

 72
    65
 73
     0
 40
0.0
  0
LTYPE
  5
16
330
5
100
AcDbSymbolTableRecord
100
AcDbLinetypeTableRecord
  2
Continuous
 70
     0
  3
Solid line
 72
    65
 73
     0
 40
0.0
  0
LTYPE
  5
6A
330
5
100
AcDbSymbolTableRecord
100
AcDbLinetypeTableRecord
  2
HIDDEN
 70
     0
  3
Hidden __ __ __ __ __ __ __ __ __ __ __ __ __ __
 72
    65
 73
     2
 40
1.905
 49
1.27
 74
     0
 49
-0.635
 74
     0
  0
LTYPE
  5
6B
330
5
100
AcDbSymbolTableRecord
100
AcDbLinetypeTableRecord
  2
PHANTOM
 70
     0
  3
Phantom ______  __  __  ______  __  __  ______
 72
    65
 73
     6
 40
12.7
 49
6.35
 74
     0
 49
-1.27
 74
     0
 49
1.27
 74
     0
 49
-1.27
 74
     0
 49
1.27
 74
     0
 49
-1.27
 74
     0
  0
LTYPE
  5
6C
330
5
100
AcDbSymbolTableRecord
100
AcDbLinetypeTableRecord
  2
CENTER
 70
     0
  3
Center ____ _ ____ _ ____ _ ____ _ ____ _ ____
 72
    65
 73
     4
 40
10.16
 49
6.35
 74
     0
 49
-1.27
 74
     0
 49
1.27
 74
     0
 49
-1.27
 74
     0
  0
LTYPE
  5
6D
330
5
100
AcDbSymbolTableRecord
100
AcDbLinetypeTableRecord
  2
CENTERX2
 70
     0
  3
Center (2x) ________  __  ________  __  _____
 72
    65
 73
     4
 40
20.32
 49
12.7
 74
     0
 49
-2.54
 74
     0
 49
2.54
 74
     0
 49
-2.54
 74
     0
  0
LTYPE
  5
6E
330
5
100
AcDbSymbolTableRecord
100
AcDbLinetypeTableRecord
  2
DOT2
 70
     0
  3
Dot (.5x) ........................................
 72
    65
 73
     2
 40
0.635
 49
0.0
 74
     0
 49
-0.635
 74
     0
  0
ENDTAB
  0
TABLE
  2
LAYER
  5
2
330
0
100
AcDbSymbolTable
 70
    17
  0
LAYER
  5
10
330
2
100
AcDbSymbolTableRecord
100
AcDbLayerTableRecord
  2
0
 70
     0
 62
     7
  6
Continuous
370
    -3
390
F
  0
LAYER
  5
6F
330
2
100
AcDbSymbolTableRecord
100
AcDbLayerTableRecord
  2
FORMAT
 70
     0
 62
     2
  6
Continuous
370
    -3
390
F
  0
LAYER
  5
70
330
2
100
AcDbSymbolTableRecord
100
AcDbLayerTableRecord
  2
외형선
 70
     0
 62
   100
  6
Continuous
370
    30
390
F
  0
LAYER
  5
71
330
2
100
AcDbSymbolTableRecord
100
AcDbLayerTableRecord
  2
숨은선
 70
     0
 62
     2
  6
HIDDEN
370
    15
390
F
  0
LAYER
  5
72
330
2
100
AcDbSymbolTableRecord
100
AcDbLayerTableRecord
  2
중심선
 70
     0
 62
     1
  6
CENTERX2
370
    -3
390
F
  0
LAYER
  5
73
330
2
100
AcDbSymbolTableRecord
100
AcDbLayerTableRecord
  2
파단선
 70
     0
 62
     4
  6
Continuous
370
    -3
390
F
  0
LAYER
  5
74
330
2
100
AcDbSymbolTableRecord
100
AcDbLayerTableRecord
  2
해칭선
 70
     0
 62
     4
  6
Continuous
370
    -3
390
F
  0
LAYER
  5
75
330
2
100
AcDbSymbolTableRecord
100
AcDbLayerTableRecord
  2
가는실선
 70
     0
 62
     4
  6
Continuous
370
    -3
390
F
  0
LAYER
  5
76
330
2
100
AcDbSymbolTableRecord
100
AcDbLayerTableRecord
  2
치수_보조선
 70
     0
 62
     4
  6
Continuous
370
    -3
390
F
  0
LAYER
  5
77
330
2
100
AcDbSymbolTableRecord
100
AcDbLayerTableRecord
  2
치수문자_일반주서
 70
     0
 62
     7
  6
Continuous
370
    15
390
F
  0
LAYER
  5
78
330
2
100
AcDbSymbolTableRecord
100
AcDbLayerTableRecord
  2
개별주서
 70
     0
 62
   100
  6
Continuous
370
    30
390
F
  0
LAYER
  5
79
330
2
100
AcDbSymbolTableRecord
100
AcDbLayerTableRecord
  2
중간선
 70
     0
 62
     2
  6
Continuous
370
    15
390
F
  0
LAYER
  5
7A
330
2
100
AcDbSymbolTableRecord
100
AcDbLayerTableRecord
  2
윤곽선
 70
     0
 62
     3
  6
Continuous
370
    40
390
F
  0
LAYER
  5
7B
330
2
100
AcDbSymbolTableRecord
100
AcDbLayerTableRecord
  2
중심마크
 70
     0
 62
   100
  6
Continuous
370
    30
390
F
  0
LAYER
  5
7C
330
2
100
AcDbSymbolTableRecord
100
AcDbLayerTableRecord
  2
가상선
 70
     0
 62
     4
  6
PHANTOM
370
    -3
390
F
  0
LAYER
  5
7D
330
2
100
AcDbSymbolTableRecord
100
AcDbLayerTableRecord
  2
특수지정선
 70
     0
 62
     5
  6
CENTERX2
370
    60
390
F
  0
LAYER
  5
12B
330
2
100
AcDbSymbolTableRecord
100
AcDbLayerTableRecord
  2
Defpoints
 70
     0
 62
     7
  6
Continuous
290
     0
370
    -3
390
F
  0
ENDTAB
  0
TABLE
  2
STYLE
  5
3
330
0
100
AcDbSymbolTable
 70
     2
  0
STYLE
  5
11
330
3
100
AcDbSymbolTableRecord
100
AcDbTextStyleTableRecord
  2
Standard
 70
     0
 40
0.0
 41
1.0
 50
0.0
 71
     0
 42
3.5
  3
txt
  4

  0
STYLE
  5
93
330
3
100
AcDbSymbolTableRecord
100
AcDbTextStyleTableRecord
  2
SLDTEXTSTYLE0
 70
     0
 40
0.0
 41
0.75
 50
0.0
 71
     0
 42
3.5
  3
TXT
  4

  0
ENDTAB
  0
TABLE
  2
VIEW
  5
6
330
0
100
AcDbSymbolTable
 70
     0
  0
ENDTAB
  0
TABLE
  2
UCS
  5
7
330
0
100
AcDbSymbolTable
 70
     0
  0
ENDTAB
  0
TABLE
  2
APPID
  5
9
330
0
100
AcDbSymbolTable
 70
     1
  0
APPID
  5
12
330
9
100
AcDbSymbolTableRecord
100
AcDbRegAppTableRecord
  2
ACAD
 70
     0
  0
ENDTAB
  0
TABLE
  2
DIMSTYLE
  5
A
330
0
100
AcDbSymbolTable
 70
     3
100
AcDbDimStyleTable
  0
DIMSTYLE
105
27
330
A
100
AcDbSymbolTableRecord
100
AcDbDimStyleTableRecord
  2
ISO-25
 70
     0
 41
2.5
 42
0.625
 43
3.75
 44
1.25
 73
     0
 74
     0
 77
     1
 78
     8
140
2.5
141
2.5
143
0.03937007874016
147
0.625
171
     3
172
     1
178
     0
271
     2
272
     2
274
     3
278
    44
283
     0
284
     8
340
11
  0
DIMSTYLE
105
D5
102
{ACAD_REACTORS
330
D4
330
F5
102
}
330
A
100
AcDbSymbolTableRecord
100
AcDbDimStyleTableRecord
  2
SLDDIMSTYLE0
 70
     0
 41
3.302
 44
0.0
 45
0.000000001
 73
     0
 74
     0
 77
     1
 78
    12
 79
     3
140
3.5
147
0.875
172
     1
173
     1
178
     0
271
     2
272
     2
276
     2
284
    12
289
     0
340
93
  0
DIMSTYLE
105
E1
102
{ACAD_REACTORS
330
E0
330
EB
102
}
330
A
100
AcDbSymbolTableRecord
100
AcDbDimStyleTableRecord
  2
SLDDIMSTYLE1
 70
     0
 41
3.302
 44
0.0
 45
0.000000001
 73
     0
 74
     0
 77
     1
 78
    12
 79
     3
140
3.5
147
0.875
173
     1
178
     0
271
     2
272
     2
276
     2
284
    12
340
93
  0
ENDTAB
  0
TABLE
  2
BLOCK_RECORD
  5
1
330
0
100
AcDbSymbolTable
 70
     7
  0
BLOCK_RECORD
  5
1F
330
1
100
AcDbSymbolTableRecord
100
AcDbBlockTableRecord
  2
*Model_Space
340
22
  0
BLOCK_RECORD
  5
1B
330
1
100
AcDbSymbolTableRecord
100
AcDbBlockTableRecord
  2
*Paper_Space
340
1E
  0
BLOCK_RECORD
  5
23
330
1
100
AcDbSymbolTableRecord
100
AcDbBlockTableRecord
  2
*Paper_Space0
340
26
  0
BLOCK_RECORD
  5
7E
330
1
100
AcDbSymbolTableRecord
100
AcDbBlockTableRecord
  2
블럭10
340
0
102
{BLKREFS
331
CD
102
}
  0
BLOCK_RECORD
  5
D6
330
1
100
AcDbSymbolTableRecord
100
AcDbBlockTableRecord
  2
_D
340
0
  0
BLOCK_RECORD
  5
E2
330
1
100
AcDbSymbolTableRecord
100
AcDbBlockTableRecord
  2
_D_1
340
0
  0
BLOCK_RECORD
  5
EC
330
1
100
AcDbSymbolTableRecord
100
AcDbBlockTableRecord
  2
_D_2
340
0
  0
BLOCK_RECORD
  5
F6
330
1
100
AcDbSymbolTableRecord
100
AcDbBlockTableRecord
  2
_D_3
340
0
  0
BLOCK_RECORD
  5
100
330
1
100
AcDbSymbolTableRecord
100
AcDbBlockTableRecord
  2
SW_DOWELSYMBOL_0
340
0
102
{BLKREFS
331
106
102
}
  0
ENDTAB
  0
ENDSEC
  0
SECTION
  2
BLOCKS
  0
BLOCK
  5
20
330
1F
100
AcDbEntity
  8
0
100
AcDbBlockBegin
  2
*Model_Space
 70
     0
 10
0.0
 20
0.0
 30
0.0
  3
*Model_Space
  1

  0
ENDBLK
  5
21
330
1F
100
AcDbEntity
  8
0
100
AcDbBlockEnd
  0
BLOCK
  5
1C
330
1B
100
AcDbEntity
 67
     1
  8
0
100
AcDbBlockBegin
  2
*Paper_Space
 70
     0
 10
0.0
 20
0.0
 30
0.0
  3
*Paper_Space
  1

  0
ENDBLK
  5
1D
330
1B
100
AcDbEntity
 67
     1
  8
0
100
AcDbBlockEnd
  0
BLOCK
  5
24
330
23
100
AcDbEntity
  8
0
100
AcDbBlockBegin
  2
*Paper_Space0
 70
     0
 10
0.0
 20
0.0
 30
0.0
  3
*Paper_Space0
  1

  0
ENDBLK
  5
25
330
23
100
AcDbEntity
  8
0
100
AcDbBlockEnd
  0
BLOCK
  5
7F
330
7E
100
AcDbEntity
  8
0
100
AcDbBlockBegin
  2
블럭10
 70
     2
 10
0.0
 20
0.0
 30
0.0
  3
블럭10
  1

  0
ELLIPSE
  5
81
330
7E
100
AcDbEntity
  8
중심선
100
AcDbEllipse
 10
20.54032771741204
 20
12.0471743016438
 30
0.0
 11
6.600054785286829
 21
-1.261213355974178E-13
 31
0.0
210
0.0
220
0.0
230
1.0
 40
0.636358354079598
 41
0.9219305317359503
 42
6.513795318482858
  0
ELLIPSE
  5
82
330
7E
100
AcDbEntity
  8
중심선
100
AcDbEllipse
 10
20.54032771746488
 20
12.04717430159265
 30
0.0
 11
3.960054785062283
 21
1.540847449632565E-10
 31
0.0
210
0.0
220
0.0
230
1.0
 40
0.3939339440162632
 41
1.131841032648279
 42
5.62031148352944
  0
LINE
  5
83
330
7E
100
AcDbEntity
  8
중심선
100
AcDbLine
 10
2.268634060543552
 20
16.24717430164393
 30
0.0
 11
5.714909304380834
 21
16.24717430164393
 31
0.0
  0
LINE
  5
84
330
7E
100
AcDbEntity
  8
중심선
100
AcDbLine
 10
5.245725140726316
 20
7.84717430164391
 30
0.0
 11
8.692000384563599
 21
7.84717430164391
 31
0.0
  0
LINE
  5
85
330
7E
100
AcDbEntity
  8
중심선
100
AcDbLine
 10
15.74043728645272
 20
16.24717430164393
 30
0.0
 11
8.692000384563599
 21
7.84717430164391
 31
0.0
  0
LINE
  5
86
330
7E
100
AcDbEntity
  8
중심선
100
AcDbLine
 10
0.1404042013395286
 20
13.71084872107135
 30
0.0
 11
3.58671253028996
 21
13.71088815037384
 31
0.0
  0
LINE
  5
87
330
7E
100
AcDbEntity
  8
중심선
100
AcDbLine
 10
2.750260043222114
 20
10.84717430164391
 30
0.0
 11
6.196535287059397
 21
10.84717430164391
 31
0.0
  0
LINE
  5
88
330
7E
100
AcDbEntity
  8
중심선
100
AcDbLine
 10
12.29416204261559
 20
16.24717430164393
 30
0.0
 11
5.245725140726316
 21
7.84717430164391
 31
0.0
  0
LINE
  5
89
330
7E
100
AcDbEntity
  8
중심선
100
AcDbLine
 10
10.72767329541681
 20
16.24717430164393
 30
0.0
 11
6.196535287059397
 21
10.84717430164391
 31
0.0
  0
LINE
  5
8A
330
7E
100
AcDbEntity
  8
중심선
100
AcDbLine
 10
7.28139805157953
 20
16.24717430164393
 30
0.0
 11
2.750260043222114
 21
10.84717430164391
 31
0.0
  0
LINE
  5
8B
330
7E
100
AcDbEntity
  8
중심선
100
AcDbLine
 10
5.714909304380834
 20
16.24717430164393
 30
0.0
 11
3.58671253028996
 21
13.71088815037384
 31
0.0
  0
LINE
  5
8C
330
7E
100
AcDbEntity
  8
중심선
100
AcDbLine
 10
2.268634060543552
 20
16.24717430164393
 30
0.0
 11
0.1404042013395286
 21
13.71084872107135
 31
0.0
  0
LINE
  5
8D
330
7E
100
AcDbEntity
  8
중심선
100
AcDbLine
 10
7.28139805157953
 20
16.24717430164393
 30
0.0
 11
10.72767329541681
 21
16.24717430164393
 31
0.0
  0
LINE
  5
8E
330
7E
100
AcDbEntity
  8
중심선
100
AcDbLine
 10
12.29416204261559
 20
16.24717430164393
 30
0.0
 11
15.74043728645272
 21
16.24717430164393
 31
0.0
  0
LINE
  5
8F
330
7E
100
AcDbEntity
  8
중심선
100
AcDbLine
 10
19.22036997980202
 20
11.08717430171403
 30
0.0
 11
23.66174974927406
 21
11.08717430171406
 31
0.0
  0
LINE
  5
90
330
7E
100
AcDbEntity
  8
중심선
100
AcDbLine
 10
19.22039502424796
 20
13.00717430171391
 30
0.0
 11
19.22036997980202
 21
11.08717430171403
 31
0.0
  0
LINE
  5
91
330
7E
100
AcDbEntity
  8
중심선
100
AcDbLine
 10
19.22039502424796
 20
13.00717430171391
 30
0.0
 11
26.96566020931264
 21
13.00717430171391
 31
0.0
  0
LINE
  5
92
330
7E
100
AcDbEntity
  8
중심선
100
AcDbLine
 10
22.22332737316547
 20
13.45928029700563
 30
0.0
 11
24.52862924686651
 21
15.39360700705356
 31
0.0
  0
ATTDEF
  5
94
330
7E
100
AcDbEntity
  8
FORMAT
 62
     2
100
AcDbText
 10
-16.11926103943555
 20
2.075366912832191
 30
0.0
 40
4.233333333333333
  1
SEME7025070E [ 2 FLUTE ]
 41
0.75
  7
SLDTEXTSTYLE0
 11
-16.11926103943555
 21
-0.0412997538344756
 31
0.0
100
AcDbAttributeDefinition
  3

  2
AUTOATTR0
 70
     0
 74
     1
  0
ENDBLK
  5
80
330
7E
100
AcDbEntity
  8
0
100
AcDbBlockEnd
  0
BLOCK
  5
D7
330
D6
100
AcDbEntity
  8
0
100
AcDbBlockBegin
  2
_D
 70
     0
 10
0.0
 20
0.0
 30
0.0
  3
_D
  1

  0
LINE
  5
D9
330
D6
100
AcDbEntity
  8
치수문자_일반주서
 62
     0
370
    -2
100
AcDbLine
 10
82.0625
 20
-12.49999999999974
 30
0.0
 11
100.1251055169866
 21
-12.49999999999968
 31
0.0
  0
LINE
  5
DA
330
D6
100
AcDbEntity
  8
치수문자_일반주서
 62
     0
370
    -2
100
AcDbLine
 10
82.0625
 20
12.50000000000027
 30
0.0
 11
100.1251055169866
 21
12.50000000000034
 31
0.0
  0
LINE
  5
DB
330
D6
100
AcDbEntity
  8
치수문자_일반주서
 62
     0
370
    -2
100
AcDbLine
 10
100.1251055169866
 20
-12.49999999999968
 30
0.0
 11
100.1251055169865
 21
27.85400000000034
 31
0.0
  0
LINE
  5
DC
330
D6
100
AcDbEntity
  8
치수문자_일반주서
 62
     0
370
    -2
100
AcDbLine
 10
100.1251055169866
 20
-12.49999999999968
 30
0.0
 11
100.1251055169866
 21
12.50000000000034
 31
0.0
  0
LINE
  5
DD
330
D6
100
AcDbEntity
  8
치수문자_일반주서
 62
     0
370
    -2
100
AcDbLine
 10
100.1251055169867
 20
-15.80199999999968
 30
0.0
 11
100.1251055169867
 21
-19.10399999999968
 31
0.0
  0
LINE
  5
DE
330
D6
100
AcDbEntity
  8
치수문자_일반주서
 62
     0
370
    -2
100
AcDbLine
 10
100.1251055169865
 20
15.80200000000034
 30
0.0
 11
100.1251055169865
 21
19.10400000000034
 31
0.0
  0
SOLID
  5
DF
330
D6
100
AcDbEntity
  8
치수문자_일반주서
 62
     0
100
AcDbTrace
 10
100.67543885032
 20
-15.80199999999968
 30
0.0
 11
99.57477218365332
 21
-15.80199999999968
 31
0.0
 12
100.1251055169866
 22
-12.49999999999968
 32
0.0
 13
100.1251055169866
 23
-12.49999999999968
 33
0.0
  0
SOLID
  5
12C
330
D6
100
AcDbEntity
  8
치수문자_일반주서
 62
     0
100
AcDbTrace
 10
99.57477218365321
 20
15.80200000000034
 30
0.0
 11
100.6754388503199
 21
15.80200000000034
 31
0.0
 12
100.1251055169866
 22
12.50000000000034
 32
0.0
 13
100.1251055169866
 23
12.50000000000034
 33
0.0
  0
MTEXT
  5
12D
330
D6
100
AcDbEntity
  8
치수문자_일반주서
 62
     0
100
AcDbMText
 10
95.75010551698651
 20
23.47900000000032
 30
0.0
 40
3.5
 41
0.0
 71
     2
 72
     1
  1
\A1;%%c25
  7
SLDTEXTSTYLE0
 11
-3.410605131648478E-15
 21
1.0
 31
0.0
 73
     1
 44
1.0
  0
POINT
  5
136
330
D6
100
AcDbEntity
  8
Defpoints
 62
     0
100
AcDbPoint
 10
82.0
 20
-12.49999999999974
 30
0.0
  0
POINT
  5
137
330
D6
100
AcDbEntity
  8
Defpoints
 62
     0
100
AcDbPoint
 10
82.0
 20
12.50000000000027
 30
0.0
  0
POINT
  5
138
330
D6
100
AcDbEntity
  8
Defpoints
 62
     0
100
AcDbPoint
 10
100.1251055169866
 20
12.50000000000034
 30
0.0
  0
ENDBLK
  5
D8
330
D6
100
AcDbEntity
  8
0
100
AcDbBlockEnd
  0
BLOCK
  5
E3
330
E2
100
AcDbEntity
  8
0
100
AcDbBlockBegin
  2
_D_1
 70
     0
 10
0.0
 20
0.0
 30
0.0
  3
_D_1
  1

  0
LINE
  5
E5
330
E2
100
AcDbEntity
  8
치수문자_일반주서
 62
     0
370
    -2
100
AcDbLine
 10
-67.99999999999999
 20
11.5625
 30
0.0
 11
-68.0
 21
33.2884104402427
 31
0.0
  0
LINE
  5
E6
330
E2
100
AcDbEntity
  8
치수문자_일반주서
 62
     0
370
    -2
100
AcDbLine
 10
82.0
 20
12.56250000000027
 30
0.0
 11
81.99999999999999
 21
33.2884104402427
 31
0.0
  0
LINE
  5
E7
330
E2
100
AcDbEntity
  8
치수문자_일반주서
 62
     0
370
    -2
100
AcDbLine
 10
-64.69800000000001
 20
33.2884104402427
 30
0.0
 11
78.69799999999998
 21
33.2884104402427
 31
0.0
  0
SOLID
  5
E8
330
E2
100
AcDbEntity
  8
치수문자_일반주서
 62
     0
100
AcDbTrace
 10
-64.69800000000001
 20
33.83874377357603
 30
0.0
 11
-64.69800000000001
 21
32.73807710690937
 31
0.0
 12
-68.0
 22
33.2884104402427
 32
0.0
 13
-68.0
 23
33.2884104402427
 33
0.0
  0
SOLID
  5
E9
330
E2
100
AcDbEntity
  8
치수문자_일반주서
 62
     0
100
AcDbTrace
 10
78.69799999999998
 20
32.73807710690937
 30
0.0
 11
78.69799999999998
 21
33.83874377357603
 31
0.0
 12
81.99999999999999
 22
33.2884104402427
 32
0.0
 13
81.99999999999999
 23
33.2884104402427
 33
0.0
  0
MTEXT
  5
EA
330
E2
100
AcDbEntity
  8
치수문자_일반주서
 62
     0
100
AcDbMText
 10
7.000000000000014
 20
37.6634104402427
 30
0.0
 40
3.5
 41
0.0
 71
     2
 72
     1
  1
\A1;150
  7
SLDTEXTSTYLE0
 73
     1
 44
1.0
  0
POINT
  5
12E
330
E2
100
AcDbEntity
  8
Defpoints
 62
     0
100
AcDbPoint
 10
-67.99999999999999
 20
11.5
 30
0.0
  0
POINT
  5
12F
330
E2
100
AcDbEntity
  8
Defpoints
 62
     0
100
AcDbPoint
 10
82.0
 20
12.50000000000027
 30
0.0
  0
POINT
  5
130
330
E2
100
AcDbEntity
  8
Defpoints
 62
     0
100
AcDbPoint
 10
82.0
 20
33.2884104402427
 30
0.0
  0
ENDBLK
  5
E4
330
E2
100
AcDbEntity
  8
0
100
AcDbBlockEnd
  0
BLOCK
  5
ED
330
EC
100
AcDbEntity
  8
0
100
AcDbBlockBegin
  2
_D_2
 70
     0
 10
0.0
 20
0.0
 30
0.0
  3
_D_2
  1

  0
LINE
  5
EF
330
EC
100
AcDbEntity
  8
치수문자_일반주서
 62
     0
370
    -2
100
AcDbLine
 10
12.0
 20
8.775849895409321
 30
0.0
 11
12.0
 21
22.06034770157685
 31
0.0
  0
LINE
  5
F0
330
EC
100
AcDbEntity
  8
치수문자_일반주서
 62
     0
370
    -2
100
AcDbLine
 10
82.0
 20
12.56250000000027
 30
0.0
 11
82.0
 21
22.06034770157685
 31
0.0
  0
LINE
  5
F1
330
EC
100
AcDbEntity
  8
치수문자_일반주서
 62
     0
370
    -2
100
AcDbLine
 10
15.302
 20
22.06034770157685
 30
0.0
 11
78.69800000000001
 21
22.06034770157685
 31
0.0
  0
SOLID
  5
F2
330
EC
100
AcDbEntity
  8
치수문자_일반주서
 62
     0
100
AcDbTrace
 10
15.302
 20
22.61068103491019
 30
0.0
 11
15.302
 21
21.51001436824352
 31
0.0
 12
12.0
 22
22.06034770157685
 32
0.0
 13
12.0
 23
22.06034770157685
 33
0.0
  0
SOLID
  5
F3
330
EC
100
AcDbEntity
  8
치수문자_일반주서
 62
     0
100
AcDbTrace
 10
78.69800000000001
 20
21.51001436824352
 30
0.0
 11
78.69800000000001
 21
22.61068103491019
 31
0.0
 12
82.0
 22
22.06034770157685
 32
0.0
 13
82.0
 23
22.06034770157685
 33
0.0
  0
MTEXT
  5
F4
330
EC
100
AcDbEntity
  8
치수문자_일반주서
 62
     0
100
AcDbMText
 10
47.0
 20
26.43534770157685
 30
0.0
 40
3.5
 41
0.0
 71
     2
 72
     1
  1
\A1;70
  7
SLDTEXTSTYLE0
 73
     1
 44
1.0
  0
POINT
  5
131
330
EC
100
AcDbEntity
  8
Defpoints
 62
     0
100
AcDbPoint
 10
12.0
 20
8.713349895409321
 30
0.0
  0
POINT
  5
132
330
EC
100
AcDbEntity
  8
Defpoints
 62
     0
100
AcDbPoint
 10
82.0
 20
12.50000000000027
 30
0.0
  0
POINT
  5
133
330
EC
100
AcDbEntity
  8
Defpoints
 62
     0
100
AcDbPoint
 10
82.0
 20
22.06034770157685
 30
0.0
  0
ENDBLK
  5
EE
330
EC
100
AcDbEntity
  8
0
100
AcDbBlockEnd
  0
BLOCK
  5
F7
330
F6
100
AcDbEntity
  8
0
100
AcDbBlockBegin
  2
_D_3
 70
     0
 10
0.0
 20
0.0
 30
0.0
  3
_D_3
  1

  0
LINE
  5
F9
330
F6
100
AcDbEntity
  8
치수문자_일반주서
 62
     0
370
    -2
100
AcDbLine
 10
-67.06249999999999
 20
12.49999999999999
 30
0.0
 11
-85.32038262772151
 21
12.49999999999993
 31
0.0
  0
LINE
  5
FA
330
F6
100
AcDbEntity
  8
치수문자_일반주서
 62
     0
370
    -2
100
AcDbLine
 10
-67.06249999999999
 20
-12.5
 30
0.0
 11
-85.32038262772143
 21
-12.50000000000007
 31
0.0
  0
LINE
  5
FB
330
F6
100
AcDbEntity
  8
치수문자_일반주서
 62
     0
370
    -2
100
AcDbLine
 10
-85.32038262772151
 20
12.49999999999993
 30
0.0
 11
-85.32038262772157
 21
27.87769207821008
 31
0.0
  0
LINE
  5
FC
330
F6
100
AcDbEntity
  8
치수문자_일반주서
 62
     0
370
    -2
100
AcDbLine
 10
-85.32038262772151
 20
12.49999999999993
 30
0.0
 11
-85.32038262772143
 21
-12.50000000000007
 31
0.0
  0
LINE
  5
FD
330
F6
100
AcDbEntity
  8
치수문자_일반주서
 62
     0
370
    -2
100
AcDbLine
 10
-85.32038262772153
 20
15.80199999999992
 30
0.0
 11
-85.32038262772154
 21
19.10399999999992
 31
0.0
  0
LINE
  5
FE
330
F6
100
AcDbEntity
  8
치수문자_일반주서
 62
     0
370
    -2
100
AcDbLine
 10
-85.32038262772141
 20
-15.80200000000007
 30
0.0
 11
-85.3203826277214
 21
-19.10400000000007
 31
0.0
  0
SOLID
  5
FF
330
F6
100
AcDbEntity
  8
치수문자_일반주서
 62
     0
100
AcDbTrace
 10
-85.87071596105486
 20
15.80199999999992
 30
0.0
 11
-84.7700492943882
 21
15.80199999999993
 31
0.0
 12
-85.32038262772151
 22
12.49999999999993
 32
0.0
 13
-85.32038262772151
 23
12.49999999999993
 33
0.0
  0
SOLID
  5
134
330
F6
100
AcDbEntity
  8
치수문자_일반주서
 62
     0
100
AcDbTrace
 10
-84.77004929438809
 20
-15.80200000000007
 30
0.0
 11
-85.87071596105474
 21
-15.80200000000007
 31
0.0
 12
-85.32038262772143
 22
-12.50000000000007
 32
0.0
 13
-85.32038262772143
 23
-12.50000000000007
 33
0.0
  0
MTEXT
  5
135
330
F6
100
AcDbEntity
  8
치수문자_일반주서
 62
     0
100
AcDbMText
 10
-89.69538262772156
 20
23.50269207821006
 30
0.0
 40
3.5
 41
0.0
 71
     2
 72
     1
  1
\A1;%%c25
  7
SLDTEXTSTYLE0
 11
-3.410605131648482E-15
 21
1.0
 31
0.0
 73
     1
 44
1.0
  0
POINT
  5
139
330
F6
100
AcDbEntity
  8
Defpoints
 62
     0
100
AcDbPoint
 10
-66.99999999999999
 20
12.49999999999999
 30
0.0
  0
POINT
  5
13A
330
F6
100
AcDbEntity
  8
Defpoints
 62
     0
100
AcDbPoint
 10
-66.99999999999999
 20
-12.5
 30
0.0
  0
POINT
  5
13B
330
F6
100
AcDbEntity
  8
Defpoints
 62
     0
100
AcDbPoint
 10
-85.32038262772143
 20
-12.50000000000007
 30
0.0
  0
ENDBLK
  5
F8
330
F6
100
AcDbEntity
  8
0
100
AcDbBlockEnd
  0
BLOCK
  5
101
330
100
100
AcDbEntity
  8
0
100
AcDbBlockBegin
  2
SW_DOWELSYMBOL_0
 70
     0
 10
0.0
 20
0.0
 30
0.0
  3
SW_DOWELSYMBOL_0
  1

  0
CIRCLE
  5
103
330
100
100
AcDbEntity
  8
외형선
 62
     0
100
AcDbCircle
 10
0.0
 20
0.0
 30
0.0
 40
3.000000000000004
  0
HATCH
  5
104
330
100
100
AcDbEntity
  8
0
  6
Continuous
 62
     0
370
    30
100
AcDbHatch
 10
0.0
 20
0.0
 30
0.0
210
0.0
220
0.0
230
1.0
  2
SOLID
 70
     1
 71
     0
 91
        1
 92
        0
 93
        3
 72
     2
 10
0.0000000000000104
 20
0.0
 40
3.000000000000004
 50
0.0
 51
90.0
 73
     1
 72
     1
 10
0.0000000000000104
 20
3.000000000000004
 11
0.0000000000000104
 21
0.0
 72
     1
 10
0.0000000000000104
 20
0.0
 11
3.000000000000015
 21
0.0
 97
        0
 75
     0
 76
     1
 98
        1
 10
0.0
 20
0.0
  0
HATCH
  5
105
330
100
100
AcDbEntity
  8
0
  6
Continuous
 62
     0
370
    30
100
AcDbHatch
 10
0.0
 20
0.0
 30
0.0
210
0.0
220
0.0
230
1.0
  2
SOLID
 70
     1
 71
     0
 91
        1
 92
        0
 93
        3
 72
     2
 10
0.0000000000000104
 20
0.0
 40
3.000000000000004
 50
180.0
 51
270.0000000000008
 73
     1
 72
     1
 10
0.0000000000000104
 20
-3.000000000000004
 11
0.0000000000000104
 21
0.0
 72
     1
 10
0.0000000000000104
 20
0.0
 11
-2.999999999999994
 21
0.0
 97
        0
 75
     0
 76
     1
 98
        1
 10
0.0
 20
0.0
  0
ENDBLK
  5
102
330
100
100
AcDbEntity
  8
0
100
AcDbBlockEnd
  0
ENDSEC
  0
SECTION
  2
ENTITIES
  0
SPLINE
  5
95
330
1F
100
AcDbEntity
  8
0
  6
Continuous
 62
     1
370
    15
100
AcDbSpline
210
0.0
220
0.0
230
1.0
 70
     8
 71
     3
 72
    10
 73
     6
 74
     0
 42
0.000000001
 43
0.00000001
 40
0.0
 40
0.0
 40
0.0
 40
0.0
 40
0.4988711718848128
 40
0.686645839919012
 40
1.0
 40
1.0
 40
1.0
 40
1.0
 10
49.61562685978404
 20
3.203102959884461
 30
0.0
 10
49.03916726992522
 20
3.478351104334565
 30
0.0
 10
48.24572880010446
 20
3.857202407002604
 30
0.0
 10
47.0893887705873
 20
4.442504683890425
 30
0.0
 10
46.51021203452675
 20
4.74710862952924
 30
0.0
 10
46.14805478177141
 20
4.937576445763247
 30
0.0
  0
LINE
  5
96
330
1F
100
AcDbEntity
  8
0
  6
Continuous
 62
     1
370
    15
100
AcDbLine
 10
20.93073842115872
 20
12.50000000000001
 30
0.0
 11
14.87342343949406
 21
12.50000000000001
 31
0.0
  0
LINE
  5
97
330
1F
100
AcDbEntity
  8
0
  6
Continuous
 62
     1
370
    15
100
AcDbLine
 10
42.70332732966928
 20
3.519248629159923
 30
0.0
 11
42.56799589677372
 21
3.593710588254222
 31
0.0
  0
SPLINE
  5
98
330
1F
100
AcDbEntity
  8
0
  6
Continuous
 62
     1
370
    15
100
AcDbSpline
210
0.0
220
0.0
230
1.0
 70
     8
 71
     3
 72
    20
 73
    16
 74
     0
 42
0.000000001
 43
0.00000001
 40
0.0
 40
0.0
 40
0.0
 40
0.0
 40
0.1094574811389716
 40
0.2112224779945197
 40
0.3035757252352531
 40
0.3769668817541206
 40
0.4404869631765782
 40
0.5131248051898419
 40
0.5957273283186671
 40
0.6942896170462887
 40
0.777110062825931
 40
0.8354251343093664
 40
0.8957920823668978
 40
0.9831780150997934
 40
1.0
 40
1.0
 40
1.0
 40
1.0
 10
45.48424741041419
 20
9.932991750573516
 30
0.0
 10
45.12773885310079
 20
9.914395873021297
 30
0.0
 10
44.43977654921423
 20
9.87851100433813
 30
0.0
 10
43.38553693055505
 20
9.83767684721309
 30
0.0
 10
42.46050456898833
 20
9.808035154970984
 30
0.0
 10
41.66788158214765
 20
9.788209858315668
 30
0.0
 10
40.98609389546449
 20
9.776176630319933
 30
0.0
 10
40.24083934967057
 20
9.766257119584326
 30
0.0
 10
39.37106311695258
 20
9.76093887956785
 30
0.0
 10
38.46157740349737
 20
9.761925723148618
 30
0.0
 10
37.63285846830216
 20
9.76952176659032
 30
0.0
 10
36.97344195890768
 20
9.780802577446977
 30
0.0
 10
36.28441759975565
 20
9.795445279914462
 30
0.0
 10
35.72401342300233
 20
9.809085608915945
 30
0.0
 10
35.36933135682462
 20
9.821921239190567
 30
0.0
 10
35.31207604938606
 20
9.823993258127024
 30
0.0
  0
SPLINE
  5
99
330
1F
100
AcDbEntity
  8
0
  6
Continuous
 62
     1
370
    15
100
AcDbSpline
210
0.0
220
0.0
230
1.0
 70
     8
 71
     3
 72
    29
 73
    25
 74
     0
 42
0.000000001
 43
0.00000001
 40
0.0
 40
0.0
 40
0.0
 40
0.0
 40
0.0483132303316453
 40
0.0939495031244016
 40
0.1385047352634481
 40
0.1767619106289781
 40
0.2097883481973829
 40
0.2418844137936272
 40
0.2783710606438769
 40
0.3259450511828064
 40
0.383557284190466
 40
0.4365015939835085
 40
0.4798624351212354
 40
0.5161933385073034
 40
0.5506668150725316
 40
0.5848912319711548
 40
0.6348852951984589
 40
0.6899672420740309
 40
0.7347138556280113
 40
0.7723641723130565
 40
0.8136531254511857
 40
0.8670232251510989
 40
0.9308283783849752
 40
0.9999999999999999
 40
0.9999999999999999
 40
0.9999999999999999
 40
0.9999999999999999
 10
26.68319407467794
 20
-10.40172983366388
 30
0.0
 10
26.9740967065339
 20
-10.37282450715065
 30
0.0
 10
27.53978352840114
 20
-10.31661545126832
 30
0.0
 10
28.43099408315156
 20
-10.23675758326705
 30
0.0
 10
29.24196224119149
 20
-10.16877959553994
 30
0.0
 10
29.99021911091312
 20
-10.10747343402936
 30
0.0
 10
30.62917054202721
 20
-10.06303910069838
 30
0.0
 10
31.21541423973917
 20
-10.02433302744286
 30
0.0
 10
31.951621809759
 20
-9.977344966712945
 30
0.0
 10
32.8429319076013
 20
-9.92680247516415
 30
0.0
 10
33.8400713561086
 20
-9.878250048871607
 30
0.0
 10
34.80962397221381
 20
-9.839430590702067
 30
0.0
 10
35.64546873084485
 20
-9.812204950647347
 30
0.0
 10
36.36374949904533
 20
-9.793426109979071
 30
0.0
 10
37.01219868199915
 20
-9.780073784838784
 30
0.0
 10
37.73465663799499
 20
-9.768001652560361
 30
0.0
 10
38.62882306236675
 20
-9.761137057076787
 30
0.0
 10
39.58261355800368
 20
-9.76151919372125
 30
0.0
 10
40.45479528804076
 20
-9.768565842666076
 30
0.0
 10
41.22478841166897
 20
-9.78004155636817
 30
0.0
 10
42.03284975428589
 20
-9.795932980226484
 30
0.0
 10
43.05719787434087
 20
-9.826560356350916
 30
0.0
 10
44.25924728148421
 20
-9.869563586567324
 30
0.0
 10
45.06507393746595
 20
-9.911287749764602
 30
0.0
 10
45.48424741041418
 20
-9.932991750573505
 30
0.0
  0
SPLINE
  5
9A
330
1F
100
AcDbEntity
  8
0
  6
Continuous
 62
     1
370
    15
100
AcDbSpline
210
0.0
220
0.0
230
1.0
 70
     8
 71
     3
 72
    35
 73
    31
 74
     0
 42
0.000000001
 43
0.00000001
 40
0.0
 40
0.0
 40
0.0
 40
0.0
 40
0.0601975047809988
 40
0.1116039760990472
 40
0.1548287974498017
 40
0.188437298556986
 40
0.2237718352725868
 40
0.2761904774537665
 40
0.3138721499051167
 40
0.3417394997462578
 40
0.3674323272021567
 40
0.3945047256242714
 40
0.4242147589653584
 40
0.4582803043905222
 40
0.5024616328590271
 40
0.5452220355839045
 40
0.578327726766793
 40
0.6033094123259803
 40
0.6348016229679203
 40
0.6750016965096718
 40
0.7156122995347834
 40
0.7532221074843395
 40
0.7815805955389307
 40
0.790984519434857
 40
0.8051477416538014
 40
0.824574724003853
 40
0.8492627969525636
 40
0.8903182194188406
 40
0.9405215662984799
 40
1.0
 40
1.0
 40
1.0
 40
1.0
 10
77.38246576384056
 20
8.55169099291761
 30
0.0
 10
76.96808834046195
 20
8.516758200105444
 30
0.0
 10
76.19984772612128
 20
8.451994077601277
 30
0.0
 10
75.0460292346719
 20
8.377795558301322
 30
0.0
 10
74.0789022785344
 20
8.32667019900634
 30
0.0
 10
73.25109866489524
 20
8.290271486954218
 30
0.0
 10
72.38641344279853
 20
8.260331161597477
 30
0.0
 10
71.46667004209971
 20
8.238190821342833
 30
0.0
 10
70.60744885371325
 20
8.22770355937323
 30
0.0
 10
69.94193137524046
 20
8.225173946220261
 30
0.0
 10
69.35377979230324
 20
8.226999542260364
 30
0.0
 10
68.75196893239438
 20
8.23295092689444
 30
0.0
 10
68.08909406967703
 20
8.244352449919633
 30
0.0
 10
67.30186678329518
 20
8.264411103282143
 30
0.0
 10
66.41920731412355
 20
8.295695736867524
 30
0.0
 10
65.54338222807296
 20
8.33637099609973
 30
0.0
 10
64.80755644923892
 20
8.377600643098098
 30
0.0
 10
64.15374325232673
 20
8.419073801757566
 30
0.0
 10
63.44896516362734
 20
8.468794423605749
 30
0.0
 10
62.6300142887143
 20
8.533636963035576
 30
0.0
 10
61.76591110273623
 20
8.610512147248857
 30
0.0
 10
60.9878477651872
 20
8.687072740199017
 30
0.0
 10
60.43804602379312
 20
8.74563031900108
 30
0.0
 10
60.05974813291252
 20
8.787538174135314
 30
0.0
 10
59.74666110396109
 20
8.82304912754053
 30
0.0
 10
59.32215117512415
 20
8.872798610260409
 30
0.0
 10
58.70150007995469
 20
8.948580131874003
 30
0.0
 10
57.8559061288774
 20
9.058155688110858
 30
0.0
 10
56.75593503087451
 20
9.21133178520301
 30
0.0
 10
55.95389170545643
 20
9.334756976565806
 30
0.0
 10
55.51895820507139
 20
9.401688211841817
 30
0.0
  0
SPLINE
  5
9B
330
1F
100
AcDbEntity
  8
0
  6
Continuous
 62
     1
370
    15
100
AcDbSpline
210
0.0
220
0.0
230
1.0
 70
     8
 71
     3
 72
    23
 73
    19
 74
     0
 42
0.000000001
 43
0.00000001
 40
0.0
 40
0.0
 40
0.0
 40
0.0
 40
0.1158659740332317
 40
0.2116048327888956
 40
0.2876143518232537
 40
0.3480912371565984
 40
0.3846859216936262
 40
0.4164247537099195
 40
0.4551700922762917
 40
0.5009029577571179
 40
0.5535862242067007
 40
0.6349639065944854
 40
0.7013327143874839
 40
0.754746520358511
 40
0.8165988039862336
 40
0.8998305940339277
 40
0.9868368318766403
 40
1.0
 40
1.0
 40
1.0
 40
1.0
 10
55.51895820507137
 20
-9.401688211841796
 30
0.0
 10
55.87914434368684
 20
-9.346066959343963
 30
0.0
 10
56.53694857198207
 20
-9.24448643984703
 30
0.0
 10
57.42900381275631
 20
-9.117161515178676
 30
0.0
 10
58.14790856869182
 20
-9.020116004346743
 30
0.0
 10
58.6831274680624
 20
-8.951416420748496
 30
0.0
 10
59.07787871633777
 20
-8.90257554818009
 30
0.0
 10
59.40555580476086
 20
-8.863066277953507
 30
0.0
 10
59.76375139621403
 20
-8.821049145142979
 30
0.0
 10
60.18733016137058
 20
-8.77307075713622
 30
0.0
 10
60.74378200337377
 20
-8.712615412789576
 30
0.0
 10
61.36448213152391
 20
-8.649463863793036
 30
0.0
 10
61.98711790755392
 20
-8.590844292373768
 30
0.0
 10
62.54921028749747
 20
-8.541393562731844
 30
0.0
 10
63.16357043343329
 20
-8.490888904543466
 30
0.0
 10
63.88167576702713
 20
-8.437650743938264
 30
0.0
 10
64.44881664192701
 20
-8.39923673485982
 30
0.0
 10
64.75864795416375
 20
-8.381544280001226
 30
0.0
 10
64.79936259765714
 20
-8.379219331025311
 30
0.0
  0
LINE
  5
9C
330
1F
100
AcDbEntity
  8
0
  6
Continuous
 62
     1
370
    15
100
AcDbLine
 10
14.87342343949403
 20
-12.5
 30
0.0
 11
20.93073842115872
 21
-12.5
 31
0.0
  0
LINE
  5
9D
330
1F
100
AcDbEntity
  8
0
  6
Continuous
 62
   131
370
    15
100
AcDbLine
 10
8.950051977908986
 20
12.5
 30
0.0
 11
-66.99999999999999
 21
12.5
 31
0.0
  0
LINE
  5
9E
330
1F
100
AcDbEntity
  8
0
  6
Continuous
 62
   131
370
    15
100
AcDbLine
 10
-66.99999999999999
 20
-12.5
 30
0.0
 11
8.950051977908986
 21
-12.5
 31
0.0
  0
LINE
  5
9F
330
1F
100
AcDbEntity
  8
0
  6
Continuous
 62
   131
370
    15
100
AcDbLine
 10
-66.99999999999999
 20
12.49999999999999
 30
0.0
 11
-67.99999999999999
 21
11.5
 31
0.0
  0
LINE
  5
A0
330
1F
100
AcDbEntity
  8
0
  6
Continuous
 62
   131
370
    15
100
AcDbLine
 10
-67.99999999999999
 20
-11.5
 30
0.0
 11
-66.99999999999999
 21
-12.5
 31
0.0
  0
SPLINE
  5
A1
330
1F
100
AcDbEntity
  8
0
  6
Continuous
 62
   131
370
    15
100
AcDbSpline
210
0.0
220
0.0
230
1.0
 70
     8
 71
     3
 72
     9
 73
     5
 74
     0
 42
0.000000001
 43
0.00000001
 40
0.0
 40
0.0
 40
0.0
 40
0.0
 40
0.4980273808166605
 40
1.0
 40
1.0
 40
1.0
 40
1.0
 10
9.502344754667734
 20
8.563265434319067
 30
0.0
 10
9.410155272511005
 20
8.55399353059276
 30
0.0
 10
9.225046008025277
 20
8.535376273623676
 30
0.0
 10
9.041966164896392
 20
8.51146699952485
 30
0.0
 10
8.95006509652131
 20
8.499465198582689
 30
0.0
  0
SPLINE
  5
A2
330
1F
100
AcDbEntity
  8
0
  6
Continuous
 62
     1
370
    15
100
AcDbSpline
210
0.0
220
0.0
230
1.0
 70
     8
 71
     3
 72
    25
 73
    21
 74
     0
 42
0.000000001
 43
0.00000001
 40
0.0
 40
0.0
 40
0.0
 40
0.0
 40
0.0599052617080064
 40
0.1198109861684957
 40
0.1797171522749348
 40
0.2396237388927753
 40
0.2995307248607805
 40
0.3594380889923544
 40
0.415927698554431
 40
0.4724183802034357
 40
0.5289102296486106
 40
0.5854031594956565
 40
0.6418953237859313
 40
0.6983862957696637
 40
0.7548761711059737
 40
0.811365045643352
 40
0.8678530154032316
 40
0.9243401765634974
 40
0.9798178663685654
 40
1.0
 40
1.0
 40
1.0
 40
1.0
 10
82.00000000000003
 20
-11.86176086539874
 30
0.0
 10
80.78053439160378
 20
-11.60698294873567
 30
0.0
 10
78.34159375475829
 20
-11.09742514731675
 30
0.0
 10
74.68316169015742
 20
-9.926413431251884
 30
0.0
 10
71.02469841806513
 20
-8.496883665379995
 30
0.0
 10
67.36620149144665
 20
-6.818789494481736
 30
0.0
 10
63.70768552544053
 20
-4.948200242087143
 30
0.0
 10
60.1186859128593
 20
-2.974374699188086
 30
0.0
 10
56.59936020754832
 20
-0.9609954366015124
 30
0.0
 10
53.14951181372773
 20
1.037010145815609
 30
0.0
 10
49.6995925560457
 20
3.008741448048137
 30
0.0
 10
46.24962012639018
 20
4.904231204434206
 30
0.0
 10
42.79968172786349
 20
6.675520835689217
 30
0.0
 10
39.34981984743888
 20
8.277578579971113
 30
0.0
 10
35.90003867910696
 20
9.670324423492543
 30
0.0
 10
32.45032959245954
 20
10.81659303735899
 30
0.0
 10
29.00069142338575
 20
11.69440088842771
 30
0.0
 10
25.57162977335142
 20
12.25187274851205
 30
0.0
 10
22.88167394870242
 20
12.50910541991317
 30
0.0
 10
21.34156101627007
 20
12.47397273205917
 30
0.0
 10
20.93073842115872
 20
12.46460114527909
 30
0.0
  0
SPLINE
  5
A3
330
1F
100
AcDbEntity
  8
0
  6
Continuous
 62
     1
370
    15
100
AcDbSpline
210
0.0
220
0.0
230
1.0
 70
     8
 71
     3
 72
    16
 73
    12
 74
     0
 42
0.000000001
 43
0.00000001
 40
0.0
 40
0.0
 40
0.0
 40
0.0
 40
0.1125030261912407
 40
0.2250068285860992
 40
0.337511374658348
 40
0.4500166318412308
 40
0.562522567529224
 40
0.6750291490797976
 40
0.7875363438151778
 40
0.9000441190241195
 40
1.0
 40
1.0
 40
1.0
 40
1.0
 10
82.00000000000001
 20
-9.862153304602685
 30
0.0
 10
80.78257053745857
 20
-9.612776426355556
 30
0.0
 10
78.34770321284027
 20
-9.11402094930993
 30
0.0
 10
74.69538519422015
 20
-8.03209221705711
 30
0.0
 10
71.04303972883235
 20
-6.742226665890557
 30
0.0
 10
67.39066767734407
 20
-5.255500751801101
 30
0.0
 10
63.7382703444323
 20
-3.621156765596902
 30
0.0
 10
60.08584894275364
 20
-1.883015366467037
 30
0.0
 10
56.4334046175501
 20
-0.0937224635516732
 30
0.0
 10
52.91677355101442
 20
1.639569366041464
 30
0.0
 10
50.61762280904292
 20
2.725660761623559
 30
0.0
 10
49.53596186977059
 20
3.236624491680499
 30
0.0
  0
LINE
  5
A4
330
1F
100
AcDbEntity
  8
0
  6
Continuous
 62
     1
370
    15
100
AcDbLine
 10
82.00000000000001
 20
-11.86176086539874
 30
0.0
 11
82.00000000000001
 21
-9.862153304602685
 31
0.0
  0
SPLINE
  5
A5
330
1F
100
AcDbEntity
  8
0
  6
Continuous
 62
     1
370
    15
100
AcDbSpline
210
0.0
220
0.0
230
1.0
 70
     8
 71
     3
 72
    64
 73
    60
 74
     0
 42
0.000000001
 43
0.00000001
 40
0.0
 40
0.0
 40
0.0
 40
0.0
 40
0.0312499999999999
 40
0.0312499999999999
 40
0.0624999999999999
 40
0.0624999999999999
 40
0.0937499999999998
 40
0.0937499999999998
 40
0.1249999999999997
 40
0.1249999999999997
 40
0.1562499999999996
 40
0.1562499999999996
 40
0.1874999999999996
 40
0.1874999999999996
 40
0.2187499999999995
 40
0.2187499999999995
 40
0.2499999999999994
 40
0.2499999999999994
 40
0.2812499999999994
 40
0.2812499999999994
 40
0.3124999999999993
 40
0.3124999999999993
 40
0.3437499999999993
 40
0.3437499999999993
 40
0.3749999999999992
 40
0.3749999999999992
 40
0.4062499999999991
 40
0.4062499999999991
 40
0.4374999999999991
 40
0.4374999999999991
 40
0.468749999999999
 40
0.468749999999999
 40
0.4999999999999989
 40
0.4999999999999989
 40
0.6249999999999994
 40
0.6249999999999994
 40
0.6562499999999994
 40
0.6562499999999994
 40
0.6874999999999996
 40
0.6874999999999996
 40
0.7187499999999996
 40
0.7187499999999996
 40
0.7499999999999996
 40
0.7499999999999996
 40
0.7812499999999997
 40
0.7812499999999997
 40
0.8124999999999997
 40
0.8124999999999997
 40
0.8437499999999998
 40
0.8437499999999998
 40
0.8749999999999998
 40
0.8749999999999998
 40
0.9062499999999999
 40
0.9062499999999999
 40
0.9374999999999999
 40
0.9374999999999999
 40
0.96875
 40
0.96875
 40
1.0
 40
1.0
 40
1.0
 40
1.0
 10
82.0
 20
-12.49999999999974
 30
0.0
 10
81.27332718209429
 20
-12.47215023080674
 30
0.0
 10
80.54208942376044
 20
-12.43357412952825
 30
0.0
 10
79.08163792471669
 20
-12.31422286713199
 30
0.0
 10
78.35544958267715
 20
-12.23361190884597
 30
0.0
 10
76.89694206636746
 20
-12.03087416535323
 30
0.0
 10
76.16514539825535
 20
-11.90869211581189
 30
0.0
 10
74.70764843027675
 20
-11.62459682786758
 30
0.0
 10
73.98074199396389
 20
-11.46267191980293
 30
0.0
 10
72.52001403419516
 20
-11.09984852314573
 30
0.0
 10
71.79057054031091
 20
-10.89927684393546
 30
0.0
 10
70.33566713655571
 20
-10.46220251586037
 30
0.0
 10
69.60415129083358
 20
-10.22506938458699
 30
0.0
 10
68.14415928254802
 20
-9.717110977917713
 30
0.0
 10
67.41833174396797
 20
-9.446664720737536
 30
0.0
 10
65.95899589772952
 20
-8.873633061273283
 30
0.0
 10
65.22729140024217
 20
-8.571220524519662
 30
0.0
 10
63.77098677760575
 20
-7.939284046821409
 30
0.0
 10
63.0430052556796
 20
-7.609306801658859
 30
0.0
 10
61.58218398075129
 20
-6.923833621284325
 30
0.0
 10
60.8541788172942
 20
-6.569096600058693
 30
0.0
 10
59.39789836274348
 20
-5.838486879839057
 30
0.0
 10
58.66619648209691
 20
-5.462015917293761
 30
0.0
 10
57.20684680264183
 20
-4.692453487561401
 30
0.0
 10
56.48102262620333
 20
-4.299720100761045
 30
0.0
 10
55.02104101411243
 20
-3.499472508326341
 30
0.0
 10
54.28952081908599
 20
-3.092415238472993
 30
0.0
 10
52.83458984206287
 20
-2.270690289523174
 30
0.0
 10
52.10517669136486
 20
-1.854900679853923
 30
0.0
 10
50.6444452858447
 20
-1.018053952721949
 30
0.0
 10
49.91752191950959
 20
-0.5978443461558626
 30
0.0
 10
48.46004570437094
 20
0.2438730402197851
 30
0.0
 10
47.72824991953491
 20
0.6656201658873117
 30
0.0
 10
44.08193796760121
 20
2.762683644913526
 30
0.0
 10
41.16835950878203
 20
4.409026175681557
 30
0.0
 10
37.52213404036822
 20
6.265319326518447
 30
0.0
 10
36.7903365215958
 20
6.626954848263466
 30
0.0
 10
35.33281886510852
 20
7.325468176169164
 30
0.0
 10
34.60592923249183
 20
7.662571550870087
 30
0.0
 10
33.14520478328298
 20
8.310622250252253
 30
0.0
 10
32.41573082026055
 20
8.620895053553769
 30
0.0
 10
30.96085505372244
 20
9.2105640646163
 30
0.0
 10
30.2293435898786
 20
9.490763948224995
 30
0.0
 10
28.76934125009807
 20
10.0175029673192
 30
0.0
 10
28.04351022289111
 20
10.26378915593126
 30
0.0
 10
26.58418827447202
 20
10.72149836260798
 30
0.0
 10
25.85248119274593
 20
10.93266000073776
 30
0.0
 10
24.39615246617935
 20
11.31644639172523
 30
0.0
 10
23.66819445961659
 20
11.48941129084892
 30
0.0
 10
22.20737324951058
 20
11.79602170420588
 30
0.0
 10
21.47934431835854
 20
11.92932660642533
 30
0.0
 10
20.02308809604542
 20
12.15500464879696
 30
0.0
 10
19.29138886484132
 20
12.2475065159266
 30
0.0
 10
17.83202541677439
 20
12.3903344597918
 30
0.0
 10
17.1062044759916
 20
12.44068695299272
 30
0.0
 10
15.64623332479348
 20
12.49910689795523
 30
0.0
 10
14.91470881303737
 20
12.50705122851995
 30
0.0
 10
13.4597503266995
 20
12.48043301309633
 30
0.0
 10
12.7303673932313
 20
12.44586444145524
 30
0.0
 10
11.99999999999999
 20
12.39014329853947
 30
0.0
  0
LINE
  5
A6
330
1F
100
AcDbEntity
  8
0
  6
Continuous
 62
     1
370
    15
100
AcDbLine
 10
82.0
 20
-12.49999999999974
 30
0.0
 11
81.99999999999943
 21
-11.86176086539875
 31
0.0
  0
SPLINE
  5
A7
330
1F
100
AcDbEntity
  8
0
  6
Continuous
 62
     1
370
    15
100
AcDbSpline
210
0.0
220
0.0
230
1.0
 70
     8
 71
     3
 72
    17
 73
    13
 74
     0
 42
0.000000001
 43
0.00000001
 40
0.0
 40
0.0
 40
0.0
 40
0.0
 40
0.0226182915823349
 40
0.1398793815709972
 40
0.2572085484052708
 40
0.374543344581534
 40
0.4918137675280677
 40
0.6091025732676992
 40
0.7068250990227342
 40
0.8045493982651492
 40
0.9022746418151613
 40
1.0
 40
1.0
 40
1.0
 40
1.0
 10
50.9200381258782
 20
-1.174869114234871
 30
0.0
 10
50.62659332360216
 20
-1.059106150723392
 30
0.0
 10
48.81182860902683
 20
-0.3431877231150767
 30
0.0
 10
45.4751425597434
 20
1.026460652393825
 30
0.0
 10
40.90916063820756
 20
2.831373073474428
 30
0.0
 10
36.3430444866584
 20
4.516886129192462
 30
0.0
 10
31.77793729677289
 20
6.001519105459729
 30
0.0
 10
27.466902571824
 20
7.151868749630887
 30
0.0
 10
23.40993495465262
 20
7.975347213199345
 30
0.0
 10
19.60663763926341
 20
8.49684683809053
 30
0.0
 10
15.80332924156134
 20
8.776065587515198
 30
0.0
 10
13.26777690956744
 20
8.73425513428544
 30
0.0
 10
12.0
 20
8.713349895409321
 30
0.0
  0
SPLINE
  5
A8
330
1F
100
AcDbEntity
  8
0
  6
Continuous
 62
   131
370
    15
100
AcDbSpline
210
0.0
220
0.0
230
1.0
 70
    24
 71
     3
 72
    10
 73
     6
 74
     0
 42
0.000000001
 43
0.00000001
 40
0.0
 40
0.0
 40
0.0
 40
0.0
 40
0.5
 40
0.5
 40
1.0
 40
1.0
 40
1.0
 40
1.0
 10
12.0
 20
12.39014329853945
 30
0.0
 10
12.0
 20
11.75210267871349
 30
0.0
 10
12.0
 20
11.07797127199695
 30
0.0
 10
12.0
 20
9.807108420590415
 30
0.0
 10
12.0
 20
9.213532704041231
 30
0.0
 10
12.0
 20
8.713349895409321
 30
0.0
  0
SPLINE
  5
A9
330
1F
100
AcDbEntity
  8
0
  6
Continuous
 62
     1
370
    15
100
AcDbSpline
210
0.0
220
0.0
230
1.0
 70
     8
 71
     3
 72
    10
 73
     6
 74
     0
 42
0.000000001
 43
0.00000001
 40
0.0
 40
0.0
 40
0.0
 40
0.0
 40
0.5
 40
0.5
 40
1.0
 40
1.0
 40
1.0
 40
1.0
 10
82.00000000000001
 20
-3.340536825370548
 30
0.0
 10
81.14888280280691
 20
-2.671419553953052
 30
0.0
 10
80.30665809947936
 20
-1.984398767618596
 30
0.0
 10
78.63974243677175
 20
-0.5750560014869184
 30
0.0
 10
77.81504875557346
 20
0.1472604983947944
 30
0.0
 10
77.00000000000192
 20
0.8889954058057808
 30
0.0
  0
LINE
  5
AA
330
1F
100
AcDbEntity
  8
0
  6
Continuous
 62
     1
370
    15
100
AcDbLine
 10
77.00000000000001
 20
2.937719435296604
 30
0.0
 11
82.00000000000001
 21
0.0000000000000135
 31
0.0
  0
LINE
  5
AB
330
1F
100
AcDbEntity
  8
0
  6
Continuous
 62
     1
370
    15
100
AcDbLine
 10
82.00000000000001
 20
0.0000000000000135
 30
0.0
 11
82.00000000000001
 21
-3.340536825370548
 31
0.0
  0
SPLINE
  5
AC
330
1F
100
AcDbEntity
  8
0
  6
Continuous
 62
     1
370
    15
100
AcDbSpline
210
0.0
220
0.0
230
1.0
 70
     8
 71
     3
 72
    16
 73
    12
 74
     0
 42
0.000000001
 43
0.00000001
 40
0.0
 40
0.0
 40
0.0
 40
0.0
 40
0.1051937575245065
 40
0.2103914923041595
 40
0.3155948599843433
 40
0.4208055121467977
 40
0.5366957083167021
 40
0.6525865449684616
 40
0.7684779879341794
 40
0.8843700030127448
 40
1.0
 40
1.0
 40
1.0
 40
1.0
 10
77.0
 20
2.28910902158233
 30
0.0
 10
75.89494734944269
 20
2.780818356154357
 30
0.0
 10
73.68480026755658
 20
3.764255616263574
 30
0.0
 10
70.36948182087148
 20
5.136955545668656
 30
0.0
 10
67.05395708626821
 20
6.393287713317099
 30
0.0
 10
63.62609859375674
 20
7.536410378944106
 30
0.0
 10
60.08583204816434
 20
8.52011187755786
 30
0.0
 10
56.43339417497111
 20
9.294384816608675
 30
0.0
 10
52.78092433176743
 20
9.79934980765439
 30
0.0
 10
49.13119522538909
 20
10.04624964334277
 30
0.0
 10
46.6989536884432
 20
9.970500538938786
 30
0.0
 10
45.48420922816538
 20
9.932668850124983
 30
0.0
  0
SPLINE
  5
AD
330
1F
100
AcDbEntity
  8
0
  6
Continuous
 62
     1
370
    15
100
AcDbSpline
210
0.0
220
0.0
230
1.0
 70
    24
 71
     3
 72
     8
 73
     4
 74
     0
 42
0.000000001
 43
0.00000001
 40
0.0
 40
0.0
 40
0.0
 40
0.0
 40
1.0
 40
1.0
 40
1.0
 40
1.0
 10
77.00000000000003
 20
0.8889954057934506
 30
0.0
 10
77.00000000000003
 20
1.361273205123688
 30
0.0
 10
77.00000000000001
 20
1.829117335839314
 30
0.0
 10
77.00000000000001
 20
2.289109021582328
 30
0.0
  0
SPLINE
  5
AE
330
1F
100
AcDbEntity
  8
0
  6
Continuous
 62
     1
370
    15
100
AcDbSpline
210
0.0
220
0.0
230
1.0
 70
    24
 71
     3
 72
    12
 73
     8
 74
     0
 42
0.000000001
 43
0.00000001
 40
0.0
 40
0.0
 40
0.0
 40
0.0
 40
0.5000000000000001
 40
0.5000000000000001
 40
0.75
 40
0.75
 40
1.0
 40
1.0
 40
1.0
 40
1.0
 10
82.00000000000001
 20
-9.862153304602685
 30
0.0
 10
82.00000000000004
 20
-9.10614236254755
 30
0.0
 10
82.00000000000001
 20
-8.150893548830846
 30
0.0
 10
82.0
 20
-6.485247379245326
 30
0.0
 10
82.0
 20
-5.892209210045265
 30
0.0
 10
82.00000000000001
 20
-4.651258470056884
 30
0.0
 10
82.0
 20
-4.003439931756154
 30
0.0
 10
82.0
 20
-3.340536825370948
 30
0.0
  0
SPLINE
  5
AF
330
1F
100
AcDbEntity
  8
0
  6
Continuous
 62
     1
370
    15
100
AcDbSpline
210
0.0
220
0.0
230
1.0
 70
     8
 71
     3
 72
    11
 73
     7
 74
     0
 42
0.000000001
 43
0.00000001
 40
0.0
 40
0.0
 40
0.0
 40
0.0
 40
0.223161773495189
 40
0.4821061492600144
 40
0.7410529287042897
 40
1.0
 40
1.0
 40
1.0
 40
1.0
 10
26.68768145902564
 20
-10.38208132075504
 30
0.0
 10
25.59510874542509
 20
-10.47653744304762
 30
0.0
 10
23.23477607961625
 20
-10.68059513930667
 30
0.0
 10
19.60665860241016
 20
-10.59227908833092
 30
0.0
 10
15.80333585161905
 20
-10.22613983848224
 30
0.0
 10
13.26777909349821
 20
-9.714974087433323
 30
0.0
 10
12.00000000000001
 20
-9.459391067878908
 30
0.0
  0
SPLINE
  5
B0
330
1F
100
AcDbEntity
  8
0
  6
Continuous
 62
     1
370
    15
100
AcDbSpline
210
0.0
220
0.0
230
1.0
 70
     8
 71
     3
 72
    19
 73
    15
 74
     0
 42
0.000000001
 43
0.00000001
 40
0.0
 40
0.0
 40
0.0
 40
0.0
 40
0.0632078167917864
 40
0.1471113239984995
 40
0.2310152206198824
 40
0.3149194818509671
 40
0.3988240828667929
 40
0.4827289988237606
 40
0.5666342048609911
 40
0.6505396761016855
 40
0.7379031628440618
 40
0.8252681938027446
 40
0.91263404699223
 40
1.0
 40
1.0
 40
1.0
 40
1.0
 10
55.53249199921816
 20
-9.374521616641683
 30
0.0
 10
54.61530491923379
 20
-9.514485065556192
 30
0.0
 10
52.48062265144898
 20
-9.840239210000636
 30
0.0
 10
49.12843670936634
 20
-10.02817773446466
 30
0.0
 10
45.47592947007329
 20
-9.981255325596052
 30
0.0
 10
41.82340436379406
 20
-9.642081889400734
 30
0.0
 10
38.17086180399099
 20
-9.031508568371923
 30
0.0
 10
34.51830640179518
 20
-8.163866534614213
 30
0.0
 10
30.86572664842476
 20
-7.064583587679361
 30
0.0
 10
27.16299693688675
 20
-5.746845601770239
 30
0.0
 10
23.40991486074829
 20
-4.239469795055435
 30
0.0
 10
19.60664727578423
 20
-2.58200581196932
 30
0.0
 10
15.80332888292186
 20
-0.8430547519929004
 30
0.0
 10
13.26777677713193
 20
0.328521335636934
 30
0.0
 10
12.00000000000001
 20
0.9143097140924578
 30
0.0
  0
SPLINE
  5
B1
330
1F
100
AcDbEntity
  8
0
  6
Continuous
 62
   131
370
    15
100
AcDbSpline
210
0.0
220
0.0
230
1.0
 70
    24
 71
     3
 72
    14
 73
    10
 74
     0
 42
0.000000001
 43
0.00000001
 40
0.0
 40
0.0
 40
0.0
 40
0.0
 40
0.2499999999999999
 40
0.2499999999999999
 40
0.4999999999999998
 40
0.4999999999999998
 40
0.7499999999999999
 40
0.7499999999999999
 40
1.0
 40
1.0
 40
1.0
 40
1.0
 10
12.0
 20
0.914309714092466
 30
0.0
 10
12.0
 20
-0.0494280659149252
 30
0.0
 10
12.0
 20
-1.033559768270983
 30
0.0
 10
12.0
 20
-2.97443139277541
 30
0.0
 10
12.0
 20
-3.930618507052393
 30
0.0
 10
12.0
 20
-5.743679740304607
 30
0.0
 10
12.0
 20
-6.60003030223314
 30
0.0
 10
12.0
 20
-8.155613539470155
 30
0.0
 10
12.0
 20
-8.854596799081738
 30
0.0
 10
12.0
 20
-9.459391067878904
 30
0.0
  0
SPLINE
  5
B2
330
1F
100
AcDbEntity
  8
0
  6
Continuous
 62
     1
370
    15
100
AcDbSpline
210
0.0
220
0.0
230
1.0
 70
    24
 71
     3
 72
    10
 73
     6
 74
     0
 42
0.000000001
 43
0.00000001
 40
0.0
 40
0.0
 40
0.0
 40
0.0
 40
0.5
 40
0.5
 40
1.0
 40
1.0
 40
1.0
 40
1.0
 10
77.00000000000001
 20
2.289109021582327
 30
0.0
 10
77.00000000000001
 20
3.285481301107079
 30
0.0
 10
77.00000000000003
 20
4.230412258055743
 30
0.0
 10
77.0
 20
5.890227061962098
 30
0.0
 10
77.00000000000001
 20
6.603509984791774
 30
0.0
 10
77.0
 20
7.154572845957854
 30
0.0
  0
SPLINE
  5
B3
330
1F
100
AcDbEntity
  8
0
  6
Continuous
 62
     1
370
    15
100
AcDbSpline
210
0.0
220
0.0
230
1.0
 70
     8
 71
     3
 72
     9
 73
     5
 74
     0
 42
0.000000001
 43
0.00000001
 40
0.0
 40
0.0
 40
0.0
 40
0.0
 40
0.9884169643901125
 40
1.0
 40
1.0
 40
1.0
 40
1.0
 10
82.00000000000001
 20
8.750000000000014
 30
0.0
 10
80.47851918063556
 20
8.747813267447036
 30
0.0
 10
78.93920847050099
 20
8.745600909068177
 30
0.0
 10
77.39977943267911
 20
8.551730036991534
 30
0.0
 10
77.38194817131513
 20
8.549484423776548
 30
0.0
  0
SPLINE
  5
B4
330
1F
100
AcDbEntity
  8
0
  6
Continuous
 62
     1
370
    15
100
AcDbSpline
210
0.0
220
0.0
230
1.0
 70
     8
 71
     3
 72
     8
 73
     4
 74
     0
 42
0.000000001
 43
0.00000001
 40
0.0
 40
0.0
 40
0.0
 40
0.0
 40
1.0
 40
1.0
 40
1.0
 40
1.0
 10
82.00000000000001
 20
8.750000000000014
 30
0.0
 10
80.31907924013187
 20
8.29431548946011
 30
0.0
 10
78.65172891185601
 20
7.766157559606861
 30
0.0
 10
77.00000000000001
 20
7.154572845957857
 30
0.0
  0
SPLINE
  5
B5
330
1F
100
AcDbEntity
  8
0
  6
Continuous
 62
   131
370
    15
100
AcDbSpline
210
0.0
220
0.0
230
1.0
 70
    24
 71
     3
 72
    14
 73
    10
 74
     0
 42
0.000000001
 43
0.00000001
 40
0.0
 40
0.0
 40
0.0
 40
0.0
 40
0.2499999999999998
 40
0.2499999999999998
 40
0.4999999999999999
 40
0.4999999999999999
 40
0.75
 40
0.75
 40
1.0
 40
1.0
 40
1.0
 40
1.0
 10
12.0
 20
8.713349895409321
 30
0.0
 10
12.0
 20
8.577518163152032
 30
0.0
 10
12.0
 20
8.302620745002123
 30
0.0
 10
12.0
 20
7.460288211084728
 30
0.0
 10
12.0
 20
6.892693730171854
 30
0.0
 10
12.0
 20
5.506579434965815
 30
0.0
 10
12.0
 20
4.688798200320112
 30
0.0
 10
12.0
 20
2.893173297723816
 30
0.0
 10
12.0
 20
1.91650921519692
 30
0.0
 10
12.0
 20
0.9143097140924623
 30
0.0
  0
SPLINE
  5
B6
330
1F
100
AcDbEntity
  8
0
  6
Continuous
 62
     1
370
    15
100
AcDbSpline
210
0.0
220
0.0
230
1.0
 70
     8
 71
     3
 72
    14
 73
    10
 74
     0
 42
0.000000001
 43
0.00000001
 40
0.0
 40
0.0
 40
0.0
 40
0.0
 40
0.1227556885279947
 40
0.2707304673943038
 40
0.4187031280689071
 40
0.5640313973590747
 40
0.7093564265957061
 40
0.8546790243236102
 40
1.0
 40
1.0
 40
1.0
 40
1.0
 10
35.31204670133266
 20
-9.824002978702625
 30
0.0
 10
34.35813494161459
 20
-10.15424190299171
 30
0.0
 10
32.25433853382125
 20
-10.88256447114859
 30
0.0
 10
29.0006917183931
 20
-11.68653682197364
 30
0.0
 10
25.57162942060888
 20
-12.26565700649217
 30
0.0
 10
22.16323141359965
 20
-12.53135905907167
 30
0.0
 10
18.77542685195699
 20
-12.48571917857008
 30
0.0
 10
15.38769386655766
 20
-12.15456740521277
 30
0.0
 10
13.12922708742825
 20
-11.68588730932696
 30
0.0
 10
11.99999999999748
 20
-11.45154856921145
 30
0.0
  0
SPLINE
  5
B7
330
1F
100
AcDbEntity
  8
0
  6
Continuous
 62
   131
370
    15
100
AcDbSpline
210
0.0
220
0.0
230
1.0
 70
    24
 71
     3
 72
     8
 73
     4
 74
     0
 42
0.000000001
 43
0.00000001
 40
0.0
 40
0.0
 40
0.0
 40
0.0
 40
1.0
 40
1.0
 40
1.0
 40
1.0
 10
12.0
 20
-9.459391067878904
 30
0.0
 10
12.0
 20
-10.11525671148237
 30
0.0
 10
12.0
 20
-10.783540770045
 30
0.0
 10
12.0
 20
-11.45154856919882
 30
0.0
  0
LINE
  5
B8
330
1F
100
AcDbEntity
  8
0
  6
Continuous
 62
     1
370
    15
100
AcDbLine
 10
12.0
 20
-12.39014329853946
 30
0.0
 11
14.87342343949403
 21
-12.46994788730518
 31
0.0
  0
SPLINE
  5
B9
330
1F
100
AcDbEntity
  8
0
  6
Continuous
 62
     1
370
    15
100
AcDbSpline
210
0.0
220
0.0
230
1.0
 70
     8
 71
     3
 72
    13
 73
     9
 74
     0
 42
0.000000001
 43
0.00000001
 40
0.0
 40
0.0
 40
0.0
 40
0.0
 40
0.0115254206232734
 40
0.2120712037263489
 40
0.4090419147752631
 40
0.6060195591628382
 40
0.8030052256507518
 40
1.0
 40
1.0
 40
1.0
 40
1.0
 10
64.79908615772544
 20
8.379093841410597
 30
0.0
 10
64.86516823993475
 20
8.4091892870699
 30
0.0
 10
66.08109841523537
 20
8.962954533152205
 30
0.0
 10
68.42639519910723
 20
9.839942870248107
 30
0.0
 10
71.83495951515148
 20
10.9549919421598
 30
0.0
 10
75.22315414569782
 20
11.76780427236316
 30
0.0
 10
78.61150702889235
 20
12.32080111794637
 30
0.0
 10
80.87048493562152
 20
12.43322296659004
 30
0.0
 10
82.0
 20
12.50000000000027
 30
0.0
  0
LINE
  5
BA
330
1F
100
AcDbEntity
  8
0
  6
Continuous
 62
   131
370
    15
100
AcDbLine
 10
12.0
 20
-12.39014329853946
 30
0.0
 11
12.0
 21
-11.45154856919732
 31
0.0
  0
LINE
  5
BB
330
1F
100
AcDbEntity
  8
0
  6
Continuous
 62
     1
370
    15
100
AcDbLine
 10
82.00000000000001
 20
0.0000000000000135
 30
0.0
 11
82.00000000000001
 21
8.75000000000001
 31
0.0
  0
SPLINE
  5
BC
330
1F
100
AcDbEntity
  8
0
  6
Continuous
 62
     1
370
    15
100
AcDbSpline
210
0.0
220
0.0
230
1.0
 70
    24
 71
     3
 72
    10
 73
     6
 74
     0
 42
0.000000001
 43
0.00000001
 40
0.0
 40
0.0
 40
0.0
 40
0.0
 40
0.5
 40
0.5
 40
1.0
 40
1.0
 40
1.0
 40
1.0
 10
82.00000000000001
 20
8.750000000000014
 30
0.0
 10
82.00000000000003
 20
9.280403210091437
 30
0.0
 10
82.00000000000001
 20
9.89678086083898
 30
0.0
 10
82.00000000000003
 20
11.18993951201071
 30
0.0
 10
82.00000000000001
 20
11.86341794751842
 30
0.0
 10
82.0
 20
12.50000000000027
 30
0.0
  0
SPLINE
  5
BD
330
1F
100
AcDbEntity
  8
0
  6
Continuous
 62
   131
370
    15
100
AcDbSpline
210
0.0
220
0.0
230
1.0
 70
     8
 71
     3
 72
     8
 73
     4
 74
     0
 42
0.000000001
 43
0.00000001
 40
0.0
 40
0.0
 40
0.0
 40
0.0
 40
1.0
 40
1.0
 40
1.0
 40
1.0
 10
12.0
 20
12.39014329853946
 30
0.0
 10
10.98137772315728
 20
12.31243063229621
 30
0.0
 10
9.968549523616872
 20
12.19385178765298
 30
0.0
 10
8.950051977908982
 20
12.03514294885076
 30
0.0
  0
SPLINE
  5
BE
330
1F
100
AcDbEntity
  8
0
  6
Continuous
 62
   131
370
    15
100
AcDbSpline
210
0.0
220
0.0
230
1.0
 70
     8
 71
     3
 72
     8
 73
     4
 74
     0
 42
0.000000001
 43
0.00000001
 40
0.0
 40
0.0
 40
0.0
 40
0.0
 40
1.0
 40
1.0
 40
1.0
 40
1.0
 10
12.0
 20
-11.45154856921203
 30
0.0
 10
10.98139587750555
 20
-11.21604469800862
 30
0.0
 10
9.968585768114622
 20
-10.94308239975699
 30
0.0
 10
8.950106434283143
 20
-10.63434931828501
 30
0.0
  0
SPLINE
  5
BF
330
1F
100
AcDbEntity
  8
0
  6
Continuous
 62
   131
370
    15
100
AcDbSpline
210
0.0
220
0.0
230
1.0
 70
     8
 71
     3
 72
     8
 73
     4
 74
     0
 42
0.000000001
 43
0.00000001
 40
0.0
 40
0.0
 40
0.0
 40
0.0
 40
1.0
 40
1.0
 40
1.0
 40
1.0
 10
12.0
 20
-12.39014329853945
 30
0.0
 10
10.98137772315728
 20
-12.3124306322962
 30
0.0
 10
9.968549523616872
 20
-12.19385178765297
 30
0.0
 10
8.950051977908986
 20
-12.03514294885075
 30
0.0
  0
LINE
  5
C0
330
1F
100
AcDbEntity
  8
0
  6
Continuous
 62
   131
370
    15
100
AcDbLine
 10
8.950051977908986
 20
-12.5
 30
0.0
 11
8.950051977908986
 21
-12.03514218271004
 31
0.0
  0
LINE
  5
C1
330
1F
100
AcDbEntity
  8
0
  6
Continuous
 62
   131
370
    15
100
AcDbLine
 10
-66.99999999999999
 20
12.49999999999999
 30
0.0
 11
-66.99999999999999
 21
-12.49999999999998
 31
0.0
  0
LINE
  5
C2
330
1F
100
AcDbEntity
  8
0
  6
Continuous
 62
   131
370
    15
100
AcDbLine
 10
8.95005197790899
 20
-10.63406775077891
 30
0.0
 11
8.950051977908986
 21
12.5
 31
0.0
  0
LINE
  5
C3
330
1F
100
AcDbEntity
  8
0
  6
Continuous
 62
   131
370
    15
100
AcDbLine
 10
-67.99999999999999
 20
11.5
 30
0.0
 11
-67.99999999999999
 21
-11.5
 31
0.0
  0
SPLINE
  5
C4
330
1F
100
AcDbEntity
  8
0
  6
Continuous
 62
   131
370
    15
100
AcDbSpline
210
0.0
220
0.0
230
1.0
 70
     8
 71
     3
 72
     8
 73
     4
 74
     0
 42
0.000000001
 43
0.00000001
 40
0.0
 40
0.0
 40
0.0
 40
0.0
 40
1.0
 40
1.0
 40
1.0
 40
1.0
 10
12.0
 20
-9.459391067878908
 30
0.0
 10
10.98139587750555
 20
-9.232005518560204
 30
0.0
 10
9.968585768114622
 20
-8.973740309194643
 30
0.0
 10
8.950106434283143
 20
-8.686191658216092
 30
0.0
  0
SPLINE
  5
C5
330
1F
100
AcDbEntity
  8
0
  6
Continuous
 62
   131
370
    15
100
AcDbSpline
210
0.0
220
0.0
230
1.0
 70
     8
 71
     3
 72
     8
 73
     4
 74
     0
 42
0.000000001
 43
0.00000001
 40
0.0
 40
0.0
 40
0.0
 40
0.0
 40
1.0
 40
1.0
 40
1.0
 40
1.0
 10
12.00000000000001
 20
0.9143097140924575
 30
0.0
 10
10.98138435197514
 20
1.382302445905523
 30
0.0
 10
9.968562757812492
 20
1.846380475706318
 30
0.0
 10
8.950071861927213
 20
2.303682706940191
 30
0.0
  0
SPLINE
  5
C6
330
1F
100
AcDbEntity
  8
0
  6
Continuous
 62
   131
370
    15
100
AcDbSpline
210
0.0
220
0.0
230
1.0
 70
    24
 71
     3
 72
    14
 73
    10
 74
     0
 42
0.000000001
 43
0.00000001
 40
0.0
 40
0.0
 40
0.0
 40
0.0
 40
0.2499999999999999
 40
0.2499999999999999
 40
0.4999999999999998
 40
0.4999999999999998
 40
0.7499999999999999
 40
0.7499999999999999
 40
1.0
 40
1.0
 40
1.0
 40
1.0
 10
12.0
 20
0.914309714092466
 30
0.0
 10
12.0
 20
-0.0494280659149252
 30
0.0
 10
12.0
 20
-1.033559768270983
 30
0.0
 10
12.0
 20
-2.97443139277541
 30
0.0
 10
12.0
 20
-3.930618507052393
 30
0.0
 10
12.0
 20
-5.743679740304607
 30
0.0
 10
12.0
 20
-6.60003030223314
 30
0.0
 10
12.0
 20
-8.155613539470155
 30
0.0
 10
12.0
 20
-8.854596799081738
 30
0.0
 10
12.0
 20
-9.459391067878904
 30
0.0
  0
LINE
  5
C7
330
1F
100
AcDbEntity
  8
0
  6
Continuous
 62
   131
370
    15
100
AcDbLine
 10
12.0
 20
8.713349895409321
 30
0.0
 11
9.501429788351787
 21
8.550575034743071
 31
0.0
  0
SPLINE
  5
C8
330
1F
100
AcDbEntity
  8
0
  6
Continuous
 62
   131
370
    15
100
AcDbSpline
210
0.0
220
0.0
230
1.0
 70
    24
 71
     3
 72
    14
 73
    10
 74
     0
 42
0.000000001
 43
0.00000001
 40
0.0
 40
0.0
 40
0.0
 40
0.0
 40
0.2499999999999998
 40
0.2499999999999998
 40
0.4999999999999999
 40
0.4999999999999999
 40
0.75
 40
0.75
 40
1.0
 40
1.0
 40
1.0
 40
1.0
 10
12.0
 20
8.713349895409321
 30
0.0
 10
12.0
 20
8.577518163152032
 30
0.0
 10
12.0
 20
8.302620745002123
 30
0.0
 10
12.0
 20
7.460288211084728
 30
0.0
 10
12.0
 20
6.892693730171854
 30
0.0
 10
12.0
 20
5.506579434965815
 30
0.0
 10
12.0
 20
4.688798200320112
 30
0.0
 10
12.0
 20
2.893173297723816
 30
0.0
 10
12.0
 20
1.91650921519692
 30
0.0
 10
12.0
 20
0.9143097140924623
 30
0.0
  0
SPLINE
  5
C9
330
1F
100
AcDbEntity
  8
0
  6
Continuous
 62
   131
370
    15
100
AcDbSpline
210
0.0
220
0.0
230
1.0
 70
    24
 71
     3
 72
     8
 73
     4
 74
     0
 42
0.000000001
 43
0.00000001
 40
0.0
 40
0.0
 40
0.0
 40
0.0
 40
1.0
 40
1.0
 40
1.0
 40
1.0
 10
12.0
 20
-9.459391067878904
 30
0.0
 10
12.0
 20
-10.11525671148237
 30
0.0
 10
12.0
 20
-10.783540770045
 30
0.0
 10
12.0
 20
-11.45154856919882
 30
0.0
  0
SPLINE
  5
CA
330
1F
100
AcDbEntity
  8
0
  6
Continuous
 62
   131
370
    15
100
AcDbSpline
210
0.0
220
0.0
230
1.0
 70
    24
 71
     3
 72
    10
 73
     6
 74
     0
 42
0.000000001
 43
0.00000001
 40
0.0
 40
0.0
 40
0.0
 40
0.0
 40
0.5
 40
0.5
 40
1.0
 40
1.0
 40
1.0
 40
1.0
 10
12.0
 20
12.39014329853945
 30
0.0
 10
12.0
 20
11.75210267871349
 30
0.0
 10
12.0
 20
11.07797127199695
 30
0.0
 10
12.0
 20
9.807108420590412
 30
0.0
 10
12.0
 20
9.213532704041231
 30
0.0
 10
12.0
 20
8.713349895409321
 30
0.0
  0
LINE
  5
CB
330
1F
100
AcDbEntity
  8
중심선
100
AcDbLine
 10
-70.99999999999999
 20
0.0000000000000005
 30
0.0
 11
89.00000000000001
 21
0.0000000000000141
 31
0.0
  0
CIRCLE
  5
CC
330
1F
100
AcDbEntity
  8
외형선
100
AcDbCircle
 10
0.0000000000000104
 20
0.0
 30
0.0
 40
3.000000000000005
  0
INSERT
  5
CD
330
1F
100
AcDbEntity
  8
0
  6
Continuous
 62
     7
100
AcDbBlockReference
 66
     1
  2
블럭10
 10
-22.93944368806589
 20
-52.04609937292004
 30
0.0
  0
ATTRIB
  5
CE
330
CD
100
AcDbEntity
  8
FORMAT
 62
     2
100
AcDbText
 10
-39.05870472750145
 20
-49.97073246008785
 30
0.0
 40
4.233333333333333
  1
SEME7025070E [ 2 FLUTE ]
 41
0.75
  7
SLDTEXTSTYLE0
 11
-39.05870472750145
 21
-52.08739912675452
 31
0.0
100
AcDbAttribute
  2
AUTOATTR0
 70
     0
 74
     1
  0
SEQEND
  5
CF
330
CD
100
AcDbEntity
  8
0
  6
Continuous
 62
     7
  0
HATCH
  5
D0
330
1F
100
AcDbEntity
  8
중심선
100
AcDbHatch
 10
0.0
 20
0.0
 30
0.0
210
0.0
220
0.0
230
1.0
  2
SOLID
 70
     1
 71
     0
 91
        1
 92
        0
 93
        4
 72
     1
 10
-17.22453438368504
 20
-35.7989250712761
 11
-20.67080962752232
 21
-35.7989250712761
 72
     1
 10
-20.67080962752232
 20
-35.7989250712761
 11
-22.79903948672635
 21
-38.3352506518487
 72
     1
 10
-22.79903948672635
 20
-38.3352506518487
 11
-19.35273115777591
 21
-38.33521122254621
 72
     1
 10
-19.35273115777591
 20
-38.33521122254621
 11
-17.22453438368504
 21
-35.7989250712761
 97
        0
 75
     0
 76
     1
 98
        1
 10
0.0
 20
0.0
  0
HATCH
  5
D1
330
1F
100
AcDbEntity
  8
중심선
100
AcDbHatch
 10
0.0
 20
0.0
 30
0.0
210
0.0
220
0.0
230
1.0
  2
SOLID
 70
     1
 71
     0
 91
        1
 92
        0
 93
        4
 72
     1
 10
-12.21177039264909
 20
-35.7989250712761
 11
-15.65804563648637
 21
-35.7989250712761
 72
     1
 10
-15.65804563648637
 20
-35.7989250712761
 11
-20.18918364484376
 21
-41.19892507127612
 72
     1
 10
-20.18918364484376
 20
-41.19892507127612
 11
-16.74290840100648
 21
-41.19892507127612
 72
     1
 10
-16.74290840100648
 20
-41.19892507127612
 11
-12.21177039264909
 21
-35.7989250712761
 97
        0
 75
     0
 76
     1
 98
        1
 10
0.0
 20
0.0
  0
HATCH
  5
D2
330
1F
100
AcDbEntity
  8
중심선
100
AcDbHatch
 10
0.0
 20
0.0
 30
0.0
210
0.0
220
0.0
230
1.0
  2
SOLID
 70
     1
 71
     0
 91
        1
 92
        0
 93
        4
 72
     1
 10
-7.199006401613195
 20
-35.79892507127613
 11
-10.64528164545031
 21
-35.7989250712761
 72
     1
 10
-10.64528164545031
 20
-35.7989250712761
 11
-17.69371854733956
 21
-44.19892507127612
 72
     1
 10
-17.69371854733956
 20
-44.19892507127612
 11
-14.24744330350228
 21
-44.19892507127612
 72
     1
 10
-14.24744330350228
 20
-44.19892507127612
 11
-7.199006401613195
 21
-35.79892507127613
 97
        0
 75
     0
 76
     1
 98
        1
 10
0.0
 20
0.0
  0
HATCH
  5
D3
330
1F
100
AcDbEntity
  8
중심선
100
AcDbHatch
 10
0.0
 20
0.0
 30
0.0
210
0.0
220
0.0
230
1.0
  2
SOLID
 70
     1
 71
     0
 91
        1
 92
        0
 93
        6
 72
     3
 10
-2.399115970600996
 20
-39.99892507132738
 11
3.960054785062284
 21
1.540850780301639E-10
 40
0.3939339440162633
 50
17.09539180608433
 51
320.0019657685079
 73
     0
 72
     1
 10
-0.7161163149004002
 20
-38.58681907591441
 11
1.589185558800638
 21
-36.65249236586649
 72
     3
 10
-2.399115970653842
 20
-39.99892507127625
 11
6.600054785286829
 21
-1.249000902703301E-13
 40
0.6363583540795982
 50
39.99873849337408
 51
368.4976242363725
 73
     1
 72
     1
 10
4.026216521246767
 20
-39.03892507120613
 11
-3.71904866381792
 21
-39.0389250712061
 72
     1
 10
-3.71904866381792
 20
-39.0389250712061
 11
-3.719073708263854
 21
-40.95892507120602
 72
     1
 10
-3.719073708263854
 20
-40.95892507120602
 11
0.7223060612081831
 21
-40.95892507120599
 97
        0
 75
     0
 76
     1
 98
        1
 10
0.0
 20
0.0
  0
DIMENSION
  5
D4
330
1F
100
AcDbEntity
  8
치수문자_일반주서
100
AcDbDimension
  2
_D
 10
100.1251055169866
 20
12.50000000000034
 30
0.0
 11
100.1251055169865
 21
23.47900000000034
 31
0.0
 70
   160
  1
%%c<>
 71
     2
 42
25.00000000000001
 52
-270.0
  3
SLDDIMSTYLE0
100
AcDbAlignedDimension
 13
82.0
 23
-12.49999999999974
 33
0.0
 14
82.0
 24
12.50000000000027
 34
0.0
 50
90.0000000000002
100
AcDbRotatedDimension
  0
DIMENSION
  5
E0
330
1F
100
AcDbEntity
  8
치수문자_일반주서
100
AcDbDimension
  2
_D_1
 10
81.99999999999999
 20
33.2884104402427
 30
0.0
 11
7.000000000000014
 21
33.2884104402427
 31
0.0
 70
   160
  1
<>
 71
     2
 42
150.0
  3
SLDDIMSTYLE1
100
AcDbAlignedDimension
 13
-67.99999999999999
 23
11.5
 33
0.0
 14
82.0
 24
12.50000000000027
 34
0.0
 50
-0.0000000000000027
100
AcDbRotatedDimension
  0
DIMENSION
  5
EB
330
1F
100
AcDbEntity
  8
치수문자_일반주서
100
AcDbDimension
  2
_D_2
 10
82.0
 20
22.06034770157685
 30
0.0
 11
47.0
 21
22.06034770157685
 31
0.0
 70
   160
  1
<>
 71
     2
 42
70.0
  3
SLDDIMSTYLE1
100
AcDbAlignedDimension
 13
12.0
 23
8.713349895409321
 33
0.0
 14
82.0
 24
12.50000000000027
 34
0.0
 50
0.0000000000000058
100
AcDbRotatedDimension
  0
DIMENSION
  5
F5
330
1F
100
AcDbEntity
  8
치수문자_일반주서
100
AcDbDimension
  2
_D_3
 10
-85.32038262772143
 20
-12.50000000000007
 30
0.0
 11
-85.32038262772156
 21
23.50269207821008
 31
0.0
 70
   160
  1
%%c<>
 71
     2
 42
24.99999999999999
 52
-270.0
  3
SLDDIMSTYLE0
100
AcDbAlignedDimension
 13
-66.99999999999999
 23
12.49999999999999
 33
0.0
 14
-66.99999999999999
 24
-12.5
 34
0.0
 50
90.0000000000002
100
AcDbRotatedDimension
  0
INSERT
  5
106
330
1F
100
AcDbEntity
  8
외형선
100
AcDbBlockReference
  2
SW_DOWELSYMBOL_0
 10
0.0000000000000104
 20
0.0
 30
0.0
  0
ENDSEC
  0
SECTION
  2
OBJECTS
  0
DICTIONARY
  5
C
330
0
100
AcDbDictionary
281
     1
  3
ACAD_GROUP
350
D
  3
ACAD_IMAGE_VARS
350
12A
  3
ACAD_LAYOUT
350
1A
  3
ACAD_MLINESTYLE
350
17
  3
ACAD_PLOTSETTINGS
350
19
  3
ACAD_PLOTSTYLENAME
350
E
  3
ACAD_SCALELIST
350
47
  3
APPDATA
350
128
  3
DWGPROPS
350
13D
  0
DICTIONARY
  5
D
102
{ACAD_REACTORS
330
C
102
}
330
C
100
AcDbDictionary
281
     1
  0
RASTERVARIABLES
  5
12A
102
{ACAD_REACTORS
330
C
102
}
330
C
100
AcDbRasterVariables
 90
        0
 70
     1
 71
     1
 72
     1
  0
DICTIONARY
  5
1A
102
{ACAD_REACTORS
330
C
102
}
330
C
100
AcDbDictionary
281
     1
  3
Layout1
350
1E
  3
Layout2
350
26
  3
Model
350
22
  0
DICTIONARY
  5
17
102
{ACAD_REACTORS
330
C
102
}
330
C
100
AcDbDictionary
281
     1
  3
Standard
350
18
  0
DICTIONARY
  5
19
102
{ACAD_REACTORS
330
C
102
}
330
C
100
AcDbDictionary
281
     1
  0
ACDBDICTIONARYWDFLT
  5
E
102
{ACAD_REACTORS
330
C
102
}
330
C
100
AcDbDictionary
281
     1
  3
Normal
350
F
100
AcDbDictionaryWithDefault
340
F
  0
DICTIONARY
  5
47
102
{ACAD_REACTORS
330
C
102
}
330
C
100
AcDbDictionary
281
     1
  3
A0
350
48
  3
A1
350
49
  3
A2
350
4A
  3
A3
350
4B
  3
A4
350
4C
  3
A5
350
4D
  3
A6
350
4E
  3
A7
350
4F
  3
A8
350
50
  3
A9
350
51
  3
B0
350
52
  3
B1
350
53
  3
B2
350
54
  3
B3
350
55
  3
B4
350
56
  3
B5
350
57
  3
B6
350
58
  3
B7
350
59
  3
B8
350
5A
  3
B9
350
5B
  3
C0
350
5C
  3
C1
350
5D
  3
C2
350
5E
  3
C3
350
5F
  3
C4
350
60
  3
C5
350
61
  3
C6
350
62
  3
C7
350
63
  3
C8
350
64
  3
C9
350
65
  3
D0
350
66
  3
D1
350
67
  3
D2
350
68
  0
DICTIONARY
  5
128
102
{ACAD_REACTORS
330
C
102
}
330
C
100
AcDbDictionary
281
     1
  0
XRECORD
  5
13D
102
{ACAD_REACTORS
330
C
102
}
330
C
100
AcDbXrecord
280
     1
  1
DWGPROPS COOKIE
  2

  3

  4

  6

  7

  8
12014102
  9

300
=
301
=
302
=
303
=
304
=
305
=
306
=
307
=
308
=
309
=
 40
0.0
 41
2458262.180058472
 42
2458266.236444653
  1

 90
        0
  0
LAYOUT
  5
1E
102
{ACAD_REACTORS
330
1A
102
}
330
1A
100
AcDbPlotSettings
  1

  2
none_device
  4

  6

 40
0.0
 41
0.0
 42
0.0
 43
0.0
 44
0.0
 45
0.0
 46
0.0
 47
0.0
 48
0.0
 49
0.0
140
0.0
141
0.0
142
1.0
143
1.0
 70
   688
 72
     1
 73
     0
 74
     5
  7

 75
    16
147
1.0
148
0.0
149
0.0
100
AcDbLayout
  1
Layout1
 70
     1
 71
     1
 10
0.0
 20
0.0
 11
420.0
 21
297.0
 12
0.0
 22
0.0
 32
0.0
 14
1.000000000000000E+20
 24
1.000000000000000E+20
 34
1.000000000000000E+20
 15
-1.000000000000000E+20
 25
-1.000000000000000E+20
 35
-1.000000000000000E+20
146
0.0
 13
0.0
 23
0.0
 33
0.0
 16
1.0
 26
0.0
 36
0.0
 17
0.0
 27
1.0
 37
0.0
 76
     0
330
1B
  0
LAYOUT
  5
26
102
{ACAD_REACTORS
330
1A
102
}
330
1A
100
AcDbPlotSettings
  1

  2
none_device
  4

  6

 40
0.0
 41
0.0
 42
0.0
 43
0.0
 44
0.0
 45
0.0
 46
0.0
 47
0.0
 48
0.0
 49
0.0
140
0.0
141
0.0
142
1.0
143
1.0
 70
   688
 72
     1
 73
     0
 74
     5
  7

 75
    16
147
1.0
148
0.0
149
0.0
100
AcDbLayout
  1
Layout2
 70
     1
 71
     2
 10
0.0
 20
0.0
 11
0.0
 21
0.0
 12
0.0
 22
0.0
 32
0.0
 14
0.0
 24
0.0
 34
0.0
 15
0.0
 25
0.0
 35
0.0
146
0.0
 13
0.0
 23
0.0
 33
0.0
 16
1.0
 26
0.0
 36
0.0
 17
0.0
 27
1.0
 37
0.0
 76
     0
330
23
  0
LAYOUT
  5
22
102
{ACAD_REACTORS
330
1A
102
}
330
1A
100
AcDbPlotSettings
  1

  2
none_device
  4
ANSI_A_(11.00_x_8.50_Inches)
  6

 40
6.35
 41
19.05
 42
6.35000508
 43
19.05000254
 44
279.4
 45
215.9
 46
130.0720740513688
 47
99.65487364222037
 48
0.0
 49
0.0
140
0.0
141
0.0
142
0.065578048070227
143
1.0
 70
  1696
 72
     0
 73
     0
 74
     0
  7

 75
     0
147
0.0235690232323232
148
0.0
149
0.0
100
AcDbLayout
  1
Model
 70
     1
 71
     0
 10
0.0
 20
0.0
 11
420.0
 21
297.0
 12
0.0
 22
0.0
 32
0.0
 14
-89.69538262772157
 24
-49.97073246008785
 34
0.0
 15
100.67543885032
 25
37.6634104402427
 35
0.0
146
0.0
 13
0.0
 23
0.0
 33
0.0
 16
1.0
 26
0.0
 36
0.0
 17
0.0
 27
1.0
 37
0.0
 76
     0
330
1F
331
29
  0
MLINESTYLE
  5
18
102
{ACAD_REACTORS
330
17
102
}
330
17
100
AcDbMlineStyle
  2
Standard
 70
     0
  3

 62
   256
 51
90.0
 52
90.0
 71
     2
 49
0.5
 62
   256
  6
BYLAYER
 49
-0.5
 62
   256
  6
BYLAYER
  0
ACDBPLACEHOLDER
  5
F
102
{ACAD_REACTORS
330
E
102
}
330
E
  0
SCALE
  5
48
102
{ACAD_REACTORS
330
47
102
}
330
47
100
AcDbScale
 70
     0
300
1:1
140
1.0
141
1.0
290
     1
  0
SCALE
  5
49
102
{ACAD_REACTORS
330
47
102
}
330
47
100
AcDbScale
 70
     0
300
1:2
140
1.0
141
2.0
290
     0
  0
SCALE
  5
4A
102
{ACAD_REACTORS
330
47
102
}
330
47
100
AcDbScale
 70
     0
300
1:4
140
1.0
141
4.0
290
     0
  0
SCALE
  5
4B
102
{ACAD_REACTORS
330
47
102
}
330
47
100
AcDbScale
 70
     0
300
1:5
140
1.0
141
5.0
290
     0
  0
SCALE
  5
4C
102
{ACAD_REACTORS
330
47
102
}
330
47
100
AcDbScale
 70
     0
300
1:8
140
1.0
141
8.0
290
     0
  0
SCALE
  5
4D
102
{ACAD_REACTORS
330
47
102
}
330
47
100
AcDbScale
 70
     0
300
1:10
140
1.0
141
10.0
290
     0
  0
SCALE
  5
4E
102
{ACAD_REACTORS
330
47
102
}
330
47
100
AcDbScale
 70
     0
300
1:16
140
1.0
141
16.0
290
     0
  0
SCALE
  5
4F
102
{ACAD_REACTORS
330
47
102
}
330
47
100
AcDbScale
 70
     0
300
1:20
140
1.0
141
20.0
290
     0
  0
SCALE
  5
50
102
{ACAD_REACTORS
330
47
102
}
330
47
100
AcDbScale
 70
     0
300
1:30
140
1.0
141
30.0
290
     0
  0
SCALE
  5
51
102
{ACAD_REACTORS
330
47
102
}
330
47
100
AcDbScale
 70
     0
300
1:40
140
1.0
141
40.0
290
     0
  0
SCALE
  5
52
102
{ACAD_REACTORS
330
47
102
}
330
47
100
AcDbScale
 70
     0
300
1:50
140
1.0
141
50.0
290
     0
  0
SCALE
  5
53
102
{ACAD_REACTORS
330
47
102
}
330
47
100
AcDbScale
 70
     0
300
1:100
140
1.0
141
100.0
290
     0
  0
SCALE
  5
54
102
{ACAD_REACTORS
330
47
102
}
330
47
100
AcDbScale
 70
     0
300
2:1
140
2.0
141
1.0
290
     0
  0
SCALE
  5
55
102
{ACAD_REACTORS
330
47
102
}
330
47
100
AcDbScale
 70
     0
300
4:1
140
4.0
141
1.0
290
     0
  0
SCALE
  5
56
102
{ACAD_REACTORS
330
47
102
}
330
47
100
AcDbScale
 70
     0
300
8:1
140
8.0
141
1.0
290
     0
  0
SCALE
  5
57
102
{ACAD_REACTORS
330
47
102
}
330
47
100
AcDbScale
 70
     0
300
10:1
140
10.0
141
1.0
290
     0
  0
SCALE
  5
58
102
{ACAD_REACTORS
330
47
102
}
330
47
100
AcDbScale
 70
     0
300
100:1
140
100.0
141
1.0
290
     0
  0
SCALE
  5
59
102
{ACAD_REACTORS
330
47
102
}
330
47
100
AcDbScale
 70
     0
300
1/128" = 1'-0"
140
0.0078125
141
12.0
290
     0
  0
SCALE
  5
5A
102
{ACAD_REACTORS
330
47
102
}
330
47
100
AcDbScale
 70
     0
300
1/64" = 1'-0"
140
0.015625
141
12.0
290
     0
  0
SCALE
  5
5B
102
{ACAD_REACTORS
330
47
102
}
330
47
100
AcDbScale
 70
     0
300
1/32" = 1'-0"
140
0.03125
141
12.0
290
     0
  0
SCALE
  5
5C
102
{ACAD_REACTORS
330
47
102
}
330
47
100
AcDbScale
 70
     0
300
1/16" = 1'-0"
140
0.0625
141
12.0
290
     0
  0
SCALE
  5
5D
102
{ACAD_REACTORS
330
47
102
}
330
47
100
AcDbScale
 70
     0
300
3/32" = 1'-0"
140
0.09375
141
12.0
290
     0
  0
SCALE
  5
5E
102
{ACAD_REACTORS
330
47
102
}
330
47
100
AcDbScale
 70
     0
300
1/8" = 1'-0"
140
0.125
141
12.0
290
     0
  0
SCALE
  5
5F
102
{ACAD_REACTORS
330
47
102
}
330
47
100
AcDbScale
 70
     0
300
3/16" = 1'-0"
140
0.1875
141
12.0
290
     0
  0
SCALE
  5
60
102
{ACAD_REACTORS
330
47
102
}
330
47
100
AcDbScale
 70
     0
300
1/4" = 1'-0"
140
0.25
141
12.0
290
     0
  0
SCALE
  5
61
102
{ACAD_REACTORS
330
47
102
}
330
47
100
AcDbScale
 70
     0
300
3/8" = 1'-0"
140
0.375
141
12.0
290
     0
  0
SCALE
  5
62
102
{ACAD_REACTORS
330
47
102
}
330
47
100
AcDbScale
 70
     0
300
1/2" = 1'-0"
140
0.5
141
12.0
290
     0
  0
SCALE
  5
63
102
{ACAD_REACTORS
330
47
102
}
330
47
100
AcDbScale
 70
     0
300
3/4" = 1'-0"
140
0.75
141
12.0
290
     0
  0
SCALE
  5
64
102
{ACAD_REACTORS
330
47
102
}
330
47
100
AcDbScale
 70
     0
300
1" = 1'-0"
140
1.0
141
12.0
290
     0
  0
SCALE
  5
65
102
{ACAD_REACTORS
330
47
102
}
330
47
100
AcDbScale
 70
     0
300
1-1/2" = 1'-0"
140
1.5
141
12.0
290
     0
  0
SCALE
  5
66
102
{ACAD_REACTORS
330
47
102
}
330
47
100
AcDbScale
 70
     0
300
3" = 1'-0"
140
3.0
141
12.0
290
     0
  0
SCALE
  5
67
102
{ACAD_REACTORS
330
47
102
}
330
47
100
AcDbScale
 70
     0
300
6" = 1'-0"
140
6.0
141
12.0
290
     0
  0
SCALE
  5
68
102
{ACAD_REACTORS
330
47
102
}
330
47
100
AcDbScale
 70
     0
300
1'-0" = 1'-0"
140
12.0
141
12.0
290
     0
  0
ENDSEC
  0
EOF
