  0
SECTION
  2
HEADER
  9
$ACADVER
  1
AC1015
  9
$ACADMAINTVER
 70
     6
  9
$DWGCODEPAGE
  3
ANSI_949
  9
$INSBASE
 10
0.0
 20
0.0
 30
0.0
  9
$EXTMIN
 10
-140.7525121704089
 20
-49.97073246008785
 30
0.0
  9
$EXTMAX
 10
152.5922266081465
 20
37.61803126750826
 30
0.0
  9
$LIMMIN
 10
0.0
 20
0.0
  9
$LIMMAX
 10
420.0
 20
297.0
  9
$ORTHOMODE
 70
     0
  9
$REGENMODE
 70
     1
  9
$FILLMODE
 70
     1
  9
$QTEXTMODE
 70
     0
  9
$MIRRTEXT
 70
     1
  9
$LTSCALE
 40
1.0
  9
$ATTMODE
 70
     1
  9
$TEXTSIZE
 40
3.5
  9
$TRACEWID
 40
1.0
  9
$TEXTSTYLE
  7
Standard
  9
$CLAYER
  8
0
  9
$CELTYPE
  6
ByLayer
  9
$CECOLOR
 62
   256
  9
$CELTSCALE
 40
1.0
  9
$DISPSILH
 70
     0
  9
$DIMSCALE
 40
1.0
  9
$DIMASZ
 40
3.302
  9
$DIMEXO
 40
1.0
  9
$DIMDLI
 40
3.75
  9
$DIMRND
 40
0.0
  9
$DIMDLE
 40
0.0
  9
$DIMEXE
 40
1.0
  9
$DIMTP
 40
0.0
  9
$DIMTM
 40
0.0
  9
$DIMTXT
 40
3.5
  9
$DIMCEN
 40
2.5
  9
$DIMTSZ
 40
0.0
  9
$DIMTOL
 70
     0
  9
$DIMLIM
 70
     0
  9
$DIMTIH
 70
     1
  9
$DIMTOH
 70
     1
  9
$DIMSE1
 70
     0
  9
$DIMSE2
 70
     0
  9
$DIMTAD
 70
     1
  9
$DIMZIN
 70
     0
  9
$DIMBLK
  1

  9
$DIMASO
 70
     1
  9
$DIMSHO
 70
     1
  9
$DIMPOST
  1

  9
$DIMAPOST
  1

  9
$DIMALT
 70
     0
  9
$DIMALTD
 70
     3
  9
$DIMALTF
 40
0.0393700787401575
  9
$DIMLFAC
 40
1.0
  9
$DIMTOFL
 70
     1
  9
$DIMTVP
 40
0.0
  9
$DIMTIX
 70
     0
  9
$DIMSOXD
 70
     0
  9
$DIMSAH
 70
     0
  9
$DIMBLK1
  1

  9
$DIMBLK2
  1

  9
$DIMSTYLE
  2
ISO-25
  9
$DIMCLRD
 70
     0
  9
$DIMCLRE
 70
     0
  9
$DIMCLRT
 70
     0
  9
$DIMTFAC
 40
1.0
  9
$DIMGAP
 40
1.524
  9
$DIMJUST
 70
     0
  9
$DIMSD1
 70
     0
  9
$DIMSD2
 70
     0
  9
$DIMTOLJ
 70
     0
  9
$DIMTZIN
 70
     0
  9
$DIMALTZ
 70
     0
  9
$DIMALTTZ
 70
     0
  9
$DIMUPT
 70
     0
  9
$DIMDEC
 70
     2
  9
$DIMTDEC
 70
     2
  9
$DIMALTU
 70
     2
  9
$DIMALTTD
 70
     3
  9
$DIMTXSTY
  7
Standard
  9
$DIMAUNIT
 70
     0
  9
$DIMADEC
 70
     2
  9
$DIMALTRND
 40
0.0
  9
$DIMAZIN
 70
     0
  9
$DIMDSEP
 70
    44
  9
$DIMATFIT
 70
     3
  9
$DIMFRAC
 70
     0
  9
$DIMLDRBLK
  1

  9
$DIMLUNIT
 70
     2
  9
$DIMLWD
 70
    -2
  9
$DIMLWE
 70
    -2
  9
$DIMTMOVE
 70
     0
  9
$LUNITS
 70
     2
  9
$LUPREC
 70
     2
  9
$SKETCHINC
 40
1.0
  9
$FILLETRAD
 40
10.0
  9
$AUNITS
 70
     0
  9
$AUPREC
 70
     2
  9
$MENU
  1
.
  9
$ELEVATION
 40
0.0
  9
$PELEVATION
 40
0.0
  9
$THICKNESS
 40
0.0
  9
$LIMCHECK
 70
     0
  9
$CHAMFERA
 40
0.0
  9
$CHAMFERB
 40
0.0
  9
$CHAMFERC
 40
0.0
  9
$CHAMFERD
 40
0.0
  9
$SKPOLY
 70
     0
  9
$TDCREATE
 40
2458262.554870741
  9
$TDUCREATE
 40
2458262.179870741
  9
$TDUPDATE
 40
2458266.655346146
  9
$TDUUPDATE
 40
2458266.280346146
  9
$TDINDWG
 40
0.0013499306
  9
$TDUSRTIMER
 40
2458266.27899625
  9
$USRTIMER
 70
     1
  9
$ANGBASE
 50
0.0
  9
$ANGDIR
 70
     0
  9
$PDMODE
 70
     0
  9
$PDSIZE
 40
-1.0
  9
$PLINEWID
 40
0.0
  9
$SPLFRAME
 70
     0
  9
$SPLINETYPE
 70
     6
  9
$SPLINESEGS
 70
     8
  9
$HANDSEED
  5
147
  9
$SURFTAB1
 70
     6
  9
$SURFTAB2
 70
     6
  9
$SURFTYPE
 70
     6
  9
$SURFU
 70
     6
  9
$SURFV
 70
     6
  9
$UCSBASE
  2

  9
$UCSNAME
  2

  9
$UCSORG
 10
0.0
 20
0.0
 30
0.0
  9
$UCSXDIR
 10
1.0
 20
0.0
 30
0.0
  9
$UCSYDIR
 10
0.0
 20
1.0
 30
0.0
  9
$UCSORTHOREF
  2

  9
$UCSORTHOVIEW
 70
     0
  9
$UCSORGTOP
 10
0.0
 20
0.0
 30
0.0
  9
$UCSORGBOTTOM
 10
0.0
 20
0.0
 30
0.0
  9
$UCSORGLEFT
 10
0.0
 20
0.0
 30
0.0
  9
$UCSORGRIGHT
 10
0.0
 20
0.0
 30
0.0
  9
$UCSORGFRONT
 10
0.0
 20
0.0
 30
0.0
  9
$UCSORGBACK
 10
0.0
 20
0.0
 30
0.0
  9
$PUCSBASE
  2

  9
$PUCSNAME
  2

  9
$PUCSORG
 10
0.0
 20
0.0
 30
0.0
  9
$PUCSXDIR
 10
1.0
 20
0.0
 30
0.0
  9
$PUCSYDIR
 10
0.0
 20
1.0
 30
0.0
  9
$PUCSORTHOREF
  2

  9
$PUCSORTHOVIEW
 70
     0
  9
$PUCSORGTOP
 10
0.0
 20
0.0
 30
0.0
  9
$PUCSORGBOTTOM
 10
0.0
 20
0.0
 30
0.0
  9
$PUCSORGLEFT
 10
0.0
 20
0.0
 30
0.0
  9
$PUCSORGRIGHT
 10
0.0
 20
0.0
 30
0.0
  9
$PUCSORGFRONT
 10
0.0
 20
0.0
 30
0.0
  9
$PUCSORGBACK
 10
0.0
 20
0.0
 30
0.0
  9
$USERI1
 70
     0
  9
$USERI2
 70
     0
  9
$USERI3
 70
     0
  9
$USERI4
 70
     0
  9
$USERI5
 70
     0
  9
$USERR1
 40
0.0
  9
$USERR2
 40
0.0
  9
$USERR3
 40
0.0
  9
$USERR4
 40
0.0
  9
$USERR5
 40
0.0
  9
$WORLDVIEW
 70
     1
  9
$SHADEDGE
 70
     3
  9
$SHADEDIF
 70
    70
  9
$TILEMODE
 70
     1
  9
$MAXACTVP
 70
    64
  9
$PINSBASE
 10
0.0
 20
0.0
 30
0.0
  9
$PLIMCHECK
 70
     0
  9
$PEXTMIN
 10
1.000000000000000E+20
 20
1.000000000000000E+20
 30
1.000000000000000E+20
  9
$PEXTMAX
 10
-1.000000000000000E+20
 20
-1.000000000000000E+20
 30
-1.000000000000000E+20
  9
$PLIMMIN
 10
0.0
 20
0.0
  9
$PLIMMAX
 10
0.0
 20
0.0
  9
$UNITMODE
 70
     0
  9
$VISRETAIN
 70
     1
  9
$PLINEGEN
 70
     0
  9
$PSLTSCALE
 70
     1
  9
$TREEDEPTH
 70
  3020
  9
$CMLSTYLE
  2
Standard
  9
$CMLJUST
 70
     0
  9
$CMLSCALE
 40
20.0
  9
$PROXYGRAPHICS
 70
     1
  9
$MEASUREMENT
 70
     1
  9
$CELWEIGHT
370
    -1
  9
$ENDCAPS
280
     0
  9
$JOINSTYLE
280
     0
  9
$LWDISPLAY
290
     1
  9
$INSUNITS
 70
     4
  9
$HYPERLINKBASE
  1

  9
$STYLESHEET
  1

  9
$XEDIT
290
     1
  9
$CEPSNTYPE
380
     0
  9
$PSTYLEMODE
290
     1
  9
$FINGERPRINTGUID
  2
{8A0EFE59-DED7-401A-99CF-4A4E204702AC}
  9
$VERSIONGUID
  2
{FAEB1C32-E019-11D5-929B-00C0DF256EC4}
  9
$EXTNAMES
290
     1
  9
$PSVPSCALE
 40
0.0
  9
$OLESTARTUP
290
     0
  0
ENDSEC
  0
SECTION
  2
CLASSES
  0
CLASS
  1
ACDBDICTIONARYWDFLT
  2
AcDbDictionaryWithDefault
  3
ObjectDBX Classes
 90
        0
280
     0
281
     0
  0
CLASS
  1
VISUALSTYLE
  2
AcDbVisualStyle
  3
ObjectDBX Classes
 90
     4095
280
     0
281
     0
  0
CLASS
  1
MATERIAL
  2
AcDbMaterial
  3
ObjectDBX Classes
 90
     1153
280
     0
281
     0
  0
CLASS
  1
SCALE
  2
AcDbScale
  3
ObjectDBX Classes
 90
     1153
280
     0
281
     0
  0
CLASS
  1
SUN
  2
AcDbSun
  3
SCENEOE
 90
     1153
280
     0
281
     0
  0
CLASS
  1
ACDBPLACEHOLDER
  2
AcDbPlaceHolder
  3
ObjectDBX Classes
 90
        0
280
     0
281
     0
  0
CLASS
  1
LAYOUT
  2
AcDbLayout
  3
ObjectDBX Classes
 90
        0
280
     0
281
     0
  0
CLASS
  1
TABLESTYLE
  2
AcDbTableStyle
  3
ObjectDBX Classes
 90
     4095
280
     0
281
     0
  0
CLASS
  1
MLEADERSTYLE
  2
AcDbMLeaderStyle
  3
ACDB_MLEADERSTYLE_CLASS
 90
     4095
280
     0
281
     0
  0
CLASS
  1
RASTERVARIABLES
  2
AcDbRasterVariables
  3
ISM
 90
        0
280
     0
281
     0
  0
ENDSEC
  0
SECTION
  2
TABLES
  0
TABLE
  2
VPORT
  5
8
330
0
100
AcDbSymbolTable
 70
     1
  0
VPORT
  5
29
330
8
100
AcDbSymbolTableRecord
100
AcDbViewportTableRecord
  2
*Active
 70
     0
 10
0.0
 20
0.0
 11
1.0
 21
1.0
 12
5.919857218868771
 22
-6.176350596289801
 13
0.0
 23
0.0
 14
10.0
 24
10.0
 15
10.0
 25
10.0
 16
0.0
 26
0.0
 36
1.0
 17
0.0
 27
0.0
 37
0.0
 40
259.629825527908
 41
1.152454780361757
 42
50.0
 43
0.0
 44
0.0
 50
0.0
 51
0.0
 71
    16
 72
  2000
 73
     1
 74
     3
 75
     0
 76
     0
 77
     0
 78
     0
281
     0
 65
     1
110
0.0
120
0.0
130
0.0
111
1.0
121
0.0
131
0.0
112
0.0
122
1.0
132
0.0
 79
     0
146
0.0
  0
ENDTAB
  0
TABLE
  2
LTYPE
  5
5
330
0
100
AcDbSymbolTable
 70
     6
  0
LTYPE
  5
14
330
5
100
AcDbSymbolTableRecord
100
AcDbLinetypeTableRecord
  2
ByBlock
 70
     0
  3

 72
    65
 73
     0
 40
0.0
  0
LTYPE
  5
15
330
5
100
AcDbSymbolTableRecord
100
AcDbLinetypeTableRecord
  2
ByLayer
 70
     0
  3

 72
    65
 73
     0
 40
0.0
  0
LTYPE
  5
16
330
5
100
AcDbSymbolTableRecord
100
AcDbLinetypeTableRecord
  2
Continuous
 70
     0
  3
Solid line
 72
    65
 73
     0
 40
0.0
  0
LTYPE
  5
6A
330
5
100
AcDbSymbolTableRecord
100
AcDbLinetypeTableRecord
  2
HIDDEN
 70
     0
  3
Hidden __ __ __ __ __ __ __ __ __ __ __ __ __ __
 72
    65
 73
     2
 40
1.905
 49
1.27
 74
     0
 49
-0.635
 74
     0
  0
LTYPE
  5
6B
330
5
100
AcDbSymbolTableRecord
100
AcDbLinetypeTableRecord
  2
PHANTOM
 70
     0
  3
Phantom ______  __  __  ______  __  __  ______
 72
    65
 73
     6
 40
12.7
 49
6.35
 74
     0
 49
-1.27
 74
     0
 49
1.27
 74
     0
 49
-1.27
 74
     0
 49
1.27
 74
     0
 49
-1.27
 74
     0
  0
LTYPE
  5
6C
330
5
100
AcDbSymbolTableRecord
100
AcDbLinetypeTableRecord
  2
CENTER
 70
     0
  3
Center ____ _ ____ _ ____ _ ____ _ ____ _ ____
 72
    65
 73
     4
 40
10.16
 49
6.35
 74
     0
 49
-1.27
 74
     0
 49
1.27
 74
     0
 49
-1.27
 74
     0
  0
LTYPE
  5
6D
330
5
100
AcDbSymbolTableRecord
100
AcDbLinetypeTableRecord
  2
CENTERX2
 70
     0
  3
Center (2x) ________  __  ________  __  _____
 72
    65
 73
     4
 40
20.32
 49
12.7
 74
     0
 49
-2.54
 74
     0
 49
2.54
 74
     0
 49
-2.54
 74
     0
  0
LTYPE
  5
6E
330
5
100
AcDbSymbolTableRecord
100
AcDbLinetypeTableRecord
  2
DOT2
 70
     0
  3
Dot (.5x) ........................................
 72
    65
 73
     2
 40
0.635
 49
0.0
 74
     0
 49
-0.635
 74
     0
  0
ENDTAB
  0
TABLE
  2
LAYER
  5
2
330
0
100
AcDbSymbolTable
 70
    17
  0
LAYER
  5
10
330
2
100
AcDbSymbolTableRecord
100
AcDbLayerTableRecord
  2
0
 70
     0
 62
     7
  6
Continuous
370
    -3
390
F
  0
LAYER
  5
6F
330
2
100
AcDbSymbolTableRecord
100
AcDbLayerTableRecord
  2
FORMAT
 70
     0
 62
     2
  6
Continuous
370
    -3
390
F
  0
LAYER
  5
70
330
2
100
AcDbSymbolTableRecord
100
AcDbLayerTableRecord
  2
외형선
 70
     0
 62
   100
  6
Continuous
370
    30
390
F
  0
LAYER
  5
71
330
2
100
AcDbSymbolTableRecord
100
AcDbLayerTableRecord
  2
숨은선
 70
     0
 62
     2
  6
HIDDEN
370
    15
390
F
  0
LAYER
  5
72
330
2
100
AcDbSymbolTableRecord
100
AcDbLayerTableRecord
  2
중심선
 70
     0
 62
     1
  6
CENTERX2
370
    -3
390
F
  0
LAYER
  5
73
330
2
100
AcDbSymbolTableRecord
100
AcDbLayerTableRecord
  2
파단선
 70
     0
 62
     4
  6
Continuous
370
    -3
390
F
  0
LAYER
  5
74
330
2
100
AcDbSymbolTableRecord
100
AcDbLayerTableRecord
  2
해칭선
 70
     0
 62
     4
  6
Continuous
370
    -3
390
F
  0
LAYER
  5
75
330
2
100
AcDbSymbolTableRecord
100
AcDbLayerTableRecord
  2
가는실선
 70
     0
 62
     4
  6
Continuous
370
    -3
390
F
  0
LAYER
  5
76
330
2
100
AcDbSymbolTableRecord
100
AcDbLayerTableRecord
  2
치수_보조선
 70
     0
 62
     4
  6
Continuous
370
    -3
390
F
  0
LAYER
  5
77
330
2
100
AcDbSymbolTableRecord
100
AcDbLayerTableRecord
  2
치수문자_일반주서
 70
     0
 62
     7
  6
Continuous
370
    15
390
F
  0
LAYER
  5
78
330
2
100
AcDbSymbolTableRecord
100
AcDbLayerTableRecord
  2
개별주서
 70
     0
 62
   100
  6
Continuous
370
    30
390
F
  0
LAYER
  5
79
330
2
100
AcDbSymbolTableRecord
100
AcDbLayerTableRecord
  2
중간선
 70
     0
 62
     2
  6
Continuous
370
    15
390
F
  0
LAYER
  5
7A
330
2
100
AcDbSymbolTableRecord
100
AcDbLayerTableRecord
  2
윤곽선
 70
     0
 62
     3
  6
Continuous
370
    40
390
F
  0
LAYER
  5
7B
330
2
100
AcDbSymbolTableRecord
100
AcDbLayerTableRecord
  2
중심마크
 70
     0
 62
   100
  6
Continuous
370
    30
390
F
  0
LAYER
  5
7C
330
2
100
AcDbSymbolTableRecord
100
AcDbLayerTableRecord
  2
가상선
 70
     0
 62
     4
  6
PHANTOM
370
    -3
390
F
  0
LAYER
  5
7D
330
2
100
AcDbSymbolTableRecord
100
AcDbLayerTableRecord
  2
특수지정선
 70
     0
 62
     5
  6
CENTERX2
370
    60
390
F
  0
LAYER
  5
134
330
2
100
AcDbSymbolTableRecord
100
AcDbLayerTableRecord
  2
Defpoints
 70
     0
 62
     7
  6
Continuous
290
     0
370
    -3
390
F
  0
ENDTAB
  0
TABLE
  2
STYLE
  5
3
330
0
100
AcDbSymbolTable
 70
     2
  0
STYLE
  5
11
330
3
100
AcDbSymbolTableRecord
100
AcDbTextStyleTableRecord
  2
Standard
 70
     0
 40
0.0
 41
1.0
 50
0.0
 71
     0
 42
3.5
  3
txt
  4

  0
STYLE
  5
93
330
3
100
AcDbSymbolTableRecord
100
AcDbTextStyleTableRecord
  2
SLDTEXTSTYLE0
 70
     0
 40
0.0
 41
0.75
 50
0.0
 71
     0
 42
3.5
  3
TXT
  4

  0
ENDTAB
  0
TABLE
  2
VIEW
  5
6
330
0
100
AcDbSymbolTable
 70
     0
  0
ENDTAB
  0
TABLE
  2
UCS
  5
7
330
0
100
AcDbSymbolTable
 70
     0
  0
ENDTAB
  0
TABLE
  2
APPID
  5
9
330
0
100
AcDbSymbolTable
 70
     1
  0
APPID
  5
12
330
9
100
AcDbSymbolTableRecord
100
AcDbRegAppTableRecord
  2
ACAD
 70
     0
  0
ENDTAB
  0
TABLE
  2
DIMSTYLE
  5
A
330
0
100
AcDbSymbolTable
 70
     3
100
AcDbDimStyleTable
  0
DIMSTYLE
105
27
330
A
100
AcDbSymbolTableRecord
100
AcDbDimStyleTableRecord
  2
ISO-25
 70
     0
 41
2.5
 42
0.625
 43
3.75
 44
1.25
 73
     0
 74
     0
 77
     1
 78
     8
140
2.5
141
2.5
143
0.03937007874016
147
0.625
171
     3
172
     1
178
     0
271
     2
272
     2
274
     3
278
    44
283
     0
284
     8
340
11
  0
DIMSTYLE
105
DE
102
{ACAD_REACTORS
330
DD
330
FE
102
}
330
A
100
AcDbSymbolTableRecord
100
AcDbDimStyleTableRecord
  2
SLDDIMSTYLE0
 70
     0
 41
3.302
 44
0.0
 45
0.000000001
 73
     0
 74
     0
 77
     1
 78
    12
 79
     3
140
3.5
147
0.875
172
     1
173
     1
178
     0
271
     2
272
     2
276
     2
284
    12
289
     0
340
93
  0
DIMSTYLE
105
EA
102
{ACAD_REACTORS
330
E9
330
F4
102
}
330
A
100
AcDbSymbolTableRecord
100
AcDbDimStyleTableRecord
  2
SLDDIMSTYLE1
 70
     0
 41
3.302
 44
0.0
 45
0.000000001
 73
     0
 74
     0
 77
     1
 78
    12
 79
     3
140
3.5
147
0.875
173
     1
178
     0
271
     2
272
     2
276
     2
284
    12
340
93
  0
ENDTAB
  0
TABLE
  2
BLOCK_RECORD
  5
1
330
0
100
AcDbSymbolTable
 70
     7
  0
BLOCK_RECORD
  5
1F
330
1
100
AcDbSymbolTableRecord
100
AcDbBlockTableRecord
  2
*Model_Space
340
22
  0
BLOCK_RECORD
  5
1B
330
1
100
AcDbSymbolTableRecord
100
AcDbBlockTableRecord
  2
*Paper_Space
340
1E
  0
BLOCK_RECORD
  5
23
330
1
100
AcDbSymbolTableRecord
100
AcDbBlockTableRecord
  2
*Paper_Space0
340
26
  0
BLOCK_RECORD
  5
7E
330
1
100
AcDbSymbolTableRecord
100
AcDbBlockTableRecord
  2
블럭10
340
0
102
{BLKREFS
331
D6
102
}
  0
BLOCK_RECORD
  5
DF
330
1
100
AcDbSymbolTableRecord
100
AcDbBlockTableRecord
  2
_D
340
0
  0
BLOCK_RECORD
  5
EB
330
1
100
AcDbSymbolTableRecord
100
AcDbBlockTableRecord
  2
_D_1
340
0
  0
BLOCK_RECORD
  5
F5
330
1
100
AcDbSymbolTableRecord
100
AcDbBlockTableRecord
  2
_D_2
340
0
  0
BLOCK_RECORD
  5
FF
330
1
100
AcDbSymbolTableRecord
100
AcDbBlockTableRecord
  2
_D_3
340
0
  0
BLOCK_RECORD
  5
109
330
1
100
AcDbSymbolTableRecord
100
AcDbBlockTableRecord
  2
SW_DOWELSYMBOL_0
340
0
102
{BLKREFS
331
10F
102
}
  0
ENDTAB
  0
ENDSEC
  0
SECTION
  2
BLOCKS
  0
BLOCK
  5
20
330
1F
100
AcDbEntity
  8
0
100
AcDbBlockBegin
  2
*Model_Space
 70
     0
 10
0.0
 20
0.0
 30
0.0
  3
*Model_Space
  1

  0
ENDBLK
  5
21
330
1F
100
AcDbEntity
  8
0
100
AcDbBlockEnd
  0
BLOCK
  5
1C
330
1B
100
AcDbEntity
 67
     1
  8
0
100
AcDbBlockBegin
  2
*Paper_Space
 70
     0
 10
0.0
 20
0.0
 30
0.0
  3
*Paper_Space
  1

  0
ENDBLK
  5
1D
330
1B
100
AcDbEntity
 67
     1
  8
0
100
AcDbBlockEnd
  0
BLOCK
  5
24
330
23
100
AcDbEntity
  8
0
100
AcDbBlockBegin
  2
*Paper_Space0
 70
     0
 10
0.0
 20
0.0
 30
0.0
  3
*Paper_Space0
  1

  0
ENDBLK
  5
25
330
23
100
AcDbEntity
  8
0
100
AcDbBlockEnd
  0
BLOCK
  5
7F
330
7E
100
AcDbEntity
  8
0
100
AcDbBlockBegin
  2
블럭10
 70
     2
 10
0.0
 20
0.0
 30
0.0
  3
블럭10
  1

  0
ELLIPSE
  5
81
330
7E
100
AcDbEntity
  8
중심선
100
AcDbEllipse
 10
20.54032771741204
 20
12.0471743016438
 30
0.0
 11
6.600054785286829
 21
-1.261213355974178E-13
 31
0.0
210
0.0
220
0.0
230
1.0
 40
0.636358354079598
 41
0.9219305317359503
 42
6.513795318482858
  0
ELLIPSE
  5
82
330
7E
100
AcDbEntity
  8
중심선
100
AcDbEllipse
 10
20.54032771746488
 20
12.04717430159265
 30
0.0
 11
3.960054785062283
 21
1.540847449632565E-10
 31
0.0
210
0.0
220
0.0
230
1.0
 40
0.3939339440162632
 41
1.131841032648279
 42
5.62031148352944
  0
LINE
  5
83
330
7E
100
AcDbEntity
  8
중심선
100
AcDbLine
 10
2.268634060543552
 20
16.24717430164393
 30
0.0
 11
5.714909304380834
 21
16.24717430164393
 31
0.0
  0
LINE
  5
84
330
7E
100
AcDbEntity
  8
중심선
100
AcDbLine
 10
5.245725140726316
 20
7.84717430164391
 30
0.0
 11
8.692000384563599
 21
7.84717430164391
 31
0.0
  0
LINE
  5
85
330
7E
100
AcDbEntity
  8
중심선
100
AcDbLine
 10
15.74043728645272
 20
16.24717430164393
 30
0.0
 11
8.692000384563599
 21
7.84717430164391
 31
0.0
  0
LINE
  5
86
330
7E
100
AcDbEntity
  8
중심선
100
AcDbLine
 10
0.1404042013395286
 20
13.71084872107135
 30
0.0
 11
3.58671253028996
 21
13.71088815037384
 31
0.0
  0
LINE
  5
87
330
7E
100
AcDbEntity
  8
중심선
100
AcDbLine
 10
2.750260043222114
 20
10.84717430164391
 30
0.0
 11
6.196535287059397
 21
10.84717430164391
 31
0.0
  0
LINE
  5
88
330
7E
100
AcDbEntity
  8
중심선
100
AcDbLine
 10
12.29416204261559
 20
16.24717430164393
 30
0.0
 11
5.245725140726316
 21
7.84717430164391
 31
0.0
  0
LINE
  5
89
330
7E
100
AcDbEntity
  8
중심선
100
AcDbLine
 10
10.72767329541681
 20
16.24717430164393
 30
0.0
 11
6.196535287059397
 21
10.84717430164391
 31
0.0
  0
LINE
  5
8A
330
7E
100
AcDbEntity
  8
중심선
100
AcDbLine
 10
7.28139805157953
 20
16.24717430164393
 30
0.0
 11
2.750260043222114
 21
10.84717430164391
 31
0.0
  0
LINE
  5
8B
330
7E
100
AcDbEntity
  8
중심선
100
AcDbLine
 10
5.714909304380834
 20
16.24717430164393
 30
0.0
 11
3.58671253028996
 21
13.71088815037384
 31
0.0
  0
LINE
  5
8C
330
7E
100
AcDbEntity
  8
중심선
100
AcDbLine
 10
2.268634060543552
 20
16.24717430164393
 30
0.0
 11
0.1404042013395286
 21
13.71084872107135
 31
0.0
  0
LINE
  5
8D
330
7E
100
AcDbEntity
  8
중심선
100
AcDbLine
 10
7.28139805157953
 20
16.24717430164393
 30
0.0
 11
10.72767329541681
 21
16.24717430164393
 31
0.0
  0
LINE
  5
8E
330
7E
100
AcDbEntity
  8
중심선
100
AcDbLine
 10
12.29416204261559
 20
16.24717430164393
 30
0.0
 11
15.74043728645272
 21
16.24717430164393
 31
0.0
  0
LINE
  5
8F
330
7E
100
AcDbEntity
  8
중심선
100
AcDbLine
 10
19.22036997980202
 20
11.08717430171403
 30
0.0
 11
23.66174974927406
 21
11.08717430171406
 31
0.0
  0
LINE
  5
90
330
7E
100
AcDbEntity
  8
중심선
100
AcDbLine
 10
19.22039502424796
 20
13.00717430171391
 30
0.0
 11
19.22036997980202
 21
11.08717430171403
 31
0.0
  0
LINE
  5
91
330
7E
100
AcDbEntity
  8
중심선
100
AcDbLine
 10
19.22039502424796
 20
13.00717430171391
 30
0.0
 11
26.96566020931264
 21
13.00717430171391
 31
0.0
  0
LINE
  5
92
330
7E
100
AcDbEntity
  8
중심선
100
AcDbLine
 10
22.22332737316547
 20
13.45928029700563
 30
0.0
 11
24.52862924686651
 21
15.39360700705356
 31
0.0
  0
ATTDEF
  5
94
330
7E
100
AcDbEntity
  8
FORMAT
 62
     2
100
AcDbText
 10
-17.69892196172445
 20
2.075366912832191
 30
0.0
 40
4.233333333333333
  1
SEME70250120E [ 2 FLUTE ]
 41
0.75
  7
SLDTEXTSTYLE0
 11
-17.69892196172445
 21
-0.0412997538344756
 31
0.0
100
AcDbAttributeDefinition
  3

  2
AUTOATTR0
 70
     0
 74
     1
  0
ENDBLK
  5
80
330
7E
100
AcDbEntity
  8
0
100
AcDbBlockEnd
  0
BLOCK
  5
E0
330
DF
100
AcDbEntity
  8
0
100
AcDbBlockBegin
  2
_D
 70
     0
 10
0.0
 20
0.0
 30
0.0
  3
_D
  1

  0
LINE
  5
E2
330
DF
100
AcDbEntity
  8
치수문자_일반주서
 62
     0
370
    -2
100
AcDbLine
 10
132.0625
 20
-12.54537917273398
 30
0.0
 11
152.0418932748131
 21
-12.54537917273391
 31
0.0
  0
LINE
  5
E3
330
DF
100
AcDbEntity
  8
치수문자_일반주서
 62
     0
370
    -2
100
AcDbLine
 10
132.0624999999994
 20
12.45462082726603
 30
0.0
 11
152.041893274813
 21
12.4546208272661
 31
0.0
  0
LINE
  5
E4
330
DF
100
AcDbEntity
  8
치수문자_일반주서
 62
     0
370
    -2
100
AcDbLine
 10
152.0418932748131
 20
-12.54537917273391
 30
0.0
 11
152.041893274813
 21
27.8086208272661
 31
0.0
  0
LINE
  5
E5
330
DF
100
AcDbEntity
  8
치수문자_일반주서
 62
     0
370
    -2
100
AcDbLine
 10
152.0418932748131
 20
-12.54537917273391
 30
0.0
 11
152.041893274813
 21
12.4546208272661
 31
0.0
  0
LINE
  5
E6
330
DF
100
AcDbEntity
  8
치수문자_일반주서
 62
     0
370
    -2
100
AcDbLine
 10
152.0418932748131
 20
-15.84737917273391
 30
0.0
 11
152.0418932748131
 21
-19.14937917273391
 31
0.0
  0
LINE
  5
E7
330
DF
100
AcDbEntity
  8
치수문자_일반주서
 62
     0
370
    -2
100
AcDbLine
 10
152.041893274813
 20
15.7566208272661
 30
0.0
 11
152.041893274813
 21
19.0586208272661
 31
0.0
  0
SOLID
  5
E8
330
DF
100
AcDbEntity
  8
치수문자_일반주서
 62
     0
100
AcDbTrace
 10
152.5922266081465
 20
-15.84737917273391
 30
0.0
 11
151.4915599414798
 21
-15.84737917273391
 31
0.0
 12
152.0418932748131
 22
-12.54537917273391
 32
0.0
 13
152.0418932748131
 23
-12.54537917273391
 33
0.0
  0
SOLID
  5
135
330
DF
100
AcDbEntity
  8
치수문자_일반주서
 62
     0
100
AcDbTrace
 10
151.4915599414797
 20
15.7566208272661
 30
0.0
 11
152.5922266081464
 21
15.75662082726611
 31
0.0
 12
152.041893274813
 22
12.4546208272661
 32
0.0
 13
152.041893274813
 23
12.4546208272661
 33
0.0
  0
MTEXT
  5
136
330
DF
100
AcDbEntity
  8
치수문자_일반주서
 62
     0
100
AcDbMText
 10
147.666893274813
 20
23.43362082726609
 30
0.0
 40
3.5
 41
0.0
 71
     2
 72
     1
  1
\A1;%%c25
  7
SLDTEXTSTYLE0
 11
-3.410605131648479E-15
 21
1.0
 31
0.0
 73
     1
 44
1.0
  0
POINT
  5
142
330
DF
100
AcDbEntity
  8
Defpoints
 62
     0
100
AcDbPoint
 10
132.0
 20
-12.54537917273398
 30
0.0
  0
POINT
  5
143
330
DF
100
AcDbEntity
  8
Defpoints
 62
     0
100
AcDbPoint
 10
131.9999999999994
 20
12.45462082726603
 30
0.0
  0
POINT
  5
144
330
DF
100
AcDbEntity
  8
Defpoints
 62
     0
100
AcDbPoint
 10
152.041893274813
 20
12.4546208272661
 30
0.0
  0
ENDBLK
  5
E1
330
DF
100
AcDbEntity
  8
0
100
AcDbBlockEnd
  0
BLOCK
  5
EC
330
EB
100
AcDbEntity
  8
0
100
AcDbBlockBegin
  2
_D_1
 70
     0
 10
0.0
 20
0.0
 30
0.0
  3
_D_1
  1

  0
LINE
  5
EE
330
EB
100
AcDbEntity
  8
치수문자_일반주서
 62
     0
370
    -2
100
AcDbLine
 10
-118.0
 20
11.51712082726556
 30
0.0
 11
-118.0
 21
33.24303126750826
 31
0.0
  0
LINE
  5
EF
330
EB
100
AcDbEntity
  8
치수문자_일반주서
 62
     0
370
    -2
100
AcDbLine
 10
131.9999999999994
 20
12.51712082726603
 30
0.0
 11
131.9999999999994
 21
33.24303126750826
 31
0.0
  0
LINE
  5
F0
330
EB
100
AcDbEntity
  8
치수문자_일반주서
 62
     0
370
    -2
100
AcDbLine
 10
-114.698
 20
33.24303126750826
 30
0.0
 11
128.6979999999994
 21
33.24303126750826
 31
0.0
  0
SOLID
  5
F1
330
EB
100
AcDbEntity
  8
치수문자_일반주서
 62
     0
100
AcDbTrace
 10
-114.698
 20
33.79336460084159
 30
0.0
 11
-114.698
 21
32.69269793417492
 31
0.0
 12
-118.0
 22
33.24303126750826
 32
0.0
 13
-118.0
 23
33.24303126750826
 33
0.0
  0
SOLID
  5
F2
330
EB
100
AcDbEntity
  8
치수문자_일반주서
 62
     0
100
AcDbTrace
 10
128.6979999999994
 20
32.69269793417492
 30
0.0
 11
128.6979999999994
 21
33.79336460084159
 31
0.0
 12
131.9999999999994
 22
33.24303126750826
 32
0.0
 13
131.9999999999994
 23
33.24303126750826
 33
0.0
  0
MTEXT
  5
F3
330
EB
100
AcDbEntity
  8
치수문자_일반주서
 62
     0
100
AcDbMText
 10
6.999999999999714
 20
37.61803126750826
 30
0.0
 40
3.5
 41
0.0
 71
     2
 72
     1
  1
\A1;250
  7
SLDTEXTSTYLE0
 73
     1
 44
1.0
  0
POINT
  5
137
330
EB
100
AcDbEntity
  8
Defpoints
 62
     0
100
AcDbPoint
 10
-118.0
 20
11.45462082726556
 30
0.0
  0
POINT
  5
138
330
EB
100
AcDbEntity
  8
Defpoints
 62
     0
100
AcDbPoint
 10
131.9999999999994
 20
12.45462082726603
 30
0.0
  0
POINT
  5
139
330
EB
100
AcDbEntity
  8
Defpoints
 62
     0
100
AcDbPoint
 10
131.9999999999994
 20
33.24303126750826
 30
0.0
  0
ENDBLK
  5
ED
330
EB
100
AcDbEntity
  8
0
100
AcDbBlockEnd
  0
BLOCK
  5
F6
330
F5
100
AcDbEntity
  8
0
100
AcDbBlockBegin
  2
_D_2
 70
     0
 10
0.0
 20
0.0
 30
0.0
  3
_D_2
  1

  0
LINE
  5
F8
330
F5
100
AcDbEntity
  8
치수문자_일반주서
 62
     0
370
    -2
100
AcDbLine
 10
11.99999999999998
 20
11.43230402148866
 30
0.0
 11
11.99999999999999
 21
24.71680182765624
 31
0.0
  0
LINE
  5
F9
330
F5
100
AcDbEntity
  8
치수문자_일반주서
 62
     0
370
    -2
100
AcDbLine
 10
131.9999999999994
 20
12.51712082726603
 30
0.0
 11
131.9999999999994
 21
24.71680182765624
 31
0.0
  0
LINE
  5
FA
330
F5
100
AcDbEntity
  8
치수문자_일반주서
 62
     0
370
    -2
100
AcDbLine
 10
15.30199999999999
 20
24.71680182765624
 30
0.0
 11
128.6979999999994
 21
24.71680182765624
 31
0.0
  0
SOLID
  5
FB
330
F5
100
AcDbEntity
  8
치수문자_일반주서
 62
     0
100
AcDbTrace
 10
15.30199999999999
 20
25.26713516098957
 30
0.0
 11
15.30199999999999
 21
24.1664684943229
 31
0.0
 12
11.99999999999999
 22
24.71680182765624
 32
0.0
 13
11.99999999999999
 23
24.71680182765624
 33
0.0
  0
SOLID
  5
FC
330
F5
100
AcDbEntity
  8
치수문자_일반주서
 62
     0
100
AcDbTrace
 10
128.6979999999994
 20
24.1664684943229
 30
0.0
 11
128.6979999999994
 21
25.26713516098957
 31
0.0
 12
131.9999999999994
 22
24.71680182765624
 32
0.0
 13
131.9999999999994
 23
24.71680182765624
 33
0.0
  0
MTEXT
  5
FD
330
F5
100
AcDbEntity
  8
치수문자_일반주서
 62
     0
100
AcDbMText
 10
71.99999999999996
 20
29.09180182765624
 30
0.0
 40
3.5
 41
0.0
 71
     2
 72
     1
  1
\A1;120
  7
SLDTEXTSTYLE0
 73
     1
 44
1.0
  0
POINT
  5
13A
330
F5
100
AcDbEntity
  8
Defpoints
 62
     0
100
AcDbPoint
 10
11.99999999999998
 20
11.36980402148866
 30
0.0
  0
POINT
  5
13B
330
F5
100
AcDbEntity
  8
Defpoints
 62
     0
100
AcDbPoint
 10
131.9999999999994
 20
12.45462082726603
 30
0.0
  0
POINT
  5
13C
330
F5
100
AcDbEntity
  8
Defpoints
 62
     0
100
AcDbPoint
 10
131.9999999999994
 20
24.71680182765624
 30
0.0
  0
ENDBLK
  5
F7
330
F5
100
AcDbEntity
  8
0
100
AcDbBlockEnd
  0
BLOCK
  5
100
330
FF
100
AcDbEntity
  8
0
100
AcDbBlockBegin
  2
_D_3
 70
     0
 10
0.0
 20
0.0
 30
0.0
  3
_D_3
  1

  0
LINE
  5
102
330
FF
100
AcDbEntity
  8
치수문자_일반주서
 62
     0
370
    -2
100
AcDbLine
 10
-117.0625
 20
12.45462082726556
 30
0.0
 11
-136.3775121704089
 21
12.45462082726549
 31
0.0
  0
LINE
  5
103
330
FF
100
AcDbEntity
  8
치수문자_일반주서
 62
     0
370
    -2
100
AcDbLine
 10
-117.0625
 20
-12.54537917273442
 30
0.0
 11
-136.3775121704088
 21
-12.5453791727345
 31
0.0
  0
LINE
  5
104
330
FF
100
AcDbEntity
  8
치수문자_일반주서
 62
     0
370
    -2
100
AcDbLine
 10
-136.3775121704089
 20
12.45462082726549
 30
0.0
 11
-136.3775121704089
 21
28.73339508350044
 31
0.0
  0
LINE
  5
105
330
FF
100
AcDbEntity
  8
치수문자_일반주서
 62
     0
370
    -2
100
AcDbLine
 10
-136.3775121704089
 20
12.45462082726549
 30
0.0
 11
-136.3775121704088
 21
-12.5453791727345
 31
0.0
  0
LINE
  5
106
330
FF
100
AcDbEntity
  8
치수문자_일반주서
 62
     0
370
    -2
100
AcDbLine
 10
-136.3775121704089
 20
15.75662082726549
 30
0.0
 11
-136.3775121704089
 21
19.05862082726549
 31
0.0
  0
LINE
  5
107
330
FF
100
AcDbEntity
  8
치수문자_일반주서
 62
     0
370
    -2
100
AcDbLine
 10
-136.3775121704088
 20
-15.8473791727345
 30
0.0
 11
-136.3775121704088
 21
-19.1493791727345
 31
0.0
  0
SOLID
  5
108
330
FF
100
AcDbEntity
  8
치수문자_일반주서
 62
     0
100
AcDbTrace
 10
-136.9278455037422
 20
15.75662082726549
 30
0.0
 11
-135.8271788370756
 21
15.75662082726549
 31
0.0
 12
-136.3775121704089
 22
12.45462082726549
 32
0.0
 13
-136.3775121704089
 23
12.45462082726549
 33
0.0
  0
SOLID
  5
13D
330
FF
100
AcDbEntity
  8
치수문자_일반주서
 62
     0
100
AcDbTrace
 10
-135.8271788370755
 20
-15.8473791727345
 30
0.0
 11
-136.9278455037421
 21
-15.8473791727345
 31
0.0
 12
-136.3775121704088
 22
-12.5453791727345
 32
0.0
 13
-136.3775121704088
 23
-12.5453791727345
 33
0.0
  0
MTEXT
  5
13E
330
FF
100
AcDbEntity
  8
치수문자_일반주서
 62
     0
100
AcDbMText
 10
-140.7525121704089
 20
24.35839508350042
 30
0.0
 40
3.5
 41
0.0
 71
     2
 72
     1
  1
\A1;%%c25
  7
SLDTEXTSTYLE0
 11
-3.410605131648482E-15
 21
1.0
 31
0.0
 73
     1
 44
1.0
  0
POINT
  5
13F
330
FF
100
AcDbEntity
  8
Defpoints
 62
     0
100
AcDbPoint
 10
-117.0
 20
12.45462082726556
 30
0.0
  0
POINT
  5
140
330
FF
100
AcDbEntity
  8
Defpoints
 62
     0
100
AcDbPoint
 10
-117.0
 20
-12.54537917273442
 30
0.0
  0
POINT
  5
141
330
FF
100
AcDbEntity
  8
Defpoints
 62
     0
100
AcDbPoint
 10
-136.3775121704088
 20
-12.5453791727345
 30
0.0
  0
ENDBLK
  5
101
330
FF
100
AcDbEntity
  8
0
100
AcDbBlockEnd
  0
BLOCK
  5
10A
330
109
100
AcDbEntity
  8
0
100
AcDbBlockBegin
  2
SW_DOWELSYMBOL_0
 70
     0
 10
0.0
 20
0.0
 30
0.0
  3
SW_DOWELSYMBOL_0
  1

  0
CIRCLE
  5
10C
330
109
100
AcDbEntity
  8
외형선
 62
     0
100
AcDbCircle
 10
0.0
 20
0.0
 30
0.0
 40
3.000000000000004
  0
HATCH
  5
10D
330
109
100
AcDbEntity
  8
0
  6
Continuous
 62
     0
370
    30
100
AcDbHatch
 10
0.0
 20
0.0
 30
0.0
210
0.0
220
0.0
230
1.0
  2
SOLID
 70
     1
 71
     0
 91
        1
 92
        0
 93
        3
 72
     2
 10
0.0000000000000104
 20
0.0
 40
3.000000000000004
 50
0.0
 51
90.0
 73
     1
 72
     1
 10
0.0000000000000104
 20
3.000000000000004
 11
0.0000000000000104
 21
0.0
 72
     1
 10
0.0000000000000104
 20
0.0
 11
3.000000000000015
 21
0.0
 97
        0
 75
     0
 76
     1
 98
        1
 10
0.0
 20
0.0
  0
HATCH
  5
10E
330
109
100
AcDbEntity
  8
0
  6
Continuous
 62
     0
370
    30
100
AcDbHatch
 10
0.0
 20
0.0
 30
0.0
210
0.0
220
0.0
230
1.0
  2
SOLID
 70
     1
 71
     0
 91
        1
 92
        0
 93
        3
 72
     2
 10
0.0000000000000104
 20
0.0
 40
3.000000000000004
 50
180.0
 51
270.0000000000008
 73
     1
 72
     1
 10
0.0000000000000104
 20
-3.000000000000004
 11
0.0000000000000104
 21
0.0
 72
     1
 10
0.0000000000000104
 20
0.0
 11
-2.999999999999994
 21
0.0
 97
        0
 75
     0
 76
     1
 98
        1
 10
0.0
 20
0.0
  0
ENDBLK
  5
10B
330
109
100
AcDbEntity
  8
0
100
AcDbBlockEnd
  0
ENDSEC
  0
SECTION
  2
ENTITIES
  0
LINE
  5
95
330
1F
100
AcDbEntity
  8
0
  6
Continuous
 62
   131
370
    15
100
AcDbLine
 10
8.950068068259526
 20
12.45462082726558
 30
0.0
 11
-117.0
 21
12.45462082726557
 31
0.0
  0
LINE
  5
96
330
1F
100
AcDbEntity
  8
0
  6
Continuous
 62
   131
370
    15
100
AcDbLine
 10
-117.0
 20
-12.54537917273443
 30
0.0
 11
8.950068068259526
 21
-12.54537917273442
 31
0.0
  0
LINE
  5
97
330
1F
100
AcDbEntity
  8
0
  6
Continuous
 62
   131
370
    15
100
AcDbLine
 10
-117.0
 20
12.45462082726556
 30
0.0
 11
-118.0
 21
11.45462082726556
 31
0.0
  0
LINE
  5
98
330
1F
100
AcDbEntity
  8
0
  6
Continuous
 62
   131
370
    15
100
AcDbLine
 10
-118.0
 20
-11.54537917273443
 30
0.0
 11
-117.0
 21
-12.54537917273442
 31
0.0
  0
SPLINE
  5
99
330
1F
100
AcDbEntity
  8
0
  6
Continuous
 62
   131
370
    15
100
AcDbSpline
210
0.0
220
0.0
230
1.0
 70
     8
 71
     3
 72
     9
 73
     5
 74
     0
 42
0.000000001
 43
0.00000001
 40
0.0
 40
0.0
 40
0.0
 40
0.0
 40
0.4999766520848754
 40
0.9999999999999999
 40
0.9999999999999999
 40
0.9999999999999999
 40
0.9999999999999999
 10
8.950094106655357
 20
-10.40496924340761
 30
0.0
 10
9.457998439286232
 20
-10.36094420013747
 30
0.0
 10
10.47385454079206
 20
-10.27289000183329
 30
0.0
 10
11.49126901059289
 20
-10.19378761176597
 30
0.0
 10
12.0
 20
-10.15423456985642
 30
0.0
  0
LINE
  5
9A
330
1F
100
AcDbEntity
  8
0
  6
Continuous
 62
     1
370
    15
100
AcDbLine
 10
28.24395331740357
 20
4.833672562700658
 30
0.0
 11
28.13090457546588
 21
4.892024027313916
 31
0.0
  0
SPLINE
  5
9B
330
1F
100
AcDbEntity
  8
0
  6
Continuous
 62
     1
370
    15
100
AcDbSpline
210
0.0
220
0.0
230
1.0
 70
     8
 71
     3
 72
     9
 73
     5
 74
     0
 42
0.000000001
 43
0.00000001
 40
0.0
 40
0.0
 40
0.0
 40
0.0
 40
0.5246330587561671
 40
1.0
 40
1.0
 40
1.0
 40
1.0
 10
31.59831568817943
 20
3.157646457313645
 30
0.0
 10
31.01156081028989
 20
3.437209595856852
 30
0.0
 10
29.89315077474877
 20
3.970083256556032
 30
0.0
 10
28.77532888838142
 20
4.55542191503008
 30
0.0
 10
28.24395331740357
 20
4.833672562700658
 30
0.0
  0
SPLINE
  5
9C
330
1F
100
AcDbEntity
  8
0
  6
Continuous
 62
     1
370
    15
100
AcDbSpline
210
0.0
220
0.0
230
1.0
 70
     8
 71
     3
 72
     9
 73
     5
 74
     0
 42
0.000000001
 43
0.00000001
 40
0.0
 40
0.0
 40
0.0
 40
0.0
 40
0.4370960700841763
 40
1.0
 40
1.0
 40
1.0
 40
1.0
 10
99.6159629298177
 20
3.157566270176996
 30
0.0
 10
99.11070636211623
 20
3.397871706913646
 30
0.0
 10
97.95476696507669
 20
3.947648868466193
 30
0.0
 10
96.79902040866524
 20
4.551870524278928
 30
0.0
 10
96.14844613007459
 20
4.891989268876165
 30
0.0
  0
LINE
  5
9D
330
1F
100
AcDbEntity
  8
0
  6
Continuous
 62
     1
370
    15
100
AcDbLine
 10
24.74847178200356
 20
3.439486156958107
 30
0.0
 11
24.55072686864359
 21
3.548216638661177
 31
0.0
  0
LINE
  5
9E
330
1F
100
AcDbEntity
  8
0
  6
Continuous
 62
     1
370
    15
100
AcDbLine
 10
93.71097323717639
 20
2.921383653251152
 30
0.0
 11
92.56800367039479
 21
3.548327107947595
 31
0.0
  0
LINE
  5
9F
330
1F
100
AcDbEntity
  8
0
  6
Continuous
 62
     1
370
    15
100
AcDbLine
 10
70.93052432182859
 20
12.45462082726559
 30
0.0
 11
64.87419047801372
 21
12.45462082726559
 31
0.0
  0
LINE
  5
A0
330
1F
100
AcDbEntity
  8
0
  6
Continuous
 62
     1
370
    15
100
AcDbLine
 10
64.87419047801377
 20
-12.54537917273443
 30
0.0
 11
70.93052432182857
 21
-12.54537917273443
 31
0.0
  0
SPLINE
  5
A1
330
1F
100
AcDbEntity
  8
0
  6
Continuous
 62
     1
370
    15
100
AcDbSpline
210
0.0
220
0.0
230
1.0
 70
     8
 71
     3
 72
    21
 73
    17
 74
     0
 42
0.000000001
 43
0.00000001
 40
0.0
 40
0.0
 40
0.0
 40
0.0
 40
0.0849785023702529
 40
0.1460882520876632
 40
0.1946320634565333
 40
0.2455170869308938
 40
0.3000900110973445
 40
0.3611954238215434
 40
0.4282663046963
 40
0.4996131414837444
 40
0.6049229414955908
 40
0.6982346450154168
 40
0.7773645210434214
 40
0.8349662276638681
 40
0.9007522717051246
 40
1.0
 40
1.0
 40
1.0
 40
1.0
 10
76.6832200269927
 20
-10.44710641205992
 30
0.0
 10
77.21168149003333
 20
-10.39585878888805
 30
0.0
 10
78.12017021692246
 20
-10.30775796945719
 30
0.0
 10
79.34081768045094
 20
-10.20548696511886
 30
0.0
 10
80.35545353624494
 20
-10.12828259722614
 30
0.0
 10
81.32268146498392
 20
-10.06170753911615
 30
0.0
 10
82.36596547865665
 20
-9.997906846653198
 30
0.0
 10
83.51151444594099
 20
-9.93818368528356
 30
0.0
 10
84.7619951590719
 20
-9.885363886067152
 30
0.0
 10
86.28912438883137
 20
-9.837235522778304
 30
0.0
 10
87.98124358568572
 20
-9.807784821286196
 30
0.0
 10
89.72199651769067
 20
-9.805071456691298
 30
0.0
 10
91.16276878902728
 20
-9.822588746043703
 30
0.0
 10
92.43938201451206
 20
-9.852246182990067
 30
0.0
 10
93.84117631472772
 20
-9.897485216559478
 30
0.0
 10
94.8674222544092
 20
-9.948006501835424
 30
0.0
 10
95.4845842858132
 20
-9.978388906134843
 30
0.0
  0
SPLINE
  5
A2
330
1F
100
AcDbEntity
  8
0
  6
Continuous
 62
     1
370
    15
100
AcDbSpline
210
0.0
220
0.0
230
1.0
 70
     8
 71
     3
 72
    16
 73
    12
 74
     0
 42
0.000000001
 43
0.00000001
 40
0.0
 40
0.0
 40
0.0
 40
0.0
 40
0.1966987790391051
 40
0.3399708757548178
 40
0.4451413579646178
 40
0.5332334889801487
 40
0.6250592640831869
 40
0.7178055988837011
 40
0.8104966482486529
 40
0.9093383450185397
 40
0.9999999999999999
 40
0.9999999999999999
 40
0.9999999999999999
 40
0.9999999999999999
 10
27.46695342962711
 20
9.887622303023555
 30
0.0
 10
26.79552356319815
 20
9.854899153468724
 30
0.0
 10
25.63503542589044
 20
9.798341009763108
 30
0.0
 10
24.11944197783754
 20
9.752932555892539
 30
0.0
 10
22.98129838694527
 20
9.730106122836641
 30
0.0
 10
22.0168301454833
 20
9.71886954891844
 30
0.0
 10
21.08988411413383
 20
9.715208819699782
 30
0.0
 10
20.14760230003355
 20
9.71904285561986
 30
0.0
 10
19.18075748317955
 20
9.730886803381557
 30
0.0
 10
18.22287261405322
 20
9.749905042879126
 30
0.0
 10
17.58051231630891
 20
9.769409154235634
 30
0.0
 10
17.27319612823274
 20
9.778740255760649
 30
0.0
  0
SPLINE
  5
A3
330
1F
100
AcDbEntity
  8
0
  6
Continuous
 62
     1
370
    15
100
AcDbSpline
210
0.0
220
0.0
230
1.0
 70
     8
 71
     3
 72
    18
 73
    14
 74
     0
 42
0.000000001
 43
0.00000001
 40
0.0
 40
0.0
 40
0.0
 40
0.0
 40
0.118874191628542
 40
0.2085913644775809
 40
0.2755348742957799
 40
0.3388965416574222
 40
0.4008936743789274
 40
0.4660149776083541
 40
0.6683220224460761
 40
0.7161326042887263
 40
0.7760120757462715
 40
0.8704061013391463
 40
1.0
 40
1.0
 40
1.0
 40
1.0
 10
12.0
 20
-10.15423456985642
 30
0.0
 10
12.60814833978175
 20
-10.11102229340818
 30
0.0
 10
13.6752806606159
 20
-10.03519668666347
 30
0.0
 10
15.09333524037446
 20
-9.957738680555106
 30
0.0
 10
16.23792197404152
 20
-9.905973517388118
 30
0.0
 10
17.23219676894399
 20
-9.869391227116221
 30
0.0
 10
18.21094499702511
 20
-9.84130456930047
 30
0.0
 10
19.90861852211927
 20
-9.80668718183322
 30
0.0
 10
21.53980036376279
 20
-9.802184597279874
 30
0.0
 10
23.12997299051789
 20
-9.823709933872307
 30
0.0
 10
24.16825755139153
 20
-9.84516283301231
 30
0.0
 10
25.6349595083898
 20
-9.889093107751647
 30
0.0
 10
26.79549573811143
 20
-9.945655209127187
 30
0.0
 10
27.4669534296271
 20
-9.9783806484924
 30
0.0
  0
SPLINE
  5
A4
330
1F
100
AcDbEntity
  8
0
  6
Continuous
 62
     1
370
    15
100
AcDbSpline
210
0.0
220
0.0
230
1.0
 70
     8
 71
     3
 72
    16
 73
    12
 74
     0
 42
0.000000001
 43
0.00000001
 40
0.0
 40
0.0
 40
0.0
 40
0.0
 40
0.1588409130638832
 40
0.2719237294157906
 40
0.3602826315914896
 40
0.4523514534522841
 40
0.5511844928966589
 40
0.6623284153313915
 40
0.7852007450651545
 40
0.916289915840753
 40
1.0
 40
1.0
 40
1.0
 40
1.0
 10
95.48458428581318
 20
9.887630560666008
 30
0.0
 10
94.94486805579763
 20
9.86080000578169
 30
0.0
 10
94.02091435104249
 20
9.814868108226397
 30
0.0
 10
92.78710354049126
 20
9.772106259522856
 30
0.0
 10
91.77422234122702
 20
9.745187986964941
 30
0.0
 10
90.81650165495168
 20
9.727379249076971
 30
0.0
 10
89.78293545515051
 20
9.716738469887135
 30
0.0
 10
88.64384746030953
 20
9.71521807061093
 30
0.0
 10
87.39430534475495
 20
9.727360856892126
 30
0.0
 10
86.23849624017632
 20
9.74768817459905
 30
0.0
 10
85.50342428879146
 20
9.774553728525573
 30
0.0
 10
85.21695711770099
 20
9.785023586909652
 30
0.0
  0
SPLINE
  5
A5
330
1F
100
AcDbEntity
  8
0
  6
Continuous
 62
     1
370
    15
100
AcDbSpline
210
0.0
220
0.0
230
1.0
 70
     8
 71
     3
 72
    16
 73
    12
 74
     0
 42
0.000000001
 43
0.00000001
 40
0.0
 40
0.0
 40
0.0
 40
0.0
 40
0.186902767286205
 40
0.3294619977409688
 40
0.4274150681323267
 40
0.4982567435505952
 40
0.56859973354785
 40
0.639219704446514
 40
0.7156703979971765
 40
0.8765513285709836
 40
1.0
 40
1.0
 40
1.0
 40
1.0
 10
105.5188514202077
 20
-9.447084172128383
 30
0.0
 10
106.1016588936138
 20
-9.357963990081661
 30
0.0
 10
107.1290001003531
 20
-9.200867797005017
 30
0.0
 10
108.4574690455042
 20
-9.023816332476224
 30
0.0
 10
109.4212326006488
 20
-8.905633920572932
 30
0.0
 10
110.1566985218006
 20
-8.821480902243822
 30
0.0
 10
110.8110370920476
 20
-8.750899315780986
 30
0.0
 10
111.484914364803
 20
-8.683075117599936
 30
0.0
 10
112.4404508247006
 20
-8.594535099761245
 30
0.0
 10
113.5604504303202
 20
-8.501629106178616
 30
0.0
 10
114.4426207249206
 20
-8.448815995764383
 30
0.0
 10
114.8256365983135
 20
-8.425885888351203
 30
0.0
  0
SPLINE
  5
A6
330
1F
100
AcDbEntity
  8
0
  6
Continuous
 62
     1
370
    15
100
AcDbSpline
210
0.0
220
0.0
230
1.0
 70
     8
 71
     3
 72
    13
 73
     9
 74
     0
 42
0.000000001
 43
0.00000001
 40
0.0
 40
0.0
 40
0.0
 40
0.0
 40
0.1917539838224615
 40
0.4995822129761213
 40
0.7048765573280451
 40
0.7948351762463606
 40
0.8709897574556182
 40
1.0
 40
1.0
 40
1.0
 40
1.0
 10
59.33872743750959
 20
8.504059931962237
 30
0.0
 10
57.93718402856593
 20
8.40305900520084
 30
0.0
 10
54.28570235468083
 20
8.139918362705426
 30
0.0
 10
49.18321465592172
 20
8.164888942790878
 30
0.0
 10
44.77391097047246
 20
8.455625687148096
 30
0.0
 10
42.09357523228642
 20
8.73130869034869
 30
0.0
 10
39.9503368841516
 20
8.988496869385221
 30
0.0
 10
38.44689330479287
 20
9.214310401936382
 30
0.0
 10
37.50150891932059
 20
9.356304814386009
 30
0.0
  0
SPLINE
  5
A7
330
1F
100
AcDbEntity
  8
0
  6
Continuous
 62
     1
370
    15
100
AcDbSpline
210
0.0
220
0.0
230
1.0
 70
     8
 71
     3
 72
    17
 73
    13
 74
     0
 42
0.000000001
 43
0.00000001
 40
0.0
 40
0.0
 40
0.0
 40
0.0
 40
0.1658831822031127
 40
0.3010072670744687
 40
0.431176939364681
 40
0.5113522232920028
 40
0.5797932112836736
 40
0.648139037599235
 40
0.7168025628082547
 40
0.7873905925502567
 40
0.962875236428077
 40
1.0
 40
1.0
 40
1.0
 40
1.0
 10
37.50150891932059
 20
-9.447063159854848
 30
0.0
 10
38.02243259444037
 20
-9.3671791830098
 30
0.0
 10
38.96768701818419
 20
-9.22222381602313
 30
0.0
 10
40.31705001935566
 20
-9.039149418621811
 30
0.0
 10
41.39703213513143
 20
-8.905649116368807
 30
0.0
 10
42.25738272037884
 20
-8.80828671247972
 30
0.0
 10
42.92742427027339
 20
-8.737069218539476
 30
0.0
 10
43.56613138173115
 20
-8.673769235910456
 30
0.0
 10
44.21448374844682
 20
-8.613895777295527
 30
0.0
 10
45.19668854199575
 20
-8.531413387125012
 30
0.0
 10
46.08005977600111
 20
-8.461804096871386
 30
0.0
 10
46.7433563072663
 20
-8.428629349641747
 30
0.0
 10
46.85917774337618
 20
-8.422836545540404
 30
0.0
  0
SPLINE
  5
A8
330
1F
100
AcDbEntity
  8
0
  6
Continuous
 62
     1
370
    15
100
AcDbSpline
210
0.0
220
0.0
230
1.0
 70
     8
 71
     3
 72
    22
 73
    18
 74
     0
 42
0.000000001
 43
0.00000001
 40
0.0
 40
0.0
 40
0.0
 40
0.0
 40
0.0821098926146196
 40
0.143024520028609
 40
0.2016802391362161
 40
0.2725837575036771
 40
0.3453210884542347
 40
0.41502560904476
 40
0.4747422710830432
 40
0.5693202054002316
 40
0.661286983651738
 40
0.6942778751575636
 40
0.730285807529931
 40
0.7714991396801104
 40
0.829454921723021
 40
0.905752725247947
 40
1.0
 40
1.0
 40
1.0
 40
1.0
 10
127.374955855141
 20
8.505669145509305
 30
0.0
 10
126.7882756460174
 20
8.458092139150041
 30
0.0
 10
125.766356695106
 20
8.375219317346831
 30
0.0
 10
124.2843859058498
 20
8.289479658239632
 30
0.0
 10
122.8751608025219
 20
8.228292402703975
 30
0.0
 10
121.4032347427064
 20
8.188825980855393
 30
0.0
 10
119.8493312592543
 20
8.175726221821954
 30
0.0
 10
118.3765823060091
 20
8.190317664571896
 30
0.0
 10
116.7458155414584
 20
8.233737461385829
 30
0.0
 10
114.9506590528296
 20
8.316553919989806
 30
0.0
 10
113.352213189451
 20
8.428180735693699
 30
0.0
 10
112.1800371949079
 20
8.527607242645912
 30
0.0
 10
111.3773634162654
 20
8.602369910299785
 30
0.0
 10
110.39307304385
 20
8.703293504494102
 30
0.0
 10
109.11633698678
 20
8.84926684001425
 30
0.0
 10
107.4517738495064
 20
9.062378512591502
 30
0.0
 10
106.2068345480609
 20
9.251701456073734
 30
0.0
 10
105.5188514202077
 20
9.356325826659548
 30
0.0
  0
SPLINE
  5
A9
330
1F
100
AcDbEntity
  8
0
  6
Continuous
 62
   131
370
    15
100
AcDbSpline
210
0.0
220
0.0
230
1.0
 70
     8
 71
     3
 72
     8
 73
     4
 74
     0
 42
0.000000001
 43
0.00000001
 40
0.0
 40
0.0
 40
0.0
 40
0.0
 40
1.0
 40
1.0
 40
1.0
 40
1.0
 10
11.99999999999998
 20
-11.46056236695751
 30
0.0
 10
10.98136432268809
 20
-11.69993308530684
 30
0.0
 10
9.968446584769337
 20
-11.90106758944853
 30
0.0
 10
8.950139378617196
 20
-12.06271490262432
 30
0.0
  0
LINE
  5
AA
330
1F
100
AcDbEntity
  8
0
  6
Continuous
 62
   131
370
    15
100
AcDbLine
 10
8.950068068259522
 20
11.97210397510315
 30
0.0
 11
8.950068068259526
 21
12.45462082726558
 31
0.0
  0
SPLINE
  5
AB
330
1F
100
AcDbEntity
  8
0
  6
Continuous
 62
   131
370
    15
100
AcDbSpline
210
0.0
220
0.0
230
1.0
 70
     8
 71
     3
 72
     8
 73
     4
 74
     0
 42
0.000000001
 43
0.00000001
 40
0.0
 40
0.0
 40
0.0
 40
0.0
 40
1.0
 40
1.0
 40
1.0
 40
1.0
 10
11.99999999999998
 20
11.36980402148866
 30
0.0
 10
10.98136432268808
 20
11.60917473983799
 30
0.0
 10
9.968446584769337
 20
11.81030924397968
 30
0.0
 10
8.950139378617193
 20
11.97195655715548
 30
0.0
  0
LINE
  5
AC
330
1F
100
AcDbEntity
  8
0
  6
Continuous
 62
   131
370
    15
100
AcDbLine
 10
11.99999999999999
 20
11.36980402148866
 30
0.0
 11
12.0
 21
9.51909581669644
 31
0.0
  0
SPLINE
  5
AD
330
1F
100
AcDbEntity
  8
0
  6
Continuous
 62
   131
370
    15
100
AcDbSpline
210
0.0
220
0.0
230
1.0
 70
     8
 71
     3
 72
     8
 73
     4
 74
     0
 42
0.000000001
 43
0.00000001
 40
0.0
 40
0.0
 40
0.0
 40
0.0
 40
1.0
 40
1.0
 40
1.0
 40
1.0
 10
12.0
 20
9.519095816696444
 30
0.0
 10
10.98134054490267
 20
9.897325660919535
 30
0.0
 10
9.968399150183698
 20
10.24318406323736
 30
0.0
 10
8.950068068259519
 20
10.55450902750765
 30
0.0
  0
LINE
  5
AE
330
1F
100
AcDbEntity
  8
0
  6
Continuous
 62
   131
370
    15
100
AcDbLine
 10
8.950068068259526
 20
-12.54537917273442
 30
0.0
 11
8.950068068259519
 21
10.55451053047237
 31
0.0
  0
LINE
  5
AF
330
1F
100
AcDbEntity
  8
0
  6
Continuous
 62
   131
370
    15
100
AcDbLine
 10
-117.0
 20
12.45462082726556
 30
0.0
 11
-117.0
 21
-12.54537917273443
 31
0.0
  0
LINE
  5
B0
330
1F
100
AcDbEntity
  8
0
  6
Continuous
 62
   131
370
    15
100
AcDbLine
 10
-118.0
 20
11.45462082726556
 30
0.0
 11
-118.0
 21
-11.54537917273443
 31
0.0
  0
SPLINE
  5
B1
330
1F
100
AcDbEntity
  8
0
  6
Continuous
 62
   131
370
    15
100
AcDbSpline
210
0.0
220
0.0
230
1.0
 70
    24
 71
     3
 72
    14
 73
    10
 74
     0
 42
0.000000001
 43
0.00000001
 40
0.0
 40
0.0
 40
0.0
 40
0.0
 40
0.25
 40
0.25
 40
0.5
 40
0.5
 40
0.75
 40
0.75
 40
1.0
 40
1.0
 40
1.0
 40
1.0
 10
12.0
 20
6.412522306559502
 30
0.0
 10
12.0
 20
5.508507769074208
 30
0.0
 10
12.0
 20
4.497083474889103
 30
0.0
 10
12.0
 20
2.329189043045286
 30
0.0
 10
12.0
 20
1.173490753197116
 30
0.0
 10
12.0
 20
-1.173490753197116
 30
0.0
 10
12.0
 20
-2.363523399873449
 30
0.0
 10
12.0
 20
-4.662242824885129
 30
0.0
 10
12.0
 20
-5.769974004648037
 30
0.0
 10
12.0
 20
-6.792884445598245
 30
0.0
  0
SPLINE
  5
B2
330
1F
100
AcDbEntity
  8
0
  6
Continuous
 62
   131
370
    15
100
AcDbSpline
210
0.0
220
0.0
230
1.0
 70
     8
 71
     3
 72
     8
 73
     4
 74
     0
 42
0.000000001
 43
0.00000001
 40
0.0
 40
0.0
 40
0.0
 40
0.0
 40
1.0
 40
1.0
 40
1.0
 40
1.0
 10
12.0
 20
-6.792884445598248
 30
0.0
 10
10.98134922716692
 20
-6.44603119979453
 30
0.0
 10
9.968416470537628
 20
-6.077490831492669
 30
0.0
 10
8.950094106655357
 20
-5.689585138190142
 30
0.0
  0
SPLINE
  5
B3
330
1F
100
AcDbEntity
  8
0
  6
Continuous
 62
   131
370
    15
100
AcDbSpline
210
0.0
220
0.0
230
1.0
 70
     8
 71
     3
 72
     8
 73
     4
 74
     0
 42
0.000000001
 43
0.00000001
 40
0.0
 40
0.0
 40
0.0
 40
0.0
 40
1.0
 40
1.0
 40
1.0
 40
1.0
 10
11.99999999999995
 20
6.412522306559514
 30
0.0
 10
10.98134627325662
 20
6.689991611171593
 30
0.0
 10
9.96841057774658
 20
6.945562681041432
 30
0.0
 10
8.95008524778148
 20
7.177637292167073
 30
0.0
  0
SPLINE
  5
B4
330
1F
100
AcDbEntity
  8
0
  6
Continuous
 62
   131
370
    15
100
AcDbSpline
210
0.0
220
0.0
230
1.0
 70
    24
 71
     3
 72
    13
 73
     9
 74
     0
 42
0.000000001
 43
0.00000001
 40
0.0
 40
0.0
 40
0.0
 40
0.0
 40
0.1580001890257605
 40
0.316000378051521
 40
0.5474081481147398
 40
0.7855267591864666
 40
0.9947134378756672
 40
1.0
 40
1.0
 40
1.0
 40
1.0
 10
11.99999999999998
 20
-6.792884445598244
 30
0.0
 10
11.99999999999998
 20
-7.12061067632997
 30
0.0
 10
11.99999999999998
 20
-7.776063137793422
 30
0.0
 10
11.99999999999997
 20
-8.700806408324638
 30
0.0
 10
12.00000000000003
 20
-9.528561544168987
 30
0.0
 10
11.99999999999997
 20
-10.01693564105324
 30
0.0
 10
11.99999999999998
 20
-10.20725515245757
 30
0.0
 10
11.99999999999998
 20
-10.15170688519776
 30
0.0
 10
11.99999999999998
 20
-10.15033767305431
 30
0.0
  0
SPLINE
  5
B5
330
1F
100
AcDbEntity
  8
0
  6
Continuous
 62
   131
370
    15
100
AcDbSpline
210
0.0
220
0.0
230
1.0
 70
    24
 71
     3
 72
    10
 73
     6
 74
     0
 42
0.000000001
 43
0.00000001
 40
0.0
 40
0.0
 40
0.0
 40
0.0
 40
0.5
 40
0.5
 40
1.0
 40
1.0
 40
1.0
 40
1.0
 10
12.0
 20
9.519095816696447
 30
0.0
 10
12.0
 20
9.165148566880411
 30
0.0
 10
12.0
 20
8.693727519921996
 30
0.0
 10
12.0
 20
7.614749743399529
 30
0.0
 10
12.0
 20
7.01061201102762
 30
0.0
 10
12.0
 20
6.412522306559502
 30
0.0
  0
SPLINE
  5
B6
330
1F
100
AcDbEntity
  8
0
  6
Continuous
 62
   131
370
    15
100
AcDbSpline
210
0.0
220
0.0
230
1.0
 70
    24
 71
     3
 72
    12
 73
     8
 74
     0
 42
0.000000001
 43
0.00000001
 40
0.0
 40
0.0
 40
0.0
 40
0.0
 40
0.1205726800961464
 40
0.3583920802820108
 40
0.595935423937865
 40
0.8337548241237255
 40
1.0
 40
1.0
 40
1.0
 40
1.0
 10
11.99999999999998
 20
-10.15423456985642
 30
0.0
 10
11.99999999999998
 20
-10.21034623187533
 30
0.0
 10
11.99999999999998
 20
-10.37713339512826
 30
0.0
 10
11.99999999999996
 20
-10.64444859947765
 30
0.0
 10
12.00000000000004
 20
-10.9562309727385
 30
0.0
 10
11.99999999999996
 20
-11.22779902100049
 30
0.0
 10
11.99999999999999
 20
-11.39271189927646
 30
0.0
 10
12.0
 20
-11.46056236694289
 30
0.0
  0
SPLINE
  5
B7
330
1F
100
AcDbEntity
  8
0
  6
Continuous
 62
     1
370
    15
100
AcDbSpline
210
0.0
220
0.0
230
1.0
 70
     8
 71
     3
 72
    24
 73
    20
 74
     0
 42
0.000000001
 43
0.00000001
 40
0.0
 40
0.0
 40
0.0
 40
0.0
 40
0.0213725942911495
 40
0.0814030574915641
 40
0.141413480234424
 40
0.2014132396518045
 40
0.2614387313895511
 40
0.3214716763467979
 40
0.3814923342895836
 40
0.4414888719313549
 40
0.5015060235952796
 40
0.5615383910930872
 40
0.6215662381840161
 40
0.6846193486592154
 40
0.7476924293805071
 40
0.8107852277865394
 40
0.8738568589912277
 40
0.9369109506874916
 40
1.0
 40
1.0
 40
1.0
 40
1.0
 10
85.2236933225185
 20
-9.87331290676933
 30
0.0
 10
84.70202152772006
 20
-10.07019467534655
 30
0.0
 10
82.7150994664479
 20
-10.82006985232351
 30
0.0
 10
79.26334290329817
 20
-11.69388106069886
 30
0.0
 10
74.86913879703272
 20
-12.42831836165197
 30
0.0
 10
70.47534681859162
 20
-12.62750566594262
 30
0.0
 10
66.08037664135011
 20
-12.31722850705524
 30
0.0
 10
61.684860333099
 20
-11.50117527694552
 30
0.0
 10
57.29016928537116
 20
-10.2154169101337
 30
0.0
 10
52.8965039779672
 20
-8.511362500428614
 30
0.0
 10
48.50199102447845
 20
-6.460264257257148
 30
0.0
 10
44.1065110554419
 20
-4.145669171668688
 30
0.0
 10
39.63696499619411
 20
-1.621057364739655
 30
0.0
 10
35.09367577721165
 20
1.017707862111015
 30
0.0
 10
30.47512842209765
 20
3.650006290935087
 30
0.0
 10
25.85569793103609
 20
6.117068713751905
 30
0.0
 10
21.23717925659448
 20
8.29530892480414
 30
0.0
 10
16.61924777826832
 20
10.13299303324735
 30
0.0
 10
13.54003370343395
 20
10.95745753173541
 30
0.0
 10
11.99999999999631
 20
11.36980402148953
 30
0.0
  0
SPLINE
  5
B8
330
1F
100
AcDbEntity
  8
0
  6
Continuous
 62
     1
370
    15
100
AcDbSpline
210
0.0
220
0.0
230
1.0
 70
     8
 71
     3
 72
    17
 73
    13
 74
     0
 42
0.000000001
 43
0.00000001
 40
0.0
 40
0.0
 40
0.0
 40
0.0
 40
0.0242611415033034
 40
0.1378240065479022
 40
0.25146729843395
 40
0.3650514228676618
 40
0.4786672599440935
 40
0.5922920499407457
 40
0.7058681044540975
 40
0.8195147350418271
 40
0.9330769075445263
 40
0.9999999999999999
 40
0.9999999999999999
 40
0.9999999999999999
 40
0.9999999999999999
 10
76.69562250648771
 20
-10.39739425069444
 30
0.0
 10
76.33062965021641
 20
-10.44894453926895
 30
0.0
 10
74.25715846561344
 20
-10.74179421038073
 30
0.0
 10
70.4749288855257
 20
-10.70389725983637
 30
0.0
 10
65.34761262771659
 20
-10.24018653899607
 30
0.0
 10
60.22063732432404
 20
-9.158037014196236
 30
0.0
 10
55.093378395545
 20
-7.580499335406934
 30
0.0
 10
49.96607655258919
 20
-5.57997773747474
 30
0.0
 10
44.83917094296262
 20
-3.267572775996013
 30
0.0
 10
39.71189212980529
 20
-0.7857877413804564
 30
0.0
 10
35.28788132038527
 20
1.419541563012358
 30
0.0
 10
32.57256624008619
 20
2.683284688448616
 30
0.0
 10
31.56574010274634
 20
3.151874731204404
 30
0.0
  0
SPLINE
  5
B9
330
1F
100
AcDbEntity
  8
0
  6
Continuous
 62
     1
370
    15
100
AcDbSpline
210
0.0
220
0.0
230
1.0
 70
     8
 71
     3
 72
    21
 73
    17
 74
     0
 42
0.000000001
 43
0.00000001
 40
0.0
 40
0.0
 40
0.0
 40
0.0
 40
0.0719455125429886
 40
0.1439193140720843
 40
0.2158977745955294
 40
0.2878572319146708
 40
0.3597931838242652
 40
0.4317586643361401
 40
0.5037381168370042
 40
0.5757078722686169
 40
0.6476466734558253
 40
0.719600179840469
 40
0.7915769562381596
 40
0.8635533520943095
 40
0.9355057194850903
 40
1.0
 40
1.0
 40
1.0
 40
1.0
 10
132.0
 20
-11.90714003813316
 30
0.0
 10
130.5355314734923
 20
-11.59315914514797
 30
0.0
 10
127.6060185912369
 20
-10.96507390184432
 30
0.0
 10
123.2108512253337
 20
-9.44436500379306
 30
0.0
 10
118.8153896165769
 20
-7.572681924325551
 30
0.0
 10
114.4209142304763
 20
-5.382645786405068
 30
0.0
 10
110.0272417656902
 20
-2.975238891057034
 30
0.0
 10
105.6325130434558
 20
-0.4476904241187828
 30
0.0
 10
101.2369920754067
 20
2.09641094922034
 30
0.0
 10
96.84205710834196
 20
4.552347960390144
 30
0.0
 10
92.4482926452585
 20
6.820452189804135
 30
0.0
 10
88.05403968429232
 20
8.805258955542142
 30
0.0
 10
83.65868456360873
 20
10.42996278735444
 30
0.0
 10
79.26334188656422
 20
11.61200665555735
 30
0.0
 10
75.02071927071809
 20
12.33658166440783
 30
0.0
 10
72.24331899470965
 20
12.40055506025404
 30
0.0
 10
70.93052432182859
 20
12.43079338564001
 30
0.0
  0
SPLINE
  5
BA
330
1F
100
AcDbEntity
  8
0
  6
Continuous
 62
     1
370
    15
100
AcDbSpline
210
0.0
220
0.0
230
1.0
 70
     8
 71
     3
 72
     9
 73
     5
 74
     0
 42
0.000000001
 43
0.00000001
 40
0.0
 40
0.0
 40
0.0
 40
0.0
 40
0.1238920360067574
 40
1.0
 40
1.0
 40
1.0
 40
1.0
 10
17.27319612823275
 20
-9.869498601229491
 30
0.0
 10
17.0554497489738
 20
-9.955436007066819
 30
0.0
 10
15.29790030288128
 20
-10.64908354574026
 30
0.0
 10
13.54005887468038
 20
-11.08161666046085
 30
0.0
 10
11.99999999999631
 20
-11.46056236695837
 30
0.0
  0
SPLINE
  5
BB
330
1F
100
AcDbEntity
  8
0
  6
Continuous
 62
   131
370
    15
100
AcDbSpline
210
0.0
220
0.0
230
1.0
 70
    24
 71
     3
 72
    12
 73
     8
 74
     0
 42
0.000000001
 43
0.00000001
 40
0.0
 40
0.0
 40
0.0
 40
0.0
 40
0.1205726800961491
 40
0.3583920802820201
 40
0.5959354239378827
 40
0.8337548241237529
 40
0.9999999999999999
 40
0.9999999999999999
 40
0.9999999999999999
 40
0.9999999999999999
 10
12.0
 20
-10.15423456985642
 30
0.0
 10
12.0
 20
-10.21034623187533
 30
0.0
 10
12.00000000000001
 20
-10.37713339512825
 30
0.0
 10
12.0
 20
-10.64444859947764
 30
0.0
 10
12.0
 20
-10.95623097273851
 30
0.0
 10
12.00000000000001
 20
-11.22779902100048
 30
0.0
 10
12.0
 20
-11.39271189927644
 30
0.0
 10
12.0
 20
-11.46056236694285
 30
0.0
  0
SPLINE
  5
BC
330
1F
100
AcDbEntity
  8
0
  6
Continuous
 62
     1
370
    15
100
AcDbSpline
210
0.0
220
0.0
230
1.0
 70
     8
 71
     3
 72
    14
 73
    10
 74
     0
 42
0.000000001
 43
0.00000001
 40
0.0
 40
0.0
 40
0.0
 40
0.0
 40
0.1581001438460309
 40
0.31625024396562
 40
0.4743053583544528
 40
0.6324740880466787
 40
0.7905253381118166
 40
0.9486813242579495
 40
1.0
 40
1.0
 40
1.0
 40
1.0
 10
132.0
 20
-9.907532477337105
 30
0.0
 10
130.291137072686
 20
-9.541973966413844
 30
0.0
 10
126.8728712538189
 20
-8.810741435874363
 30
0.0
 10
121.7455598467398
 20
-7.078028885067148
 30
0.0
 10
116.6187423404525
 20
-4.991039721771607
 30
0.0
 10
111.491464336782
 20
-2.616902140562441
 30
0.0
 10
106.3646961214552
 20
-0.1121560775376222
 30
0.0
 10
102.3915523474462
 20
1.869032103987388
 30
0.0
 10
100.1274019986017
 20
2.902798231216744
 30
0.0
 10
99.57271344325923
 20
3.156058020244198
 30
0.0
  0
LINE
  5
BD
330
1F
100
AcDbEntity
  8
0
  6
Continuous
 62
     1
370
    15
100
AcDbLine
 10
131.9999999999994
 20
-11.90714003813317
 30
0.0
 11
132.0
 21
-9.907532477337105
 31
0.0
  0
SPLINE
  5
BE
330
1F
100
AcDbEntity
  8
0
  6
Continuous
 62
     1
370
    15
100
AcDbSpline
210
0.0
220
0.0
230
1.0
 70
     8
 71
     3
 72
    19
 73
    15
 74
     0
 42
0.000000001
 43
0.00000001
 40
0.0
 40
0.0
 40
0.0
 40
0.0
 40
0.0873702870012051
 40
0.1746921627674176
 40
0.2620383267335646
 40
0.3494138055825121
 40
0.4367619803068984
 40
0.5240824949870349
 40
0.6072136142124958
 40
0.6903509953829803
 40
0.7734673060106338
 40
0.856555066368873
 40
0.9396762291868331
 40
1.0
 40
1.0
 40
1.0
 40
1.0
 10
12.0
 20
9.519095816696451
 30
0.0
 10
13.54003073448833
 20
8.904790209609356
 30
0.0
 10
16.61923888373421
 20
7.676519377664895
 30
0.0
 10
21.23716146782225
 20
5.366670096959784
 30
0.0
 10
25.85567120823061
 20
2.843189168758477
 30
0.0
 10
30.47509280262259
 20
0.1809454802750339
 30
0.0
 10
35.09363130962238
 20
-2.489787418035867
 30
0.0
 10
39.63691539463066
 20
-5.009629789480702
 30
0.0
 10
44.10646012663031
 20
-7.272793193639663
 30
0.0
 10
48.50194270005838
 20
-9.200607048961297
 30
0.0
 10
52.89645812834395
 20
-10.75722800513529
 30
0.0
 10
57.29012648602388
 20
-11.85653129627696
 30
0.0
 10
61.28271879650283
 20
-12.47480060605057
 30
0.0
 10
63.81096972883994
 20
-12.48843370581297
 30
0.0
 10
64.87419047801377
 20
-12.49416691621449
 30
0.0
  0
SPLINE
  5
BF
330
1F
100
AcDbEntity
  8
0
  6
Continuous
 62
     1
370
    15
100
AcDbSpline
210
0.0
220
0.0
230
1.0
 70
     8
 71
     3
 72
    11
 73
     7
 74
     0
 42
0.000000001
 43
0.00000001
 40
0.0
 40
0.0
 40
0.0
 40
0.0
 40
0.2324871191234326
 40
0.4883693099469906
 40
0.7442349385572858
 40
1.0
 40
1.0
 40
1.0
 40
1.0
 10
114.8212474598664
 20
8.333400253604465
 30
0.0
 10
116.1524913007606
 20
8.881998885712463
 30
0.0
 10
118.9489414370089
 20
10.03440137756064
 30
0.0
 10
123.2108533712815
 20
11.29232651102547
 30
0.0
 10
127.6060142369167
 20
12.19195040135147
 30
0.0
 10
130.5355300228298
 20
12.36003182501659
 30
0.0
 10
131.9999999999994
 20
12.45462082726603
 30
0.0
  0
SPLINE
  5
C0
330
1F
100
AcDbEntity
  8
0
  6
Continuous
 62
     1
370
    15
100
AcDbSpline
210
0.0
220
0.0
230
1.0
 70
    24
 71
     3
 72
    10
 73
     6
 74
     0
 42
0.000000001
 43
0.00000001
 40
0.0
 40
0.0
 40
0.0
 40
0.0
 40
0.5
 40
0.5
 40
1.0
 40
1.0
 40
1.0
 40
1.0
 10
132.0
 20
8.704620827265595
 30
0.0
 10
132.0
 20
9.235024037357014
 30
0.0
 10
132.0
 20
9.851401688104554
 30
0.0
 10
132.0
 20
11.14456033927629
 30
0.0
 10
132.0
 20
11.81803877478401
 30
0.0
 10
131.9999999999994
 20
12.45462082726603
 30
0.0
  0
LINE
  5
C1
330
1F
100
AcDbEntity
  8
0
  6
Continuous
 62
     1
370
    15
100
AcDbLine
 10
132.0
 20
8.704620827265595
 30
0.0
 11
127.3694096700435
 21
8.484060766600326
 31
0.0
  0
SPLINE
  5
C2
330
1F
100
AcDbEntity
  8
0
  6
Continuous
 62
     1
370
    15
100
AcDbSpline
210
0.0
220
0.0
230
1.0
 70
     8
 71
     3
 72
    12
 73
     8
 74
     0
 42
0.000000001
 43
0.00000001
 40
0.0
 40
0.0
 40
0.0
 40
0.0
 40
0.1660994958893815
 40
0.4109279035667723
 40
0.6072536847798816
 40
0.8036179373513018
 40
1.0
 40
1.0
 40
1.0
 40
1.0
 10
32.93456446623908
 20
-1.232292101990437
 30
0.0
 10
31.77536391033124
 20
-0.767713252781107
 30
0.0
 10
28.90751743251965
 20
0.3816485289921161
 30
0.0
 10
24.66975739874641
 20
2.096408486859472
 30
0.0
 10
20.22145041440605
 20
3.784264043148685
 30
0.0
 10
16.11091769130558
 20
5.224334815167929
 30
0.0
 10
13.37034732313873
 20
6.016447835971339
 30
0.0
 10
11.99999999999995
 20
6.412522306559512
 30
0.0
  0
SPLINE
  5
C3
330
1F
100
AcDbEntity
  8
0
  6
Continuous
 62
   131
370
    15
100
AcDbSpline
210
0.0
220
0.0
230
1.0
 70
    24
 71
     3
 72
    10
 73
     6
 74
     0
 42
0.000000001
 43
0.00000001
 40
0.0
 40
0.0
 40
0.0
 40
0.0
 40
0.5
 40
0.5
 40
1.0
 40
1.0
 40
1.0
 40
1.0
 10
12.0
 20
9.519095816696447
 30
0.0
 10
12.0
 20
9.165148566880411
 30
0.0
 10
12.0
 20
8.693727519921996
 30
0.0
 10
12.0
 20
7.614749743399532
 30
0.0
 10
12.0
 20
7.010612011027619
 30
0.0
 10
12.0
 20
6.412522306559502
 30
0.0
  0
SPLINE
  5
C4
330
1F
100
AcDbEntity
  8
0
  6
Continuous
 62
     1
370
    15
100
AcDbSpline
210
0.0
220
0.0
230
1.0
 70
     8
 71
     3
 72
    27
 73
    23
 74
     0
 42
0.000000001
 43
0.00000001
 40
0.0
 40
0.0
 40
0.0
 40
0.0
 40
0.0187709488468749
 40
0.070414296118465
 40
0.1220399040141502
 40
0.1736862661374239
 40
0.2253432018546919
 40
0.2769937250109261
 40
0.328622106171418
 40
0.3802596611021924
 40
0.4319144611066851
 40
0.4835695347967491
 40
0.5352079088921811
 40
0.586835728419247
 40
0.6384857627774262
 40
0.6901427567744156
 40
0.7417897238521565
 40
0.7934154990849832
 40
0.8450581429695921
 40
0.8967144249878575
 40
0.9483673635051296
 40
0.9999999999999999
 40
0.9999999999999999
 40
0.9999999999999999
 40
0.9999999999999999
 10
46.90488657617731
 20
8.351999064612341
 30
0.0
 10
47.43735327704788
 20
8.589128189208326
 30
0.0
 10
49.43476258513222
 20
9.478655966084343
 30
0.0
 10
52.89645423370807
 20
10.64940885971518
 30
0.0
 10
57.2901271437763
 20
11.78071150701372
 30
0.0
 10
61.6848193535951
 20
12.40359594050478
 30
0.0
 10
66.0803384102162
 20
12.52145771181003
 30
0.0
 10
70.47531164660404
 20
12.12180130274768
 30
0.0
 10
74.86910412689126
 20
11.22277002066672
 30
0.0
 10
79.26331857095646
 20
9.861036566903728
 30
0.0
 10
83.65865462445062
 20
8.092739567165406
 30
0.0
 10
88.05401476012409
 20
5.990310138008891
 30
0.0
 10
92.44826964608583
 20
3.639951868316002
 30
0.0
 10
96.84203680906397
 20
1.13776159062358
 30
0.0
 10
101.236974245878
 20
-1.412240196108516
 30
0.0
 10
105.6324977720706
 20
-3.906298029792611
 30
0.0
 10
110.0272290543964
 20
-6.241851929574763
 30
0.0
 10
114.4209040680387
 20
-8.322989343199275
 30
0.0
 10
118.81538198441
 20
-10.06625067779262
 30
0.0
 10
123.2108461325784
 20
-11.38827986880855
 30
0.0
 10
127.6060160457138
 20
-12.28141062428709
 30
0.0
 10
130.5355306256832
 20
-12.45035751968065
 30
0.0
 10
132.0
 20
-12.54537917273398
 30
0.0
  0
SPLINE
  5
C5
330
1F
100
AcDbEntity
  8
0
  6
Continuous
 62
     1
370
    15
100
AcDbSpline
210
0.0
220
0.0
230
1.0
 70
     8
 71
     3
 72
    16
 73
    12
 74
     0
 42
0.000000001
 43
0.00000001
 40
0.0
 40
0.0
 40
0.0
 40
0.0
 40
0.116181761942326
 40
0.2393826801852053
 40
0.3626089128540009
 40
0.4857680754988257
 40
0.6090141950612015
 40
0.7321639520285975
 40
0.85540451101979
 40
0.9785782674551741
 40
1.0
 40
1.0
 40
1.0
 40
1.0
 10
100.9454711655161
 20
-1.234868942885953
 30
0.0
 10
99.33382158640525
 20
-0.5841220638458963
 30
0.0
 10
96.0131541312291
 20
0.756686763826181
 30
0.0
 10
90.98308363980917
 20
2.764965383092898
 30
0.0
 10
85.85587452823678
 20
4.649088996517635
 30
0.0
 10
80.72881806971155
 20
6.27498590262589
 30
0.0
 10
75.60177911725596
 20
7.542739798287514
 30
0.0
 10
70.47476645003941
 20
8.400142843336052
 30
0.0
 10
65.34765986441488
 20
8.742222392820103
 30
0.0
 10
61.63251669438904
 20
8.750956477847216
 30
0.0
 10
59.62666043972972
 20
8.505681454809965
 30
0.0
 10
59.32949407227437
 20
8.469344111366635
 30
0.0
  0
LINE
  5
C6
330
1F
100
AcDbEntity
  8
0
  6
Continuous
 62
     1
370
    15
100
AcDbLine
 10
132.0
 20
-12.54537917273398
 30
0.0
 11
131.9999999999982
 21
-11.90714003813315
 31
0.0
  0
SPLINE
  5
C7
330
1F
100
AcDbEntity
  8
0
  6
Continuous
 62
     1
370
    15
100
AcDbSpline
210
0.0
220
0.0
230
1.0
 70
     8
 71
     3
 72
    10
 73
     6
 74
     0
 42
0.000000001
 43
0.00000001
 40
0.0
 40
0.0
 40
0.0
 40
0.0
 40
0.5000000000000001
 40
0.5000000000000001
 40
1.0
 40
1.0
 40
1.0
 40
1.0
 10
132.0
 20
-3.385915998104968
 30
0.0
 10
131.1488828028069
 20
-2.716798726687474
 30
0.0
 10
130.3066580994794
 20
-2.029777940353013
 30
0.0
 10
128.6397424367718
 20
-0.6204351742213347
 30
0.0
 10
127.8150487555734
 20
0.1018813256603732
 30
0.0
 10
127.0000000000019
 20
0.843616233071359
 30
0.0
  0
LINE
  5
C8
330
1F
100
AcDbEntity
  8
0
  6
Continuous
 62
     1
370
    15
100
AcDbLine
 10
127.0
 20
2.892340262562183
 30
0.0
 11
132.0
 21
-0.0453791727344074
 31
0.0
  0
LINE
  5
C9
330
1F
100
AcDbEntity
  8
0
  6
Continuous
 62
     1
370
    15
100
AcDbLine
 10
132.0
 20
-0.0453791727344074
 30
0.0
 11
132.0
 21
-3.385915998104968
 31
0.0
  0
SPLINE
  5
CA
330
1F
100
AcDbEntity
  8
0
  6
Continuous
 62
     1
370
    15
100
AcDbSpline
210
0.0
220
0.0
230
1.0
 70
     8
 71
     3
 72
    23
 73
    19
 74
     0
 42
0.000000001
 43
0.00000001
 40
0.0
 40
0.0
 40
0.0
 40
0.0
 40
0.0550817394630276
 40
0.1207358397903008
 40
0.1863997705621657
 40
0.2520768425407303
 40
0.3177190976721036
 40
0.383406493026512
 40
0.4490438657530584
 40
0.5147283744493897
 40
0.580378205631617
 40
0.6460466248385365
 40
0.7117202885939924
 40
0.7773653924624919
 40
0.8430518569752135
 40
0.9086888239569262
 40
0.9743748815157268
 40
1.0
 40
1.0
 40
1.0
 40
1.0
 10
105.5378180612771
 20
-9.407852768107201
 30
0.0
 10
104.1041214924357
 20
-9.612784253650569
 30
0.0
 10
100.9615453695499
 20
-10.06198166912363
 30
0.0
 10
96.11029474317326
 20
-10.09204690244496
 30
0.0
 10
90.9831041024935
 20
-9.617417957068952
 30
0.0
 10
85.85582260386239
 20
-8.594491553490611
 30
0.0
 10
80.72889621080583
 20
-7.096843270618892
 30
0.0
 10
75.6017013806883
 20
-5.206917991812146
 30
0.0
 10
70.4748442014185
 20
-3.02617980480068
 30
0.0
 10
65.34762376310371
 20
-0.6820293013912455
 30
0.0
 10
60.22059403366774
 20
1.700096948517582
 30
0.0
 10
55.09334612466211
 20
3.983407262029887
 30
0.0
 10
49.96606982876063
 20
6.042328583649184
 30
0.0
 10
44.83910430681434
 20
7.760200423150564
 30
0.0
 10
39.71189735096235
 20
9.05004297459725
 30
0.0
 10
34.58506144655458
 20
9.798795188858694
 30
0.0
 10
30.49957697428475
 20
10.06054615543562
 30
0.0
 10
28.12313299744598
 20
9.873536854576734
 30
0.0
 10
27.45621947035479
 20
9.82105548592248
 30
0.0
  0
SPLINE
  5
CB
330
1F
100
AcDbEntity
  8
0
  6
Continuous
 62
   131
370
    15
100
AcDbSpline
210
0.0
220
0.0
230
1.0
 70
    24
 71
     3
 72
    13
 73
     9
 74
     0
 42
0.000000001
 43
0.00000001
 40
0.0
 40
0.0
 40
0.0
 40
0.0
 40
0.1569394207104692
 40
0.315916403742531
 40
0.5472603079635631
 40
0.785313201079354
 40
0.9944421466880935
 40
1.0
 40
1.0
 40
1.0
 40
1.0
 10
12.0
 20
-6.792884445598248
 30
0.0
 10
12.0
 20
-7.118688273922718
 30
0.0
 10
12.00000000000001
 20
-7.77452587867405
 30
0.0
 10
12.0
 20
-8.699321514251256
 30
0.0
 10
12.0
 20
-9.528589790384919
 30
0.0
 10
12.0
 20
-10.01698648569216
 30
0.0
 10
12.00000000000001
 20
-10.20725071189423
 30
0.0
 10
12.0
 20
-10.15157168773599
 30
0.0
 10
12.0
 20
-10.15013025840556
 30
0.0
  0
SPLINE
  5
CC
330
1F
100
AcDbEntity
  8
0
  6
Continuous
 62
     1
370
    15
100
AcDbSpline
210
0.0
220
0.0
230
1.0
 70
     8
 71
     3
 72
    14
 73
    10
 74
     0
 42
0.000000001
 43
0.00000001
 40
0.0
 40
0.0
 40
0.0
 40
0.0
 40
0.1647158576803894
 40
0.3293239679516349
 40
0.4920470883349027
 40
0.6546476573055009
 40
0.8173574846709085
 40
0.9799969730298704
 40
1.0
 40
1.0
 40
1.0
 40
1.0
 10
127.0
 20
2.24372984884791
 30
0.0
 10
125.2692551204237
 20
3.008819711183635
 30
0.0
 10
121.808897512597
 20
4.53849895914574
 30
0.0
 10
116.6397273706995
 20
6.53064409855837
 30
0.0
 10
111.4915079839577
 20
8.146357888927362
 30
0.0
 10
106.3646354768384
 20
9.312417430080934
 30
0.0
 10
101.237374691007
 20
9.900893740573512
 30
0.0
 10
97.60915224388285
 20
10.06898941042966
 30
0.0
 10
95.69019199526778
 20
9.878541797204587
 30
0.0
 10
95.48002727245671
 20
9.857683955114132
 30
0.0
  0
SPLINE
  5
CD
330
1F
100
AcDbEntity
  8
0
  6
Continuous
 62
     1
370
    15
100
AcDbSpline
210
0.0
220
0.0
230
1.0
 70
     8
 71
     3
 72
    13
 73
     9
 74
     0
 42
0.000000001
 43
0.00000001
 40
0.0
 40
0.0
 40
0.0
 40
0.0
 40
0.115505732540251
 40
0.3163425468718092
 40
0.5170574098358562
 40
0.6780130532460154
 40
0.8389994159968368
 40
1.0
 40
1.0
 40
1.0
 40
1.0
 10
37.5356586097421
 20
-9.377053257924567
 30
0.0
 10
36.5524917608513
 20
-9.540865696345804
 30
0.0
 10
33.85983315302275
 20
-9.989508744961581
 30
0.0
 10
29.4579227915748
 20
-10.12092034562788
 30
0.0
 10
24.66970448751424
 20
-9.824765119764209
 30
0.0
 10
20.22147151456802
 20
-9.098302270156736
 30
0.0
 10
16.11092369913631
 20
-8.123811273087174
 30
0.0
 10
13.37034824753308
 20
-7.236539784184901
 30
0.0
 10
12.0
 20
-6.792884445598246
 30
0.0
  0
SPLINE
  5
CE
330
1F
100
AcDbEntity
  8
0
  6
Continuous
 62
     1
370
    15
100
AcDbSpline
210
0.0
220
0.0
230
1.0
 70
    24
 71
     3
 72
     8
 73
     4
 74
     0
 42
0.000000001
 43
0.00000001
 40
0.0
 40
0.0
 40
0.0
 40
0.0
 40
1.0
 40
1.0
 40
1.0
 40
1.0
 10
127.0
 20
0.8436162330590301
 30
0.0
 10
127.0
 20
1.315894032389266
 30
0.0
 10
127.0
 20
1.783738163104892
 30
0.0
 10
127.0
 20
2.243729848847905
 30
0.0
  0
SPLINE
  5
CF
330
1F
100
AcDbEntity
  8
0
  6
Continuous
 62
     1
370
    15
100
AcDbSpline
210
0.0
220
0.0
230
1.0
 70
    24
 71
     3
 72
    12
 73
     8
 74
     0
 42
0.000000001
 43
0.00000001
 40
0.0
 40
0.0
 40
0.0
 40
0.0
 40
0.5000000000000002
 40
0.5000000000000002
 40
0.7500000000000001
 40
0.7500000000000001
 40
1.0
 40
1.0
 40
1.0
 40
1.0
 10
132.0
 20
-9.907532477337105
 30
0.0
 10
132.0000000000001
 20
-9.151521535281969
 30
0.0
 10
132.0
 20
-8.196272721565268
 30
0.0
 10
132.0
 20
-6.530626551979747
 30
0.0
 10
132.0
 20
-5.937588382779682
 30
0.0
 10
132.0
 20
-4.6966376427913
 30
0.0
 10
132.0
 20
-4.048819104490572
 30
0.0
 10
132.0
 20
-3.385915998105366
 30
0.0
  0
SPLINE
  5
D0
330
1F
100
AcDbEntity
  8
0
  6
Continuous
 62
     1
370
    15
100
AcDbSpline
210
0.0
220
0.0
230
1.0
 70
    24
 71
     3
 72
    10
 73
     6
 74
     0
 42
0.000000001
 43
0.00000001
 40
0.0
 40
0.0
 40
0.0
 40
0.0
 40
0.4999999999999998
 40
0.4999999999999998
 40
1.0
 40
1.0
 40
1.0
 40
1.0
 10
127.0
 20
2.2437298488479
 30
0.0
 10
127.0
 20
3.240102128372653
 30
0.0
 10
127.0
 20
4.185033085321318
 30
0.0
 10
126.9999999999999
 20
5.844847889227671
 30
0.0
 10
127.0
 20
6.558130812057353
 30
0.0
 10
127.0
 20
7.109193673223432
 30
0.0
  0
SPLINE
  5
D1
330
1F
100
AcDbEntity
  8
0
  6
Continuous
 62
   131
370
    15
100
AcDbSpline
210
0.0
220
0.0
230
1.0
 70
    24
 71
     3
 72
    14
 73
    10
 74
     0
 42
0.000000001
 43
0.00000001
 40
0.0
 40
0.0
 40
0.0
 40
0.0
 40
0.25
 40
0.25
 40
0.5
 40
0.5
 40
0.75
 40
0.75
 40
1.0
 40
1.0
 40
1.0
 40
1.0
 10
12.0
 20
6.412522306559502
 30
0.0
 10
12.0
 20
5.508507769074208
 30
0.0
 10
12.0
 20
4.497083474889103
 30
0.0
 10
12.0
 20
2.329189043045286
 30
0.0
 10
12.0
 20
1.173490753197116
 30
0.0
 10
12.0
 20
-1.173490753197116
 30
0.0
 10
12.0
 20
-2.363523399873449
 30
0.0
 10
12.0
 20
-4.662242824885129
 30
0.0
 10
12.0
 20
-5.769974004648037
 30
0.0
 10
12.0
 20
-6.792884445598245
 30
0.0
  0
SPLINE
  5
D2
330
1F
100
AcDbEntity
  8
0
  6
Continuous
 62
     1
370
    15
100
AcDbSpline
210
0.0
220
0.0
230
1.0
 70
     8
 71
     3
 72
     8
 73
     4
 74
     0
 42
0.000000001
 43
0.00000001
 40
0.0
 40
0.0
 40
0.0
 40
0.0
 40
1.0
 40
1.0
 40
1.0
 40
1.0
 10
132.0
 20
8.704620827265595
 30
0.0
 10
130.3190792401319
 20
8.248936316725691
 30
0.0
 10
128.651728911856
 20
7.720778386872436
 30
0.0
 10
127.0
 20
7.109193673223432
 30
0.0
  0
LINE
  5
D3
330
1F
100
AcDbEntity
  8
0
  6
Continuous
 62
     1
370
    15
100
AcDbLine
 10
132.0
 20
-0.0453791727344074
 30
0.0
 11
132.0
 21
8.704620827265591
 31
0.0
  0
LINE
  5
D4
330
1F
100
AcDbEntity
  8
중심선
100
AcDbLine
 10
-121.0
 20
-0.0453791727344265
 30
0.0
 11
139.0
 21
-0.0453791727344068
 31
0.0
  0
CIRCLE
  5
D5
330
1F
100
AcDbEntity
  8
외형선
100
AcDbCircle
 10
0.0000000000000104
 20
0.0
 30
0.0
 40
3.000000000000005
  0
INSERT
  5
D6
330
1F
100
AcDbEntity
  8
0
  6
Continuous
 62
     7
100
AcDbBlockReference
 66
     1
  2
블럭10
 10
-22.93944368806589
 20
-52.04609937292004
 30
0.0
  0
ATTRIB
  5
D7
330
D6
100
AcDbEntity
  8
FORMAT
 62
     2
100
AcDbText
 10
-40.63836564979034
 20
-49.97073246008785
 30
0.0
 40
4.233333333333333
  1
SEME70250120E [ 2 FLUTE ]
 41
0.75
  7
SLDTEXTSTYLE0
 11
-40.63836564979034
 21
-52.08739912675452
 31
0.0
100
AcDbAttribute
  2
AUTOATTR0
 70
     0
 74
     1
  0
SEQEND
  5
D8
330
D6
100
AcDbEntity
  8
0
  6
Continuous
 62
     7
  0
HATCH
  5
D9
330
1F
100
AcDbEntity
  8
중심선
100
AcDbHatch
 10
0.0
 20
0.0
 30
0.0
210
0.0
220
0.0
230
1.0
  2
SOLID
 70
     1
 71
     0
 91
        1
 92
        0
 93
        4
 72
     1
 10
-17.22453438368504
 20
-35.7989250712761
 11
-20.67080962752232
 21
-35.7989250712761
 72
     1
 10
-20.67080962752232
 20
-35.7989250712761
 11
-22.79903948672635
 21
-38.3352506518487
 72
     1
 10
-22.79903948672635
 20
-38.3352506518487
 11
-19.35273115777591
 21
-38.33521122254621
 72
     1
 10
-19.35273115777591
 20
-38.33521122254621
 11
-17.22453438368504
 21
-35.7989250712761
 97
        0
 75
     0
 76
     1
 98
        1
 10
0.0
 20
0.0
  0
HATCH
  5
DA
330
1F
100
AcDbEntity
  8
중심선
100
AcDbHatch
 10
0.0
 20
0.0
 30
0.0
210
0.0
220
0.0
230
1.0
  2
SOLID
 70
     1
 71
     0
 91
        1
 92
        0
 93
        4
 72
     1
 10
-12.21177039264909
 20
-35.7989250712761
 11
-15.65804563648637
 21
-35.7989250712761
 72
     1
 10
-15.65804563648637
 20
-35.7989250712761
 11
-20.18918364484376
 21
-41.19892507127612
 72
     1
 10
-20.18918364484376
 20
-41.19892507127612
 11
-16.74290840100648
 21
-41.19892507127612
 72
     1
 10
-16.74290840100648
 20
-41.19892507127612
 11
-12.21177039264909
 21
-35.7989250712761
 97
        0
 75
     0
 76
     1
 98
        1
 10
0.0
 20
0.0
  0
HATCH
  5
DB
330
1F
100
AcDbEntity
  8
중심선
100
AcDbHatch
 10
0.0
 20
0.0
 30
0.0
210
0.0
220
0.0
230
1.0
  2
SOLID
 70
     1
 71
     0
 91
        1
 92
        0
 93
        4
 72
     1
 10
-7.199006401613195
 20
-35.79892507127613
 11
-10.64528164545031
 21
-35.7989250712761
 72
     1
 10
-10.64528164545031
 20
-35.7989250712761
 11
-17.69371854733956
 21
-44.19892507127612
 72
     1
 10
-17.69371854733956
 20
-44.19892507127612
 11
-14.24744330350228
 21
-44.19892507127612
 72
     1
 10
-14.24744330350228
 20
-44.19892507127612
 11
-7.199006401613195
 21
-35.79892507127613
 97
        0
 75
     0
 76
     1
 98
        1
 10
0.0
 20
0.0
  0
HATCH
  5
DC
330
1F
100
AcDbEntity
  8
중심선
100
AcDbHatch
 10
0.0
 20
0.0
 30
0.0
210
0.0
220
0.0
230
1.0
  2
SOLID
 70
     1
 71
     0
 91
        1
 92
        0
 93
        6
 72
     3
 10
-2.399115970600996
 20
-39.99892507132738
 11
3.960054785062284
 21
1.540850780301639E-10
 40
0.3939339440162633
 50
17.09539180608433
 51
320.0019657685079
 73
     0
 72
     1
 10
-0.7161163149004002
 20
-38.58681907591441
 11
1.589185558800638
 21
-36.65249236586649
 72
     3
 10
-2.399115970653842
 20
-39.99892507127625
 11
6.600054785286829
 21
-1.249000902703301E-13
 40
0.6363583540795982
 50
39.99873849337408
 51
368.4976242363725
 73
     1
 72
     1
 10
4.026216521246767
 20
-39.03892507120613
 11
-3.71904866381792
 21
-39.0389250712061
 72
     1
 10
-3.71904866381792
 20
-39.0389250712061
 11
-3.719073708263854
 21
-40.95892507120602
 72
     1
 10
-3.719073708263854
 20
-40.95892507120602
 11
0.7223060612081831
 21
-40.95892507120599
 97
        0
 75
     0
 76
     1
 98
        1
 10
0.0
 20
0.0
  0
DIMENSION
  5
DD
330
1F
100
AcDbEntity
  8
치수문자_일반주서
100
AcDbDimension
  2
_D
 10
152.041893274813
 20
12.4546208272661
 30
0.0
 11
152.041893274813
 21
23.4336208272661
 31
0.0
 70
   160
  1
%%c<>
 71
     2
 42
25.00000000000001
 52
-270.0
  3
SLDDIMSTYLE0
100
AcDbAlignedDimension
 13
132.0
 23
-12.54537917273398
 33
0.0
 14
131.9999999999994
 24
12.45462082726603
 34
0.0
 50
90.0000000000002
100
AcDbRotatedDimension
  0
DIMENSION
  5
E9
330
1F
100
AcDbEntity
  8
치수문자_일반주서
100
AcDbDimension
  2
_D_1
 10
131.9999999999994
 20
33.24303126750826
 30
0.0
 11
6.999999999999714
 21
33.24303126750826
 31
0.0
 70
   160
  1
<>
 71
     2
 42
249.9999999999994
  3
SLDDIMSTYLE1
100
AcDbAlignedDimension
 13
-118.0
 23
11.45462082726556
 33
0.0
 14
131.9999999999994
 24
12.45462082726603
 34
0.0
 50
-0.0000000000000033
100
AcDbRotatedDimension
  0
DIMENSION
  5
F4
330
1F
100
AcDbEntity
  8
치수문자_일반주서
100
AcDbDimension
  2
_D_2
 10
131.9999999999994
 20
24.71680182765624
 30
0.0
 11
71.99999999999996
 21
24.71680182765624
 31
0.0
 70
   160
  1
<>
 71
     2
 42
119.9999999999994
  3
SLDDIMSTYLE1
100
AcDbAlignedDimension
 13
11.99999999999998
 23
11.36980402148866
 33
0.0
 14
131.9999999999994
 24
12.45462082726603
 34
0.0
 50
0.0000000000000526
100
AcDbRotatedDimension
  0
DIMENSION
  5
FE
330
1F
100
AcDbEntity
  8
치수문자_일반주서
100
AcDbDimension
  2
_D_3
 10
-136.3775121704088
 20
-12.5453791727345
 30
0.0
 11
-136.3775121704089
 21
24.35839508350044
 31
0.0
 70
   160
  1
%%c<>
 71
     2
 42
24.99999999999999
 52
-270.0
  3
SLDDIMSTYLE0
100
AcDbAlignedDimension
 13
-117.0
 23
12.45462082726556
 33
0.0
 14
-117.0
 24
-12.54537917273442
 34
0.0
 50
90.0000000000002
100
AcDbRotatedDimension
  0
INSERT
  5
10F
330
1F
100
AcDbEntity
  8
외형선
100
AcDbBlockReference
  2
SW_DOWELSYMBOL_0
 10
0.0000000000000104
 20
0.0
 30
0.0
  0
ENDSEC
  0
SECTION
  2
OBJECTS
  0
DICTIONARY
  5
C
330
0
100
AcDbDictionary
281
     1
  3
ACAD_GROUP
350
D
  3
ACAD_IMAGE_VARS
350
133
  3
ACAD_LAYOUT
350
1A
  3
ACAD_MLINESTYLE
350
17
  3
ACAD_PLOTSETTINGS
350
19
  3
ACAD_PLOTSTYLENAME
350
E
  3
ACAD_SCALELIST
350
47
  3
APPDATA
350
131
  3
DWGPROPS
350
146
  0
DICTIONARY
  5
D
102
{ACAD_REACTORS
330
C
102
}
330
C
100
AcDbDictionary
281
     1
  0
RASTERVARIABLES
  5
133
102
{ACAD_REACTORS
330
C
102
}
330
C
100
AcDbRasterVariables
 90
        0
 70
     1
 71
     1
 72
     1
  0
DICTIONARY
  5
1A
102
{ACAD_REACTORS
330
C
102
}
330
C
100
AcDbDictionary
281
     1
  3
Layout1
350
1E
  3
Layout2
350
26
  3
Model
350
22
  0
DICTIONARY
  5
17
102
{ACAD_REACTORS
330
C
102
}
330
C
100
AcDbDictionary
281
     1
  3
Standard
350
18
  0
DICTIONARY
  5
19
102
{ACAD_REACTORS
330
C
102
}
330
C
100
AcDbDictionary
281
     1
  0
ACDBDICTIONARYWDFLT
  5
E
102
{ACAD_REACTORS
330
C
102
}
330
C
100
AcDbDictionary
281
     1
  3
Normal
350
F
100
AcDbDictionaryWithDefault
340
F
  0
DICTIONARY
  5
47
102
{ACAD_REACTORS
330
C
102
}
330
C
100
AcDbDictionary
281
     1
  3
A0
350
48
  3
A1
350
49
  3
A2
350
4A
  3
A3
350
4B
  3
A4
350
4C
  3
A5
350
4D
  3
A6
350
4E
  3
A7
350
4F
  3
A8
350
50
  3
A9
350
51
  3
B0
350
52
  3
B1
350
53
  3
B2
350
54
  3
B3
350
55
  3
B4
350
56
  3
B5
350
57
  3
B6
350
58
  3
B7
350
59
  3
B8
350
5A
  3
B9
350
5B
  3
C0
350
5C
  3
C1
350
5D
  3
C2
350
5E
  3
C3
350
5F
  3
C4
350
60
  3
C5
350
61
  3
C6
350
62
  3
C7
350
63
  3
C8
350
64
  3
C9
350
65
  3
D0
350
66
  3
D1
350
67
  3
D2
350
68
  0
DICTIONARY
  5
131
102
{ACAD_REACTORS
330
C
102
}
330
C
100
AcDbDictionary
281
     1
  0
XRECORD
  5
146
102
{ACAD_REACTORS
330
C
102
}
330
C
100
AcDbXrecord
280
     1
  1
DWGPROPS COOKIE
  2

  3

  4

  6

  7

  8
12014102
  9

300
=
301
=
302
=
303
=
304
=
305
=
306
=
307
=
308
=
309
=
 40
0.0
 41
2458262.179870741
 42
2458266.280346146
  1

 90
        0
  0
LAYOUT
  5
1E
102
{ACAD_REACTORS
330
1A
102
}
330
1A
100
AcDbPlotSettings
  1

  2
none_device
  4

  6

 40
0.0
 41
0.0
 42
0.0
 43
0.0
 44
0.0
 45
0.0
 46
0.0
 47
0.0
 48
0.0
 49
0.0
140
0.0
141
0.0
142
1.0
143
1.0
 70
   688
 72
     1
 73
     0
 74
     5
  7

 75
    16
147
1.0
148
0.0
149
0.0
100
AcDbLayout
  1
Layout1
 70
     1
 71
     1
 10
0.0
 20
0.0
 11
420.0
 21
297.0
 12
0.0
 22
0.0
 32
0.0
 14
1.000000000000000E+20
 24
1.000000000000000E+20
 34
1.000000000000000E+20
 15
-1.000000000000000E+20
 25
-1.000000000000000E+20
 35
-1.000000000000000E+20
146
0.0
 13
0.0
 23
0.0
 33
0.0
 16
1.0
 26
0.0
 36
0.0
 17
0.0
 27
1.0
 37
0.0
 76
     0
330
1B
  0
LAYOUT
  5
26
102
{ACAD_REACTORS
330
1A
102
}
330
1A
100
AcDbPlotSettings
  1

  2
none_device
  4

  6

 40
0.0
 41
0.0
 42
0.0
 43
0.0
 44
0.0
 45
0.0
 46
0.0
 47
0.0
 48
0.0
 49
0.0
140
0.0
141
0.0
142
1.0
143
1.0
 70
   688
 72
     1
 73
     0
 74
     5
  7

 75
    16
147
1.0
148
0.0
149
0.0
100
AcDbLayout
  1
Layout2
 70
     1
 71
     2
 10
0.0
 20
0.0
 11
0.0
 21
0.0
 12
0.0
 22
0.0
 32
0.0
 14
0.0
 24
0.0
 34
0.0
 15
0.0
 25
0.0
 35
0.0
146
0.0
 13
0.0
 23
0.0
 33
0.0
 16
1.0
 26
0.0
 36
0.0
 17
0.0
 27
1.0
 37
0.0
 76
     0
330
23
  0
LAYOUT
  5
22
102
{ACAD_REACTORS
330
1A
102
}
330
1A
100
AcDbPlotSettings
  1

  2
none_device
  4
ANSI_A_(11.00_x_8.50_Inches)
  6

 40
6.35
 41
19.05
 42
6.35000508
 43
19.05000254
 44
279.4
 45
215.9
 46
131.3040904639734
 47
95.61262470727704
 48
0.0
 49
0.0
140
0.0
141
0.0
142
0.0409303606604614
143
1.0
 70
  1696
 72
     0
 73
     0
 74
     0
  7

 75
     0
147
0.0235690232323232
148
0.0
149
0.0
100
AcDbLayout
  1
Model
 70
     1
 71
     0
 10
0.0
 20
0.0
 11
420.0
 21
297.0
 12
0.0
 22
0.0
 32
0.0
 14
-140.7525121704089
 24
-49.97073246008785
 34
0.0
 15
152.5922266081465
 25
37.61803126750826
 35
0.0
146
0.0
 13
0.0
 23
0.0
 33
0.0
 16
1.0
 26
0.0
 36
0.0
 17
0.0
 27
1.0
 37
0.0
 76
     0
330
1F
331
29
  0
MLINESTYLE
  5
18
102
{ACAD_REACTORS
330
17
102
}
330
17
100
AcDbMlineStyle
  2
Standard
 70
     0
  3

 62
   256
 51
90.0
 52
90.0
 71
     2
 49
0.5
 62
   256
  6
BYLAYER
 49
-0.5
 62
   256
  6
BYLAYER
  0
ACDBPLACEHOLDER
  5
F
102
{ACAD_REACTORS
330
E
102
}
330
E
  0
SCALE
  5
48
102
{ACAD_REACTORS
330
47
102
}
330
47
100
AcDbScale
 70
     0
300
1:1
140
1.0
141
1.0
290
     1
  0
SCALE
  5
49
102
{ACAD_REACTORS
330
47
102
}
330
47
100
AcDbScale
 70
     0
300
1:2
140
1.0
141
2.0
290
     0
  0
SCALE
  5
4A
102
{ACAD_REACTORS
330
47
102
}
330
47
100
AcDbScale
 70
     0
300
1:4
140
1.0
141
4.0
290
     0
  0
SCALE
  5
4B
102
{ACAD_REACTORS
330
47
102
}
330
47
100
AcDbScale
 70
     0
300
1:5
140
1.0
141
5.0
290
     0
  0
SCALE
  5
4C
102
{ACAD_REACTORS
330
47
102
}
330
47
100
AcDbScale
 70
     0
300
1:8
140
1.0
141
8.0
290
     0
  0
SCALE
  5
4D
102
{ACAD_REACTORS
330
47
102
}
330
47
100
AcDbScale
 70
     0
300
1:10
140
1.0
141
10.0
290
     0
  0
SCALE
  5
4E
102
{ACAD_REACTORS
330
47
102
}
330
47
100
AcDbScale
 70
     0
300
1:16
140
1.0
141
16.0
290
     0
  0
SCALE
  5
4F
102
{ACAD_REACTORS
330
47
102
}
330
47
100
AcDbScale
 70
     0
300
1:20
140
1.0
141
20.0
290
     0
  0
SCALE
  5
50
102
{ACAD_REACTORS
330
47
102
}
330
47
100
AcDbScale
 70
     0
300
1:30
140
1.0
141
30.0
290
     0
  0
SCALE
  5
51
102
{ACAD_REACTORS
330
47
102
}
330
47
100
AcDbScale
 70
     0
300
1:40
140
1.0
141
40.0
290
     0
  0
SCALE
  5
52
102
{ACAD_REACTORS
330
47
102
}
330
47
100
AcDbScale
 70
     0
300
1:50
140
1.0
141
50.0
290
     0
  0
SCALE
  5
53
102
{ACAD_REACTORS
330
47
102
}
330
47
100
AcDbScale
 70
     0
300
1:100
140
1.0
141
100.0
290
     0
  0
SCALE
  5
54
102
{ACAD_REACTORS
330
47
102
}
330
47
100
AcDbScale
 70
     0
300
2:1
140
2.0
141
1.0
290
     0
  0
SCALE
  5
55
102
{ACAD_REACTORS
330
47
102
}
330
47
100
AcDbScale
 70
     0
300
4:1
140
4.0
141
1.0
290
     0
  0
SCALE
  5
56
102
{ACAD_REACTORS
330
47
102
}
330
47
100
AcDbScale
 70
     0
300
8:1
140
8.0
141
1.0
290
     0
  0
SCALE
  5
57
102
{ACAD_REACTORS
330
47
102
}
330
47
100
AcDbScale
 70
     0
300
10:1
140
10.0
141
1.0
290
     0
  0
SCALE
  5
58
102
{ACAD_REACTORS
330
47
102
}
330
47
100
AcDbScale
 70
     0
300
100:1
140
100.0
141
1.0
290
     0
  0
SCALE
  5
59
102
{ACAD_REACTORS
330
47
102
}
330
47
100
AcDbScale
 70
     0
300
1/128" = 1'-0"
140
0.0078125
141
12.0
290
     0
  0
SCALE
  5
5A
102
{ACAD_REACTORS
330
47
102
}
330
47
100
AcDbScale
 70
     0
300
1/64" = 1'-0"
140
0.015625
141
12.0
290
     0
  0
SCALE
  5
5B
102
{ACAD_REACTORS
330
47
102
}
330
47
100
AcDbScale
 70
     0
300
1/32" = 1'-0"
140
0.03125
141
12.0
290
     0
  0
SCALE
  5
5C
102
{ACAD_REACTORS
330
47
102
}
330
47
100
AcDbScale
 70
     0
300
1/16" = 1'-0"
140
0.0625
141
12.0
290
     0
  0
SCALE
  5
5D
102
{ACAD_REACTORS
330
47
102
}
330
47
100
AcDbScale
 70
     0
300
3/32" = 1'-0"
140
0.09375
141
12.0
290
     0
  0
SCALE
  5
5E
102
{ACAD_REACTORS
330
47
102
}
330
47
100
AcDbScale
 70
     0
300
1/8" = 1'-0"
140
0.125
141
12.0
290
     0
  0
SCALE
  5
5F
102
{ACAD_REACTORS
330
47
102
}
330
47
100
AcDbScale
 70
     0
300
3/16" = 1'-0"
140
0.1875
141
12.0
290
     0
  0
SCALE
  5
60
102
{ACAD_REACTORS
330
47
102
}
330
47
100
AcDbScale
 70
     0
300
1/4" = 1'-0"
140
0.25
141
12.0
290
     0
  0
SCALE
  5
61
102
{ACAD_REACTORS
330
47
102
}
330
47
100
AcDbScale
 70
     0
300
3/8" = 1'-0"
140
0.375
141
12.0
290
     0
  0
SCALE
  5
62
102
{ACAD_REACTORS
330
47
102
}
330
47
100
AcDbScale
 70
     0
300
1/2" = 1'-0"
140
0.5
141
12.0
290
     0
  0
SCALE
  5
63
102
{ACAD_REACTORS
330
47
102
}
330
47
100
AcDbScale
 70
     0
300
3/4" = 1'-0"
140
0.75
141
12.0
290
     0
  0
SCALE
  5
64
102
{ACAD_REACTORS
330
47
102
}
330
47
100
AcDbScale
 70
     0
300
1" = 1'-0"
140
1.0
141
12.0
290
     0
  0
SCALE
  5
65
102
{ACAD_REACTORS
330
47
102
}
330
47
100
AcDbScale
 70
     0
300
1-1/2" = 1'-0"
140
1.5
141
12.0
290
     0
  0
SCALE
  5
66
102
{ACAD_REACTORS
330
47
102
}
330
47
100
AcDbScale
 70
     0
300
3" = 1'-0"
140
3.0
141
12.0
290
     0
  0
SCALE
  5
67
102
{ACAD_REACTORS
330
47
102
}
330
47
100
AcDbScale
 70
     0
300
6" = 1'-0"
140
6.0
141
12.0
290
     0
  0
SCALE
  5
68
102
{ACAD_REACTORS
330
47
102
}
330
47
100
AcDbScale
 70
     0
300
1'-0" = 1'-0"
140
12.0
141
12.0
290
     0
  0
ENDSEC
  0
EOF
