  0
SECTION
  2
HEADER
  9
$ACADVER
  1
AC1015
  9
$ACADMAINTVER
 70
     6
  9
$DWGCODEPAGE
  3
ANSI_949
  9
$INSBASE
 10
0.0
 20
0.0
 30
0.0
  9
$EXTMIN
 10
-66.74095151059693
 20
-49.97073246008785
 30
0.0
  9
$EXTMAX
 10
118.5799800307658
 20
35.1634104402427
 30
0.0
  9
$LIMMIN
 10
0.0
 20
0.0
  9
$LIMMAX
 10
420.0
 20
297.0
  9
$ORTHOMODE
 70
     0
  9
$REGENMODE
 70
     1
  9
$FILLMODE
 70
     1
  9
$QTEXTMODE
 70
     0
  9
$MIRRTEXT
 70
     1
  9
$LTSCALE
 40
1.0
  9
$ATTMODE
 70
     1
  9
$TEXTSIZE
 40
3.5
  9
$TRACEWID
 40
1.0
  9
$TEXTSTYLE
  7
Standard
  9
$CLAYER
  8
0
  9
$CELTYPE
  6
ByLayer
  9
$CECOLOR
 62
   256
  9
$CELTSCALE
 40
1.0
  9
$DISPSILH
 70
     0
  9
$DIMSCALE
 40
1.0
  9
$DIMASZ
 40
3.302
  9
$DIMEXO
 40
1.0
  9
$DIMDLI
 40
3.75
  9
$DIMRND
 40
0.0
  9
$DIMDLE
 40
0.0
  9
$DIMEXE
 40
1.0
  9
$DIMTP
 40
0.0
  9
$DIMTM
 40
0.0
  9
$DIMTXT
 40
3.5
  9
$DIMCEN
 40
2.5
  9
$DIMTSZ
 40
0.0
  9
$DIMTOL
 70
     0
  9
$DIMLIM
 70
     0
  9
$DIMTIH
 70
     1
  9
$DIMTOH
 70
     1
  9
$DIMSE1
 70
     0
  9
$DIMSE2
 70
     0
  9
$DIMTAD
 70
     1
  9
$DIMZIN
 70
     0
  9
$DIMBLK
  1

  9
$DIMASO
 70
     1
  9
$DIMSHO
 70
     1
  9
$DIMPOST
  1

  9
$DIMAPOST
  1

  9
$DIMALT
 70
     0
  9
$DIMALTD
 70
     3
  9
$DIMALTF
 40
0.0393700787401575
  9
$DIMLFAC
 40
1.0
  9
$DIMTOFL
 70
     1
  9
$DIMTVP
 40
0.0
  9
$DIMTIX
 70
     0
  9
$DIMSOXD
 70
     0
  9
$DIMSAH
 70
     0
  9
$DIMBLK1
  1

  9
$DIMBLK2
  1

  9
$DIMSTYLE
  2
ISO-25
  9
$DIMCLRD
 70
     0
  9
$DIMCLRE
 70
     0
  9
$DIMCLRT
 70
     0
  9
$DIMTFAC
 40
1.0
  9
$DIMGAP
 40
1.524
  9
$DIMJUST
 70
     0
  9
$DIMSD1
 70
     0
  9
$DIMSD2
 70
     0
  9
$DIMTOLJ
 70
     0
  9
$DIMTZIN
 70
     0
  9
$DIMALTZ
 70
     0
  9
$DIMALTTZ
 70
     0
  9
$DIMUPT
 70
     0
  9
$DIMDEC
 70
     2
  9
$DIMTDEC
 70
     2
  9
$DIMALTU
 70
     2
  9
$DIMALTTD
 70
     3
  9
$DIMTXSTY
  7
Standard
  9
$DIMAUNIT
 70
     0
  9
$DIMADEC
 70
     2
  9
$DIMALTRND
 40
0.0
  9
$DIMAZIN
 70
     0
  9
$DIMDSEP
 70
    44
  9
$DIMATFIT
 70
     3
  9
$DIMFRAC
 70
     0
  9
$DIMLDRBLK
  1

  9
$DIMLUNIT
 70
     2
  9
$DIMLWD
 70
    -2
  9
$DIMLWE
 70
    -2
  9
$DIMTMOVE
 70
     0
  9
$LUNITS
 70
     2
  9
$LUPREC
 70
     2
  9
$SKETCHINC
 40
1.0
  9
$FILLETRAD
 40
10.0
  9
$AUNITS
 70
     0
  9
$AUPREC
 70
     2
  9
$MENU
  1
.
  9
$ELEVATION
 40
0.0
  9
$PELEVATION
 40
0.0
  9
$THICKNESS
 40
0.0
  9
$LIMCHECK
 70
     0
  9
$CHAMFERA
 40
0.0
  9
$CHAMFERB
 40
0.0
  9
$CHAMFERC
 40
0.0
  9
$CHAMFERD
 40
0.0
  9
$SKPOLY
 70
     0
  9
$TDCREATE
 40
2458262.554120162
  9
$TDUCREATE
 40
2458262.179120162
  9
$TDUPDATE
 40
2458266.591486713
  9
$TDUUPDATE
 40
2458266.216486713
  9
$TDINDWG
 40
0.0012728125
  9
$TDUSRTIMER
 40
2458266.215213981
  9
$USRTIMER
 70
     1
  9
$ANGBASE
 50
0.0
  9
$ANGDIR
 70
     0
  9
$PDMODE
 70
     0
  9
$PDSIZE
 40
-1.0
  9
$PLINEWID
 40
0.0
  9
$SPLFRAME
 70
     0
  9
$SPLINETYPE
 70
     6
  9
$SPLINESEGS
 70
     8
  9
$HANDSEED
  5
146
  9
$SURFTAB1
 70
     6
  9
$SURFTAB2
 70
     6
  9
$SURFTYPE
 70
     6
  9
$SURFU
 70
     6
  9
$SURFV
 70
     6
  9
$UCSBASE
  2

  9
$UCSNAME
  2

  9
$UCSORG
 10
0.0
 20
0.0
 30
0.0
  9
$UCSXDIR
 10
1.0
 20
0.0
 30
0.0
  9
$UCSYDIR
 10
0.0
 20
1.0
 30
0.0
  9
$UCSORTHOREF
  2

  9
$UCSORTHOVIEW
 70
     0
  9
$UCSORGTOP
 10
0.0
 20
0.0
 30
0.0
  9
$UCSORGBOTTOM
 10
0.0
 20
0.0
 30
0.0
  9
$UCSORGLEFT
 10
0.0
 20
0.0
 30
0.0
  9
$UCSORGRIGHT
 10
0.0
 20
0.0
 30
0.0
  9
$UCSORGFRONT
 10
0.0
 20
0.0
 30
0.0
  9
$UCSORGBACK
 10
0.0
 20
0.0
 30
0.0
  9
$PUCSBASE
  2

  9
$PUCSNAME
  2

  9
$PUCSORG
 10
0.0
 20
0.0
 30
0.0
  9
$PUCSXDIR
 10
1.0
 20
0.0
 30
0.0
  9
$PUCSYDIR
 10
0.0
 20
1.0
 30
0.0
  9
$PUCSORTHOREF
  2

  9
$PUCSORTHOVIEW
 70
     0
  9
$PUCSORGTOP
 10
0.0
 20
0.0
 30
0.0
  9
$PUCSORGBOTTOM
 10
0.0
 20
0.0
 30
0.0
  9
$PUCSORGLEFT
 10
0.0
 20
0.0
 30
0.0
  9
$PUCSORGRIGHT
 10
0.0
 20
0.0
 30
0.0
  9
$PUCSORGFRONT
 10
0.0
 20
0.0
 30
0.0
  9
$PUCSORGBACK
 10
0.0
 20
0.0
 30
0.0
  9
$USERI1
 70
     0
  9
$USERI2
 70
     0
  9
$USERI3
 70
     0
  9
$USERI4
 70
     0
  9
$USERI5
 70
     0
  9
$USERR1
 40
0.0
  9
$USERR2
 40
0.0
  9
$USERR3
 40
0.0
  9
$USERR4
 40
0.0
  9
$USERR5
 40
0.0
  9
$WORLDVIEW
 70
     1
  9
$SHADEDGE
 70
     3
  9
$SHADEDIF
 70
    70
  9
$TILEMODE
 70
     1
  9
$MAXACTVP
 70
    64
  9
$PINSBASE
 10
0.0
 20
0.0
 30
0.0
  9
$PLIMCHECK
 70
     0
  9
$PEXTMIN
 10
1.000000000000000E+20
 20
1.000000000000000E+20
 30
1.000000000000000E+20
  9
$PEXTMAX
 10
-1.000000000000000E+20
 20
-1.000000000000000E+20
 30
-1.000000000000000E+20
  9
$PLIMMIN
 10
0.0
 20
0.0
  9
$PLIMMAX
 10
0.0
 20
0.0
  9
$UNITMODE
 70
     0
  9
$VISRETAIN
 70
     1
  9
$PLINEGEN
 70
     0
  9
$PSLTSCALE
 70
     1
  9
$TREEDEPTH
 70
  3020
  9
$CMLSTYLE
  2
Standard
  9
$CMLJUST
 70
     0
  9
$CMLSCALE
 40
20.0
  9
$PROXYGRAPHICS
 70
     1
  9
$MEASUREMENT
 70
     1
  9
$CELWEIGHT
370
    -1
  9
$ENDCAPS
280
     0
  9
$JOINSTYLE
280
     0
  9
$LWDISPLAY
290
     1
  9
$INSUNITS
 70
     4
  9
$HYPERLINKBASE
  1

  9
$STYLESHEET
  1

  9
$XEDIT
290
     1
  9
$CEPSNTYPE
380
     0
  9
$PSTYLEMODE
290
     1
  9
$FINGERPRINTGUID
  2
{4FCDF3D3-1E3B-443E-94C4-A8DFB7763A99}
  9
$VERSIONGUID
  2
{FAEB1C32-E019-11D5-929B-00C0DF256EC4}
  9
$EXTNAMES
290
     1
  9
$PSVPSCALE
 40
0.0
  9
$OLESTARTUP
290
     0
  0
ENDSEC
  0
SECTION
  2
CLASSES
  0
CLASS
  1
ACDBDICTIONARYWDFLT
  2
AcDbDictionaryWithDefault
  3
ObjectDBX Classes
 90
        0
280
     0
281
     0
  0
CLASS
  1
VISUALSTYLE
  2
AcDbVisualStyle
  3
ObjectDBX Classes
 90
     4095
280
     0
281
     0
  0
CLASS
  1
MATERIAL
  2
AcDbMaterial
  3
ObjectDBX Classes
 90
     1153
280
     0
281
     0
  0
CLASS
  1
SCALE
  2
AcDbScale
  3
ObjectDBX Classes
 90
     1153
280
     0
281
     0
  0
CLASS
  1
SUN
  2
AcDbSun
  3
SCENEOE
 90
     1153
280
     0
281
     0
  0
CLASS
  1
ACDBPLACEHOLDER
  2
AcDbPlaceHolder
  3
ObjectDBX Classes
 90
        0
280
     0
281
     0
  0
CLASS
  1
LAYOUT
  2
AcDbLayout
  3
ObjectDBX Classes
 90
        0
280
     0
281
     0
  0
CLASS
  1
TABLESTYLE
  2
AcDbTableStyle
  3
ObjectDBX Classes
 90
     4095
280
     0
281
     0
  0
CLASS
  1
MLEADERSTYLE
  2
AcDbMLeaderStyle
  3
ACDB_MLEADERSTYLE_CLASS
 90
     4095
280
     0
281
     0
  0
CLASS
  1
RASTERVARIABLES
  2
AcDbRasterVariables
  3
ISM
 90
        0
280
     0
281
     0
  0
ENDSEC
  0
SECTION
  2
TABLES
  0
TABLE
  2
VPORT
  5
8
330
0
100
AcDbSymbolTable
 70
     1
  0
VPORT
  5
29
330
8
100
AcDbSymbolTableRecord
100
AcDbViewportTableRecord
  2
*Active
 70
     0
 10
0.0
 20
0.0
 11
1.0
 21
1.0
 12
25.91951426008441
 22
-7.40366100992258
 13
0.0
 23
0.0
 14
10.0
 24
10.0
 15
10.0
 25
10.0
 16
0.0
 26
0.0
 36
1.0
 17
0.0
 27
0.0
 37
0.0
 40
164.0214899476177
 41
1.152454780361757
 42
50.0
 43
0.0
 44
0.0
 50
0.0
 51
0.0
 71
    16
 72
  2000
 73
     1
 74
     3
 75
     0
 76
     0
 77
     0
 78
     0
281
     0
 65
     1
110
0.0
120
0.0
130
0.0
111
1.0
121
0.0
131
0.0
112
0.0
122
1.0
132
0.0
 79
     0
146
0.0
  0
ENDTAB
  0
TABLE
  2
LTYPE
  5
5
330
0
100
AcDbSymbolTable
 70
     6
  0
LTYPE
  5
14
330
5
100
AcDbSymbolTableRecord
100
AcDbLinetypeTableRecord
  2
ByBlock
 70
     0
  3

 72
    65
 73
     0
 40
0.0
  0
LTYPE
  5
15
330
5
100
AcDbSymbolTableRecord
100
AcDbLinetypeTableRecord
  2
ByLayer
 70
     0
  3

 72
    65
 73
     0
 40
0.0
  0
LTYPE
  5
16
330
5
100
AcDbSymbolTableRecord
100
AcDbLinetypeTableRecord
  2
Continuous
 70
     0
  3
Solid line
 72
    65
 73
     0
 40
0.0
  0
LTYPE
  5
6A
330
5
100
AcDbSymbolTableRecord
100
AcDbLinetypeTableRecord
  2
HIDDEN
 70
     0
  3
Hidden __ __ __ __ __ __ __ __ __ __ __ __ __ __
 72
    65
 73
     2
 40
1.905
 49
1.27
 74
     0
 49
-0.635
 74
     0
  0
LTYPE
  5
6B
330
5
100
AcDbSymbolTableRecord
100
AcDbLinetypeTableRecord
  2
PHANTOM
 70
     0
  3
Phantom ______  __  __  ______  __  __  ______
 72
    65
 73
     6
 40
12.7
 49
6.35
 74
     0
 49
-1.27
 74
     0
 49
1.27
 74
     0
 49
-1.27
 74
     0
 49
1.27
 74
     0
 49
-1.27
 74
     0
  0
LTYPE
  5
6C
330
5
100
AcDbSymbolTableRecord
100
AcDbLinetypeTableRecord
  2
CENTER
 70
     0
  3
Center ____ _ ____ _ ____ _ ____ _ ____ _ ____
 72
    65
 73
     4
 40
10.16
 49
6.35
 74
     0
 49
-1.27
 74
     0
 49
1.27
 74
     0
 49
-1.27
 74
     0
  0
LTYPE
  5
6D
330
5
100
AcDbSymbolTableRecord
100
AcDbLinetypeTableRecord
  2
CENTERX2
 70
     0
  3
Center (2x) ________  __  ________  __  _____
 72
    65
 73
     4
 40
20.32
 49
12.7
 74
     0
 49
-2.54
 74
     0
 49
2.54
 74
     0
 49
-2.54
 74
     0
  0
LTYPE
  5
6E
330
5
100
AcDbSymbolTableRecord
100
AcDbLinetypeTableRecord
  2
DOT2
 70
     0
  3
Dot (.5x) ........................................
 72
    65
 73
     2
 40
0.635
 49
0.0
 74
     0
 49
-0.635
 74
     0
  0
ENDTAB
  0
TABLE
  2
LAYER
  5
2
330
0
100
AcDbSymbolTable
 70
    17
  0
LAYER
  5
10
330
2
100
AcDbSymbolTableRecord
100
AcDbLayerTableRecord
  2
0
 70
     0
 62
     7
  6
Continuous
370
    -3
390
F
  0
LAYER
  5
6F
330
2
100
AcDbSymbolTableRecord
100
AcDbLayerTableRecord
  2
FORMAT
 70
     0
 62
     2
  6
Continuous
370
    -3
390
F
  0
LAYER
  5
70
330
2
100
AcDbSymbolTableRecord
100
AcDbLayerTableRecord
  2
외형선
 70
     0
 62
   100
  6
Continuous
370
    30
390
F
  0
LAYER
  5
71
330
2
100
AcDbSymbolTableRecord
100
AcDbLayerTableRecord
  2
숨은선
 70
     0
 62
     2
  6
HIDDEN
370
    15
390
F
  0
LAYER
  5
72
330
2
100
AcDbSymbolTableRecord
100
AcDbLayerTableRecord
  2
중심선
 70
     0
 62
     1
  6
CENTERX2
370
    -3
390
F
  0
LAYER
  5
73
330
2
100
AcDbSymbolTableRecord
100
AcDbLayerTableRecord
  2
파단선
 70
     0
 62
     4
  6
Continuous
370
    -3
390
F
  0
LAYER
  5
74
330
2
100
AcDbSymbolTableRecord
100
AcDbLayerTableRecord
  2
해칭선
 70
     0
 62
     4
  6
Continuous
370
    -3
390
F
  0
LAYER
  5
75
330
2
100
AcDbSymbolTableRecord
100
AcDbLayerTableRecord
  2
가는실선
 70
     0
 62
     4
  6
Continuous
370
    -3
390
F
  0
LAYER
  5
76
330
2
100
AcDbSymbolTableRecord
100
AcDbLayerTableRecord
  2
치수_보조선
 70
     0
 62
     4
  6
Continuous
370
    -3
390
F
  0
LAYER
  5
77
330
2
100
AcDbSymbolTableRecord
100
AcDbLayerTableRecord
  2
치수문자_일반주서
 70
     0
 62
     7
  6
Continuous
370
    15
390
F
  0
LAYER
  5
78
330
2
100
AcDbSymbolTableRecord
100
AcDbLayerTableRecord
  2
개별주서
 70
     0
 62
   100
  6
Continuous
370
    30
390
F
  0
LAYER
  5
79
330
2
100
AcDbSymbolTableRecord
100
AcDbLayerTableRecord
  2
중간선
 70
     0
 62
     2
  6
Continuous
370
    15
390
F
  0
LAYER
  5
7A
330
2
100
AcDbSymbolTableRecord
100
AcDbLayerTableRecord
  2
윤곽선
 70
     0
 62
     3
  6
Continuous
370
    40
390
F
  0
LAYER
  5
7B
330
2
100
AcDbSymbolTableRecord
100
AcDbLayerTableRecord
  2
중심마크
 70
     0
 62
   100
  6
Continuous
370
    30
390
F
  0
LAYER
  5
7C
330
2
100
AcDbSymbolTableRecord
100
AcDbLayerTableRecord
  2
가상선
 70
     0
 62
     4
  6
PHANTOM
370
    -3
390
F
  0
LAYER
  5
7D
330
2
100
AcDbSymbolTableRecord
100
AcDbLayerTableRecord
  2
특수지정선
 70
     0
 62
     5
  6
CENTERX2
370
    60
390
F
  0
LAYER
  5
137
330
2
100
AcDbSymbolTableRecord
100
AcDbLayerTableRecord
  2
Defpoints
 70
     0
 62
     7
  6
Continuous
290
     0
370
    -3
390
F
  0
ENDTAB
  0
TABLE
  2
STYLE
  5
3
330
0
100
AcDbSymbolTable
 70
     2
  0
STYLE
  5
11
330
3
100
AcDbSymbolTableRecord
100
AcDbTextStyleTableRecord
  2
Standard
 70
     0
 40
0.0
 41
1.0
 50
0.0
 71
     0
 42
3.5
  3
txt
  4

  0
STYLE
  5
93
330
3
100
AcDbSymbolTableRecord
100
AcDbTextStyleTableRecord
  2
SLDTEXTSTYLE0
 70
     0
 40
0.0
 41
0.75
 50
0.0
 71
     0
 42
3.5
  3
TXT
  4

  0
ENDTAB
  0
TABLE
  2
VIEW
  5
6
330
0
100
AcDbSymbolTable
 70
     0
  0
ENDTAB
  0
TABLE
  2
UCS
  5
7
330
0
100
AcDbSymbolTable
 70
     0
  0
ENDTAB
  0
TABLE
  2
APPID
  5
9
330
0
100
AcDbSymbolTable
 70
     1
  0
APPID
  5
12
330
9
100
AcDbSymbolTableRecord
100
AcDbRegAppTableRecord
  2
ACAD
 70
     0
  0
ENDTAB
  0
TABLE
  2
DIMSTYLE
  5
A
330
0
100
AcDbSymbolTable
 70
     3
100
AcDbDimStyleTable
  0
DIMSTYLE
105
27
330
A
100
AcDbSymbolTableRecord
100
AcDbDimStyleTableRecord
  2
ISO-25
 70
     0
 41
2.5
 42
0.625
 43
3.75
 44
1.25
 73
     0
 74
     0
 77
     1
 78
     8
140
2.5
141
2.5
143
0.03937007874016
147
0.625
171
     3
172
     1
178
     0
271
     2
272
     2
274
     3
278
    44
283
     0
284
     8
340
11
  0
DIMSTYLE
105
DD
102
{ACAD_REACTORS
330
DC
330
FF
102
}
330
A
100
AcDbSymbolTableRecord
100
AcDbDimStyleTableRecord
  2
SLDDIMSTYLE0
 70
     0
 41
3.302
 44
0.0
 45
0.000000001
 73
     0
 74
     0
 77
     1
 78
    12
 79
     3
140
3.5
147
0.875
172
     1
173
     1
178
     0
271
     2
272
     2
276
     2
284
    12
289
     0
340
93
  0
DIMSTYLE
105
EB
102
{ACAD_REACTORS
330
EA
330
F5
102
}
330
A
100
AcDbSymbolTableRecord
100
AcDbDimStyleTableRecord
  2
SLDDIMSTYLE1
 70
     0
 41
3.302
 44
0.0
 45
0.000000001
 73
     0
 74
     0
 77
     1
 78
    12
 79
     3
140
3.5
147
0.875
173
     1
178
     0
271
     2
272
     2
276
     2
284
    12
340
93
  0
ENDTAB
  0
TABLE
  2
BLOCK_RECORD
  5
1
330
0
100
AcDbSymbolTable
 70
     7
  0
BLOCK_RECORD
  5
1F
330
1
100
AcDbSymbolTableRecord
100
AcDbBlockTableRecord
  2
*Model_Space
340
22
  0
BLOCK_RECORD
  5
1B
330
1
100
AcDbSymbolTableRecord
100
AcDbBlockTableRecord
  2
*Paper_Space
340
1E
  0
BLOCK_RECORD
  5
23
330
1
100
AcDbSymbolTableRecord
100
AcDbBlockTableRecord
  2
*Paper_Space0
340
26
  0
BLOCK_RECORD
  5
7E
330
1
100
AcDbSymbolTableRecord
100
AcDbBlockTableRecord
  2
블럭10
340
0
102
{BLKREFS
331
D5
102
}
  0
BLOCK_RECORD
  5
DE
330
1
100
AcDbSymbolTableRecord
100
AcDbBlockTableRecord
  2
_D
340
0
  0
BLOCK_RECORD
  5
EC
330
1
100
AcDbSymbolTableRecord
100
AcDbBlockTableRecord
  2
_D_1
340
0
  0
BLOCK_RECORD
  5
F6
330
1
100
AcDbSymbolTableRecord
100
AcDbBlockTableRecord
  2
_D_2
340
0
  0
BLOCK_RECORD
  5
100
330
1
100
AcDbSymbolTableRecord
100
AcDbBlockTableRecord
  2
_D_3
340
0
  0
BLOCK_RECORD
  5
10C
330
1
100
AcDbSymbolTableRecord
100
AcDbBlockTableRecord
  2
SW_DOWELSYMBOL_0
340
0
102
{BLKREFS
331
112
102
}
  0
ENDTAB
  0
ENDSEC
  0
SECTION
  2
BLOCKS
  0
BLOCK
  5
20
330
1F
100
AcDbEntity
  8
0
100
AcDbBlockBegin
  2
*Model_Space
 70
     0
 10
0.0
 20
0.0
 30
0.0
  3
*Model_Space
  1

  0
ENDBLK
  5
21
330
1F
100
AcDbEntity
  8
0
100
AcDbBlockEnd
  0
BLOCK
  5
1C
330
1B
100
AcDbEntity
 67
     1
  8
0
100
AcDbBlockBegin
  2
*Paper_Space
 70
     0
 10
0.0
 20
0.0
 30
0.0
  3
*Paper_Space
  1

  0
ENDBLK
  5
1D
330
1B
100
AcDbEntity
 67
     1
  8
0
100
AcDbBlockEnd
  0
BLOCK
  5
24
330
23
100
AcDbEntity
  8
0
100
AcDbBlockBegin
  2
*Paper_Space0
 70
     0
 10
0.0
 20
0.0
 30
0.0
  3
*Paper_Space0
  1

  0
ENDBLK
  5
25
330
23
100
AcDbEntity
  8
0
100
AcDbBlockEnd
  0
BLOCK
  5
7F
330
7E
100
AcDbEntity
  8
0
100
AcDbBlockBegin
  2
블럭10
 70
     2
 10
0.0
 20
0.0
 30
0.0
  3
블럭10
  1

  0
ELLIPSE
  5
81
330
7E
100
AcDbEntity
  8
중심선
100
AcDbEllipse
 10
20.54032771741204
 20
12.0471743016438
 30
0.0
 11
6.600054785286829
 21
-1.261213355974178E-13
 31
0.0
210
0.0
220
0.0
230
1.0
 40
0.636358354079598
 41
0.9219305317359503
 42
6.513795318482858
  0
ELLIPSE
  5
82
330
7E
100
AcDbEntity
  8
중심선
100
AcDbEllipse
 10
20.54032771746488
 20
12.04717430159265
 30
0.0
 11
3.960054785062283
 21
1.540847449632565E-10
 31
0.0
210
0.0
220
0.0
230
1.0
 40
0.3939339440162632
 41
1.131841032648279
 42
5.62031148352944
  0
LINE
  5
83
330
7E
100
AcDbEntity
  8
중심선
100
AcDbLine
 10
2.268634060543552
 20
16.24717430164393
 30
0.0
 11
5.714909304380834
 21
16.24717430164393
 31
0.0
  0
LINE
  5
84
330
7E
100
AcDbEntity
  8
중심선
100
AcDbLine
 10
5.245725140726316
 20
7.84717430164391
 30
0.0
 11
8.692000384563599
 21
7.84717430164391
 31
0.0
  0
LINE
  5
85
330
7E
100
AcDbEntity
  8
중심선
100
AcDbLine
 10
15.74043728645272
 20
16.24717430164393
 30
0.0
 11
8.692000384563599
 21
7.84717430164391
 31
0.0
  0
LINE
  5
86
330
7E
100
AcDbEntity
  8
중심선
100
AcDbLine
 10
0.1404042013395286
 20
13.71084872107135
 30
0.0
 11
3.58671253028996
 21
13.71088815037384
 31
0.0
  0
LINE
  5
87
330
7E
100
AcDbEntity
  8
중심선
100
AcDbLine
 10
2.750260043222114
 20
10.84717430164391
 30
0.0
 11
6.196535287059397
 21
10.84717430164391
 31
0.0
  0
LINE
  5
88
330
7E
100
AcDbEntity
  8
중심선
100
AcDbLine
 10
12.29416204261559
 20
16.24717430164393
 30
0.0
 11
5.245725140726316
 21
7.84717430164391
 31
0.0
  0
LINE
  5
89
330
7E
100
AcDbEntity
  8
중심선
100
AcDbLine
 10
10.72767329541681
 20
16.24717430164393
 30
0.0
 11
6.196535287059397
 21
10.84717430164391
 31
0.0
  0
LINE
  5
8A
330
7E
100
AcDbEntity
  8
중심선
100
AcDbLine
 10
7.28139805157953
 20
16.24717430164393
 30
0.0
 11
2.750260043222114
 21
10.84717430164391
 31
0.0
  0
LINE
  5
8B
330
7E
100
AcDbEntity
  8
중심선
100
AcDbLine
 10
5.714909304380834
 20
16.24717430164393
 30
0.0
 11
3.58671253028996
 21
13.71088815037384
 31
0.0
  0
LINE
  5
8C
330
7E
100
AcDbEntity
  8
중심선
100
AcDbLine
 10
2.268634060543552
 20
16.24717430164393
 30
0.0
 11
0.1404042013395286
 21
13.71084872107135
 31
0.0
  0
LINE
  5
8D
330
7E
100
AcDbEntity
  8
중심선
100
AcDbLine
 10
7.28139805157953
 20
16.24717430164393
 30
0.0
 11
10.72767329541681
 21
16.24717430164393
 31
0.0
  0
LINE
  5
8E
330
7E
100
AcDbEntity
  8
중심선
100
AcDbLine
 10
12.29416204261559
 20
16.24717430164393
 30
0.0
 11
15.74043728645272
 21
16.24717430164393
 31
0.0
  0
LINE
  5
8F
330
7E
100
AcDbEntity
  8
중심선
100
AcDbLine
 10
19.22036997980202
 20
11.08717430171403
 30
0.0
 11
23.66174974927406
 21
11.08717430171406
 31
0.0
  0
LINE
  5
90
330
7E
100
AcDbEntity
  8
중심선
100
AcDbLine
 10
19.22039502424796
 20
13.00717430171391
 30
0.0
 11
19.22036997980202
 21
11.08717430171403
 31
0.0
  0
LINE
  5
91
330
7E
100
AcDbEntity
  8
중심선
100
AcDbLine
 10
19.22039502424796
 20
13.00717430171391
 30
0.0
 11
26.96566020931264
 21
13.00717430171391
 31
0.0
  0
LINE
  5
92
330
7E
100
AcDbEntity
  8
중심선
100
AcDbLine
 10
22.22332737316547
 20
13.45928029700563
 30
0.0
 11
24.52862924686651
 21
15.39360700705356
 31
0.0
  0
ATTDEF
  5
94
330
7E
100
AcDbEntity
  8
FORMAT
 62
     2
100
AcDbText
 10
-16.11926103943555
 20
2.075366912832191
 30
0.0
 40
4.233333333333333
  1
SEME7020090E [ 2 FLUTE ]
 41
0.75
  7
SLDTEXTSTYLE0
 11
-16.11926103943555
 21
-0.0412997538344756
 31
0.0
100
AcDbAttributeDefinition
  3

  2
AUTOATTR0
 70
     0
 74
     1
  0
ENDBLK
  5
80
330
7E
100
AcDbEntity
  8
0
100
AcDbBlockEnd
  0
BLOCK
  5
DF
330
DE
100
AcDbEntity
  8
0
100
AcDbBlockBegin
  2
_D
 70
     0
 10
0.0
 20
0.0
 30
0.0
  3
_D
  1

  0
LINE
  5
E1
330
DE
100
AcDbEntity
  8
치수문자_일반주서
 62
     0
370
    -2
100
AcDbLine
 10
102.0625
 20
-9.99999999999966
 30
0.0
 11
118.0296466974324
 21
-9.999999999999599
 31
0.0
  0
LINE
  5
E2
330
DE
100
AcDbEntity
  8
치수문자_일반주서
 62
     0
370
    -2
100
AcDbLine
 10
102.0625
 20
10.00000000000033
 30
0.0
 11
118.0296466974323
 21
10.00000000000039
 31
0.0
  0
LINE
  5
E3
330
DE
100
AcDbEntity
  8
치수문자_일반주서
 62
     0
370
    -2
100
AcDbLine
 10
118.0296466974324
 20
-9.999999999999599
 30
0.0
 11
118.0296466974323
 21
24.91650000000039
 31
0.0
  0
LINE
  5
E4
330
DE
100
AcDbEntity
  8
치수문자_일반주서
 62
     0
370
    -2
100
AcDbLine
 10
118.0296466974324
 20
-9.999999999999599
 30
0.0
 11
118.0296466974323
 21
10.00000000000039
 31
0.0
  0
LINE
  5
E5
330
DE
100
AcDbEntity
  8
치수문자_일반주서
 62
     0
370
    -2
100
AcDbLine
 10
118.0296466974324
 20
-13.3019999999996
 30
0.0
 11
118.0296466974324
 21
-16.6039999999996
 31
0.0
  0
LINE
  5
E6
330
DE
100
AcDbEntity
  8
치수문자_일반주서
 62
     0
370
    -2
100
AcDbLine
 10
118.0296466974323
 20
13.30200000000039
 30
0.0
 11
118.0296466974323
 21
16.60400000000039
 31
0.0
  0
SOLID
  5
E7
330
DE
100
AcDbEntity
  8
치수문자_일반주서
 62
     0
100
AcDbTrace
 10
118.5799800307658
 20
-13.3019999999996
 30
0.0
 11
117.4793133640991
 21
-13.3019999999996
 31
0.0
 12
118.0296466974324
 22
-9.999999999999599
 32
0.0
 13
118.0296466974324
 23
-9.999999999999599
 33
0.0
  0
SOLID
  5
E8
330
DE
100
AcDbEntity
  8
치수문자_일반주서
 62
     0
100
AcDbTrace
 10
117.479313364099
 20
13.30200000000039
 30
0.0
 11
118.5799800307657
 21
13.30200000000039
 31
0.0
 12
118.0296466974323
 22
10.00000000000039
 32
0.0
 13
118.0296466974323
 23
10.00000000000039
 33
0.0
  0
MTEXT
  5
E9
330
DE
100
AcDbEntity
  8
치수문자_일반주서
 62
     0
100
AcDbMText
 10
113.6546466974323
 20
20.76025000000037
 30
0.0
 40
3.5
 41
0.0
 71
     2
 72
     1
  1
\A1;%%c20
  7
SLDTEXTSTYLE0
 11
-3.552713678800503E-15
 21
1.0
 31
0.0
 73
     1
 44
1.0
  0
POINT
  5
141
330
DE
100
AcDbEntity
  8
Defpoints
 62
     0
100
AcDbPoint
 10
102.0
 20
-9.99999999999966
 30
0.0
  0
POINT
  5
142
330
DE
100
AcDbEntity
  8
Defpoints
 62
     0
100
AcDbPoint
 10
102.0
 20
10.00000000000033
 30
0.0
  0
POINT
  5
143
330
DE
100
AcDbEntity
  8
Defpoints
 62
     0
100
AcDbPoint
 10
118.0296466974323
 20
10.00000000000039
 30
0.0
  0
ENDBLK
  5
E0
330
DE
100
AcDbEntity
  8
0
100
AcDbBlockEnd
  0
BLOCK
  5
ED
330
EC
100
AcDbEntity
  8
0
100
AcDbBlockBegin
  2
_D_1
 70
     0
 10
0.0
 20
0.0
 30
0.0
  3
_D_1
  1

  0
LINE
  5
EF
330
EC
100
AcDbEntity
  8
치수문자_일반주서
 62
     0
370
    -2
100
AcDbLine
 10
-47.99999999999996
 20
9.062499999999998
 30
0.0
 11
-47.99999999999996
 21
30.7884104402427
 31
0.0
  0
LINE
  5
F0
330
EC
100
AcDbEntity
  8
치수문자_일반주서
 62
     0
370
    -2
100
AcDbLine
 10
102.0
 20
10.06250000000033
 30
0.0
 11
102.0
 21
30.7884104402427
 31
0.0
  0
LINE
  5
F1
330
EC
100
AcDbEntity
  8
치수문자_일반주서
 62
     0
370
    -2
100
AcDbLine
 10
-44.69799999999996
 20
30.7884104402427
 30
0.0
 11
98.69800000000004
 21
30.7884104402427
 31
0.0
  0
SOLID
  5
F2
330
EC
100
AcDbEntity
  8
치수문자_일반주서
 62
     0
100
AcDbTrace
 10
-44.69799999999996
 20
31.33874377357603
 30
0.0
 11
-44.69799999999996
 21
30.23807710690936
 31
0.0
 12
-47.99999999999996
 22
30.7884104402427
 32
0.0
 13
-47.99999999999996
 23
30.7884104402427
 33
0.0
  0
SOLID
  5
F3
330
EC
100
AcDbEntity
  8
치수문자_일반주서
 62
     0
100
AcDbTrace
 10
98.69800000000004
 20
30.23807710690936
 30
0.0
 11
98.69800000000004
 21
31.33874377357603
 31
0.0
 12
102.0
 22
30.7884104402427
 32
0.0
 13
102.0
 23
30.7884104402427
 33
0.0
  0
MTEXT
  5
F4
330
EC
100
AcDbEntity
  8
치수문자_일반주서
 62
     0
100
AcDbMText
 10
27.00000000000004
 20
35.1634104402427
 30
0.0
 40
3.5
 41
0.0
 71
     2
 72
     1
  1
\A1;150
  7
SLDTEXTSTYLE0
 73
     1
 44
1.0
  0
POINT
  5
138
330
EC
100
AcDbEntity
  8
Defpoints
 62
     0
100
AcDbPoint
 10
-47.99999999999996
 20
8.999999999999998
 30
0.0
  0
POINT
  5
139
330
EC
100
AcDbEntity
  8
Defpoints
 62
     0
100
AcDbPoint
 10
102.0
 20
10.00000000000033
 30
0.0
  0
POINT
  5
13A
330
EC
100
AcDbEntity
  8
Defpoints
 62
     0
100
AcDbPoint
 10
102.0
 20
30.7884104402427
 30
0.0
  0
ENDBLK
  5
EE
330
EC
100
AcDbEntity
  8
0
100
AcDbBlockEnd
  0
BLOCK
  5
F7
330
F6
100
AcDbEntity
  8
0
100
AcDbBlockBegin
  2
_D_2
 70
     0
 10
0.0
 20
0.0
 30
0.0
  3
_D_2
  1

  0
LINE
  5
F9
330
F6
100
AcDbEntity
  8
치수문자_일반주서
 62
     0
370
    -2
100
AcDbLine
 10
12.00000000000004
 20
7.880697003221725
 30
0.0
 11
12.00000000000003
 21
21.16519480938925
 31
0.0
  0
LINE
  5
FA
330
F6
100
AcDbEntity
  8
치수문자_일반주서
 62
     0
370
    -2
100
AcDbLine
 10
102.0
 20
10.06250000000033
 30
0.0
 11
102.0
 21
21.16519480938925
 31
0.0
  0
LINE
  5
FB
330
F6
100
AcDbEntity
  8
치수문자_일반주서
 62
     0
370
    -2
100
AcDbLine
 10
15.30200000000003
 20
21.16519480938925
 30
0.0
 11
98.69800000000004
 21
21.16519480938925
 31
0.0
  0
SOLID
  5
FC
330
F6
100
AcDbEntity
  8
치수문자_일반주서
 62
     0
100
AcDbTrace
 10
15.30200000000003
 20
21.71552814272258
 30
0.0
 11
15.30200000000003
 21
20.61486147605591
 31
0.0
 12
12.00000000000003
 22
21.16519480938925
 32
0.0
 13
12.00000000000003
 23
21.16519480938925
 33
0.0
  0
SOLID
  5
FD
330
F6
100
AcDbEntity
  8
치수문자_일반주서
 62
     0
100
AcDbTrace
 10
98.69800000000004
 20
20.61486147605591
 30
0.0
 11
98.69800000000004
 21
21.71552814272258
 31
0.0
 12
102.0
 22
21.16519480938925
 32
0.0
 13
102.0
 23
21.16519480938925
 33
0.0
  0
MTEXT
  5
FE
330
F6
100
AcDbEntity
  8
치수문자_일반주서
 62
     0
100
AcDbMText
 10
57.00000000000004
 20
25.54019480938925
 30
0.0
 40
3.5
 41
0.0
 71
     2
 72
     1
  1
\A1;90
  7
SLDTEXTSTYLE0
 73
     1
 44
1.0
  0
POINT
  5
13B
330
F6
100
AcDbEntity
  8
Defpoints
 62
     0
100
AcDbPoint
 10
12.00000000000004
 20
7.818197003221725
 30
0.0
  0
POINT
  5
13C
330
F6
100
AcDbEntity
  8
Defpoints
 62
     0
100
AcDbPoint
 10
102.0
 20
10.00000000000033
 30
0.0
  0
POINT
  5
13D
330
F6
100
AcDbEntity
  8
Defpoints
 62
     0
100
AcDbPoint
 10
102.0
 20
21.16519480938925
 30
0.0
  0
ENDBLK
  5
F8
330
F6
100
AcDbEntity
  8
0
100
AcDbBlockEnd
  0
BLOCK
  5
101
330
100
100
AcDbEntity
  8
0
100
AcDbBlockBegin
  2
_D_3
 70
     0
 10
0.0
 20
0.0
 30
0.0
  3
_D_3
  1

  0
LINE
  5
103
330
100
100
AcDbEntity
  8
치수문자_일반주서
 62
     0
370
    -2
100
AcDbLine
 10
-47.06249999999996
 20
9.999999999999998
 30
0.0
 11
-62.36595151059689
 21
9.999999999999941
 31
0.0
  0
LINE
  5
104
330
100
100
AcDbEntity
  8
치수문자_일반주서
 62
     0
370
    -2
100
AcDbLine
 10
-47.06249999999996
 20
-9.999999999999998
 30
0.0
 11
-62.36595151059682
 21
-10.00000000000006
 31
0.0
  0
LINE
  5
105
330
100
100
AcDbEntity
  8
치수문자_일반주서
 62
     0
370
    -2
100
AcDbLine
 10
-62.36595151059689
 20
9.999999999999941
 30
0.0
 11
-62.36595151059694
 21
24.91649999999994
 31
0.0
  0
LINE
  5
106
330
100
100
AcDbEntity
  8
치수문자_일반주서
 62
     0
370
    -2
100
AcDbLine
 10
-62.36595151059689
 20
9.999999999999941
 30
0.0
 11
-62.36595151059682
 21
-10.00000000000006
 31
0.0
  0
LINE
  5
107
330
100
100
AcDbEntity
  8
치수문자_일반주서
 62
     0
370
    -2
100
AcDbLine
 10
-62.3659515105969
 20
13.30199999999994
 30
0.0
 11
-62.36595151059691
 21
16.60399999999994
 31
0.0
  0
LINE
  5
108
330
100
100
AcDbEntity
  8
치수문자_일반주서
 62
     0
370
    -2
100
AcDbLine
 10
-62.3659515105968
 20
-13.30200000000006
 30
0.0
 11
-62.36595151059679
 21
-16.60400000000006
 31
0.0
  0
SOLID
  5
109
330
100
100
AcDbEntity
  8
치수문자_일반주서
 62
     0
100
AcDbTrace
 10
-62.91628484393024
 20
13.30199999999994
 30
0.0
 11
-61.81561817726357
 21
13.30199999999994
 31
0.0
 12
-62.36595151059689
 22
9.999999999999941
 32
0.0
 13
-62.36595151059689
 23
9.999999999999941
 33
0.0
  0
SOLID
  5
10A
330
100
100
AcDbEntity
  8
치수문자_일반주서
 62
     0
100
AcDbTrace
 10
-61.81561817726347
 20
-13.30200000000005
 30
0.0
 11
-62.91628484393014
 21
-13.30200000000006
 31
0.0
 12
-62.36595151059682
 22
-10.00000000000006
 32
0.0
 13
-62.36595151059682
 23
-10.00000000000006
 33
0.0
  0
MTEXT
  5
10B
330
100
100
AcDbEntity
  8
치수문자_일반주서
 62
     0
100
AcDbMText
 10
-66.74095151059691
 20
20.76024999999992
 30
0.0
 40
3.5
 41
0.0
 71
     2
 72
     1
  1
\A1;%%c20
  7
SLDTEXTSTYLE0
 11
-3.552713678800502E-15
 21
1.0
 31
0.0
 73
     1
 44
1.0
  0
POINT
  5
13E
330
100
100
AcDbEntity
  8
Defpoints
 62
     0
100
AcDbPoint
 10
-46.99999999999996
 20
9.999999999999998
 30
0.0
  0
POINT
  5
13F
330
100
100
AcDbEntity
  8
Defpoints
 62
     0
100
AcDbPoint
 10
-46.99999999999996
 20
-9.999999999999998
 30
0.0
  0
POINT
  5
140
330
100
100
AcDbEntity
  8
Defpoints
 62
     0
100
AcDbPoint
 10
-62.36595151059681
 20
-10.00000000000006
 30
0.0
  0
ENDBLK
  5
102
330
100
100
AcDbEntity
  8
0
100
AcDbBlockEnd
  0
BLOCK
  5
10D
330
10C
100
AcDbEntity
  8
0
100
AcDbBlockBegin
  2
SW_DOWELSYMBOL_0
 70
     0
 10
0.0
 20
0.0
 30
0.0
  3
SW_DOWELSYMBOL_0
  1

  0
CIRCLE
  5
10F
330
10C
100
AcDbEntity
  8
외형선
 62
     0
100
AcDbCircle
 10
0.0
 20
0.0
 30
0.0
 40
3.000000000000004
  0
HATCH
  5
110
330
10C
100
AcDbEntity
  8
0
  6
Continuous
 62
     0
370
    30
100
AcDbHatch
 10
0.0
 20
0.0
 30
0.0
210
0.0
220
0.0
230
1.0
  2
SOLID
 70
     1
 71
     0
 91
        1
 92
        0
 93
        3
 72
     2
 10
0.0000000000000104
 20
0.0
 40
3.000000000000004
 50
0.0
 51
90.0
 73
     1
 72
     1
 10
0.0000000000000104
 20
3.000000000000004
 11
0.0000000000000104
 21
0.0
 72
     1
 10
0.0000000000000104
 20
0.0
 11
3.000000000000015
 21
0.0
 97
        0
 75
     0
 76
     1
 98
        1
 10
0.0
 20
0.0
  0
HATCH
  5
111
330
10C
100
AcDbEntity
  8
0
  6
Continuous
 62
     0
370
    30
100
AcDbHatch
 10
0.0
 20
0.0
 30
0.0
210
0.0
220
0.0
230
1.0
  2
SOLID
 70
     1
 71
     0
 91
        1
 92
        0
 93
        3
 72
     2
 10
0.0000000000000104
 20
0.0
 40
3.000000000000004
 50
180.0
 51
270.0000000000008
 73
     1
 72
     1
 10
0.0000000000000104
 20
-3.000000000000004
 11
0.0000000000000104
 21
0.0
 72
     1
 10
0.0000000000000104
 20
0.0
 11
-2.999999999999994
 21
0.0
 97
        0
 75
     0
 76
     1
 98
        1
 10
0.0
 20
0.0
  0
ENDBLK
  5
10E
330
10C
100
AcDbEntity
  8
0
100
AcDbBlockEnd
  0
ENDSEC
  0
SECTION
  2
ENTITIES
  0
LINE
  5
95
330
1F
100
AcDbEntity
  8
0
  6
Continuous
 62
     1
370
    15
100
AcDbLine
 10
70.61204547064179
 20
2.787976465944858
 30
0.0
 11
70.45341975500541
 21
2.875014026536598
 31
0.0
  0
LINE
  5
96
330
1F
100
AcDbEntity
  8
0
  6
Continuous
 62
     1
370
    15
100
AcDbLine
 10
16.17567166956666
 20
2.800099291865889
 30
0.0
 11
16.03932783941355
 21
2.8750754455722
 31
0.0
  0
LINE
  5
97
330
1F
100
AcDbEntity
  8
0
  6
Continuous
 62
     1
370
    15
100
AcDbLine
 10
48.29861081532177
 20
-10.00000000000001
 30
0.0
 11
53.14363842020986
 21
-10.00000000000001
 31
0.0
  0
LINE
  5
98
330
1F
100
AcDbEntity
  8
0
  6
Continuous
 62
     1
370
    15
100
AcDbLine
 10
53.14363842020986
 20
10.00000000000001
 30
0.0
 11
48.29861081532176
 21
10.00000000000001
 31
0.0
  0
SPLINE
  5
99
330
1F
100
AcDbEntity
  8
0
  6
Continuous
 62
     1
370
    15
100
AcDbSpline
210
0.0
220
0.0
230
1.0
 70
     8
 71
     3
 72
    10
 73
     6
 74
     0
 42
0.000000001
 43
0.00000001
 40
0.0
 40
0.0
 40
0.0
 40
0.0
 40
0.4508033720446743
 40
0.6567536826249748
 40
1.0
 40
1.0
 40
1.0
 40
1.0
 10
21.67898648052585
 20
2.562436973252623
 30
0.0
 10
21.25975636979069
 20
2.762290120801032
 30
0.0
 10
20.64900024823862
 20
3.05344652906233
 30
0.0
 10
19.72983492163216
 20
3.516356652612664
 30
0.0
 10
19.22176580024306
 20
3.783196197522158
 30
0.0
 10
18.90422405651814
 20
3.949970147794232
 30
0.0
  0
SPLINE
  5
9A
330
1F
100
AcDbEntity
  8
0
  6
Continuous
 62
     1
370
    15
100
AcDbSpline
210
0.0
220
0.0
230
1.0
 70
     8
 71
     3
 72
     9
 73
     5
 74
     0
 42
0.000000001
 43
0.00000001
 40
0.0
 40
0.0
 40
0.0
 40
0.0
 40
0.5246348146702857
 40
1.0
 40
1.0
 40
1.0
 40
1.0
 10
76.09283601484478
 20
2.56249853975735
 30
0.0
 10
75.60758756198649
 20
2.793891746785264
 30
0.0
 10
74.6826614242439
 20
3.234947507016001
 30
0.0
 10
73.75768707888847
 20
3.71966735753608
 30
0.0
 10
73.31798647778332
 20
3.950086299111547
 30
0.0
  0
SPLINE
  5
9B
330
1F
100
AcDbEntity
  8
0
  6
Continuous
 62
     1
370
    15
100
AcDbSpline
210
0.0
220
0.0
230
1.0
 70
     8
 71
     3
 72
    26
 73
    22
 74
     0
 42
0.000000001
 43
0.00000001
 40
0.0
 40
0.0
 40
0.0
 40
0.0
 40
0.0859511924744295
 40
0.1606606853996597
 40
0.2215232052139896
 40
0.2744110143456077
 40
0.3364327532743889
 40
0.4037636434906561
 40
0.4499126127548315
 40
0.5106092689758213
 40
0.570166936940033
 40
0.6185897432766702
 40
0.667922793102971
 40
0.7062407397280843
 40
0.7489123627082367
 40
0.7806189498343937
 40
0.7926622582778178
 40
0.8130531763988951
 40
0.8439508678152206
 40
0.9101730062582959
 40
1.0
 40
1.0
 40
1.0
 40
1.0
 10
57.74549948702999
 20
-8.321388532574169
 30
0.0
 10
58.16290711330839
 20
-8.280424915661444
 30
0.0
 10
58.94312892755353
 20
-8.203855381485347
 30
0.0
 10
60.07951370334769
 20
-8.111531916292016
 30
0.0
 10
61.03201465510615
 20
-8.041214917925359
 30
0.0
 10
61.90892289251252
 20
-7.9845750500095
 30
0.0
 10
62.82537389704343
 20
-7.933152298206097
 30
0.0
 10
63.70494879456724
 20
-7.892420814291995
 30
0.0
 10
64.57960760306325
 20
-7.859749867021654
 30
0.0
 10
65.416024005194
 20
-7.835600750910619
 30
0.0
 10
66.2632000035736
 20
-7.81920216479913
 30
0.0
 10
67.05025358072444
 20
-7.810716748191095
 30
0.0
 10
67.73266658509921
 20
-7.808710207554519
 30
0.0
 10
68.3866601253485
 20
-7.811368820497447
 30
0.0
 10
68.95230506320677
 20
-7.817321421918862
 30
0.0
 10
69.38609410661276
 20
-7.824464553283307
 30
0.0
 10
69.70777197511757
 20
-7.830891445917944
 30
0.0
 10
70.02513374226257
 20
-7.838052445979664
 30
0.0
 10
70.61417841695537
 20
-7.853833384698038
 30
0.0
 10
71.5520451308279
 20
-7.885268800066894
 30
0.0
 10
72.33618517715239
 20
-7.924063757698339
 30
0.0
 10
72.78756188170468
 20
-7.946395406503942
 30
0.0
  0
SPLINE
  5
9C
330
1F
100
AcDbEntity
  8
0
  6
Continuous
 62
     1
370
    15
100
AcDbSpline
210
0.0
220
0.0
230
1.0
 70
     8
 71
     3
 72
    16
 73
    12
 74
     0
 42
0.000000001
 43
0.00000001
 40
0.0
 40
0.0
 40
0.0
 40
0.0
 40
0.1814251816304457
 40
0.3235937255627163
 40
0.4382218103180588
 40
0.5300986009673435
 40
0.670918570735153
 40
0.7090879699954018
 40
0.7763549587200299
 40
0.8734053220243735
 40
1.0
 40
1.0
 40
1.0
 40
1.0
 10
18.37346591608664
 20
7.946389259787902
 30
0.0
 10
18.00057525124181
 20
7.927278836077701
 30
0.0
 10
17.33547970948574
 20
7.893193087065952
 30
0.0
 10
16.38904249759359
 20
7.859314605765861
 30
0.0
 10
15.63709387404175
 20
7.838212241270699
 30
0.0
 10
14.89426997952707
 20
7.822294801511074
 30
0.0
 10
14.31928850267339
 20
7.81457615519602
 30
0.0
 10
13.79491213174638
 20
7.810676060980976
 30
0.0
 10
13.36393903993889
 20
7.809060069603247
 30
0.0
 10
12.74488039427248
 20
7.809849374136047
 30
0.0
 10
12.2692381487848
 20
7.815179740019188
 30
0.0
 10
12.00000000000001
 20
7.818197003217183
 30
0.0
  0
SPLINE
  5
9D
330
1F
100
AcDbEntity
  8
0
  6
Continuous
 62
     1
370
    15
100
AcDbSpline
210
0.0
220
0.0
230
1.0
 70
     8
 71
     3
 72
    18
 73
    14
 74
     0
 42
0.000000001
 43
0.00000001
 40
0.0
 40
0.0
 40
0.0
 40
0.0
 40
0.1265946158440788
 40
0.223644931516966
 40
0.3007779740489773
 40
0.3411688378789749
 40
0.380100650120362
 40
0.4230206883024459
 40
0.4699016592003469
 40
0.5617784047573205
 40
0.6764064332542112
 40
0.818574907411424
 40
0.9999999999999999
 40
0.9999999999999999
 40
0.9999999999999999
 40
0.9999999999999999
 10
12.00000000000001
 20
-7.818197003217175
 30
0.0
 10
12.26923980462944
 20
-7.815180190959638
 30
0.0
 10
12.74488497536997
 20
-7.809850621718184
 30
0.0
 10
13.38492167473264
 20
-7.809029941575736
 30
0.0
 10
13.84166857333838
 20
-7.81089143187439
 30
0.0
 10
14.17475305195633
 20
-7.813615597884054
 30
0.0
 10
14.43487073671825
 20
-7.816434681428726
 30
0.0
 10
14.70883444999315
 20
-7.820166206198055
 30
0.0
 10
15.09489608969109
 20
-7.826591388477958
 30
0.0
 10
15.63721385075071
 20
-7.838215872614958
 30
0.0
 10
16.38899849131258
 20
-7.859313273824369
 30
0.0
 10
17.33549556538284
 20
-7.893193566977592
 30
0.0
 10
18.00058094738304
 20
-7.927279008483233
 30
0.0
 10
18.37346591608665
 20
-7.946389259787893
 30
0.0
  0
SPLINE
  5
9E
330
1F
100
AcDbEntity
  8
0
  6
Continuous
 62
     1
370
    15
100
AcDbSpline
210
0.0
220
0.0
230
1.0
 70
     8
 71
     3
 72
    23
 73
    19
 74
     0
 42
0.000000001
 43
0.00000001
 40
0.0
 40
0.0
 40
0.0
 40
0.0
 40
0.137250544717652
 40
0.2345343247023071
 40
0.2956998139322407
 40
0.3328430449314039
 40
0.3825953243193385
 40
0.4443570720658931
 40
0.501008933170875
 40
0.5464204866837628
 40
0.5877871460822937
 40
0.6563518676067656
 40
0.7427605254181349
 40
0.8175252231303773
 40
0.878120248664564
 40
0.9301087701741456
 40
0.9790086015488189
 40
1.0
 40
1.0
 40
1.0
 40
1.0
 10
72.78756188170468
 20
7.946395406503962
 30
0.0
 10
72.41192636815074
 20
7.927554423816278
 30
0.0
 10
71.77003877719939
 20
7.895358871073848
 30
0.0
 10
70.9625145861843
 20
7.865401439487778
 30
0.0
 10
70.42994610918939
 20
7.848895439300327
 30
0.0
 10
70.03054824956776
 20
7.838245247617844
 30
0.0
 10
69.62604697959004
 20
7.82891113192635
 30
0.0
 10
69.16788815195326
 20
7.820590656677743
 30
0.0
 10
68.72137889327337
 20
7.814771337510879
 30
0.0
 10
68.33044472993483
 20
7.811406715523212
 30
0.0
 10
67.90680991650255
 20
7.809353317936251
 30
0.0
 10
67.37146196090174
 20
7.809310667844183
 30
0.0
 10
66.74534892477169
 20
7.813488636280567
 30
0.0
 10
66.1409847363728
 20
7.821778761106025
 30
0.0
 10
65.63029183519897
 20
7.831719365200427
 30
0.0
 10
65.19007676483129
 20
7.842530882783206
 30
0.0
 10
64.85783314606509
 20
7.851817433820196
 30
0.0
 10
64.66731903914794
 20
7.858192034698338
 30
0.0
 10
64.61009930587336
 20
7.860106606631522
 30
0.0
  0
SPLINE
  5
9F
330
1F
100
AcDbEntity
  8
0
  6
Continuous
 62
     1
370
    15
100
AcDbSpline
210
0.0
220
0.0
230
1.0
 70
     8
 71
     3
 72
    17
 73
    13
 74
     0
 42
0.000000001
 43
0.00000001
 40
0.0
 40
0.0
 40
0.0
 40
0.0
 40
0.1645511751918115
 40
0.2892691539587847
 40
0.3755301045722677
 40
0.4394097682098678
 40
0.4877585245286785
 40
0.6026611271422881
 40
0.7473701247542568
 40
0.8750609398303493
 40
0.9793046884761313
 40
1.0
 40
1.0
 40
1.0
 40
1.0
 10
80.81434212600738
 20
-7.521349443724737
 30
0.0
 10
81.22088673280125
 20
-7.45910268492086
 30
0.0
 10
81.93556296842637
 20
-7.349677351222181
 30
0.0
 10
82.86419296944855
 20
-7.222546721533734
 30
0.0
 10
83.55125573517977
 20
-7.134997951201616
 30
0.0
 10
84.04817182611121
 20
-7.075475137209041
 30
0.0
 10
84.6120501317383
 20
-7.010997264424295
 30
0.0
 10
85.37650806892408
 20
-6.929791563244867
 30
0.0
 10
86.33791014182044
 20
-6.839505435454631
 30
0.0
 10
87.27207710531133
 20
-6.766321303966379
 30
0.0
 10
87.89933478950024
 20
-6.722503872524476
 30
0.0
 10
88.2094706510338
 20
-6.705449698703627
 30
0.0
 10
88.26084256195136
 20
-6.702624789987927
 30
0.0
  0
SPLINE
  5
A0
330
1F
100
AcDbEntity
  8
0
  6
Continuous
 62
     1
370
    15
100
AcDbSpline
210
0.0
220
0.0
230
1.0
 70
     8
 71
     3
 72
    33
 73
    29
 74
     0
 42
0.000000001
 43
0.00000001
 40
0.0
 40
0.0
 40
0.0
 40
0.0
 40
0.0640875334849532
 40
0.1162003331180547
 40
0.1587088722802397
 40
0.1951489592436527
 40
0.228803464293425
 40
0.2708460440071681
 40
0.3123213207493449
 40
0.354718082552659
 40
0.4089458535448991
 40
0.4689555203973805
 40
0.5242535703620993
 40
0.5494968178310052
 40
0.5770824934605489
 40
0.6089221940508952
 40
0.6435188777317356
 40
0.6723857189802547
 40
0.6941717077360863
 40
0.7150122531777111
 40
0.7485953611337127
 40
0.8019665193305601
 40
0.8413967913656244
 40
0.8744694902534779
 40
0.901666769982726
 40
0.9310934810658646
 40
0.9629289159155741
 40
1.0
 40
1.0
 40
1.0
 40
1.0
 10
43.87103875971364
 20
6.839531920055793
 30
0.0
 10
43.51091974883743
 20
6.8097489575672
 30
0.0
 10
42.85796984188266
 20
6.755747969009426
 30
0.0
 10
41.92124145045734
 20
6.696379296567001
 30
0.0
 10
41.13202037222811
 20
6.65567604080956
 30
0.0
 10
40.4643486358377
 20
6.627487232436124
 30
0.0
 10
39.81983461717042
 20
6.60640731116346
 30
0.0
 10
39.13457106754474
 20
6.590352611474658
 30
0.0
 10
38.39801386334768
 20
6.581089818429531
 30
0.0
 10
37.59104691547544
 20
6.579660984783141
 30
0.0
 10
36.6748692456032
 20
6.589512814877532
 30
0.0
 10
35.68329002770197
 20
6.614689918382165
 30
0.0
 10
34.86163186219137
 20
6.647790511775002
 30
0.0
 10
34.22940997805805
 20
6.679757139338033
 30
0.0
 10
33.73433714564404
 20
6.708037259060717
 30
0.0
 10
33.1845672739265
 20
6.74350510406099
 30
0.0
 10
32.62725665594405
 20
6.78405050628065
 30
0.0
 10
32.12865217324489
 20
6.824256726483832
 30
0.0
 10
31.71036135297062
 20
6.860633517923981
 30
0.0
 10
31.26476593557166
 20
6.901763243273716
 30
0.0
 10
30.63518741190099
 20
6.963825817224171
 30
0.0
 10
29.89511773336627
 20
7.044268921707407
 30
0.0
 10
29.16152469649309
 20
7.13182661395248
 30
0.0
 10
28.56941537050515
 20
7.207509506059046
 30
0.0
 10
28.03230599905508
 20
7.279530987162818
 30
0.0
 10
27.50156505407212
 20
7.350483054727086
 30
0.0
 10
26.92336532171695
 20
7.437635704578794
 30
0.0
 10
26.58330979590569
 20
7.492066100265471
 30
0.0
 10
26.40036299804508
 20
7.521349160946248
 30
0.0
  0
SPLINE
  5
A1
330
1F
100
AcDbEntity
  8
0
  6
Continuous
 62
     1
370
    15
100
AcDbSpline
210
0.0
220
0.0
230
1.0
 70
     8
 71
     3
 72
    20
 73
    16
 74
     0
 42
0.000000001
 43
0.00000001
 40
0.0
 40
0.0
 40
0.0
 40
0.0
 40
0.0862390602240821
 40
0.1602983452725433
 40
0.2351741756833851
 40
0.3037780228258266
 40
0.3667348989350909
 40
0.4388819828871458
 40
0.5394415943017862
 40
0.6420900033048773
 40
0.704892005486105
 40
0.7664426359285256
 40
0.8529977796857673
 40
0.9507223830899278
 40
1.0
 40
1.0
 40
1.0
 40
1.0
 10
26.40036299804505
 20
-7.52134916094624
 30
0.0
 10
26.58329967900045
 20
-7.492062221301235
 30
0.0
 10
26.92333639983908
 20
-7.437624615522687
 30
0.0
 10
27.51788959354807
 20
-7.34807442975263
 30
0.0
 10
28.07899552259855
 20
-7.273249667719468
 30
0.0
 10
28.6105812585952
 20
-7.202162532195064
 30
0.0
 10
29.12975586853997
 20
-7.136091178809274
 30
0.0
 10
29.7205351379819
 20
-7.064848248895038
 30
0.0
 10
30.4136846875429
 20
-6.987202054007394
 30
0.0
 10
31.08163153416605
 20
-6.919147825984559
 30
0.0
 10
31.65195175680078
 20
-6.86571653603152
 30
0.0
 10
32.18244876534262
 20
-6.819468406645123
 30
0.0
 10
32.80045950466407
 20
-6.770767568030908
 30
0.0
 10
33.38753842078223
 20
-6.729329444606885
 30
0.0
 10
33.75702517145655
 20
-6.707799663924592
 30
0.0
 10
33.88088334525933
 20
-6.700582519296762
 30
0.0
  0
SPLINE
  5
A2
330
1F
100
AcDbEntity
  8
0
  6
Continuous
 62
     1
370
    15
100
AcDbSpline
210
0.0
220
0.0
230
1.0
 70
     8
 71
     3
 72
    33
 73
    29
 74
     0
 42
0.000000001
 43
0.00000001
 40
0.0
 40
0.0
 40
0.0
 40
0.0
 40
0.0572997903605954
 40
0.1053138024739767
 40
0.1458395055342507
 40
0.1772366174376111
 40
0.2010726772058368
 40
0.2374000236201869
 40
0.2874880159373385
 40
0.3319335027232668
 40
0.3671329434154412
 40
0.4054213060068966
 40
0.4440962617876011
 40
0.4793483367135664
 40
0.5144205384528199
 40
0.5526089351723841
 40
0.5965928734596061
 40
0.6426998312619782
 40
0.6792336969345765
 40
0.7131415720742821
 40
0.7532181734357146
 40
0.7946923578919232
 40
0.824068878444514
 40
0.8340621196442363
 40
0.8485971031094919
 40
0.8724420126904113
 40
0.9256305978801171
 40
1.0
 40
1.0
 40
1.0
 40
1.0
 10
98.2849774065334
 20
6.839528280326642
 30
0.0
 10
97.97946790028044
 20
6.8135101783377
 30
0.0
 10
97.41795855455739
 20
6.765690365448902
 30
0.0
 10
96.5592603650198
 20
6.70749793838674
 30
0.0
 10
95.83543051645032
 20
6.670385699680919
 30
0.0
 10
95.25554655603275
 20
6.642963900569776
 30
0.0
 10
94.72833639364556
 20
6.622412184174517
 30
0.0
 10
94.08905885828146
 20
6.602118152893665
 30
0.0
 10
93.32333471322329
 20
6.58632321089964
 30
0.0
 10
92.56657826630415
 20
6.579896795068878
 30
0.0
 10
91.87835577150496
 20
6.581141730583957
 30
0.0
 10
91.22335074740069
 20
6.588535545403253
 30
0.0
 10
90.56793411178492
 20
6.602403113010012
 30
0.0
 10
89.93136776722221
 20
6.621902692126958
 30
0.0
 10
89.29795018778226
 20
6.647042474160774
 30
0.0
 10
88.61362507334799
 20
6.680656001133755
 30
0.0
 10
87.86489919836971
 20
6.725027944701842
 30
0.0
 10
87.12390611646639
 20
6.777295535373354
 30
0.0
 10
86.45485210437597
 20
6.831203786777118
 30
0.0
 10
85.82087865422794
 20
6.887517287405119
 30
0.0
 10
85.14171780823071
 20
6.954213129708861
 30
0.0
 10
84.48701559273779
 20
7.024781336833929
 30
0.0
 10
84.01103317185941
 20
7.079939957884879
 30
0.0
 10
83.70176660697419
 20
7.117087893866404
 30
0.0
 10
83.4215268726043
 20
7.151528578712181
 30
0.0
 10
82.88701867371381
 20
7.219760404219231
 30
0.0
 10
82.0008223565136
 20
7.339982763611964
 30
0.0
 10
81.25132011903307
 20
7.454552504475624
 30
0.0
 10
80.81434212600736
 20
7.521349443724756
 30
0.0
  0
LINE
  5
A3
330
1F
100
AcDbEntity
  8
0
  6
Continuous
 62
   131
370
    15
100
AcDbLine
 10
8.950072375424542
 20
10.00000000000001
 30
0.0
 11
-46.99999999999996
 21
10.0
 31
0.0
  0
LINE
  5
A4
330
1F
100
AcDbEntity
  8
0
  6
Continuous
 62
   131
370
    15
100
AcDbLine
 10
-46.99999999999996
 20
-9.999999999999998
 30
0.0
 11
8.950072375424542
 21
-9.999999999999995
 31
0.0
  0
LINE
  5
A5
330
1F
100
AcDbEntity
  8
0
  6
Continuous
 62
   131
370
    15
100
AcDbLine
 10
-46.99999999999996
 20
9.999999999999998
 30
0.0
 11
-47.99999999999996
 21
8.999999999999998
 31
0.0
  0
LINE
  5
A6
330
1F
100
AcDbEntity
  8
0
  6
Continuous
 62
   131
370
    15
100
AcDbLine
 10
-47.99999999999996
 20
-8.999999999999998
 30
0.0
 11
-46.99999999999996
 21
-9.999999999999998
 31
0.0
  0
SPLINE
  5
A7
330
1F
100
AcDbEntity
  8
0
  6
Continuous
 62
   131
370
    15
100
AcDbSpline
210
0.0
220
0.0
230
1.0
 70
     8
 71
     3
 72
     9
 73
     5
 74
     0
 42
0.000000001
 43
0.00000001
 40
0.0
 40
0.0
 40
0.0
 40
0.0
 40
0.735232030191824
 40
1.0
 40
1.0
 40
1.0
 40
1.0
 10
12.00000000000004
 20
7.818197003217183
 30
0.0
 10
11.5548252904299
 20
7.82476947172978
 30
0.0
 10
10.94933655858834
 20
7.833708783732928
 30
0.0
 10
10.3438583045898
 20
7.857208162534782
 30
0.0
 10
10.18354705651561
 20
7.863430045351905
 30
0.0
  0
SPLINE
  5
A8
330
1F
100
AcDbEntity
  8
0
  6
Continuous
 62
   131
370
    15
100
AcDbSpline
210
0.0
220
0.0
230
1.0
 70
     8
 71
     3
 72
     9
 73
     5
 74
     0
 42
0.000000001
 43
0.00000001
 40
0.0
 40
0.0
 40
0.0
 40
0.0
 40
0.4392303434884786
 40
1.0
 40
1.0
 40
1.0
 40
1.0
 10
8.950100032218625
 20
-7.908683861210775
 30
0.0
 10
9.393323707208717
 20
-7.889919159997447
 30
0.0
 10
10.40241536392327
 20
-7.84719738202488
 30
0.0
 10
11.42600307234114
 20
-7.828616562820255
 30
0.0
 10
12.00000000000004
 20
-7.818197003217175
 30
0.0
  0
SPLINE
  5
A9
330
1F
100
AcDbEntity
  8
0
  6
Continuous
 62
     1
370
    15
100
AcDbSpline
210
0.0
220
0.0
230
1.0
 70
     8
 71
     3
 72
    10
 73
     6
 74
     0
 42
0.000000001
 43
0.00000001
 40
0.0
 40
0.0
 40
0.0
 40
0.0
 40
0.5
 40
0.5
 40
1.0
 40
1.0
 40
1.0
 40
1.0
 10
102.0
 20
-2.672429460296433
 30
0.0
 10
101.1432431594078
 20
-1.998877176673848
 30
0.0
 10
100.2980363641846
 20
-1.303046910902127
 30
0.0
 10
98.63067637845722
 20
0.1330799216817089
 30
0.0
 10
97.80798421885817
 20
0.8737316691697754
 30
0.0
 10
97.0000000000023
 20
1.639931148972228
 30
0.0
  0
LINE
  5
AA
330
1F
100
AcDbEntity
  8
0
  6
Continuous
 62
     1
370
    15
100
AcDbLine
 10
97.00000000000003
 20
2.937719435296606
 30
0.0
 11
102.0
 21
0.0000000000000159
 31
0.0
  0
LINE
  5
AB
330
1F
100
AcDbEntity
  8
0
  6
Continuous
 62
     1
370
    15
100
AcDbLine
 10
102.0
 20
0.0000000000000159
 30
0.0
 11
102.0
 21
-2.672429460296432
 31
0.0
  0
SPLINE
  5
AC
330
1F
100
AcDbEntity
  8
0
  6
Continuous
 62
     1
370
    15
100
AcDbSpline
210
0.0
220
0.0
230
1.0
 70
     8
 71
     3
 72
    28
 73
    24
 74
     0
 42
0.000000001
 43
0.00000001
 40
0.0
 40
0.0
 40
0.0
 40
0.0
 40
0.0242775576047645
 40
0.0730637557684893
 40
0.1218506203934029
 40
0.1706380392674492
 40
0.2194259000451491
 40
0.2682140902746014
 40
0.3170024974245383
 40
0.3657910089114245
 40
0.4145795121265797
 40
0.4633678944633175
 40
0.5121560433440808
 40
0.5609438462475652
 40
0.6097311907358086
 40
0.6585179644812422
 40
0.7073040552936822
 40
0.7560893511472488
 40
0.8048737402072028
 40
0.8536571108566811
 40
0.9024393517233233
 40
0.9512203517057651
 40
0.9999999999999999
 40
0.9999999999999999
 40
0.9999999999999999
 40
0.9999999999999999
 10
33.88013223381835
 20
6.700262177747801
 30
0.0
 10
34.43139176171005
 20
6.941632967967776
 30
0.0
 10
36.09041744158431
 20
7.668042796888069
 30
0.0
 10
38.85723622119463
 20
8.59564665009365
 30
0.0
 10
42.18059855804971
 20
9.442780697156945
 30
0.0
 10
45.50400679545248
 20
9.930380161938475
 30
0.0
 10
48.82745099125349
 20
10.05699674425952
 30
0.0
 10
52.15092215815763
 20
9.81357139964095
 30
0.0
 10
55.47441104386299
 20
9.210217319714886
 30
0.0
 10
58.79790846083997
 20
8.268761486723422
 30
0.0
 10
62.12140520088143
 20
7.023842626614019
 30
0.0
 10
65.44489206092241
 20
5.521130679019739
 30
0.0
 10
68.76835983902104
 20
3.81578693274166
 30
0.0
 10
72.09179933842452
 20
1.970400994340766
 30
0.0
 10
75.41520136912564
 20
0.0527081250481282
 30
0.0
 10
78.73855675135623
 20
-1.866919891527929
 30
0.0
 10
82.06185631382176
 20
-3.717983271188535
 30
0.0
 10
85.38509091100289
 20
-5.432719043652395
 30
0.0
 10
88.7082513694146
 20
-6.947555803630721
 30
0.0
 10
92.03132869891608
 20
-8.209300403656131
 30
0.0
 10
95.35431331483841
 20
-9.162709550131918
 30
0.0
 10
98.677197951613
 20
-9.806184011282616
 30
0.0
 10
100.8924095476796
 20
-9.929760676003902
 30
0.0
 10
102.0
 20
-9.99999999999966
 30
0.0
  0
SPLINE
  5
AD
330
1F
100
AcDbEntity
  8
0
  6
Continuous
 62
     1
370
    15
100
AcDbSpline
210
0.0
220
0.0
230
1.0
 70
     8
 71
     3
 72
    16
 73
    12
 74
     0
 42
0.000000001
 43
0.00000001
 40
0.0
 40
0.0
 40
0.0
 40
0.0
 40
0.0689119167748199
 40
0.1854343292337564
 40
0.3019187333394019
 40
0.4183515463172608
 40
0.5348398865743609
 40
0.6513633569392655
 40
0.7678797428714322
 40
0.8843468831948215
 40
1.0
 40
1.0
 40
1.0
 40
1.0
 10
77.15403840391679
 20
-0.9458540711978249
 30
0.0
 10
76.38948071793997
 20
-0.6401908585791485
 30
0.0
 10
74.33214073532285
 20
0.1823149641596276
 30
0.0
 10
70.98239264434369
 20
1.541339327050961
 30
0.0
 10
67.1055400270353
 20
3.030332890791136
 30
0.0
 10
63.22938300789006
 20
4.370735484632644
 30
0.0
 10
59.35245128985569
 20
5.491483286793598
 30
0.0
 10
55.47449627673909
 20
6.340288316494044
 30
0.0
 10
51.5967788909404
 20
6.866000617369688
 30
0.0
 10
47.72894958055512
 20
7.073649692004992
 30
0.0
 10
45.15382603994759
 20
6.916596915982641
 30
0.0
 10
43.8707796254992
 20
6.838345912495987
 30
0.0
  0
SPLINE
  5
AE
330
1F
100
AcDbEntity
  8
0
  6
Continuous
 62
     1
370
    15
100
AcDbSpline
210
0.0
220
0.0
230
1.0
 70
     8
 71
     3
 72
    18
 73
    14
 74
     0
 42
0.000000001
 43
0.00000001
 40
0.0
 40
0.0
 40
0.0
 40
0.0
 40
0.0927996873568234
 40
0.1855948764723978
 40
0.2783879375420132
 40
0.3711854423906735
 40
0.4639871763254328
 40
0.5567925994804466
 40
0.6483453350830803
 40
0.7398995316751905
 40
0.8314549789759228
 40
0.9230114664034936
 40
1.0
 40
1.0
 40
1.0
 40
1.0
 10
11.99999999999914
 20
5.011457606066537
 30
0.0
 10
13.12283044125895
 20
4.432142639965743
 30
0.0
 10
15.36843689727832
 20
3.273540788661311
 30
0.0
 10
18.7367508616781
 20
1.361527049235167
 30
0.0
 10
22.10501375084098
 20
-0.5882837727672249
 30
0.0
 10
25.47340468825185
 20
-2.519525271947927
 30
0.0
 10
28.84196774653276
 20
-4.354769745731438
 30
0.0
 10
32.19551446081275
 20
-6.018747622577839
 30
0.0
 10
35.53392515462962
 20
-7.450707824096341
 30
0.0
 10
38.85723645869101
 20
-8.60546868104967
 30
0.0
 10
42.18059857199022
 20
-9.434258728062067
 30
0.0
 10
45.32772900072603
 20
-9.927044244300898
 30
0.0
 10
47.3670728235076
 20
-9.960248573004975
 30
0.0
 10
48.29861081532177
 20
-9.975415752435438
 30
0.0
  0
SPLINE
  5
AF
330
1F
100
AcDbEntity
  8
0
  6
Continuous
 62
     1
370
    15
100
AcDbSpline
210
0.0
220
0.0
230
1.0
 70
     8
 71
     3
 72
    12
 73
     8
 74
     0
 42
0.000000001
 43
0.00000001
 40
0.0
 40
0.0
 40
0.0
 40
0.0
 40
0.0325184371689681
 40
0.2743977809653428
 40
0.5162715230345852
 40
0.7581391125101843
 40
1.0
 40
1.0
 40
1.0
 40
1.0
 10
88.26151307719728
 20
6.70292865001373
 30
0.0
 10
88.41043281689524
 20
6.770989407385109
 30
0.0
 10
89.66705059045945
 20
7.345301164634893
 30
0.0
 10
92.03132789142246
 20
8.195068172656747
 30
0.0
 10
95.35431353016205
 20
9.166504670322592
 30
0.0
 10
98.67719789778444
 20
9.805235271962454
 30
0.0
 10
100.8924095297369
 20
9.929444432484908
 30
0.0
 10
102.0
 20
10.00000000000033
 30
0.0
  0
SPLINE
  5
B0
330
1F
100
AcDbEntity
  8
0
  6
Continuous
 62
     1
370
    15
100
AcDbSpline
210
0.0
220
0.0
230
1.0
 70
    24
 71
     3
 72
    10
 73
     6
 74
     0
 42
0.000000001
 43
0.00000001
 40
0.0
 40
0.0
 40
0.0
 40
0.0
 40
0.5
 40
0.5
 40
1.0
 40
1.0
 40
1.0
 40
1.0
 10
102.0
 20
7.000000000000016
 30
0.0
 10
102.0
 20
7.424322568073156
 30
0.0
 10
102.0
 20
7.91742468867119
 30
0.0
 10
102.0
 20
8.951951609608575
 30
0.0
 10
102.0
 20
9.490734358014747
 30
0.0
 10
102.0
 20
10.00000000000033
 30
0.0
  0
LINE
  5
B1
330
1F
100
AcDbEntity
  8
0
  6
Continuous
 62
     1
370
    15
100
AcDbLine
 10
102.0
 20
7.000000000000016
 30
0.0
 11
98.28372166875144
 21
6.832583311857981
 31
0.0
  0
SPLINE
  5
B2
330
1F
100
AcDbEntity
  8
0
  6
Continuous
 62
     1
370
    15
100
AcDbSpline
210
0.0
220
0.0
230
1.0
 70
     8
 71
     3
 72
    11
 73
     7
 74
     0
 42
0.000000001
 43
0.00000001
 40
0.0
 40
0.0
 40
0.0
 40
0.0
 40
0.2004013656655083
 40
0.4669021444640281
 40
0.7334294825378231
 40
1.0
 40
1.0
 40
1.0
 40
1.0
 10
22.7320796749046
 20
-0.9422969288620563
 30
0.0
 10
22.01504976906244
 20
-0.6560146503788381
 30
0.0
 10
20.34448829573726
 20
0.0109758628942376
 30
0.0
 10
17.72104972360614
 20
1.074990153384854
 30
0.0
 10
14.86065087466724
 20
2.206794031490555
 30
0.0
 10
12.95360178004746
 20
2.906284251700836
 30
0.0
 10
12.00000000000004
 20
3.256057690150927
 30
0.0
  0
SPLINE
  5
B3
330
1F
100
AcDbEntity
  8
0
  6
Continuous
 62
   131
370
    15
100
AcDbSpline
210
0.0
220
0.0
230
1.0
 70
    24
 71
     3
 72
    10
 73
     6
 74
     0
 42
0.000000001
 43
0.00000001
 40
0.0
 40
0.0
 40
0.0
 40
0.0
 40
0.5
 40
0.5
 40
1.0
 40
1.0
 40
1.0
 40
1.0
 10
12.00000000000004
 20
5.011457606066086
 30
0.0
 10
12.00000000000004
 20
4.891941291647952
 30
0.0
 10
12.00000000000004
 20
4.66823317831589
 30
0.0
 10
12.00000000000004
 20
4.056282059148022
 30
0.0
 10
12.00000000000004
 20
3.670298196269829
 30
0.0
 10
12.00000000000004
 20
3.256057690150928
 30
0.0
  0
SPLINE
  5
B4
330
1F
100
AcDbEntity
  8
0
  6
Continuous
 62
     1
370
    15
100
AcDbSpline
210
0.0
220
0.0
230
1.0
 70
     8
 71
     3
 72
    23
 73
    19
 74
     0
 42
0.000000001
 43
0.00000001
 40
0.0
 40
0.0
 40
0.0
 40
0.0
 40
0.0472895526520735
 40
0.1104619881366435
 40
0.173634434373142
 40
0.2368067455629159
 40
0.2999787759398557
 40
0.3631503798055132
 40
0.4263214115641829
 40
0.4894917257579323
 40
0.5526611771015592
 40
0.6158296205174593
 40
0.6798626105902088
 40
0.7438930550354532
 40
0.8079205812994054
 40
0.8719450409861533
 40
0.9359709684851888
 40
1.0
 40
1.0
 40
1.0
 40
1.0
 10
64.60933827833513
 20
-7.860359419788034
 30
0.0
 10
63.78003903171414
 20
-8.150093832005538
 30
0.0
 10
61.84290834629711
 20
-8.826874165298541
 30
0.0
 10
58.79794372033642
 20
-9.52426993453799
 30
0.0
 10
55.47444908839658
 20
-9.97229355165837
 30
0.0
 10
52.15096289753383
 20
-10.0445613620274
 30
0.0
 10
48.82749443746575
 20
-9.75078760797321
 30
0.0
 10
45.50405296767628
 20
-9.098444046147934
 30
0.0
 10
42.1806473408924
 20
-8.112363450160801
 30
0.0
 10
38.85728802670027
 20
-6.828506890739544
 30
0.0
 10
35.53397937996884
 20
-5.294048712845346
 30
0.0
 10
32.19556731392606
 20
-3.557446445138838
 30
0.0
 10
28.84201513414468
 20
-1.679873450633766
 30
0.0
 10
25.47344256255958
 20
0.2691468060299863
 30
0.0
 10
22.10504212804673
 20
2.209381066605411
 30
0.0
 10
18.73676976944981
 20
4.061110439811645
 30
0.0
 10
15.36844635419036
 20
5.779184875881874
 30
0.0
 10
13.12283359573242
 20
6.730724892467594
 30
0.0
 10
11.99999999999625
 20
7.2065064332901
 30
0.0
  0
LINE
  5
B5
330
1F
100
AcDbEntity
  8
0
  6
Continuous
 62
   131
370
    15
100
AcDbLine
 10
12.00000000000004
 20
5.011457606066089
 30
0.0
 11
12.00000000000004
 21
7.206506433282005
 31
0.0
  0
SPLINE
  5
B6
330
1F
100
AcDbEntity
  8
0
  6
Continuous
 62
     1
370
    15
100
AcDbSpline
210
0.0
220
0.0
230
1.0
 70
     8
 71
     3
 72
    22
 73
    18
 74
     0
 42
0.000000001
 43
0.00000001
 40
0.0
 40
0.0
 40
0.0
 40
0.0
 40
0.0680127315561092
 40
0.1360273476722857
 40
0.2040436938663179
 40
0.2720616152414262
 40
0.3400809565230161
 40
0.4081015620956144
 40
0.4761232760399889
 40
0.5441459421704226
 40
0.6121694040721218
 40
0.6801935051387539
 40
0.7482180886100706
 40
0.8162429976096223
 40
0.8842680751825254
 40
0.9522931643332752
 40
1.0
 40
1.0
 40
1.0
 40
1.0
 10
102.0
 20
-9.489408692318989
 30
0.0
 10
100.8924104482113
 20
-9.253952648488356
 30
0.0
 10
98.67720065451178
 20
-8.783034036591884
 30
0.0
 10
95.35431872409312
 20
-7.661036249147903
 30
0.0
 10
92.03133681855283
 20
-6.282884183083802
 30
0.0
 10
88.7082622029348
 20
-4.667444988562674
 30
0.0
 10
85.38510446128315
 20
-2.882495147426339
 30
0.0
 10
82.06187258312593
 20
-0.9912619424804442
 30
0.0
 10
78.73857574137793
 20
0.9362296799158327
 30
0.0
 10
75.41522308079676
 20
2.829424731354326
 30
0.0
 10
72.09182377263329
 20
4.618707078713457
 30
0.0
 10
68.76838699392495
 20
6.238742101856443
 30
0.0
 10
65.44492194197541
 20
7.628848280742951
 30
0.0
 10
62.12143778340872
 20
8.742545880413282
 30
0.0
 10
58.79794382971293
 20
9.522006563571109
 30
0.0
 10
55.80534238268081
 20
9.95410557316895
 30
0.0
 10
53.92057452248376
 20
9.959331213774782
 30
0.0
 10
53.14363842020986
 20
9.96148531929086
 30
0.0
  0
LINE
  5
B7
330
1F
100
AcDbEntity
  8
0
  6
Continuous
 62
     1
370
    15
100
AcDbLine
 10
102.0
 20
-9.99999999999966
 30
0.0
 11
102.0
 21
-9.489408692319005
 31
0.0
  0
SPLINE
  5
B8
330
1F
100
AcDbEntity
  8
0
  6
Continuous
 62
     1
370
    15
100
AcDbSpline
210
0.0
220
0.0
230
1.0
 70
     8
 71
     3
 72
    20
 73
    16
 74
     0
 42
0.000000001
 43
0.00000001
 40
0.0
 40
0.0
 40
0.0
 40
0.0
 40
0.0630366261246488
 40
0.1435561323871395
 40
0.2240775036420506
 40
0.3046037797752819
 40
0.3851379939110347
 40
0.4656831682423321
 40
0.5462419351431111
 40
0.626796552453637
 40
0.7073381067677043
 40
0.7878696101834705
 40
0.8683940886251561
 40
0.9489145776945485
 40
1.0
 40
1.0
 40
1.0
 40
1.0
 10
57.75043235613406
 20
-8.30089491324705
 30
0.0
 10
56.99177007273759
 20
-8.371099354910442
 30
0.0
 10
55.26403447062852
 20
-8.530979074704872
 30
0.0
 10
52.56721473707618
 20
-8.498015830580231
 30
0.0
 10
49.65989115805943
 20
-8.250809869039633
 30
0.0
 10
46.75236539460256
 20
-7.764303400141677
 30
0.0
 10
43.84450813216763
 20
-7.061416283290954
 30
0.0
 10
40.93620955007984
 20
-6.159371397316311
 30
0.0
 10
38.0275588928788
 20
-5.084337872981552
 30
0.0
 10
35.11899114256273
 20
-3.866191966190728
 30
0.0
 10
32.21083405005612
 20
-2.539532324665368
 30
0.0
 10
29.30309031463405
 20
-1.140751358631366
 30
0.0
 10
26.39563853055095
 20
0.2871549288377725
 30
0.0
 10
23.84259914138801
 20
1.543474705181226
 30
0.0
 10
22.2586920705459
 20
2.283394249340803
 30
0.0
 10
21.6438673961732
 20
2.570608569659506
 30
0.0
  0
SPLINE
  5
B9
330
1F
100
AcDbEntity
  8
0
  6
Continuous
 62
     1
370
    15
100
AcDbSpline
210
0.0
220
0.0
230
1.0
 70
     8
 71
     3
 72
    16
 73
    12
 74
     0
 42
0.000000001
 43
0.00000001
 40
0.0
 40
0.0
 40
0.0
 40
0.0
 40
0.1118974071120045
 40
0.2237760407144034
 40
0.3356400813693292
 40
0.4474937297077763
 40
0.5593412006744941
 40
0.6711867177311558
 40
0.7830345070346864
 40
0.8948887916077026
 40
1.0
 40
1.0
 40
1.0
 40
1.0
 10
102.0
 20
-7.889722643682147
 30
0.0
 10
101.0304079166567
 20
-7.691273575227082
 30
0.0
 10
99.09138642260713
 20
-7.294408732971311
 30
0.0
 10
96.18315808892574
 20
-6.434486929104664
 30
0.0
 10
93.27535891327285
 20
-5.409609350579678
 30
0.0
 10
90.3678716230151
 20
-4.22836470513185
 30
0.0
 10
87.4605681600103
 20
-2.929516847523358
 30
0.0
 10
84.55332347019795
 20
-1.54757974246846
 30
0.0
 10
81.64600968492665
 20
-0.1237928798383035
 30
0.0
 10
78.79702450492431
 20
1.280618923597856
 30
0.0
 10
76.91710173471891
 20
2.170275373385242
 30
0.0
 10
76.00635343387239
 20
2.601278770345253
 30
0.0
  0
LINE
  5
BA
330
1F
100
AcDbEntity
  8
0
  6
Continuous
 62
     1
370
    15
100
AcDbLine
 10
102.0
 20
-9.489408692318996
 30
0.0
 11
102.0
 21
-7.889722643682147
 31
0.0
  0
SPLINE
  5
BB
330
1F
100
AcDbEntity
  8
0
  6
Continuous
 62
     1
370
    15
100
AcDbSpline
210
0.0
220
0.0
230
1.0
 70
     8
 71
     3
 72
    24
 73
    20
 74
     0
 42
0.000000001
 43
0.00000001
 40
0.0
 40
0.0
 40
0.0
 40
0.0
 40
0.0336016641729428
 40
0.0956838648317243
 40
0.1577682441954386
 40
0.2198328995940203
 40
0.2818707818637285
 40
0.3439374795696669
 40
0.4060224078343891
 40
0.4681036598677447
 40
0.5301593564679706
 40
0.5922008900747974
 40
0.6542745960739195
 40
0.7163606884044139
 40
0.7784372515376031
 40
0.8404826820144692
 40
0.902533439826789
 40
0.9646125965907861
 40
1.0
 40
1.0
 40
1.0
 40
1.0
 10
80.83753240509319
 20
-7.47105715602669
 30
0.0
 10
80.1378873448218
 20
-7.589072810201203
 30
0.0
 10
78.14558294487794
 20
-7.925133364938676
 30
0.0
 10
74.86031206860928
 20
-8.055569666571609
 30
0.0
 10
70.98238482918536
 20
-7.875790589573831
 30
0.0
 10
67.10551381056409
 20
-7.284859762201267
 30
0.0
 10
63.22941763799439
 20
-6.334947964672668
 30
0.0
 10
59.35247007791946
 20
-5.068002225043032
 30
0.0
 10
55.47449746777222
 20
-3.54847086679668
 30
0.0
 10
51.59676526671851
 20
-1.851860568722783
 30
0.0
 10
47.720195915462
 20
-0.0627487407081235
 30
0.0
 10
43.84400532002359
 20
1.729912968113539
 30
0.0
 10
39.96674003030675
 20
3.435559103063877
 30
0.0
 10
36.08869172193232
 20
4.970205079353058
 30
0.0
 10
32.21127303957494
 20
6.255971024505254
 30
0.0
 10
28.33495372316147
 20
7.232736210103389
 30
0.0
 10
24.45863245123854
 20
7.837848572655966
 30
0.0
 10
21.13663595829135
 20
8.054977177504602
 30
0.0
 10
19.10763937290407
 20
7.961228751374277
 30
0.0
 10
18.37096701517011
 20
7.927191299261907
 30
0.0
  0
SPLINE
  5
BC
330
1F
100
AcDbEntity
  8
0
  6
Continuous
 62
   131
370
    15
100
AcDbSpline
210
0.0
220
0.0
230
1.0
 70
    24
 71
     3
 72
    10
 73
     6
 74
     0
 42
0.000000001
 43
0.00000001
 40
0.0
 40
0.0
 40
0.0
 40
0.0
 40
0.0881526198993309
 40
0.6629009623240549
 40
1.0
 40
1.0
 40
1.0
 40
1.0
 10
12.00000000000004
 20
7.798012316908514
 30
0.0
 10
12.00000000000004
 20
7.804436409947032
 30
0.0
 10
12.00000000000004
 20
7.852745098471039
 30
0.0
 10
12.00000000000003
 20
7.700644376932394
 30
0.0
 10
12.00000000000004
 20
7.415964252076142
 30
0.0
 10
12.00000000000004
 20
7.310721425010152
 30
0.0
  0
SPLINE
  5
BD
330
1F
100
AcDbEntity
  8
0
  6
Continuous
 62
     1
370
    15
100
AcDbSpline
210
0.0
220
0.0
230
1.0
 70
     8
 71
     3
 72
    14
 73
    10
 74
     0
 42
0.000000001
 43
0.00000001
 40
0.0
 40
0.0
 40
0.0
 40
0.0
 40
0.1369170499458854
 40
0.2738333413166787
 40
0.4339132008148615
 40
0.593910494930315
 40
0.7539544404880094
 40
0.9140604481978778
 40
0.9999999999999999
 40
0.9999999999999999
 40
0.9999999999999999
 40
0.9999999999999999
 10
97.00000000000001
 20
2.277336188987601
 30
0.0
 10
95.89462331444307
 20
2.758654404453877
 30
0.0
 10
93.6838760675571
 20
3.721288168691447
 30
0.0
 10
90.18092622733369
 20
5.079917327930186
 30
0.0
 10
86.49086873703229
 20
6.295217983127637
 30
0.0
 10
82.61476958149068
 20
7.261725272367795
 30
0.0
 10
78.7381135090638
 20
7.84667198847822
 30
0.0
 10
75.45920397352327
 20
8.071468039254306
 30
0.0
 10
73.4725601061309
 20
7.9417851925504
 30
0.0
 10
72.77865900955041
 20
7.896489167926905
 30
0.0
  0
SPLINE
  5
BE
330
1F
100
AcDbEntity
  8
0
  6
Continuous
 62
     1
370
    15
100
AcDbSpline
210
0.0
220
0.0
230
1.0
 70
     8
 71
     3
 72
    12
 73
     8
 74
     0
 42
0.000000001
 43
0.00000001
 40
0.0
 40
0.0
 40
0.0
 40
0.0
 40
0.1355532415181732
 40
0.4045822331960403
 40
0.6030315425363403
 40
0.8015001136084879
 40
1.0
 40
1.0
 40
1.0
 40
1.0
 10
26.4129381936262
 20
-7.472480754987139
 30
0.0
 10
25.76166910221482
 20
-7.584117183770473
 30
0.0
 10
23.81784318950552
 20
-7.917315528253712
 30
0.0
 10
20.91994387365519
 20
-8.039123735513174
 30
0.0
 10
17.72106336946906
 20
-7.941698962621017
 30
0.0
 10
14.86065925431416
 20
-7.639999554753962
 30
0.0
 10
12.95360323155031
 20
-7.267909905439442
 30
0.0
 10
12.00000000000004
 20
-7.081850404419385
 30
0.0
  0
SPLINE
  5
BF
330
1F
100
AcDbEntity
  8
0
  6
Continuous
 62
     1
370
    15
100
AcDbSpline
210
0.0
220
0.0
230
1.0
 70
    24
 71
     3
 72
     8
 73
     4
 74
     0
 42
0.000000001
 43
0.00000001
 40
0.0
 40
0.0
 40
0.0
 40
0.0
 40
1.0
 40
1.0
 40
1.0
 40
1.0
 10
97.00000000000003
 20
1.639931148963764
 30
0.0
 10
97.00000000000003
 20
1.854493127011678
 30
0.0
 10
97.00000000000003
 20
2.067125113709725
 30
0.0
 10
97.00000000000003
 20
2.277336188987592
 30
0.0
  0
SPLINE
  5
C0
330
1F
100
AcDbEntity
  8
0
  6
Continuous
 62
     1
370
    15
100
AcDbSpline
210
0.0
220
0.0
230
1.0
 70
    24
 71
     3
 72
    10
 73
     6
 74
     0
 42
0.000000001
 43
0.00000001
 40
0.0
 40
0.0
 40
0.0
 40
0.0
 40
0.5
 40
0.5
 40
1.0
 40
1.0
 40
1.0
 40
1.0
 10
102.0
 20
-7.889722643682143
 30
0.0
 10
102.0
 20
-7.284913890038032
 30
0.0
 10
102.0000000000001
 20
-6.520714839064669
 30
0.0
 10
102.0
 20
-4.744025591506783
 30
0.0
 10
102.0
 20
-3.733074430513082
 30
0.0
 10
102.0
 20
-2.672429460296752
 30
0.0
  0
SPLINE
  5
C1
330
1F
100
AcDbEntity
  8
0
  6
Continuous
 62
   131
370
    15
100
AcDbSpline
210
0.0
220
0.0
230
1.0
 70
    24
 71
     3
 72
    10
 73
     6
 74
     0
 42
0.000000001
 43
0.00000001
 40
0.0
 40
0.0
 40
0.0
 40
0.0
 40
0.3073714768418501
 40
0.6187405904818243
 40
1.0
 40
1.0
 40
1.0
 40
1.0
 10
12.00000000000004
 20
-7.081850404419387
 30
0.0
 10
12.00000000000004
 20
-7.217145519486848
 30
0.0
 10
12.00000000000004
 20
-7.489495381765119
 30
0.0
 10
12.00000000000004
 20
-7.76160649425614
 30
0.0
 10
12.00000000000004
 20
-7.785087260182264
 30
0.0
 10
12.00000000000004
 20
-7.798012316908504
 30
0.0
  0
SPLINE
  5
C2
330
1F
100
AcDbEntity
  8
0
  6
Continuous
 62
     1
370
    15
100
AcDbSpline
210
0.0
220
0.0
230
1.0
 70
    24
 71
     3
 72
    10
 73
     6
 74
     0
 42
0.000000001
 43
0.00000001
 40
0.0
 40
0.0
 40
0.0
 40
0.0
 40
0.4999999999999999
 40
0.4999999999999999
 40
1.0
 40
1.0
 40
1.0
 40
1.0
 10
97.00000000000003
 20
2.277336188987582
 30
0.0
 10
97.00000000000001
 20
2.878840455911244
 30
0.0
 10
97.00000000000003
 20
3.450743803947677
 30
0.0
 10
96.99999999999999
 20
4.486413301752649
 30
0.0
 10
97.00000000000003
 20
4.949784524560216
 30
0.0
 10
97.00000000000004
 20
5.338750903172985
 30
0.0
  0
SPLINE
  5
C3
330
1F
100
AcDbEntity
  8
0
  6
Continuous
 62
     1
370
    15
100
AcDbSpline
210
0.0
220
0.0
230
1.0
 70
     8
 71
     3
 72
    10
 73
     6
 74
     0
 42
0.000000001
 43
0.00000001
 40
0.0
 40
0.0
 40
0.0
 40
0.0
 40
0.5
 40
0.5
 40
1.0
 40
1.0
 40
1.0
 40
1.0
 10
102.0
 20
7.000000000000016
 30
0.0
 10
101.15771059585
 20
6.771619550379109
 30
0.0
 10
100.3192522174754
 20
6.519974797585372
 30
0.0
 10
98.65165776358471
 20
5.967893441178426
 30
0.0
 10
97.82249864322523
 20
5.667920129140795
 30
0.0
 10
96.99999999999999
 20
5.338750903173018
 30
0.0
  0
SPLINE
  5
C4
330
1F
100
AcDbEntity
  8
0
  6
Continuous
 62
   131
370
    15
100
AcDbSpline
210
0.0
220
0.0
230
1.0
 70
    24
 71
     3
 72
    14
 73
    10
 74
     0
 42
0.000000001
 43
0.00000001
 40
0.0
 40
0.0
 40
0.0
 40
0.0
 40
0.25
 40
0.25
 40
0.4999999999999999
 40
0.4999999999999999
 40
0.75
 40
0.75
 40
1.0
 40
1.0
 40
1.0
 40
1.0
 10
12.0
 20
3.25605769015094
 30
0.0
 10
12.0
 20
2.402132898517708
 30
0.0
 10
12.0
 20
1.491900958994375
 30
0.0
 10
12.0
 20
-0.3661274083865375
 30
0.0
 10
12.0
 20
-1.313093622932704
 30
0.0
 10
12.0
 20
-3.150437944704181
 30
0.0
 10
12.0
 20
-4.039837038058755
 30
0.0
 10
12.0
 20
-5.678516073390854
 30
0.0
 10
12.0
 20
-6.427273890029367
 30
0.0
 10
12.0
 20
-7.081850404419378
 30
0.0
  0
LINE
  5
C5
330
1F
100
AcDbEntity
  8
0
  6
Continuous
 62
     1
370
    15
100
AcDbLine
 10
102.0
 20
0.0000000000000159
 30
0.0
 11
102.0
 21
7.000000000000015
 31
0.0
  0
LINE
  5
C6
330
1F
100
AcDbEntity
  8
0
  6
Continuous
 62
   131
370
    15
100
AcDbLine
 10
10.19143068058489
 20
-7.860578917928906
 30
0.0
 11
8.95014808120835
 21
-8.309491096853582
 31
0.0
  0
LINE
  5
C7
330
1F
100
AcDbEntity
  8
0
  6
Continuous
 62
   131
370
    15
100
AcDbLine
 10
8.950072375424538
 20
8.309729524509056
 30
0.0
 11
8.950072375424542
 21
10.00000000000001
 31
0.0
  0
SPLINE
  5
C8
330
1F
100
AcDbEntity
  8
0
  6
Continuous
 62
   131
370
    15
100
AcDbSpline
210
0.0
220
0.0
230
1.0
 70
     8
 71
     3
 72
    10
 73
     6
 74
     0
 42
0.000000001
 43
0.00000001
 40
0.0
 40
0.0
 40
0.0
 40
0.0
 40
0.4999999999999999
 40
0.4999999999999999
 40
1.0
 40
1.0
 40
1.0
 40
1.0
 10
11.99999999999914
 20
7.20650643328894
 30
0.0
 10
11.49255885377694
 20
7.409840488279506
 30
0.0
 10
10.98274705787702
 20
7.604174537585884
 30
0.0
 10
9.964295311581186
 20
7.972519107113195
 30
0.0
 10
9.457090769879505
 20
8.146375810363951
 30
0.0
 10
8.95014808120835
 20
8.309491096853593
 30
0.0
  0
SPLINE
  5
C9
330
1F
100
AcDbEntity
  8
0
  6
Continuous
 62
   131
370
    15
100
AcDbSpline
210
0.0
220
0.0
230
1.0
 70
     8
 71
     3
 72
    10
 73
     6
 74
     0
 42
0.000000001
 43
0.00000001
 40
0.0
 40
0.0
 40
0.0
 40
0.0
 40
0.5
 40
0.5
 40
1.0
 40
1.0
 40
1.0
 40
1.0
 10
11.99999999999914
 20
5.011457606066533
 30
0.0
 10
11.49254622374316
 20
5.265261925108792
 30
0.0
 10
10.98272167970269
 20
5.512982045622042
 30
0.0
 10
9.964244643027639
 20
5.993329741046529
 30
0.0
 10
9.457027946234119
 20
6.225744944197721
 30
0.0
 10
8.950072375424531
 20
6.4498053631611
 30
0.0
  0
LINE
  5
CA
330
1F
100
AcDbEntity
  8
0
  6
Continuous
 62
   131
370
    15
100
AcDbLine
 10
8.950072375424542
 20
-9.999999999999995
 30
0.0
 11
8.950072375424531
 21
6.449805959808963
 31
0.0
  0
LINE
  5
CB
330
1F
100
AcDbEntity
  8
0
  6
Continuous
 62
   131
370
    15
100
AcDbLine
 10
-46.99999999999996
 20
9.999999999999998
 30
0.0
 11
-46.99999999999996
 21
-9.999999999999998
 31
0.0
  0
LINE
  5
CC
330
1F
100
AcDbEntity
  8
0
  6
Continuous
 62
   131
370
    15
100
AcDbLine
 10
-47.99999999999996
 20
8.999999999999998
 30
0.0
 11
-47.99999999999996
 21
-9.000000000000002
 31
0.0
  0
SPLINE
  5
CD
330
1F
100
AcDbEntity
  8
0
  6
Continuous
 62
   131
370
    15
100
AcDbSpline
210
0.0
220
0.0
230
1.0
 70
    24
 71
     3
 72
    10
 73
     6
 74
     0
 42
0.000000001
 43
0.00000001
 40
0.0
 40
0.0
 40
0.0
 40
0.0
 40
0.5
 40
0.5
 40
1.0
 40
1.0
 40
1.0
 40
1.0
 10
12.00000000000004
 20
5.011457606066089
 30
0.0
 10
12.00000000000004
 20
4.891941291647952
 30
0.0
 10
12.00000000000004
 20
4.66823317831589
 30
0.0
 10
12.00000000000004
 20
4.05628205914802
 30
0.0
 10
12.00000000000004
 20
3.670298196269828
 30
0.0
 10
12.00000000000004
 20
3.256057690150928
 30
0.0
  0
SPLINE
  5
CE
330
1F
100
AcDbEntity
  8
0
  6
Continuous
 62
   131
370
    15
100
AcDbSpline
210
0.0
220
0.0
230
1.0
 70
     8
 71
     3
 72
    10
 73
     6
 74
     0
 42
0.000000001
 43
0.00000001
 40
0.0
 40
0.0
 40
0.0
 40
0.0
 40
0.5000000000000001
 40
0.5000000000000001
 40
1.0
 40
1.0
 40
1.0
 40
1.0
 10
11.99999999999775
 20
3.256057690151744
 30
0.0
 10
11.49254926814175
 20
3.437798700752597
 30
0.0
 10
10.98272779697051
 20
3.615612902559713
 30
0.0
 10
9.964256856400944
 20
3.96129184192207
 30
0.0
 10
9.45704308952969
 20
4.129002818759654
 30
0.0
 10
8.950090623888403
 20
4.2911530007893
 30
0.0
  0
SPLINE
  5
CF
330
1F
100
AcDbEntity
  8
0
  6
Continuous
 62
   131
370
    15
100
AcDbSpline
210
0.0
220
0.0
230
1.0
 70
     8
 71
     3
 72
    10
 73
     6
 74
     0
 42
0.000000001
 43
0.00000001
 40
0.0
 40
0.0
 40
0.0
 40
0.0
 40
0.5
 40
0.5
 40
1.0
 40
1.0
 40
1.0
 40
1.0
 10
11.99999999999832
 20
-7.081850404419018
 30
0.0
 10
11.4925508377385
 20
-6.972711187898692
 30
0.0
 10
10.98273095084123
 20
-6.854246936254255
 30
0.0
 10
9.964263153230759
 20
-6.599980863338669
 30
0.0
 10
9.457050896933485
 20
-6.464317493604179
 30
0.0
 10
8.950100032218625
 20
-6.320530254209714
 30
0.0
  0
SPLINE
  5
D0
330
1F
100
AcDbEntity
  8
0
  6
Continuous
 62
   131
370
    15
100
AcDbSpline
210
0.0
220
0.0
230
1.0
 70
    24
 71
     3
 72
    14
 73
    10
 74
     0
 42
0.000000001
 43
0.00000001
 40
0.0
 40
0.0
 40
0.0
 40
0.0
 40
0.25
 40
0.25
 40
0.4999999999999999
 40
0.4999999999999999
 40
0.75
 40
0.75
 40
1.0
 40
1.0
 40
1.0
 40
1.0
 10
12.0
 20
3.25605769015094
 30
0.0
 10
12.0
 20
2.402132898517708
 30
0.0
 10
12.0
 20
1.491900958994375
 30
0.0
 10
12.0
 20
-0.3661274083865375
 30
0.0
 10
12.0
 20
-1.313093622932704
 30
0.0
 10
12.0
 20
-3.150437944704181
 30
0.0
 10
12.0
 20
-4.039837038058755
 30
0.0
 10
12.0
 20
-5.678516073390854
 30
0.0
 10
12.0
 20
-6.427273890029367
 30
0.0
 10
12.0
 20
-7.081850404419378
 30
0.0
  0
SPLINE
  5
D1
330
1F
100
AcDbEntity
  8
0
  6
Continuous
 62
   131
370
    15
100
AcDbSpline
210
0.0
220
0.0
230
1.0
 70
    24
 71
     3
 72
    10
 73
     6
 74
     0
 42
0.000000001
 43
0.00000001
 40
0.0
 40
0.0
 40
0.0
 40
0.0
 40
0.0839911163955088
 40
0.6613552879854111
 40
1.0
 40
1.0
 40
1.0
 40
1.0
 10
12.00000000000004
 20
7.798869430014341
 30
0.0
 10
12.00000000000004
 20
7.804925891217987
 30
0.0
 10
12.00000000000004
 20
7.85261513283549
 30
0.0
 10
12.00000000000004
 20
7.700521889387775
 30
0.0
 10
12.00000000000004
 20
7.415925527859229
 30
0.0
 10
12.00000000000004
 20
7.31071142501015
 30
0.0
  0
SPLINE
  5
D2
330
1F
100
AcDbEntity
  8
0
  6
Continuous
 62
   131
370
    15
100
AcDbSpline
210
0.0
220
0.0
230
1.0
 70
    24
 71
     3
 72
    10
 73
     6
 74
     0
 42
0.000000001
 43
0.00000001
 40
0.0
 40
0.0
 40
0.0
 40
0.0
 40
0.3062001574469549
 40
0.6163827176515707
 40
1.0
 40
1.0
 40
1.0
 40
1.0
 10
12.00000000000004
 20
-7.081850404419387
 30
0.0
 10
12.00000000000004
 20
-7.217161380151679
 30
0.0
 10
12.00000000000004
 20
-7.48954317004153
 30
0.0
 10
12.00000000000004
 20
-7.762434186944452
 30
0.0
 10
12.00000000000004
 20
-7.785918152479343
 30
0.0
 10
12.00000000000004
 20
-7.798902956575158
 30
0.0
  0
LINE
  5
D3
330
1F
100
AcDbEntity
  8
중심선
100
AcDbLine
 10
-50.99999999999996
 20
0.0000000000000005
 30
0.0
 11
109.0
 21
0.0000000000000166
 31
0.0
  0
CIRCLE
  5
D4
330
1F
100
AcDbEntity
  8
외형선
100
AcDbCircle
 10
0.0000000000000104
 20
0.0
 30
0.0
 40
3.000000000000005
  0
INSERT
  5
D5
330
1F
100
AcDbEntity
  8
0
  6
Continuous
 62
     7
100
AcDbBlockReference
 66
     1
  2
블럭10
 10
-22.93944368806589
 20
-52.04609937292004
 30
0.0
  0
ATTRIB
  5
D6
330
D5
100
AcDbEntity
  8
FORMAT
 62
     2
100
AcDbText
 10
-39.05870472750145
 20
-49.97073246008785
 30
0.0
 40
4.233333333333333
  1
SEME7020090E [ 2 FLUTE ]
 41
0.75
  7
SLDTEXTSTYLE0
 11
-39.05870472750145
 21
-52.08739912675452
 31
0.0
100
AcDbAttribute
  2
AUTOATTR0
 70
     0
 74
     1
  0
SEQEND
  5
D7
330
D5
100
AcDbEntity
  8
0
  6
Continuous
 62
     7
  0
HATCH
  5
D8
330
1F
100
AcDbEntity
  8
중심선
100
AcDbHatch
 10
0.0
 20
0.0
 30
0.0
210
0.0
220
0.0
230
1.0
  2
SOLID
 70
     1
 71
     0
 91
        1
 92
        0
 93
        4
 72
     1
 10
-17.22453438368504
 20
-35.7989250712761
 11
-20.67080962752232
 21
-35.7989250712761
 72
     1
 10
-20.67080962752232
 20
-35.7989250712761
 11
-22.79903948672635
 21
-38.3352506518487
 72
     1
 10
-22.79903948672635
 20
-38.3352506518487
 11
-19.35273115777591
 21
-38.33521122254621
 72
     1
 10
-19.35273115777591
 20
-38.33521122254621
 11
-17.22453438368504
 21
-35.7989250712761
 97
        0
 75
     0
 76
     1
 98
        1
 10
0.0
 20
0.0
  0
HATCH
  5
D9
330
1F
100
AcDbEntity
  8
중심선
100
AcDbHatch
 10
0.0
 20
0.0
 30
0.0
210
0.0
220
0.0
230
1.0
  2
SOLID
 70
     1
 71
     0
 91
        1
 92
        0
 93
        4
 72
     1
 10
-12.21177039264909
 20
-35.7989250712761
 11
-15.65804563648637
 21
-35.7989250712761
 72
     1
 10
-15.65804563648637
 20
-35.7989250712761
 11
-20.18918364484376
 21
-41.19892507127612
 72
     1
 10
-20.18918364484376
 20
-41.19892507127612
 11
-16.74290840100648
 21
-41.19892507127612
 72
     1
 10
-16.74290840100648
 20
-41.19892507127612
 11
-12.21177039264909
 21
-35.7989250712761
 97
        0
 75
     0
 76
     1
 98
        1
 10
0.0
 20
0.0
  0
HATCH
  5
DA
330
1F
100
AcDbEntity
  8
중심선
100
AcDbHatch
 10
0.0
 20
0.0
 30
0.0
210
0.0
220
0.0
230
1.0
  2
SOLID
 70
     1
 71
     0
 91
        1
 92
        0
 93
        4
 72
     1
 10
-7.199006401613195
 20
-35.79892507127613
 11
-10.64528164545031
 21
-35.7989250712761
 72
     1
 10
-10.64528164545031
 20
-35.7989250712761
 11
-17.69371854733956
 21
-44.19892507127612
 72
     1
 10
-17.69371854733956
 20
-44.19892507127612
 11
-14.24744330350228
 21
-44.19892507127612
 72
     1
 10
-14.24744330350228
 20
-44.19892507127612
 11
-7.199006401613195
 21
-35.79892507127613
 97
        0
 75
     0
 76
     1
 98
        1
 10
0.0
 20
0.0
  0
HATCH
  5
DB
330
1F
100
AcDbEntity
  8
중심선
100
AcDbHatch
 10
0.0
 20
0.0
 30
0.0
210
0.0
220
0.0
230
1.0
  2
SOLID
 70
     1
 71
     0
 91
        1
 92
        0
 93
        6
 72
     3
 10
-2.399115970600996
 20
-39.99892507132738
 11
3.960054785062284
 21
1.540850780301639E-10
 40
0.3939339440162633
 50
17.09539180608433
 51
320.0019657685079
 73
     0
 72
     1
 10
-0.7161163149004002
 20
-38.58681907591441
 11
1.589185558800638
 21
-36.65249236586649
 72
     3
 10
-2.399115970653842
 20
-39.99892507127625
 11
6.600054785286829
 21
-1.249000902703301E-13
 40
0.6363583540795982
 50
39.99873849337408
 51
368.4976242363725
 73
     1
 72
     1
 10
4.026216521246767
 20
-39.03892507120613
 11
-3.71904866381792
 21
-39.0389250712061
 72
     1
 10
-3.71904866381792
 20
-39.0389250712061
 11
-3.719073708263854
 21
-40.95892507120602
 72
     1
 10
-3.719073708263854
 20
-40.95892507120602
 11
0.7223060612081831
 21
-40.95892507120599
 97
        0
 75
     0
 76
     1
 98
        1
 10
0.0
 20
0.0
  0
DIMENSION
  5
DC
330
1F
100
AcDbEntity
  8
치수문자_일반주서
100
AcDbDimension
  2
_D
 10
118.0296466974323
 20
10.00000000000039
 30
0.0
 11
118.0296466974323
 21
20.76025000000039
 31
0.0
 70
   160
  1
%%c<>
 71
     2
 42
19.99999999999999
 52
-270.0
  3
SLDDIMSTYLE0
100
AcDbAlignedDimension
 13
102.0
 23
-9.99999999999966
 33
0.0
 14
102.0
 24
10.00000000000033
 34
0.0
 50
90.0000000000002
100
AcDbRotatedDimension
  0
DIMENSION
  5
EA
330
1F
100
AcDbEntity
  8
치수문자_일반주서
100
AcDbDimension
  2
_D_1
 10
102.0
 20
30.7884104402427
 30
0.0
 11
27.00000000000004
 21
30.7884104402427
 31
0.0
 70
   160
  1
<>
 71
     2
 42
150.0
  3
SLDDIMSTYLE1
100
AcDbAlignedDimension
 13
-47.99999999999996
 23
8.999999999999998
 33
0.0
 14
102.0
 24
10.00000000000033
 34
0.0
 50
-0.0000000000000027
100
AcDbRotatedDimension
  0
DIMENSION
  5
F5
330
1F
100
AcDbEntity
  8
치수문자_일반주서
100
AcDbDimension
  2
_D_2
 10
102.0
 20
21.16519480938925
 30
0.0
 11
57.00000000000004
 21
21.16519480938925
 31
0.0
 70
   160
  1
<>
 71
     2
 42
90.0
  3
SLDDIMSTYLE1
100
AcDbAlignedDimension
 13
12.00000000000004
 23
7.818197003221725
 33
0.0
 14
102.0
 24
10.00000000000033
 34
0.0
 50
-0.0000000000000045
100
AcDbRotatedDimension
  0
DIMENSION
  5
FF
330
1F
100
AcDbEntity
  8
치수문자_일반주서
100
AcDbDimension
  2
_D_3
 10
-62.36595151059682
 20
-10.00000000000006
 30
0.0
 11
-62.36595151059692
 21
20.76024999999994
 31
0.0
 70
   160
  1
%%c<>
 71
     2
 42
20.0
 52
-270.0
  3
SLDDIMSTYLE0
100
AcDbAlignedDimension
 13
-46.99999999999996
 23
9.999999999999998
 33
0.0
 14
-46.99999999999996
 24
-9.999999999999998
 34
0.0
 50
90.0000000000002
100
AcDbRotatedDimension
  0
INSERT
  5
112
330
1F
100
AcDbEntity
  8
외형선
100
AcDbBlockReference
  2
SW_DOWELSYMBOL_0
 10
0.0000000000000104
 20
0.0
 30
0.0
  0
ENDSEC
  0
SECTION
  2
OBJECTS
  0
DICTIONARY
  5
C
330
0
100
AcDbDictionary
281
     1
  3
ACAD_GROUP
350
D
  3
ACAD_IMAGE_VARS
350
136
  3
ACAD_LAYOUT
350
1A
  3
ACAD_MLINESTYLE
350
17
  3
ACAD_PLOTSETTINGS
350
19
  3
ACAD_PLOTSTYLENAME
350
E
  3
ACAD_SCALELIST
350
47
  3
APPDATA
350
134
  3
DWGPROPS
350
145
  0
DICTIONARY
  5
D
102
{ACAD_REACTORS
330
C
102
}
330
C
100
AcDbDictionary
281
     1
  0
RASTERVARIABLES
  5
136
102
{ACAD_REACTORS
330
C
102
}
330
C
100
AcDbRasterVariables
 90
        0
 70
     1
 71
     1
 72
     1
  0
DICTIONARY
  5
1A
102
{ACAD_REACTORS
330
C
102
}
330
C
100
AcDbDictionary
281
     1
  3
Layout1
350
1E
  3
Layout2
350
26
  3
Model
350
22
  0
DICTIONARY
  5
17
102
{ACAD_REACTORS
330
C
102
}
330
C
100
AcDbDictionary
281
     1
  3
Standard
350
18
  0
DICTIONARY
  5
19
102
{ACAD_REACTORS
330
C
102
}
330
C
100
AcDbDictionary
281
     1
  0
ACDBDICTIONARYWDFLT
  5
E
102
{ACAD_REACTORS
330
C
102
}
330
C
100
AcDbDictionary
281
     1
  3
Normal
350
F
100
AcDbDictionaryWithDefault
340
F
  0
DICTIONARY
  5
47
102
{ACAD_REACTORS
330
C
102
}
330
C
100
AcDbDictionary
281
     1
  3
A0
350
48
  3
A1
350
49
  3
A2
350
4A
  3
A3
350
4B
  3
A4
350
4C
  3
A5
350
4D
  3
A6
350
4E
  3
A7
350
4F
  3
A8
350
50
  3
A9
350
51
  3
B0
350
52
  3
B1
350
53
  3
B2
350
54
  3
B3
350
55
  3
B4
350
56
  3
B5
350
57
  3
B6
350
58
  3
B7
350
59
  3
B8
350
5A
  3
B9
350
5B
  3
C0
350
5C
  3
C1
350
5D
  3
C2
350
5E
  3
C3
350
5F
  3
C4
350
60
  3
C5
350
61
  3
C6
350
62
  3
C7
350
63
  3
C8
350
64
  3
C9
350
65
  3
D0
350
66
  3
D1
350
67
  3
D2
350
68
  0
DICTIONARY
  5
134
102
{ACAD_REACTORS
330
C
102
}
330
C
100
AcDbDictionary
281
     1
  0
XRECORD
  5
145
102
{ACAD_REACTORS
330
C
102
}
330
C
100
AcDbXrecord
280
     1
  1
DWGPROPS COOKIE
  2

  3

  4

  6

  7

  8
12014102
  9

300
=
301
=
302
=
303
=
304
=
305
=
306
=
307
=
308
=
309
=
 40
0.0
 41
2458262.179120162
 42
2458266.216486713
  1

 90
        0
  0
LAYOUT
  5
1E
102
{ACAD_REACTORS
330
1A
102
}
330
1A
100
AcDbPlotSettings
  1

  2
none_device
  4

  6

 40
0.0
 41
0.0
 42
0.0
 43
0.0
 44
0.0
 45
0.0
 46
0.0
 47
0.0
 48
0.0
 49
0.0
140
0.0
141
0.0
142
1.0
143
1.0
 70
   688
 72
     1
 73
     0
 74
     5
  7

 75
    16
147
1.0
148
0.0
149
0.0
100
AcDbLayout
  1
Layout1
 70
     1
 71
     1
 10
0.0
 20
0.0
 11
420.0
 21
297.0
 12
0.0
 22
0.0
 32
0.0
 14
1.000000000000000E+20
 24
1.000000000000000E+20
 34
1.000000000000000E+20
 15
-1.000000000000000E+20
 25
-1.000000000000000E+20
 35
-1.000000000000000E+20
146
0.0
 13
0.0
 23
0.0
 33
0.0
 16
1.0
 26
0.0
 36
0.0
 17
0.0
 27
1.0
 37
0.0
 76
     0
330
1B
  0
LAYOUT
  5
26
102
{ACAD_REACTORS
330
1A
102
}
330
1A
100
AcDbPlotSettings
  1

  2
none_device
  4

  6

 40
0.0
 41
0.0
 42
0.0
 43
0.0
 44
0.0
 45
0.0
 46
0.0
 47
0.0
 48
0.0
 49
0.0
140
0.0
141
0.0
142
1.0
143
1.0
 70
   688
 72
     1
 73
     0
 74
     5
  7

 75
    16
147
1.0
148
0.0
149
0.0
100
AcDbLayout
  1
Layout2
 70
     1
 71
     2
 10
0.0
 20
0.0
 11
0.0
 21
0.0
 12
0.0
 22
0.0
 32
0.0
 14
0.0
 24
0.0
 34
0.0
 15
0.0
 25
0.0
 35
0.0
146
0.0
 13
0.0
 23
0.0
 33
0.0
 16
1.0
 26
0.0
 36
0.0
 17
0.0
 27
1.0
 37
0.0
 76
     0
330
23
  0
LAYOUT
  5
22
102
{ACAD_REACTORS
330
1A
102
}
330
1A
100
AcDbPlotSettings
  1

  2
none_device
  4
ANSI_A_(11.00_x_8.50_Inches)
  6

 40
6.35
 41
19.05
 42
6.35000508
 43
19.05000254
 44
279.4
 45
215.9
 46
96.75842563169341
 47
101.7369766684501
 48
0.0
 49
0.0
140
0.0
141
0.0
142
0.065578048070227
143
1.0
 70
  1696
 72
     0
 73
     0
 74
     0
  7

 75
     0
147
0.0235690232323232
148
0.0
149
0.0
100
AcDbLayout
  1
Model
 70
     1
 71
     0
 10
0.0
 20
0.0
 11
420.0
 21
297.0
 12
0.0
 22
0.0
 32
0.0
 14
-66.74095151059693
 24
-49.97073246008785
 34
0.0
 15
118.5799800307658
 25
35.1634104402427
 35
0.0
146
0.0
 13
0.0
 23
0.0
 33
0.0
 16
1.0
 26
0.0
 36
0.0
 17
0.0
 27
1.0
 37
0.0
 76
     0
330
1F
331
29
  0
MLINESTYLE
  5
18
102
{ACAD_REACTORS
330
17
102
}
330
17
100
AcDbMlineStyle
  2
Standard
 70
     0
  3

 62
   256
 51
90.0
 52
90.0
 71
     2
 49
0.5
 62
   256
  6
BYLAYER
 49
-0.5
 62
   256
  6
BYLAYER
  0
ACDBPLACEHOLDER
  5
F
102
{ACAD_REACTORS
330
E
102
}
330
E
  0
SCALE
  5
48
102
{ACAD_REACTORS
330
47
102
}
330
47
100
AcDbScale
 70
     0
300
1:1
140
1.0
141
1.0
290
     1
  0
SCALE
  5
49
102
{ACAD_REACTORS
330
47
102
}
330
47
100
AcDbScale
 70
     0
300
1:2
140
1.0
141
2.0
290
     0
  0
SCALE
  5
4A
102
{ACAD_REACTORS
330
47
102
}
330
47
100
AcDbScale
 70
     0
300
1:4
140
1.0
141
4.0
290
     0
  0
SCALE
  5
4B
102
{ACAD_REACTORS
330
47
102
}
330
47
100
AcDbScale
 70
     0
300
1:5
140
1.0
141
5.0
290
     0
  0
SCALE
  5
4C
102
{ACAD_REACTORS
330
47
102
}
330
47
100
AcDbScale
 70
     0
300
1:8
140
1.0
141
8.0
290
     0
  0
SCALE
  5
4D
102
{ACAD_REACTORS
330
47
102
}
330
47
100
AcDbScale
 70
     0
300
1:10
140
1.0
141
10.0
290
     0
  0
SCALE
  5
4E
102
{ACAD_REACTORS
330
47
102
}
330
47
100
AcDbScale
 70
     0
300
1:16
140
1.0
141
16.0
290
     0
  0
SCALE
  5
4F
102
{ACAD_REACTORS
330
47
102
}
330
47
100
AcDbScale
 70
     0
300
1:20
140
1.0
141
20.0
290
     0
  0
SCALE
  5
50
102
{ACAD_REACTORS
330
47
102
}
330
47
100
AcDbScale
 70
     0
300
1:30
140
1.0
141
30.0
290
     0
  0
SCALE
  5
51
102
{ACAD_REACTORS
330
47
102
}
330
47
100
AcDbScale
 70
     0
300
1:40
140
1.0
141
40.0
290
     0
  0
SCALE
  5
52
102
{ACAD_REACTORS
330
47
102
}
330
47
100
AcDbScale
 70
     0
300
1:50
140
1.0
141
50.0
290
     0
  0
SCALE
  5
53
102
{ACAD_REACTORS
330
47
102
}
330
47
100
AcDbScale
 70
     0
300
1:100
140
1.0
141
100.0
290
     0
  0
SCALE
  5
54
102
{ACAD_REACTORS
330
47
102
}
330
47
100
AcDbScale
 70
     0
300
2:1
140
2.0
141
1.0
290
     0
  0
SCALE
  5
55
102
{ACAD_REACTORS
330
47
102
}
330
47
100
AcDbScale
 70
     0
300
4:1
140
4.0
141
1.0
290
     0
  0
SCALE
  5
56
102
{ACAD_REACTORS
330
47
102
}
330
47
100
AcDbScale
 70
     0
300
8:1
140
8.0
141
1.0
290
     0
  0
SCALE
  5
57
102
{ACAD_REACTORS
330
47
102
}
330
47
100
AcDbScale
 70
     0
300
10:1
140
10.0
141
1.0
290
     0
  0
SCALE
  5
58
102
{ACAD_REACTORS
330
47
102
}
330
47
100
AcDbScale
 70
     0
300
100:1
140
100.0
141
1.0
290
     0
  0
SCALE
  5
59
102
{ACAD_REACTORS
330
47
102
}
330
47
100
AcDbScale
 70
     0
300
1/128" = 1'-0"
140
0.0078125
141
12.0
290
     0
  0
SCALE
  5
5A
102
{ACAD_REACTORS
330
47
102
}
330
47
100
AcDbScale
 70
     0
300
1/64" = 1'-0"
140
0.015625
141
12.0
290
     0
  0
SCALE
  5
5B
102
{ACAD_REACTORS
330
47
102
}
330
47
100
AcDbScale
 70
     0
300
1/32" = 1'-0"
140
0.03125
141
12.0
290
     0
  0
SCALE
  5
5C
102
{ACAD_REACTORS
330
47
102
}
330
47
100
AcDbScale
 70
     0
300
1/16" = 1'-0"
140
0.0625
141
12.0
290
     0
  0
SCALE
  5
5D
102
{ACAD_REACTORS
330
47
102
}
330
47
100
AcDbScale
 70
     0
300
3/32" = 1'-0"
140
0.09375
141
12.0
290
     0
  0
SCALE
  5
5E
102
{ACAD_REACTORS
330
47
102
}
330
47
100
AcDbScale
 70
     0
300
1/8" = 1'-0"
140
0.125
141
12.0
290
     0
  0
SCALE
  5
5F
102
{ACAD_REACTORS
330
47
102
}
330
47
100
AcDbScale
 70
     0
300
3/16" = 1'-0"
140
0.1875
141
12.0
290
     0
  0
SCALE
  5
60
102
{ACAD_REACTORS
330
47
102
}
330
47
100
AcDbScale
 70
     0
300
1/4" = 1'-0"
140
0.25
141
12.0
290
     0
  0
SCALE
  5
61
102
{ACAD_REACTORS
330
47
102
}
330
47
100
AcDbScale
 70
     0
300
3/8" = 1'-0"
140
0.375
141
12.0
290
     0
  0
SCALE
  5
62
102
{ACAD_REACTORS
330
47
102
}
330
47
100
AcDbScale
 70
     0
300
1/2" = 1'-0"
140
0.5
141
12.0
290
     0
  0
SCALE
  5
63
102
{ACAD_REACTORS
330
47
102
}
330
47
100
AcDbScale
 70
     0
300
3/4" = 1'-0"
140
0.75
141
12.0
290
     0
  0
SCALE
  5
64
102
{ACAD_REACTORS
330
47
102
}
330
47
100
AcDbScale
 70
     0
300
1" = 1'-0"
140
1.0
141
12.0
290
     0
  0
SCALE
  5
65
102
{ACAD_REACTORS
330
47
102
}
330
47
100
AcDbScale
 70
     0
300
1-1/2" = 1'-0"
140
1.5
141
12.0
290
     0
  0
SCALE
  5
66
102
{ACAD_REACTORS
330
47
102
}
330
47
100
AcDbScale
 70
     0
300
3" = 1'-0"
140
3.0
141
12.0
290
     0
  0
SCALE
  5
67
102
{ACAD_REACTORS
330
47
102
}
330
47
100
AcDbScale
 70
     0
300
6" = 1'-0"
140
6.0
141
12.0
290
     0
  0
SCALE
  5
68
102
{ACAD_REACTORS
330
47
102
}
330
47
100
AcDbScale
 70
     0
300
1'-0" = 1'-0"
140
12.0
141
12.0
290
     0
  0
ENDSEC
  0
EOF
