  0
SECTION
  2
HEADER
  9
$ACADVER
  1
AC1015
  9
$ACADMAINTVER
 70
     6
  9
$DWGCODEPAGE
  3
ANSI_949
  9
$INSBASE
 10
0.0
 20
0.0
 30
0.0
  9
$EXTMIN
 10
-74.71587653908095
 20
-49.97073246008785
 30
0.0
  9
$EXTMAX
 10
85.05540202283196
 20
35.1634104402427
 30
0.0
  9
$LIMMIN
 10
0.0
 20
0.0
  9
$LIMMAX
 10
420.0
 20
297.0
  9
$ORTHOMODE
 70
     0
  9
$REGENMODE
 70
     1
  9
$FILLMODE
 70
     1
  9
$QTEXTMODE
 70
     0
  9
$MIRRTEXT
 70
     1
  9
$LTSCALE
 40
1.0
  9
$ATTMODE
 70
     1
  9
$TEXTSIZE
 40
3.5
  9
$TRACEWID
 40
1.0
  9
$TEXTSTYLE
  7
Standard
  9
$CLAYER
  8
0
  9
$CELTYPE
  6
ByLayer
  9
$CECOLOR
 62
   256
  9
$CELTSCALE
 40
1.0
  9
$DISPSILH
 70
     0
  9
$DIMSCALE
 40
1.0
  9
$DIMASZ
 40
3.302
  9
$DIMEXO
 40
1.0
  9
$DIMDLI
 40
3.75
  9
$DIMRND
 40
0.0
  9
$DIMDLE
 40
0.0
  9
$DIMEXE
 40
1.0
  9
$DIMTP
 40
0.0
  9
$DIMTM
 40
0.0
  9
$DIMTXT
 40
3.5
  9
$DIMCEN
 40
2.5
  9
$DIMTSZ
 40
0.0
  9
$DIMTOL
 70
     0
  9
$DIMLIM
 70
     0
  9
$DIMTIH
 70
     1
  9
$DIMTOH
 70
     1
  9
$DIMSE1
 70
     0
  9
$DIMSE2
 70
     0
  9
$DIMTAD
 70
     1
  9
$DIMZIN
 70
     0
  9
$DIMBLK
  1

  9
$DIMASO
 70
     1
  9
$DIMSHO
 70
     1
  9
$DIMPOST
  1

  9
$DIMAPOST
  1

  9
$DIMALT
 70
     0
  9
$DIMALTD
 70
     3
  9
$DIMALTF
 40
0.0393700787401575
  9
$DIMLFAC
 40
1.0
  9
$DIMTOFL
 70
     1
  9
$DIMTVP
 40
0.0
  9
$DIMTIX
 70
     0
  9
$DIMSOXD
 70
     0
  9
$DIMSAH
 70
     0
  9
$DIMBLK1
  1

  9
$DIMBLK2
  1

  9
$DIMSTYLE
  2
ISO-25
  9
$DIMCLRD
 70
     0
  9
$DIMCLRE
 70
     0
  9
$DIMCLRT
 70
     0
  9
$DIMTFAC
 40
1.0
  9
$DIMGAP
 40
1.524
  9
$DIMJUST
 70
     0
  9
$DIMSD1
 70
     0
  9
$DIMSD2
 70
     0
  9
$DIMTOLJ
 70
     0
  9
$DIMTZIN
 70
     0
  9
$DIMALTZ
 70
     0
  9
$DIMALTTZ
 70
     0
  9
$DIMUPT
 70
     0
  9
$DIMDEC
 70
     2
  9
$DIMTDEC
 70
     2
  9
$DIMALTU
 70
     2
  9
$DIMALTTD
 70
     3
  9
$DIMTXSTY
  7
Standard
  9
$DIMAUNIT
 70
     0
  9
$DIMADEC
 70
     2
  9
$DIMALTRND
 40
0.0
  9
$DIMAZIN
 70
     0
  9
$DIMDSEP
 70
    44
  9
$DIMATFIT
 70
     3
  9
$DIMFRAC
 70
     0
  9
$DIMLDRBLK
  1

  9
$DIMLUNIT
 70
     2
  9
$DIMLWD
 70
    -2
  9
$DIMLWE
 70
    -2
  9
$DIMTMOVE
 70
     0
  9
$LUNITS
 70
     2
  9
$LUPREC
 70
     2
  9
$SKETCHINC
 40
1.0
  9
$FILLETRAD
 40
10.0
  9
$AUNITS
 70
     0
  9
$AUPREC
 70
     2
  9
$MENU
  1
.
  9
$ELEVATION
 40
0.0
  9
$PELEVATION
 40
0.0
  9
$THICKNESS
 40
0.0
  9
$LIMCHECK
 70
     0
  9
$CHAMFERA
 40
0.0
  9
$CHAMFERB
 40
0.0
  9
$CHAMFERC
 40
0.0
  9
$CHAMFERD
 40
0.0
  9
$SKPOLY
 70
     0
  9
$TDCREATE
 40
2458262.55336941
  9
$TDUCREATE
 40
2458262.17836941
  9
$TDUPDATE
 40
2458266.57205059
  9
$TDUUPDATE
 40
2458266.19705059
  9
$TDINDWG
 40
0.0052531481
  9
$TDUSRTIMER
 40
2458266.191797488
  9
$USRTIMER
 70
     1
  9
$ANGBASE
 50
0.0
  9
$ANGDIR
 70
     0
  9
$PDMODE
 70
     0
  9
$PDSIZE
 40
-1.0
  9
$PLINEWID
 40
0.0
  9
$SPLFRAME
 70
     0
  9
$SPLINETYPE
 70
     6
  9
$SPLINESEGS
 70
     8
  9
$HANDSEED
  5
13E
  9
$SURFTAB1
 70
     6
  9
$SURFTAB2
 70
     6
  9
$SURFTYPE
 70
     6
  9
$SURFU
 70
     6
  9
$SURFV
 70
     6
  9
$UCSBASE
  2

  9
$UCSNAME
  2

  9
$UCSORG
 10
0.0
 20
0.0
 30
0.0
  9
$UCSXDIR
 10
1.0
 20
0.0
 30
0.0
  9
$UCSYDIR
 10
0.0
 20
1.0
 30
0.0
  9
$UCSORTHOREF
  2

  9
$UCSORTHOVIEW
 70
     0
  9
$UCSORGTOP
 10
0.0
 20
0.0
 30
0.0
  9
$UCSORGBOTTOM
 10
0.0
 20
0.0
 30
0.0
  9
$UCSORGLEFT
 10
0.0
 20
0.0
 30
0.0
  9
$UCSORGRIGHT
 10
0.0
 20
0.0
 30
0.0
  9
$UCSORGFRONT
 10
0.0
 20
0.0
 30
0.0
  9
$UCSORGBACK
 10
0.0
 20
0.0
 30
0.0
  9
$PUCSBASE
  2

  9
$PUCSNAME
  2

  9
$PUCSORG
 10
0.0
 20
0.0
 30
0.0
  9
$PUCSXDIR
 10
1.0
 20
0.0
 30
0.0
  9
$PUCSYDIR
 10
0.0
 20
1.0
 30
0.0
  9
$PUCSORTHOREF
  2

  9
$PUCSORTHOVIEW
 70
     0
  9
$PUCSORGTOP
 10
0.0
 20
0.0
 30
0.0
  9
$PUCSORGBOTTOM
 10
0.0
 20
0.0
 30
0.0
  9
$PUCSORGLEFT
 10
0.0
 20
0.0
 30
0.0
  9
$PUCSORGRIGHT
 10
0.0
 20
0.0
 30
0.0
  9
$PUCSORGFRONT
 10
0.0
 20
0.0
 30
0.0
  9
$PUCSORGBACK
 10
0.0
 20
0.0
 30
0.0
  9
$USERI1
 70
     0
  9
$USERI2
 70
     0
  9
$USERI3
 70
     0
  9
$USERI4
 70
     0
  9
$USERI5
 70
     0
  9
$USERR1
 40
0.0
  9
$USERR2
 40
0.0
  9
$USERR3
 40
0.0
  9
$USERR4
 40
0.0
  9
$USERR5
 40
0.0
  9
$WORLDVIEW
 70
     1
  9
$SHADEDGE
 70
     3
  9
$SHADEDIF
 70
    70
  9
$TILEMODE
 70
     1
  9
$MAXACTVP
 70
    64
  9
$PINSBASE
 10
0.0
 20
0.0
 30
0.0
  9
$PLIMCHECK
 70
     0
  9
$PEXTMIN
 10
1.000000000000000E+20
 20
1.000000000000000E+20
 30
1.000000000000000E+20
  9
$PEXTMAX
 10
-1.000000000000000E+20
 20
-1.000000000000000E+20
 30
-1.000000000000000E+20
  9
$PLIMMIN
 10
0.0
 20
0.0
  9
$PLIMMAX
 10
0.0
 20
0.0
  9
$UNITMODE
 70
     0
  9
$VISRETAIN
 70
     1
  9
$PLINEGEN
 70
     0
  9
$PSLTSCALE
 70
     1
  9
$TREEDEPTH
 70
  3020
  9
$CMLSTYLE
  2
Standard
  9
$CMLJUST
 70
     0
  9
$CMLSCALE
 40
20.0
  9
$PROXYGRAPHICS
 70
     1
  9
$MEASUREMENT
 70
     1
  9
$CELWEIGHT
370
    -1
  9
$ENDCAPS
280
     0
  9
$JOINSTYLE
280
     0
  9
$LWDISPLAY
290
     1
  9
$INSUNITS
 70
     4
  9
$HYPERLINKBASE
  1

  9
$STYLESHEET
  1

  9
$XEDIT
290
     1
  9
$CEPSNTYPE
380
     0
  9
$PSTYLEMODE
290
     1
  9
$FINGERPRINTGUID
  2
{C909DAF0-7E4B-436E-B780-CB7BF0D9662E}
  9
$VERSIONGUID
  2
{FAEB1C32-E019-11D5-929B-00C0DF256EC4}
  9
$EXTNAMES
290
     1
  9
$PSVPSCALE
 40
0.0
  9
$OLESTARTUP
290
     0
  0
ENDSEC
  0
SECTION
  2
CLASSES
  0
CLASS
  1
ACDBDICTIONARYWDFLT
  2
AcDbDictionaryWithDefault
  3
ObjectDBX Classes
 90
        0
280
     0
281
     0
  0
CLASS
  1
VISUALSTYLE
  2
AcDbVisualStyle
  3
ObjectDBX Classes
 90
     4095
280
     0
281
     0
  0
CLASS
  1
MATERIAL
  2
AcDbMaterial
  3
ObjectDBX Classes
 90
     1153
280
     0
281
     0
  0
CLASS
  1
SCALE
  2
AcDbScale
  3
ObjectDBX Classes
 90
     1153
280
     0
281
     0
  0
CLASS
  1
SUN
  2
AcDbSun
  3
SCENEOE
 90
     1153
280
     0
281
     0
  0
CLASS
  1
ACDBPLACEHOLDER
  2
AcDbPlaceHolder
  3
ObjectDBX Classes
 90
        0
280
     0
281
     0
  0
CLASS
  1
LAYOUT
  2
AcDbLayout
  3
ObjectDBX Classes
 90
        0
280
     0
281
     0
  0
CLASS
  1
TABLESTYLE
  2
AcDbTableStyle
  3
ObjectDBX Classes
 90
     4095
280
     0
281
     0
  0
CLASS
  1
MLEADERSTYLE
  2
AcDbMLeaderStyle
  3
ACDB_MLEADERSTYLE_CLASS
 90
     4095
280
     0
281
     0
  0
CLASS
  1
RASTERVARIABLES
  2
AcDbRasterVariables
  3
ISM
 90
        0
280
     0
281
     0
  0
ENDSEC
  0
SECTION
  2
TABLES
  0
TABLE
  2
VPORT
  5
8
330
0
100
AcDbSymbolTable
 70
     1
  0
VPORT
  5
29
330
8
100
AcDbSymbolTableRecord
100
AcDbViewportTableRecord
  2
*Active
 70
     0
 10
0.0
 20
0.0
 11
1.0
 21
1.0
 12
5.169762741875502
 22
-7.403661009922573
 13
0.0
 23
0.0
 14
10.0
 24
10.0
 15
10.0
 25
10.0
 16
0.0
 26
0.0
 36
1.0
 17
0.0
 27
0.0
 37
0.0
 40
141.4083284742814
 41
1.152454780361757
 42
50.0
 43
0.0
 44
0.0
 50
0.0
 51
0.0
 71
    16
 72
  2000
 73
     1
 74
     3
 75
     0
 76
     0
 77
     0
 78
     0
281
     0
 65
     1
110
0.0
120
0.0
130
0.0
111
1.0
121
0.0
131
0.0
112
0.0
122
1.0
132
0.0
 79
     0
146
0.0
  0
ENDTAB
  0
TABLE
  2
LTYPE
  5
5
330
0
100
AcDbSymbolTable
 70
     6
  0
LTYPE
  5
14
330
5
100
AcDbSymbolTableRecord
100
AcDbLinetypeTableRecord
  2
ByBlock
 70
     0
  3

 72
    65
 73
     0
 40
0.0
  0
LTYPE
  5
15
330
5
100
AcDbSymbolTableRecord
100
AcDbLinetypeTableRecord
  2
ByLayer
 70
     0
  3

 72
    65
 73
     0
 40
0.0
  0
LTYPE
  5
16
330
5
100
AcDbSymbolTableRecord
100
AcDbLinetypeTableRecord
  2
Continuous
 70
     0
  3
Solid line
 72
    65
 73
     0
 40
0.0
  0
LTYPE
  5
6A
330
5
100
AcDbSymbolTableRecord
100
AcDbLinetypeTableRecord
  2
HIDDEN
 70
     0
  3
Hidden __ __ __ __ __ __ __ __ __ __ __ __ __ __
 72
    65
 73
     2
 40
1.905
 49
1.27
 74
     0
 49
-0.635
 74
     0
  0
LTYPE
  5
6B
330
5
100
AcDbSymbolTableRecord
100
AcDbLinetypeTableRecord
  2
PHANTOM
 70
     0
  3
Phantom ______  __  __  ______  __  __  ______
 72
    65
 73
     6
 40
12.7
 49
6.35
 74
     0
 49
-1.27
 74
     0
 49
1.27
 74
     0
 49
-1.27
 74
     0
 49
1.27
 74
     0
 49
-1.27
 74
     0
  0
LTYPE
  5
6C
330
5
100
AcDbSymbolTableRecord
100
AcDbLinetypeTableRecord
  2
CENTER
 70
     0
  3
Center ____ _ ____ _ ____ _ ____ _ ____ _ ____
 72
    65
 73
     4
 40
10.16
 49
6.35
 74
     0
 49
-1.27
 74
     0
 49
1.27
 74
     0
 49
-1.27
 74
     0
  0
LTYPE
  5
6D
330
5
100
AcDbSymbolTableRecord
100
AcDbLinetypeTableRecord
  2
CENTERX2
 70
     0
  3
Center (2x) ________  __  ________  __  _____
 72
    65
 73
     4
 40
20.32
 49
12.7
 74
     0
 49
-2.54
 74
     0
 49
2.54
 74
     0
 49
-2.54
 74
     0
  0
LTYPE
  5
6E
330
5
100
AcDbSymbolTableRecord
100
AcDbLinetypeTableRecord
  2
DOT2
 70
     0
  3
Dot (.5x) ........................................
 72
    65
 73
     2
 40
0.635
 49
0.0
 74
     0
 49
-0.635
 74
     0
  0
ENDTAB
  0
TABLE
  2
LAYER
  5
2
330
0
100
AcDbSymbolTable
 70
    17
  0
LAYER
  5
10
330
2
100
AcDbSymbolTableRecord
100
AcDbLayerTableRecord
  2
0
 70
     0
 62
     7
  6
Continuous
370
    -3
390
F
  0
LAYER
  5
6F
330
2
100
AcDbSymbolTableRecord
100
AcDbLayerTableRecord
  2
FORMAT
 70
     0
 62
     2
  6
Continuous
370
    -3
390
F
  0
LAYER
  5
70
330
2
100
AcDbSymbolTableRecord
100
AcDbLayerTableRecord
  2
외형선
 70
     0
 62
   100
  6
Continuous
370
    30
390
F
  0
LAYER
  5
71
330
2
100
AcDbSymbolTableRecord
100
AcDbLayerTableRecord
  2
숨은선
 70
     0
 62
     2
  6
HIDDEN
370
    15
390
F
  0
LAYER
  5
72
330
2
100
AcDbSymbolTableRecord
100
AcDbLayerTableRecord
  2
중심선
 70
     0
 62
     1
  6
CENTERX2
370
    -3
390
F
  0
LAYER
  5
73
330
2
100
AcDbSymbolTableRecord
100
AcDbLayerTableRecord
  2
파단선
 70
     0
 62
     4
  6
Continuous
370
    -3
390
F
  0
LAYER
  5
74
330
2
100
AcDbSymbolTableRecord
100
AcDbLayerTableRecord
  2
해칭선
 70
     0
 62
     4
  6
Continuous
370
    -3
390
F
  0
LAYER
  5
75
330
2
100
AcDbSymbolTableRecord
100
AcDbLayerTableRecord
  2
가는실선
 70
     0
 62
     4
  6
Continuous
370
    -3
390
F
  0
LAYER
  5
76
330
2
100
AcDbSymbolTableRecord
100
AcDbLayerTableRecord
  2
치수_보조선
 70
     0
 62
     4
  6
Continuous
370
    -3
390
F
  0
LAYER
  5
77
330
2
100
AcDbSymbolTableRecord
100
AcDbLayerTableRecord
  2
치수문자_일반주서
 70
     0
 62
     7
  6
Continuous
370
    15
390
F
  0
LAYER
  5
78
330
2
100
AcDbSymbolTableRecord
100
AcDbLayerTableRecord
  2
개별주서
 70
     0
 62
   100
  6
Continuous
370
    30
390
F
  0
LAYER
  5
79
330
2
100
AcDbSymbolTableRecord
100
AcDbLayerTableRecord
  2
중간선
 70
     0
 62
     2
  6
Continuous
370
    15
390
F
  0
LAYER
  5
7A
330
2
100
AcDbSymbolTableRecord
100
AcDbLayerTableRecord
  2
윤곽선
 70
     0
 62
     3
  6
Continuous
370
    40
390
F
  0
LAYER
  5
7B
330
2
100
AcDbSymbolTableRecord
100
AcDbLayerTableRecord
  2
중심마크
 70
     0
 62
   100
  6
Continuous
370
    30
390
F
  0
LAYER
  5
7C
330
2
100
AcDbSymbolTableRecord
100
AcDbLayerTableRecord
  2
가상선
 70
     0
 62
     4
  6
PHANTOM
370
    -3
390
F
  0
LAYER
  5
7D
330
2
100
AcDbSymbolTableRecord
100
AcDbLayerTableRecord
  2
특수지정선
 70
     0
 62
     5
  6
CENTERX2
370
    60
390
F
  0
LAYER
  5
12F
330
2
100
AcDbSymbolTableRecord
100
AcDbLayerTableRecord
  2
Defpoints
 70
     0
 62
     7
  6
Continuous
290
     0
370
    -3
390
F
  0
ENDTAB
  0
TABLE
  2
STYLE
  5
3
330
0
100
AcDbSymbolTable
 70
     2
  0
STYLE
  5
11
330
3
100
AcDbSymbolTableRecord
100
AcDbTextStyleTableRecord
  2
Standard
 70
     0
 40
0.0
 41
1.0
 50
0.0
 71
     0
 42
3.5
  3
txt
  4

  0
STYLE
  5
93
330
3
100
AcDbSymbolTableRecord
100
AcDbTextStyleTableRecord
  2
SLDTEXTSTYLE0
 70
     0
 40
0.0
 41
0.75
 50
0.0
 71
     0
 42
3.5
  3
TXT
  4

  0
ENDTAB
  0
TABLE
  2
VIEW
  5
6
330
0
100
AcDbSymbolTable
 70
     0
  0
ENDTAB
  0
TABLE
  2
UCS
  5
7
330
0
100
AcDbSymbolTable
 70
     0
  0
ENDTAB
  0
TABLE
  2
APPID
  5
9
330
0
100
AcDbSymbolTable
 70
     1
  0
APPID
  5
12
330
9
100
AcDbSymbolTableRecord
100
AcDbRegAppTableRecord
  2
ACAD
 70
     0
  0
ENDTAB
  0
TABLE
  2
DIMSTYLE
  5
A
330
0
100
AcDbSymbolTable
 70
     3
100
AcDbDimStyleTable
  0
DIMSTYLE
105
27
330
A
100
AcDbSymbolTableRecord
100
AcDbDimStyleTableRecord
  2
ISO-25
 70
     0
 41
2.5
 42
0.625
 43
3.75
 44
1.25
 73
     0
 74
     0
 77
     1
 78
     8
140
2.5
141
2.5
143
0.03937007874016
147
0.625
171
     3
172
     1
178
     0
271
     2
272
     2
274
     3
278
    44
283
     0
284
     8
340
11
  0
DIMSTYLE
105
D5
102
{ACAD_REACTORS
330
D4
330
F7
102
}
330
A
100
AcDbSymbolTableRecord
100
AcDbDimStyleTableRecord
  2
SLDDIMSTYLE0
 70
     0
 41
3.302
 44
0.0
 45
0.000000001
 73
     0
 74
     0
 77
     1
 78
    12
 79
     3
140
3.5
147
0.875
172
     1
173
     1
178
     0
271
     2
272
     2
276
     2
284
    12
289
     0
340
93
  0
DIMSTYLE
105
E3
102
{ACAD_REACTORS
330
E2
330
ED
102
}
330
A
100
AcDbSymbolTableRecord
100
AcDbDimStyleTableRecord
  2
SLDDIMSTYLE1
 70
     0
 41
3.302
 44
0.0
 45
0.000000001
 73
     0
 74
     0
 77
     1
 78
    12
 79
     3
140
3.5
147
0.875
173
     1
178
     0
271
     2
272
     2
276
     2
284
    12
340
93
  0
ENDTAB
  0
TABLE
  2
BLOCK_RECORD
  5
1
330
0
100
AcDbSymbolTable
 70
     7
  0
BLOCK_RECORD
  5
1F
330
1
100
AcDbSymbolTableRecord
100
AcDbBlockTableRecord
  2
*Model_Space
340
22
  0
BLOCK_RECORD
  5
1B
330
1
100
AcDbSymbolTableRecord
100
AcDbBlockTableRecord
  2
*Paper_Space
340
1E
  0
BLOCK_RECORD
  5
23
330
1
100
AcDbSymbolTableRecord
100
AcDbBlockTableRecord
  2
*Paper_Space0
340
26
  0
BLOCK_RECORD
  5
7E
330
1
100
AcDbSymbolTableRecord
100
AcDbBlockTableRecord
  2
블럭10
340
0
102
{BLKREFS
331
CD
102
}
  0
BLOCK_RECORD
  5
D6
330
1
100
AcDbSymbolTableRecord
100
AcDbBlockTableRecord
  2
_D
340
0
  0
BLOCK_RECORD
  5
E4
330
1
100
AcDbSymbolTableRecord
100
AcDbBlockTableRecord
  2
_D_1
340
0
  0
BLOCK_RECORD
  5
EE
330
1
100
AcDbSymbolTableRecord
100
AcDbBlockTableRecord
  2
_D_2
340
0
  0
BLOCK_RECORD
  5
F8
330
1
100
AcDbSymbolTableRecord
100
AcDbBlockTableRecord
  2
_D_3
340
0
  0
BLOCK_RECORD
  5
104
330
1
100
AcDbSymbolTableRecord
100
AcDbBlockTableRecord
  2
SW_DOWELSYMBOL_0
340
0
102
{BLKREFS
331
10A
102
}
  0
ENDTAB
  0
ENDSEC
  0
SECTION
  2
BLOCKS
  0
BLOCK
  5
20
330
1F
100
AcDbEntity
  8
0
100
AcDbBlockBegin
  2
*Model_Space
 70
     0
 10
0.0
 20
0.0
 30
0.0
  3
*Model_Space
  1

  0
ENDBLK
  5
21
330
1F
100
AcDbEntity
  8
0
100
AcDbBlockEnd
  0
BLOCK
  5
1C
330
1B
100
AcDbEntity
 67
     1
  8
0
100
AcDbBlockBegin
  2
*Paper_Space
 70
     0
 10
0.0
 20
0.0
 30
0.0
  3
*Paper_Space
  1

  0
ENDBLK
  5
1D
330
1B
100
AcDbEntity
 67
     1
  8
0
100
AcDbBlockEnd
  0
BLOCK
  5
24
330
23
100
AcDbEntity
  8
0
100
AcDbBlockBegin
  2
*Paper_Space0
 70
     0
 10
0.0
 20
0.0
 30
0.0
  3
*Paper_Space0
  1

  0
ENDBLK
  5
25
330
23
100
AcDbEntity
  8
0
100
AcDbBlockEnd
  0
BLOCK
  5
7F
330
7E
100
AcDbEntity
  8
0
100
AcDbBlockBegin
  2
블럭10
 70
     2
 10
0.0
 20
0.0
 30
0.0
  3
블럭10
  1

  0
ELLIPSE
  5
81
330
7E
100
AcDbEntity
  8
중심선
100
AcDbEllipse
 10
20.54032771741204
 20
12.0471743016438
 30
0.0
 11
6.600054785286829
 21
-1.261213355974178E-13
 31
0.0
210
0.0
220
0.0
230
1.0
 40
0.636358354079598
 41
0.9219305317359503
 42
6.513795318482858
  0
ELLIPSE
  5
82
330
7E
100
AcDbEntity
  8
중심선
100
AcDbEllipse
 10
20.54032771746488
 20
12.04717430159265
 30
0.0
 11
3.960054785062283
 21
1.540847449632565E-10
 31
0.0
210
0.0
220
0.0
230
1.0
 40
0.3939339440162632
 41
1.131841032648279
 42
5.62031148352944
  0
LINE
  5
83
330
7E
100
AcDbEntity
  8
중심선
100
AcDbLine
 10
2.268634060543552
 20
16.24717430164393
 30
0.0
 11
5.714909304380834
 21
16.24717430164393
 31
0.0
  0
LINE
  5
84
330
7E
100
AcDbEntity
  8
중심선
100
AcDbLine
 10
5.245725140726316
 20
7.84717430164391
 30
0.0
 11
8.692000384563599
 21
7.84717430164391
 31
0.0
  0
LINE
  5
85
330
7E
100
AcDbEntity
  8
중심선
100
AcDbLine
 10
15.74043728645272
 20
16.24717430164393
 30
0.0
 11
8.692000384563599
 21
7.84717430164391
 31
0.0
  0
LINE
  5
86
330
7E
100
AcDbEntity
  8
중심선
100
AcDbLine
 10
0.1404042013395286
 20
13.71084872107135
 30
0.0
 11
3.58671253028996
 21
13.71088815037384
 31
0.0
  0
LINE
  5
87
330
7E
100
AcDbEntity
  8
중심선
100
AcDbLine
 10
2.750260043222114
 20
10.84717430164391
 30
0.0
 11
6.196535287059397
 21
10.84717430164391
 31
0.0
  0
LINE
  5
88
330
7E
100
AcDbEntity
  8
중심선
100
AcDbLine
 10
12.29416204261559
 20
16.24717430164393
 30
0.0
 11
5.245725140726316
 21
7.84717430164391
 31
0.0
  0
LINE
  5
89
330
7E
100
AcDbEntity
  8
중심선
100
AcDbLine
 10
10.72767329541681
 20
16.24717430164393
 30
0.0
 11
6.196535287059397
 21
10.84717430164391
 31
0.0
  0
LINE
  5
8A
330
7E
100
AcDbEntity
  8
중심선
100
AcDbLine
 10
7.28139805157953
 20
16.24717430164393
 30
0.0
 11
2.750260043222114
 21
10.84717430164391
 31
0.0
  0
LINE
  5
8B
330
7E
100
AcDbEntity
  8
중심선
100
AcDbLine
 10
5.714909304380834
 20
16.24717430164393
 30
0.0
 11
3.58671253028996
 21
13.71088815037384
 31
0.0
  0
LINE
  5
8C
330
7E
100
AcDbEntity
  8
중심선
100
AcDbLine
 10
2.268634060543552
 20
16.24717430164393
 30
0.0
 11
0.1404042013395286
 21
13.71084872107135
 31
0.0
  0
LINE
  5
8D
330
7E
100
AcDbEntity
  8
중심선
100
AcDbLine
 10
7.28139805157953
 20
16.24717430164393
 30
0.0
 11
10.72767329541681
 21
16.24717430164393
 31
0.0
  0
LINE
  5
8E
330
7E
100
AcDbEntity
  8
중심선
100
AcDbLine
 10
12.29416204261559
 20
16.24717430164393
 30
0.0
 11
15.74043728645272
 21
16.24717430164393
 31
0.0
  0
LINE
  5
8F
330
7E
100
AcDbEntity
  8
중심선
100
AcDbLine
 10
19.22036997980202
 20
11.08717430171403
 30
0.0
 11
23.66174974927406
 21
11.08717430171406
 31
0.0
  0
LINE
  5
90
330
7E
100
AcDbEntity
  8
중심선
100
AcDbLine
 10
19.22039502424796
 20
13.00717430171391
 30
0.0
 11
19.22036997980202
 21
11.08717430171403
 31
0.0
  0
LINE
  5
91
330
7E
100
AcDbEntity
  8
중심선
100
AcDbLine
 10
19.22039502424796
 20
13.00717430171391
 30
0.0
 11
26.96566020931264
 21
13.00717430171391
 31
0.0
  0
LINE
  5
92
330
7E
100
AcDbEntity
  8
중심선
100
AcDbLine
 10
22.22332737316547
 20
13.45928029700563
 30
0.0
 11
24.52862924686651
 21
15.39360700705356
 31
0.0
  0
ATTDEF
  5
94
330
7E
100
AcDbEntity
  8
FORMAT
 62
     2
100
AcDbText
 10
-16.11926103943555
 20
2.075366912832191
 30
0.0
 40
4.233333333333333
  1
SEME7020060E [ 2 FLUTE ]
 41
0.75
  7
SLDTEXTSTYLE0
 11
-16.11926103943555
 21
-0.0412997538344756
 31
0.0
100
AcDbAttributeDefinition
  3

  2
AUTOATTR0
 70
     0
 74
     1
  0
ENDBLK
  5
80
330
7E
100
AcDbEntity
  8
0
100
AcDbBlockEnd
  0
BLOCK
  5
D7
330
D6
100
AcDbEntity
  8
0
100
AcDbBlockBegin
  2
_D
 70
     0
 10
0.0
 20
0.0
 30
0.0
  3
_D
  1

  0
LINE
  5
D9
330
D6
100
AcDbEntity
  8
치수문자_일반주서
 62
     0
370
    -2
100
AcDbLine
 10
72.06249999999999
 20
-9.999999999999769
 30
0.0
 11
84.50506868949861
 21
-9.999999999999723
 31
0.0
  0
LINE
  5
DA
330
D6
100
AcDbEntity
  8
치수문자_일반주서
 62
     0
370
    -2
100
AcDbLine
 10
72.0624999999997
 20
10.00000000000022
 30
0.0
 11
84.50506868949854
 21
10.00000000000027
 31
0.0
  0
LINE
  5
DB
330
D6
100
AcDbEntity
  8
치수문자_일반주서
 62
     0
370
    -2
100
AcDbLine
 10
84.50506868949861
 20
-9.999999999999723
 30
0.0
 11
84.50506868949849
 21
24.91650000000027
 31
0.0
  0
LINE
  5
DC
330
D6
100
AcDbEntity
  8
치수문자_일반주서
 62
     0
370
    -2
100
AcDbLine
 10
84.50506868949861
 20
-9.999999999999723
 30
0.0
 11
84.50506868949854
 21
10.00000000000027
 31
0.0
  0
LINE
  5
DD
330
D6
100
AcDbEntity
  8
치수문자_일반주서
 62
     0
370
    -2
100
AcDbLine
 10
84.50506868949863
 20
-13.30199999999972
 30
0.0
 11
84.50506868949864
 21
-16.60399999999972
 31
0.0
  0
LINE
  5
DE
330
D6
100
AcDbEntity
  8
치수문자_일반주서
 62
     0
370
    -2
100
AcDbLine
 10
84.50506868949853
 20
13.30200000000027
 30
0.0
 11
84.50506868949851
 21
16.60400000000027
 31
0.0
  0
SOLID
  5
DF
330
D6
100
AcDbEntity
  8
치수문자_일반주서
 62
     0
100
AcDbTrace
 10
85.05540202283196
 20
-13.30199999999972
 30
0.0
 11
83.9547353561653
 21
-13.30199999999972
 31
0.0
 12
84.50506868949861
 22
-9.999999999999723
 32
0.0
 13
84.50506868949861
 23
-9.999999999999723
 33
0.0
  0
SOLID
  5
E0
330
D6
100
AcDbEntity
  8
치수문자_일반주서
 62
     0
100
AcDbTrace
 10
83.9547353561652
 20
13.30200000000027
 30
0.0
 11
85.05540202283186
 21
13.30200000000027
 31
0.0
 12
84.50506868949854
 22
10.00000000000027
 32
0.0
 13
84.50506868949854
 23
10.00000000000027
 33
0.0
  0
MTEXT
  5
E1
330
D6
100
AcDbEntity
  8
치수문자_일반주서
 62
     0
100
AcDbMText
 10
80.1300686894985
 20
20.76025000000025
 30
0.0
 40
3.5
 41
0.0
 71
     2
 72
     1
  1
\A1;%%c20
  7
SLDTEXTSTYLE0
 11
-3.552713678800503E-15
 21
1.0
 31
0.0
 73
     1
 44
1.0
  0
POINT
  5
139
330
D6
100
AcDbEntity
  8
Defpoints
 62
     0
100
AcDbPoint
 10
71.99999999999999
 20
-9.999999999999769
 30
0.0
  0
POINT
  5
13A
330
D6
100
AcDbEntity
  8
Defpoints
 62
     0
100
AcDbPoint
 10
71.9999999999997
 20
10.00000000000022
 30
0.0
  0
POINT
  5
13B
330
D6
100
AcDbEntity
  8
Defpoints
 62
     0
100
AcDbPoint
 10
84.50506868949854
 20
10.00000000000027
 30
0.0
  0
ENDBLK
  5
D8
330
D6
100
AcDbEntity
  8
0
100
AcDbBlockEnd
  0
BLOCK
  5
E5
330
E4
100
AcDbEntity
  8
0
100
AcDbBlockBegin
  2
_D_1
 70
     0
 10
0.0
 20
0.0
 30
0.0
  3
_D_1
  1

  0
LINE
  5
E7
330
E4
100
AcDbEntity
  8
치수문자_일반주서
 62
     0
370
    -2
100
AcDbLine
 10
-58.00000000000001
 20
9.062499999999995
 30
0.0
 11
-58.00000000000002
 21
30.78841044024269
 31
0.0
  0
LINE
  5
E8
330
E4
100
AcDbEntity
  8
치수문자_일반주서
 62
     0
370
    -2
100
AcDbLine
 10
71.9999999999997
 20
10.06250000000022
 30
0.0
 11
71.9999999999997
 21
30.78841044024269
 31
0.0
  0
LINE
  5
E9
330
E4
100
AcDbEntity
  8
치수문자_일반주서
 62
     0
370
    -2
100
AcDbLine
 10
-54.69800000000002
 20
30.78841044024269
 30
0.0
 11
68.6979999999997
 21
30.78841044024269
 31
0.0
  0
SOLID
  5
EA
330
E4
100
AcDbEntity
  8
치수문자_일반주서
 62
     0
100
AcDbTrace
 10
-54.69800000000002
 20
31.33874377357603
 30
0.0
 11
-54.69800000000002
 21
30.23807710690936
 31
0.0
 12
-58.00000000000002
 22
30.78841044024269
 32
0.0
 13
-58.00000000000002
 23
30.78841044024269
 33
0.0
  0
SOLID
  5
EB
330
E4
100
AcDbEntity
  8
치수문자_일반주서
 62
     0
100
AcDbTrace
 10
68.6979999999997
 20
30.23807710690936
 30
0.0
 11
68.6979999999997
 21
31.33874377357603
 31
0.0
 12
71.9999999999997
 22
30.78841044024269
 32
0.0
 13
71.9999999999997
 23
30.78841044024269
 33
0.0
  0
MTEXT
  5
EC
330
E4
100
AcDbEntity
  8
치수문자_일반주서
 62
     0
100
AcDbMText
 10
6.999999999999853
 20
35.16341044024269
 30
0.0
 40
3.5
 41
0.0
 71
     2
 72
     1
  1
\A1;130
  7
SLDTEXTSTYLE0
 73
     1
 44
1.0
  0
POINT
  5
130
330
E4
100
AcDbEntity
  8
Defpoints
 62
     0
100
AcDbPoint
 10
-58.00000000000001
 20
8.999999999999995
 30
0.0
  0
POINT
  5
131
330
E4
100
AcDbEntity
  8
Defpoints
 62
     0
100
AcDbPoint
 10
71.9999999999997
 20
10.00000000000022
 30
0.0
  0
POINT
  5
132
330
E4
100
AcDbEntity
  8
Defpoints
 62
     0
100
AcDbPoint
 10
71.9999999999997
 20
30.78841044024269
 30
0.0
  0
ENDBLK
  5
E6
330
E4
100
AcDbEntity
  8
0
100
AcDbBlockEnd
  0
BLOCK
  5
EF
330
EE
100
AcDbEntity
  8
0
100
AcDbBlockBegin
  2
_D_2
 70
     0
 10
0.0
 20
0.0
 30
0.0
  3
_D_2
  1

  0
LINE
  5
F1
330
EE
100
AcDbEntity
  8
치수문자_일반주서
 62
     0
370
    -2
100
AcDbLine
 10
12.0
 20
6.765709258506845
 30
0.0
 11
12.0
 21
20.05020706467436
 31
0.0
  0
LINE
  5
F2
330
EE
100
AcDbEntity
  8
치수문자_일반주서
 62
     0
370
    -2
100
AcDbLine
 10
71.9999999999997
 20
10.06250000000022
 30
0.0
 11
71.9999999999997
 21
20.05020706467436
 31
0.0
  0
LINE
  5
F3
330
EE
100
AcDbEntity
  8
치수문자_일반주서
 62
     0
370
    -2
100
AcDbLine
 10
15.302
 20
20.05020706467436
 30
0.0
 11
68.6979999999997
 21
20.05020706467436
 31
0.0
  0
SOLID
  5
F4
330
EE
100
AcDbEntity
  8
치수문자_일반주서
 62
     0
100
AcDbTrace
 10
15.302
 20
20.60054039800769
 30
0.0
 11
15.302
 21
19.49987373134102
 31
0.0
 12
12.0
 22
20.05020706467436
 32
0.0
 13
12.0
 23
20.05020706467436
 33
0.0
  0
SOLID
  5
F5
330
EE
100
AcDbEntity
  8
치수문자_일반주서
 62
     0
100
AcDbTrace
 10
68.6979999999997
 20
19.49987373134102
 30
0.0
 11
68.6979999999997
 21
20.60054039800769
 31
0.0
 12
71.9999999999997
 22
20.05020706467436
 32
0.0
 13
71.9999999999997
 23
20.05020706467436
 33
0.0
  0
MTEXT
  5
F6
330
EE
100
AcDbEntity
  8
치수문자_일반주서
 62
     0
100
AcDbMText
 10
42.00000000000001
 20
24.42520706467436
 30
0.0
 40
3.5
 41
0.0
 71
     2
 72
     1
  1
\A1;60
  7
SLDTEXTSTYLE0
 73
     1
 44
1.0
  0
POINT
  5
133
330
EE
100
AcDbEntity
  8
Defpoints
 62
     0
100
AcDbPoint
 10
12.0
 20
6.703209258506845
 30
0.0
  0
POINT
  5
134
330
EE
100
AcDbEntity
  8
Defpoints
 62
     0
100
AcDbPoint
 10
71.9999999999997
 20
10.00000000000022
 30
0.0
  0
POINT
  5
135
330
EE
100
AcDbEntity
  8
Defpoints
 62
     0
100
AcDbPoint
 10
71.9999999999997
 20
20.05020706467436
 30
0.0
  0
ENDBLK
  5
F0
330
EE
100
AcDbEntity
  8
0
100
AcDbBlockEnd
  0
BLOCK
  5
F9
330
F8
100
AcDbEntity
  8
0
100
AcDbBlockBegin
  2
_D_3
 70
     0
 10
0.0
 20
0.0
 30
0.0
  3
_D_3
  1

  0
LINE
  5
FB
330
F8
100
AcDbEntity
  8
치수문자_일반주서
 62
     0
370
    -2
100
AcDbLine
 10
-57.06250000000001
 20
9.999999999999998
 30
0.0
 11
-70.3408765390809
 21
9.999999999999948
 31
0.0
  0
LINE
  5
FC
330
F8
100
AcDbEntity
  8
치수문자_일반주서
 62
     0
370
    -2
100
AcDbLine
 10
-57.06250000000001
 20
-9.999999999999995
 30
0.0
 11
-70.34087653908082
 21
-10.00000000000004
 31
0.0
  0
LINE
  5
FD
330
F8
100
AcDbEntity
  8
치수문자_일반주서
 62
     0
370
    -2
100
AcDbLine
 10
-70.3408765390809
 20
9.999999999999948
 30
0.0
 11
-70.34087653908095
 21
24.91649999999995
 31
0.0
  0
LINE
  5
FE
330
F8
100
AcDbEntity
  8
치수문자_일반주서
 62
     0
370
    -2
100
AcDbLine
 10
-70.3408765390809
 20
9.999999999999948
 30
0.0
 11
-70.34087653908082
 21
-10.00000000000004
 31
0.0
  0
LINE
  5
FF
330
F8
100
AcDbEntity
  8
치수문자_일반주서
 62
     0
370
    -2
100
AcDbLine
 10
-70.34087653908091
 20
13.30199999999995
 30
0.0
 11
-70.34087653908092
 21
16.60399999999995
 31
0.0
  0
LINE
  5
100
330
F8
100
AcDbEntity
  8
치수문자_일반주서
 62
     0
370
    -2
100
AcDbLine
 10
-70.34087653908081
 20
-13.30200000000004
 30
0.0
 11
-70.3408765390808
 21
-16.60400000000004
 31
0.0
  0
SOLID
  5
101
330
F8
100
AcDbEntity
  8
치수문자_일반주서
 62
     0
100
AcDbTrace
 10
-70.89120987241424
 20
13.30199999999995
 30
0.0
 11
-69.79054320574758
 21
13.30199999999995
 31
0.0
 12
-70.3408765390809
 22
9.999999999999948
 32
0.0
 13
-70.3408765390809
 23
9.999999999999948
 33
0.0
  0
SOLID
  5
102
330
F8
100
AcDbEntity
  8
치수문자_일반주서
 62
     0
100
AcDbTrace
 10
-69.79054320574748
 20
-13.30200000000004
 30
0.0
 11
-70.89120987241414
 21
-13.30200000000004
 31
0.0
 12
-70.34087653908082
 22
-10.00000000000004
 32
0.0
 13
-70.34087653908082
 23
-10.00000000000004
 33
0.0
  0
MTEXT
  5
103
330
F8
100
AcDbEntity
  8
치수문자_일반주서
 62
     0
100
AcDbMText
 10
-74.71587653908094
 20
20.76024999999993
 30
0.0
 40
3.5
 41
0.0
 71
     2
 72
     1
  1
\A1;%%c20
  7
SLDTEXTSTYLE0
 11
-3.552713678800503E-15
 21
1.0
 31
0.0
 73
     1
 44
1.0
  0
POINT
  5
136
330
F8
100
AcDbEntity
  8
Defpoints
 62
     0
100
AcDbPoint
 10
-57.00000000000001
 20
9.999999999999998
 30
0.0
  0
POINT
  5
137
330
F8
100
AcDbEntity
  8
Defpoints
 62
     0
100
AcDbPoint
 10
-57.00000000000001
 20
-9.999999999999995
 30
0.0
  0
POINT
  5
138
330
F8
100
AcDbEntity
  8
Defpoints
 62
     0
100
AcDbPoint
 10
-70.34087653908084
 20
-10.00000000000004
 30
0.0
  0
ENDBLK
  5
FA
330
F8
100
AcDbEntity
  8
0
100
AcDbBlockEnd
  0
BLOCK
  5
105
330
104
100
AcDbEntity
  8
0
100
AcDbBlockBegin
  2
SW_DOWELSYMBOL_0
 70
     0
 10
0.0
 20
0.0
 30
0.0
  3
SW_DOWELSYMBOL_0
  1

  0
CIRCLE
  5
107
330
104
100
AcDbEntity
  8
외형선
 62
     0
100
AcDbCircle
 10
0.0
 20
0.0
 30
0.0
 40
3.000000000000004
  0
HATCH
  5
108
330
104
100
AcDbEntity
  8
0
  6
Continuous
 62
     0
370
    30
100
AcDbHatch
 10
0.0
 20
0.0
 30
0.0
210
0.0
220
0.0
230
1.0
  2
SOLID
 70
     1
 71
     0
 91
        1
 92
        0
 93
        3
 72
     2
 10
0.0000000000000104
 20
0.0
 40
3.000000000000004
 50
0.0
 51
90.0
 73
     1
 72
     1
 10
0.0000000000000104
 20
3.000000000000004
 11
0.0000000000000104
 21
0.0
 72
     1
 10
0.0000000000000104
 20
0.0
 11
3.000000000000015
 21
0.0
 97
        0
 75
     0
 76
     1
 98
        1
 10
0.0
 20
0.0
  0
HATCH
  5
109
330
104
100
AcDbEntity
  8
0
  6
Continuous
 62
     0
370
    30
100
AcDbHatch
 10
0.0
 20
0.0
 30
0.0
210
0.0
220
0.0
230
1.0
  2
SOLID
 70
     1
 71
     0
 91
        1
 92
        0
 93
        3
 72
     2
 10
0.0000000000000104
 20
0.0
 40
3.000000000000004
 50
180.0
 51
270.0000000000008
 73
     1
 72
     1
 10
0.0000000000000104
 20
-3.000000000000004
 11
0.0000000000000104
 21
0.0
 72
     1
 10
0.0000000000000104
 20
0.0
 11
-2.999999999999994
 21
0.0
 97
        0
 75
     0
 76
     1
 98
        1
 10
0.0
 20
0.0
  0
ENDBLK
  5
106
330
104
100
AcDbEntity
  8
0
100
AcDbBlockEnd
  0
ENDSEC
  0
SECTION
  2
ENTITIES
  0
LINE
  5
95
330
1F
100
AcDbEntity
  8
0
  6
Continuous
 62
     1
370
    15
100
AcDbLine
 10
40.56114388451618
 20
2.815797037258377
 30
0.0
 11
40.45314885709447
 21
2.875163936307653
 31
0.0
  0
SPLINE
  5
96
330
1F
100
AcDbEntity
  8
0
  6
Continuous
 62
     1
370
    15
100
AcDbSpline
210
0.0
220
0.0
230
1.0
 70
     8
 71
     3
 72
     9
 73
     5
 74
     0
 42
0.000000001
 43
0.00000001
 40
0.0
 40
0.0
 40
0.0
 40
0.0
 40
0.5188580511748514
 40
1.0
 40
1.0
 40
1.0
 40
1.0
 10
46.09298214277695
 20
2.562430068776785
 30
0.0
 10
45.61363599157587
 20
2.79094877307495
 30
0.0
 10
44.68978764786084
 20
3.231375020255135
 30
0.0
 10
43.7635495029528
 20
3.716648284982191
 30
0.0
 10
43.31789747683555
 20
3.950133609285708
 30
0.0
  0
LINE
  5
97
330
1F
100
AcDbEntity
  8
0
  6
Continuous
 62
     1
370
    15
100
AcDbLine
 10
23.1460349546708
 20
10.00000000000001
 30
0.0
 11
18.29739632144714
 21
10.00000000000001
 31
0.0
  0
SPLINE
  5
98
330
1F
100
AcDbEntity
  8
0
  6
Continuous
 62
     1
370
    15
100
AcDbSpline
210
0.0
220
0.0
230
1.0
 70
     8
 71
     3
 72
    18
 73
    14
 74
     0
 42
0.000000001
 43
0.00000001
 40
0.0
 40
0.0
 40
0.0
 40
0.0
 40
0.1284918497851792
 40
0.2310799061106265
 40
0.3146232031370149
 40
0.3935761995907996
 40
0.4679485185991122
 40
0.5334896876668807
 40
0.6364611884618318
 40
0.7725570818113636
 40
0.8964822798618378
 40
0.9859272010710389
 40
1.0
 40
1.0
 40
1.0
 40
1.0
 10
42.78748391792053
 20
7.946391240798691
 30
0.0
 10
42.44515331000251
 20
7.928991464275539
 30
0.0
 10
41.82950550923737
 20
7.897699684041711
 30
0.0
 10
40.97154874898428
 20
7.865060051564552
 30
0.0
 10
40.23890124459851
 20
7.843105787504135
 30
0.0
 10
39.58965922716776
 20
7.827836957936174
 30
0.0
 10
38.99429111190518
 20
7.817876158117448
 30
0.0
 10
38.33285278308694
 20
7.810789865752715
 30
0.0
 10
37.50305868930597
 20
7.807994911367878
 30
0.0
 10
36.51484176289732
 20
7.814734099652187
 30
0.0
 10
35.56333640310796
 20
7.8326957187554
 30
0.0
 10
34.94391797513257
 20
7.848496361030272
 30
0.0
 10
34.6620316805384
 20
7.858448664985592
 30
0.0
 10
34.62371042366219
 20
7.859801638875051
 30
0.0
  0
SPLINE
  5
99
330
1F
100
AcDbEntity
  8
0
  6
Continuous
 62
     1
370
    15
100
AcDbSpline
210
0.0
220
0.0
230
1.0
 70
     8
 71
     3
 72
    28
 73
    24
 74
     0
 42
0.000000001
 43
0.00000001
 40
0.0
 40
0.0
 40
0.0
 40
0.0
 40
0.071154369253212
 40
0.1231454392129791
 40
0.1573708590672106
 40
0.1917575994840418
 40
0.2336727126249906
 40
0.276661823131837
 40
0.3117111940835293
 40
0.3641152746349793
 40
0.4254882538756795
 40
0.5000363999291522
 40
0.5520268276373629
 40
0.5919677624154397
 40
0.6359193906375369
 40
0.6866218547288649
 40
0.7429619955783469
 40
0.7781001743175805
 40
0.806244859228225
 40
0.8301085199837573
 40
0.8685228736417089
 40
0.925211428233026
 40
1.0
 40
1.0
 40
1.0
 40
1.0
 10
27.74541607684513
 20
-8.32139688299048
 30
0.0
 10
28.10065497975378
 20
-8.286814091983754
 30
0.0
 10
28.71545982144306
 20
-8.226962349463504
 30
0.0
 10
29.50221937104728
 20
-8.159101472515196
 30
0.0
 10
30.11064942357842
 20
-8.110048071375143
 30
0.0
 10
30.66734645085452
 20
-8.067852231963684
 30
0.0
 10
31.26623087826903
 20
-8.025939461793328
 30
0.0
 10
31.86742671000147
 20
-7.987727607991517
 30
0.0
 10
32.52140044191422
 20
-7.950009568118036
 30
0.0
 10
33.26773713288814
 20
-7.911891004612692
 30
0.0
 10
34.21195395055128
 20
-7.871849836381564
 30
0.0
 10
35.15421915992059
 20
-7.842121664315735
 30
0.0
 10
35.98899978776395
 20
-7.824096744409324
 30
0.0
 10
36.67045746958907
 20
-7.814344464741843
 30
0.0
 10
37.34510090232651
 20
-7.809218037229331
 30
0.0
 10
38.10209021564055
 20
-7.809216664742316
 30
0.0
 10
38.81526693077587
 20
-7.815299701954766
 30
0.0
 10
39.41470539339553
 20
-7.824783038027211
 30
0.0
 10
39.84995505397903
 20
-7.833881437165304
 30
0.0
 10
40.2977973194991
 20
-7.845015415344033
 30
0.0
 10
40.89456863585932
 20
-7.862900624595478
 30
0.0
 10
41.74806637271909
 20
-7.894275400829625
 30
0.0
 10
42.41060810007155
 20
-7.927494888796637
 30
0.0
 10
42.78748391792053
 20
-7.94639124079868
 30
0.0
  0
SPLINE
  5
9A
330
1F
100
AcDbEntity
  8
0
  6
Continuous
 62
     1
370
    15
100
AcDbSpline
210
0.0
220
0.0
230
1.0
 70
     8
 71
     3
 72
    18
 73
    14
 74
     0
 42
0.000000001
 43
0.00000001
 40
0.0
 40
0.0
 40
0.0
 40
0.0
 40
0.132091389049621
 40
0.2530520245111661
 40
0.3597563889497233
 40
0.4387408927139316
 40
0.5071314755127821
 40
0.5892020071792501
 40
0.6647412754507441
 40
0.7550391025948867
 40
0.8612291913087936
 40
0.9716482680264612
 40
1.0
 40
1.0
 40
1.0
 40
1.0
 10
50.81438318560592
 20
-7.521342989920847
 30
0.0
 10
51.12546524268314
 20
-7.472781585111488
 30
0.0
 10
51.72141585610972
 20
-7.37975082899234
 30
0.0
 10
52.64615878837096
 20
-7.251719379880109
 30
0.0
 10
53.43014279414292
 20
-7.149285415829365
 30
0.0
 10
54.07710570593339
 20
-7.071040470729932
 30
0.0
 10
54.61582439763956
 20
-7.010945099118635
 30
0.0
 10
55.17845744365719
 20
-6.950975335518129
 30
0.0
 10
55.79761778840052
 20
-6.890159405145141
 30
0.0
 10
56.477152643626
 20
-6.828853052487753
 30
0.0
 10
57.24385969903654
 20
-6.768341222247152
 30
0.0
 10
57.85575806585831
 20
-6.725519460471044
 30
0.0
 10
58.20231026820911
 20
-6.705838278246219
 30
0.0
 10
58.27311302023277
 20
-6.701817291349742
 30
0.0
  0
SPLINE
  5
9B
330
1F
100
AcDbEntity
  8
0
  6
Continuous
 62
     1
370
    15
100
AcDbSpline
210
0.0
220
0.0
230
1.0
 70
     8
 71
     3
 72
     9
 73
     5
 74
     0
 42
0.000000001
 43
0.00000001
 40
0.0
 40
0.0
 40
0.0
 40
0.0
 40
0.4992671628815505
 40
1.0
 40
1.0
 40
1.0
 40
1.0
 10
13.87096259372705
 20
6.839525363210126
 30
0.0
 10
13.55907227389533
 20
6.813712845799861
 30
0.0
 10
12.93437603304579
 20
6.762012034432088
 30
0.0
 10
12.31176286037751
 20
6.722727652295848
 30
0.0
 10
12.0
 20
6.703056672174321
 30
0.0
  0
SPLINE
  5
9C
330
1F
100
AcDbEntity
  8
0
  6
Continuous
 62
     1
370
    15
100
AcDbSpline
210
0.0
220
0.0
230
1.0
 70
     8
 71
     3
 72
    32
 73
    28
 74
     0
 42
0.000000001
 43
0.00000001
 40
0.0
 40
0.0
 40
0.0
 40
0.0
 40
0.0719578488684501
 40
0.1252142957643475
 40
0.1594378403790435
 40
0.1811589556191658
 40
0.2054334032173549
 40
0.2346077613866904
 40
0.2672833051284413
 40
0.2957075282859771
 40
0.3192079484018118
 40
0.3396468953885063
 40
0.3818552087756026
 40
0.4331983718255414
 40
0.4812068973608739
 40
0.5223878202578832
 40
0.5579797011384187
 40
0.6098350951928404
 40
0.6699457147418166
 40
0.7193949257700809
 40
0.759088199989263
 40
0.7923787170389723
 40
0.8194240418909751
 40
0.853358494482283
 40
0.8977210871604963
 40
0.946685388275706
 40
1.0
 40
1.0
 40
1.0
 40
1.0
 10
68.28495740659957
 20
6.839526558600551
 30
0.0
 10
67.86146728736124
 20
6.805270063707937
 30
0.0
 10
67.12454952401157
 20
6.745660126073817
 30
0.0
 10
66.20523369617996
 20
6.689615608387411
 30
0.0
 10
65.58436178976231
 20
6.658146317625495
 30
0.0
 10
65.1952945358432
 20
6.63679842674077
 30
0.0
 10
64.75399201825492
 20
6.618407732957618
 30
0.0
 10
64.23818806154328
 20
6.603779887240397
 30
0.0
 10
63.69196850396892
 20
6.593095182590107
 30
0.0
 10
63.18258575572342
 20
6.585506054698001
 30
0.0
 10
62.74893225267613
 20
6.581625833350206
 30
0.0
 10
62.24553690442735
 20
6.579948041857201
 30
0.0
 10
61.57797186750703
 20
6.583152368644568
 30
0.0
 10
60.74940127047369
 20
6.597128753921385
 30
0.0
 10
59.92670293436404
 20
6.621485269907395
 30
0.0
 10
59.19660004707651
 20
6.651535817628355
 30
0.0
 10
58.44397548287122
 20
6.689886094405706
 30
0.0
 10
57.58052604701981
 20
6.743271832743499
 30
0.0
 10
56.63565029141331
 20
6.814777173505514
 30
0.0
 10
55.7621287322594
 20
6.89298387693924
 30
0.0
 10
55.0454231580657
 20
6.964577925768494
 30
0.0
 10
54.46764742846378
 20
7.027380722794728
 30
0.0
 10
53.94801921477572
 20
7.086027279763748
 30
0.0
 10
53.31157017430684
 20
7.164643499091551
 30
0.0
 10
52.55157351785104
 20
7.26434355365312
 30
0.0
 10
51.67131811998814
 20
7.387507811992728
 30
0.0
 10
51.10801464249112
 20
7.475483944267808
 30
0.0
 10
50.81438318560592
 20
7.52134298992086
 30
0.0
  0
LINE
  5
9D
330
1F
100
AcDbEntity
  8
0
  6
Continuous
 62
     1
370
    15
100
AcDbLine
 10
18.29739632144711
 20
-10.0
 30
0.0
 11
23.14603495467079
 21
-10.0
 31
0.0
  0
LINE
  5
9E
330
1F
100
AcDbEntity
  8
0
  6
Continuous
 62
   131
370
    15
100
AcDbLine
 10
8.949893257318955
 20
10.00000000000001
 30
0.0
 11
-57.00000000000001
 21
10.0
 31
0.0
  0
LINE
  5
9F
330
1F
100
AcDbEntity
  8
0
  6
Continuous
 62
   131
370
    15
100
AcDbLine
 10
-57.00000000000001
 20
-9.999999999999998
 30
0.0
 11
8.949893257318955
 21
-9.999999999999995
 31
0.0
  0
LINE
  5
A0
330
1F
100
AcDbEntity
  8
0
  6
Continuous
 62
   131
370
    15
100
AcDbLine
 10
-57.00000000000001
 20
9.999999999999998
 30
0.0
 11
-58.00000000000001
 21
8.999999999999995
 31
0.0
  0
LINE
  5
A1
330
1F
100
AcDbEntity
  8
0
  6
Continuous
 62
   131
370
    15
100
AcDbLine
 10
-58.00000000000001
 20
-8.999999999999995
 30
0.0
 11
-57.00000000000001
 21
-9.999999999999995
 31
0.0
  0
SPLINE
  5
A2
330
1F
100
AcDbEntity
  8
0
  6
Continuous
 62
   131
370
    15
100
AcDbSpline
210
0.0
220
0.0
230
1.0
 70
     8
 71
     3
 72
     9
 73
     5
 74
     0
 42
0.000000001
 43
0.00000001
 40
0.0
 40
0.0
 40
0.0
 40
0.0
 40
0.4663632694242041
 40
1.0
 40
1.0
 40
1.0
 40
1.0
 10
12.0
 20
6.703056672174322
 30
0.0
 10
11.52083751015036
 20
6.676973466021606
 30
0.0
 10
10.49339276639678
 20
6.621044519934316
 30
0.0
 10
9.474988135629616
 20
6.599715743134436
 30
0.0
 10
8.931530018063777
 20
6.588333924415769
 30
0.0
  0
SPLINE
  5
A3
330
1F
100
AcDbEntity
  8
0
  6
Continuous
 62
     1
370
    15
100
AcDbSpline
210
0.0
220
0.0
230
1.0
 70
     8
 71
     3
 72
    10
 73
     6
 74
     0
 42
0.000000001
 43
0.00000001
 40
0.0
 40
0.0
 40
0.0
 40
0.0
 40
0.5
 40
0.5
 40
1.0
 40
1.0
 40
1.0
 40
1.0
 10
71.99999999999999
 20
-2.672429460296437
 30
0.0
 10
71.1432431594078
 20
-1.998877176673853
 30
0.0
 10
70.29803636418455
 20
-1.303046910902136
 30
0.0
 10
68.63067637845717
 20
0.1330799216816943
 30
0.0
 10
67.80798421885811
 20
0.8737316691697601
 30
0.0
 10
67.00000000000226
 20
1.639931148972209
 30
0.0
  0
LINE
  5
A4
330
1F
100
AcDbEntity
  8
0
  6
Continuous
 62
     1
370
    15
100
AcDbLine
 10
66.99999999999999
 20
2.937719435296599
 30
0.0
 11
71.99999999999999
 21
0.0000000000000123
 31
0.0
  0
LINE
  5
A5
330
1F
100
AcDbEntity
  8
0
  6
Continuous
 62
     1
370
    15
100
AcDbLine
 10
71.99999999999999
 20
0.0000000000000123
 30
0.0
 11
71.99999999999999
 21
-2.672429460296436
 31
0.0
  0
SPLINE
  5
A6
330
1F
100
AcDbEntity
  8
0
  6
Continuous
 62
     1
370
    15
100
AcDbSpline
210
0.0
220
0.0
230
1.0
 70
     8
 71
     3
 72
    70
 73
    66
 74
     0
 42
0.000000001
 43
0.00000001
 40
0.0
 40
0.0
 40
0.0
 40
0.0
 40
0.03125
 40
0.03125
 40
0.0625
 40
0.0625
 40
0.09375
 40
0.09375
 40
0.125
 40
0.125
 40
0.15625
 40
0.15625
 40
0.1875
 40
0.1875
 40
0.21875
 40
0.21875
 40
0.25
 40
0.25
 40
0.28125
 40
0.28125
 40
0.3125
 40
0.3125
 40
0.34375
 40
0.34375
 40
0.375
 40
0.375
 40
0.40625
 40
0.40625
 40
0.4375
 40
0.4375
 40
0.46875
 40
0.46875
 40
0.5
 40
0.5
 40
0.53125
 40
0.53125
 40
0.5625
 40
0.5625
 40
0.59375
 40
0.59375
 40
0.625
 40
0.625
 40
0.65625
 40
0.65625
 40
0.6875
 40
0.6875
 40
0.71875
 40
0.71875
 40
0.75
 40
0.75
 40
0.78125
 40
0.78125
 40
0.8125
 40
0.8125
 40
0.84375
 40
0.84375
 40
0.875
 40
0.875
 40
0.90625
 40
0.90625
 40
0.9375
 40
0.9375
 40
0.96875
 40
0.96875
 40
1.0
 40
1.0
 40
1.0
 40
1.0
 10
12.00000000000006
 20
9.346307657570243
 30
0.0
 10
12.62536084914199
 20
9.474653744248332
 30
0.0
 10
13.25302178443313
 20
9.584841761265519
 30
0.0
 10
14.50193736073885
 20
9.767022858858097
 30
0.0
 10
15.12446638388188
 20
9.839152495215851
 30
0.0
 10
16.37693933657262
 20
9.944970093493586
 30
0.0
 10
17.00347034222924
 20
9.978492983778473
 30
0.0
 10
18.24850672660478
 20
10.00645216290983
 30
0.0
 10
18.8755927885071
 20
10.00094438074329
 30
0.0
 10
20.1279275472683
 20
9.950823280876206
 30
0.0
 10
20.75005477161421
 20
9.90633581808378
 30
0.0
 10
21.99949801196607
 20
9.778802830786786
 30
0.0
 10
22.62718781048936
 20
9.695661856975352
 30
0.0
 10
23.87749562164289
 20
9.492062859070927
 30
0.0
 10
24.49910117091986
 20
9.37174958766367
 30
0.0
 10
25.75107702687845
 20
9.094438263336984
 30
0.0
 10
26.37841854410343
 20
8.937579237147233
 30
0.0
 10
27.62482083205987
 20
8.590360353931645
 30
0.0
 10
28.24978942784342
 20
8.399483536265302
 30
0.0
 10
29.50241094938726
 20
7.985349474046233
 30
0.0
 10
30.12589377160961
 20
7.762575601811739
 30
0.0
 10
31.37373624570849
 20
7.287563336838598
 30
0.0
 10
32.00129119039561
 20
7.034874276546677
 30
0.0
 10
33.25266818227408
 20
6.503482194100094
 30
0.0
 10
33.87401830479519
 20
6.225196994496842
 30
0.0
 10
35.12517256921639
 20
5.644170661006148
 30
0.0
 10
35.7527740185808
 20
5.341714379161348
 30
0.0
 10
37.00102253894295
 20
4.71826897049552
 30
0.0
 10
37.62412596411401
 20
4.396905420896468
 30
0.0
 10
38.87670919534671
 20
3.737155384467139
 30
0.0
 10
39.50221404400017
 20
3.399454438576168
 30
0.0
 10
40.74813482272372
 20
2.713055259178796
 30
0.0
 10
41.3753913140586
 20
2.363094956695732
 30
0.0
 10
42.62751350936297
 20
1.655737294915265
 30
0.0
 10
43.24927647257437
 20
1.298946279052264
 30
0.0
 10
44.49928536055109
 20
0.5804601784387429
 30
0.0
 10
45.12698310200416
 20
0.2188627548524185
 30
0.0
 10
46.3767565760104
 20
-0.5026988183691908
 30
0.0
 10
46.99866158611803
 20
-0.8626303566847399
 30
0.0
 10
48.25088150706414
 20
-1.579332266177658
 30
0.0
 10
48.87806844046366
 20
-1.935490924251284
 30
0.0
 10
50.12361729734296
 20
-2.637218829966745
 30
0.0
 10
50.74954757454507
 20
-2.984211135054045
 30
0.0
 10
52.00209035196552
 20
-3.665295207263675
 30
0.0
 10
52.62493406720235
 20
-3.998716936043117
 30
0.0
 10
53.87347478254218
 20
-4.649189216046432
 30
0.0
 10
54.50110509209078
 20
-4.966543799922274
 30
0.0
 10
55.75208092662616
 20
-5.579888209395533
 30
0.0
 10
56.3734553104938
 20
-5.875605425789378
 30
0.0
 10
57.62498721535346
 20
-6.44433801498664
 30
0.0
 10
58.25250141946607
 20
-6.716890946187554
 30
0.0
 10
59.50002838334707
 20
-7.233673447926495
 30
0.0
 10
60.12381931653741
 20
-7.478462749446863
 30
0.0
 10
61.37645769108678
 20
-7.938507995028813
 30
0.0
 10
62.00104913777056
 20
-8.153229137359302
 30
0.0
 10
63.2478001500218
 20
-8.549821294622253
 30
0.0
 10
63.87519936245803
 20
-8.732212303936397
 30
0.0
 10
65.12705392671296
 20
-9.06184961616307
 30
0.0
 10
65.7485659308573
 20
-9.208920338816064
 30
0.0
 10
66.99908570849298
 20
-9.467161425096675
 30
0.0
 10
67.62676361931018
 20
-9.5781511645353
 30
0.0
 10
68.87594803265479
 20
-9.76196213249142
 30
0.0
 10
69.49826578487674
 20
-9.834901205996113
 30
0.0
 10
70.75067468888422
 20
-9.94237305454953
 30
0.0
 10
71.37767934040532
 20
-9.976736924337576
 30
0.0
 10
71.99999999999999
 20
-9.999999999999769
 30
0.0
  0
SPLINE
  5
A7
330
1F
100
AcDbEntity
  8
0
  6
Continuous
 62
     1
370
    15
100
AcDbSpline
210
0.0
220
0.0
230
1.0
 70
     8
 71
     3
 72
    19
 73
    15
 74
     0
 42
0.000000001
 43
0.00000001
 40
0.0
 40
0.0
 40
0.0
 40
0.0
 40
0.0111871266105662
 40
0.1058867717744021
 40
0.2005860458456836
 40
0.2952849641252682
 40
0.3899835419275602
 40
0.4846817945799319
 40
0.579379737422144
 40
0.6740773858057627
 40
0.7695421022175438
 40
0.8650067580948203
 40
0.9604713550532877
 40
1.0
 40
1.0
 40
1.0
 40
1.0
 10
47.15171722030651
 20
-0.9484171575266925
 30
0.0
 10
47.02757867430071
 20
-0.8994396191815789
 30
0.0
 10
45.85260047418745
 20
-0.4358645113497928
 30
0.0
 10
43.62678800847147
 20
0.4758652778656508
 30
0.0
 10
40.47428379038896
 20
1.735906395239091
 30
0.0
 10
37.32179279926799
 20
2.942763905406918
 30
0.0
 10
34.16931418035905
 20
4.051306293051624
 30
0.0
 10
31.01684786601557
 20
5.026239966983611
 30
0.0
 10
27.86439160479398
 20
5.835313425111948
 30
0.0
 10
24.70343621510797
 20
6.452314397706146
 30
0.0
 10
21.5339553709553
 20
6.85956516193717
 30
0.0
 10
18.35596906260323
 20
7.023722944252389
 30
0.0
 10
15.7986794881934
 20
7.007819184649366
 30
0.0
 10
14.30071934096024
 20
6.855627279330593
 30
0.0
 10
13.8620874956276
 20
6.811062531464659
 30
0.0
  0
SPLINE
  5
A8
330
1F
100
AcDbEntity
  8
0
  6
Continuous
 62
   131
370
    15
100
AcDbSpline
210
0.0
220
0.0
230
1.0
 70
    24
 71
     3
 72
    11
 73
     7
 74
     0
 42
0.000000001
 43
0.00000001
 40
0.0
 40
0.0
 40
0.0
 40
0.0
 40
0.1957651063401033
 40
0.422393321063624
 40
0.6555937693670132
 40
0.9999999999999999
 40
0.9999999999999999
 40
0.9999999999999999
 40
0.9999999999999999
 10
11.99999999999999
 20
9.346307657570843
 30
0.0
 10
11.99999999999999
 20
9.155843859048892
 30
0.0
 10
11.99999999999999
 20
8.744888924821174
 30
0.0
 10
11.99999999999999
 20
8.132140407362858
 30
0.0
 10
11.99999999999999
 20
7.417989343039007
 30
0.0
 10
11.99999999999999
 20
7.006256716911207
 30
0.0
 10
12.0
 20
6.760755258973742
 30
0.0
  0
SPLINE
  5
A9
330
1F
100
AcDbEntity
  8
0
  6
Continuous
 62
     1
370
    15
100
AcDbSpline
210
0.0
220
0.0
230
1.0
 70
     8
 71
     3
 72
    24
 73
    20
 74
     0
 42
0.000000001
 43
0.00000001
 40
0.0
 40
0.0
 40
0.0
 40
0.0
 40
0.0641926796025149
 40
0.1283848093016196
 40
0.1925764120619451
 40
0.256767510883378
 40
0.3209581287995405
 40
0.3851482888762681
 40
0.4456744408205834
 40
0.506195674424457
 40
0.5667132271401895
 40
0.6272283399010409
 40
0.6877422559497268
 40
0.7482562196622602
 40
0.8087714753695082
 40
0.8692892661788412
 40
0.9298108327982457
 40
0.990337412365277
 40
1.0
 40
1.0
 40
1.0
 40
1.0
 10
71.99999999999999
 20
-9.489408692318985
 30
0.0
 10
70.95460172221662
 20
-9.269009309340506
 30
0.0
 10
68.86381412200244
 20
-8.828212431423944
 30
0.0
 10
65.72765244474364
 20
-7.795273348180617
 30
0.0
 10
62.59152204030912
 20
-6.529767405984399
 30
0.0
 10
59.45541832011615
 20
-5.044821585426016
 30
0.0
 10
56.31935381059468
 20
-3.396571395070767
 30
0.0
 10
53.24293748974752
 20
-1.670275398038435
 30
0.0
 10
50.22642620363343
 20
0.0721763997265869
 30
0.0
 10
47.26974814678854
 20
1.778170734650911
 30
0.0
 10
44.31329160590351
 20
3.432396199986343
 30
0.0
 10
41.3569765325663
 20
4.986865730894857
 30
0.0
 10
38.40073198380674
 20
6.396228003151768
 30
0.0
 10
35.44448465349272
 20
7.620181569669073
 30
0.0
 10
32.48816116527568
 20
8.620732793140743
 30
0.0
 10
29.5316908035068
 20
9.3778404498055
 30
0.0
 10
26.57499273055361
 20
9.835732881548555
 30
0.0
 10
24.44642472884023
 20
10.03104799716075
 30
0.0
 10
23.30339067187378
 20
9.986962760479681
 30
0.0
 10
23.14603495467081
 20
9.980893768927125
 30
0.0
  0
SPLINE
  5
AA
330
1F
100
AcDbEntity
  8
0
  6
Continuous
 62
     1
370
    15
100
AcDbSpline
210
0.0
220
0.0
230
1.0
 70
     8
 71
     3
 72
    16
 73
    12
 74
     0
 42
0.000000001
 43
0.00000001
 40
0.0
 40
0.0
 40
0.0
 40
0.0
 40
0.1214361214607172
 40
0.2428716358629019
 40
0.3643065618911557
 40
0.4857409182521978
 40
0.6071747236741702
 40
0.7286079969059428
 40
0.8500407567164158
 40
0.9714730218938198
 40
0.9999999999999999
 40
0.9999999999999999
 40
0.9999999999999999
 40
0.9999999999999999
 10
71.99999999999999
 20
-7.88972264368215
 30
0.0
 10
70.94911617623646
 20
-7.672626640013576
 30
0.0
 10
68.84735378207209
 20
-7.238435717938208
 30
0.0
 10
65.69472089284277
 20
-6.278165714302504
 30
0.0
 10
62.54210537259711
 20
-5.129242709517814
 30
0.0
 10
59.38950687958096
 20
-3.80570927577739
 30
0.0
 10
56.23692481041505
 20
-2.358345826456124
 30
0.0
 10
53.08435857145536
 20
-0.830661815939635
 30
0.0
 10
49.93180778791415
 20
0.7167043045587301
 30
0.0
 10
47.5832469803825
 20
1.87313055507419
 30
0.0
 10
46.28553692298271
 20
2.46594796163156
 30
0.0
 10
46.03867153752859
 20
2.578720531081274
 30
0.0
  0
LINE
  5
AB
330
1F
100
AcDbEntity
  8
0
  6
Continuous
 62
     1
370
    15
100
AcDbLine
 10
71.99999999999972
 20
-9.489408692318996
 30
0.0
 11
71.99999999999999
 21
-7.88972264368215
 31
0.0
  0
LINE
  5
AC
330
1F
100
AcDbEntity
  8
0
  6
Continuous
 62
     1
370
    15
100
AcDbLine
 10
71.99999999999999
 20
-9.999999999999769
 30
0.0
 11
71.99999999999994
 21
-9.489408692318982
 31
0.0
  0
SPLINE
  5
AD
330
1F
100
AcDbEntity
  8
0
  6
Continuous
 62
     1
370
    15
100
AcDbSpline
210
0.0
220
0.0
230
1.0
 70
     8
 71
     3
 72
    15
 73
    11
 74
     0
 42
0.000000001
 43
0.00000001
 40
0.0
 40
0.0
 40
0.0
 40
0.0
 40
0.1481613585218879
 40
0.2963067282119172
 40
0.4444255841685434
 40
0.5746097038342927
 40
0.7047932653141054
 40
0.834976289035569
 40
0.9651587954465983
 40
1.0
 40
1.0
 40
1.0
 40
1.0
 10
66.99999999999999
 20
2.277336188987582
 30
0.0
 10
65.80392218913673
 20
2.797418007657494
 30
0.0
 10
63.41189564213794
 20
3.83752552037188
 30
0.0
 10
59.82420255301322
 20
5.207394110662051
 30
0.0
 10
56.38166756671254
 20
6.315653539068077
 30
0.0
 10
53.08439021083357
 20
7.138930721987776
 30
0.0
 10
49.93182977183167
 20
7.696170503210847
 30
0.0
 10
46.7793007894889
 20
7.978686036583603
 30
0.0
 10
44.39637682622471
 20
8.050406270686553
 30
0.0
 10
43.06429830399644
 20
7.943189917413413
 30
0.0
 10
42.78305859606048
 20
7.920553492174712
 30
0.0
  0
SPLINE
  5
AE
330
1F
100
AcDbEntity
  8
0
  6
Continuous
 62
     1
370
    15
100
AcDbSpline
210
0.0
220
0.0
230
1.0
 70
    24
 71
     3
 72
     8
 73
     4
 74
     0
 42
0.000000001
 43
0.00000001
 40
0.0
 40
0.0
 40
0.0
 40
0.0
 40
1.0
 40
1.0
 40
1.0
 40
1.0
 10
66.99999999999999
 20
1.639931148963708
 30
0.0
 10
66.99999999999999
 20
1.854493127011638
 30
0.0
 10
67.0
 20
2.067125113709702
 30
0.0
 10
67.0
 20
2.277336188987585
 30
0.0
  0
SPLINE
  5
AF
330
1F
100
AcDbEntity
  8
0
  6
Continuous
 62
     1
370
    15
100
AcDbSpline
210
0.0
220
0.0
230
1.0
 70
    24
 71
     3
 72
    10
 73
     6
 74
     0
 42
0.000000001
 43
0.00000001
 40
0.0
 40
0.0
 40
0.0
 40
0.0
 40
0.5
 40
0.5
 40
1.0
 40
1.0
 40
1.0
 40
1.0
 10
71.99999999999999
 20
-7.889722643682147
 30
0.0
 10
71.99999999999999
 20
-7.284913890038035
 30
0.0
 10
71.99999999999999
 20
-6.520714839064672
 30
0.0
 10
71.99999999999999
 20
-4.744025591506785
 30
0.0
 10
71.99999999999999
 20
-3.733074430513086
 30
0.0
 10
71.99999999999999
 20
-2.672429460296756
 30
0.0
  0
SPLINE
  5
B0
330
1F
100
AcDbEntity
  8
0
  6
Continuous
 62
     1
370
    15
100
AcDbSpline
210
0.0
220
0.0
230
1.0
 70
     8
 71
     3
 72
    12
 73
     8
 74
     0
 42
0.000000001
 43
0.00000001
 40
0.0
 40
0.0
 40
0.0
 40
0.0
 40
0.192733893020282
 40
0.3945506011257985
 40
0.5963671861322263
 40
0.7981836513273587
 40
0.9999999999999999
 40
0.9999999999999999
 40
0.9999999999999999
 40
0.9999999999999999
 10
27.74681647170601
 20
-8.316262605149776
 30
0.0
 10
26.73517262713581
 20
-8.394858819131633
 30
0.0
 10
24.66421001259255
 20
-8.555755187626046
 30
0.0
 10
21.53390740411778
 20
-8.444660641011476
 30
0.0
 10
18.35593726818852
 20
-8.066107619650039
 30
0.0
 10
15.17796763665227
 20
-7.42654635355635
 30
0.0
 10
13.05932234167748
 20
-6.796071533772193
 30
0.0
 10
12.0
 20
-6.480834214884236
 30
0.0
  0
SPLINE
  5
B1
330
1F
100
AcDbEntity
  8
0
  6
Continuous
 62
     1
370
    15
100
AcDbSpline
210
0.0
220
0.0
230
1.0
 70
     8
 71
     3
 72
    20
 73
    16
 74
     0
 42
0.000000001
 43
0.00000001
 40
0.0
 40
0.0
 40
0.0
 40
0.0
 40
0.0229759172061907
 40
0.1041767802993375
 40
0.1853773207232718
 40
0.2665775512444564
 40
0.3477774846410757
 40
0.4289771337025566
 40
0.5101765112290894
 40
0.5913756300311441
 40
0.6725745029289899
 40
0.7544309516951223
 40
0.8362873498957384
 40
0.918143698880629
 40
1.0
 40
1.0
 40
1.0
 40
1.0
 10
50.823843213692
 20
-7.494827105884296
 30
0.0
 10
50.52650496098905
 20
-7.548971728371811
 30
0.0
 10
49.17832192444511
 20
-7.794472806333245
 30
0.0
 10
46.77930002925
 20
-7.979747748493609
 30
0.0
 10
43.6267815047065
 20
-8.029213718602154
 30
0.0
 10
40.4742767322785
 20
-7.794777102862577
 30
0.0
 10
37.32178502145464
 20
-7.307835520109878
 30
0.0
 10
34.16930570462165
 20
-6.57813615469044
 30
0.0
 10
31.01683876901743
 20
-5.631494534828117
 30
0.0
 10
27.86438155667085
 20
-4.49868871417351
 30
0.0
 10
24.70342847542942
 20
-3.213953609018293
 30
0.0
 10
21.53394733785887
 20
-1.818012005732497
 30
0.0
 10
18.35596387423732
 20
-0.3589307040038897
 30
0.0
 10
15.17798095294378
 20
1.118311461503075
 30
0.0
 10
13.05932677783394
 20
2.062907614985281
 30
0.0
 10
12.0
 20
2.535205553638137
 30
0.0
  0
SPLINE
  5
B2
330
1F
100
AcDbEntity
  8
0
  6
Continuous
 62
   131
370
    15
100
AcDbSpline
210
0.0
220
0.0
230
1.0
 70
    24
 71
     3
 72
    14
 73
    10
 74
     0
 42
0.000000001
 43
0.00000001
 40
0.0
 40
0.0
 40
0.0
 40
0.0
 40
0.25
 40
0.25
 40
0.4999999999999999
 40
0.4999999999999999
 40
0.75
 40
0.75
 40
1.0
 40
1.0
 40
1.0
 40
1.0
 10
12.0
 20
2.535205553638137
 30
0.0
 10
12.0
 20
1.780392730597786
 30
0.0
 10
12.0
 20
0.9908331475258212
 30
0.0
 10
12.0
 20
-0.6071540266903172
 30
0.0
 10
12.0
 20
-1.415171140634586
 30
0.0
 10
12.0
 20
-2.990947474011894
 30
0.0
 10
11.99999999999999
 20
-3.758251657074279
 30
0.0
 10
12.0
 20
-5.199119829167202
 30
0.0
 10
12.0
 20
-5.872397063064952
 30
0.0
 10
12.0
 20
-6.480834214884231
 30
0.0
  0
SPLINE
  5
B3
330
1F
100
AcDbEntity
  8
0
  6
Continuous
 62
   131
370
    15
100
AcDbSpline
210
0.0
220
0.0
230
1.0
 70
    24
 71
     3
 72
    13
 73
     9
 74
     0
 42
0.000000001
 43
0.00000001
 40
0.0
 40
0.0
 40
0.0
 40
0.0
 40
0.0597102501950166
 40
0.250705667697989
 40
0.4363183061126434
 40
0.6273137236156159
 40
0.8110490494051161
 40
1.0
 40
1.0
 40
1.0
 40
1.0
 10
12.0
 20
6.669925319801907
 30
0.0
 10
12.0
 20
6.678232113898066
 30
0.0
 10
12.0
 20
6.713109883686416
 30
0.0
 10
12.0
 20
6.456141807758009
 30
0.0
 10
12.0
 20
5.898915105821727
 30
0.0
 10
12.0
 20
5.036099720533453
 30
0.0
 10
12.0
 20
3.925276964228902
 30
0.0
 10
12.0
 20
3.002865640628047
 30
0.0
 10
12.0
 20
2.535205553638137
 30
0.0
  0
SPLINE
  5
B4
330
1F
100
AcDbEntity
  8
0
  6
Continuous
 62
     1
370
    15
100
AcDbSpline
210
0.0
220
0.0
230
1.0
 70
    24
 71
     3
 72
    10
 73
     6
 74
     0
 42
0.000000001
 43
0.00000001
 40
0.0
 40
0.0
 40
0.0
 40
0.0
 40
0.5
 40
0.5
 40
1.0
 40
1.0
 40
1.0
 40
1.0
 10
67.0
 20
2.277336188987574
 30
0.0
 10
66.99999999999999
 20
2.878840455911237
 30
0.0
 10
66.99999999999999
 20
3.450743803947672
 30
0.0
 10
66.99999999999999
 20
4.486413301752647
 30
0.0
 10
66.99999999999999
 20
4.949784524560215
 30
0.0
 10
66.99999999999999
 20
5.338750903172984
 30
0.0
  0
SPLINE
  5
B5
330
1F
100
AcDbEntity
  8
0
  6
Continuous
 62
     1
370
    15
100
AcDbSpline
210
0.0
220
0.0
230
1.0
 70
     8
 71
     3
 72
     9
 73
     5
 74
     0
 42
0.000000001
 43
0.00000001
 40
0.0
 40
0.0
 40
0.0
 40
0.0
 40
0.8473505706624881
 40
1.0
 40
1.0
 40
1.0
 40
1.0
 10
71.99999999999999
 20
7.000000000000012
 30
0.0
 10
70.94911751065601
 20
6.993577157321266
 30
0.0
 10
69.70891950320983
 20
6.985997245415708
 30
0.0
 10
68.46872249382318
 20
6.8442128963865
 30
0.0
 10
68.27940712807421
 20
6.8225695964182
 30
0.0
  0
SPLINE
  5
B6
330
1F
100
AcDbEntity
  8
0
  6
Continuous
 62
     1
370
    15
100
AcDbSpline
210
0.0
220
0.0
230
1.0
 70
     8
 71
     3
 72
    10
 73
     6
 74
     0
 42
0.000000001
 43
0.00000001
 40
0.0
 40
0.0
 40
0.0
 40
0.0
 40
0.5
 40
0.5
 40
1.0
 40
1.0
 40
1.0
 40
1.0
 10
71.99999999999999
 20
7.000000000000012
 30
0.0
 10
71.15763595404819
 20
6.771599311814833
 30
0.0
 10
70.31936082760954
 20
6.520011639069237
 30
0.0
 10
68.65146435802869
 20
5.967828526893998
 30
0.0
 10
67.82259727129095
 20
5.667959600724482
 30
0.0
 10
66.99999999999999
 20
5.338750903172982
 30
0.0
  0
SPLINE
  5
B7
330
1F
100
AcDbEntity
  8
0
  6
Continuous
 62
     1
370
    15
100
AcDbSpline
210
0.0
220
0.0
230
1.0
 70
     8
 71
     3
 72
    15
 73
    11
 74
     0
 42
0.000000001
 43
0.00000001
 40
0.0
 40
0.0
 40
0.0
 40
0.0
 40
0.0942295641761467
 40
0.2249361918390642
 40
0.3556509745154841
 40
0.4863765841812925
 40
0.6147896213078002
 40
0.7432127481217924
 40
0.8716151475906933
 40
1.0
 40
1.0
 40
1.0
 40
1.0
 10
34.61955948612759
 20
-7.861201810287012
 30
0.0
 10
33.90910681586735
 20
-8.111374080941776
 30
0.0
 10
32.21317922108933
 20
-8.708562430021054
 30
0.0
 10
29.53168933524147
 20
-9.3682821259597
 30
0.0
 10
26.57499692150348
 20
-9.853790209980684
 30
0.0
 10
23.63554775705144
 20
-10.04325233244504
 30
0.0
 10
20.71332002932122
 20
-9.948927806410445
 30
0.0
 10
17.80851966014313
 20
-9.571283137271289
 30
0.0
 10
14.90407379560435
 20
-8.941431228596086
 30
0.0
 10
12.96798049880416
 20
-8.314220480051082
 30
0.0
 10
11.99999999999718
 20
-8.00063653539454
 30
0.0
  0
SPLINE
  5
B8
330
1F
100
AcDbEntity
  8
0
  6
Continuous
 62
   131
370
    15
100
AcDbSpline
210
0.0
220
0.0
230
1.0
 70
    24
 71
     3
 72
     8
 73
     4
 74
     0
 42
0.000000001
 43
0.00000001
 40
0.0
 40
0.0
 40
0.0
 40
0.0
 40
1.0
 40
1.0
 40
1.0
 40
1.0
 10
12.00000000000001
 20
-6.480834214884238
 30
0.0
 10
12.00000000000001
 20
-6.971413441351164
 30
0.0
 10
12.00000000000001
 20
-7.481199060855896
 30
0.0
 10
12.00000000000001
 20
-8.000636535385796
 30
0.0
  0
SPLINE
  5
B9
330
1F
100
AcDbEntity
  8
0
  6
Continuous
 62
     1
370
    15
100
AcDbSpline
210
0.0
220
0.0
230
1.0
 70
     8
 71
     3
 72
     9
 73
     5
 74
     0
 42
0.000000001
 43
0.00000001
 40
0.0
 40
0.0
 40
0.0
 40
0.0
 40
0.500260681597677
 40
1.0
 40
1.0
 40
1.0
 40
1.0
 10
11.99999999999999
 20
-9.346307657570843
 30
0.0
 10
13.05010802281014
 20
-9.53650531124426
 30
0.0
 10
15.14922966366433
 20
-9.916702397823176
 30
0.0
 10
17.24837224074668
 20
-9.97121386398115
 30
0.0
 10
18.29739632144711
 20
-9.998455386924045
 30
0.0
  0
SPLINE
  5
BA
330
1F
100
AcDbEntity
  8
0
  6
Continuous
 62
     1
370
    15
100
AcDbSpline
210
0.0
220
0.0
230
1.0
 70
     8
 71
     3
 72
    14
 73
    10
 74
     0
 42
0.000000001
 43
0.00000001
 40
0.0
 40
0.0
 40
0.0
 40
0.0
 40
0.066802927500279
 40
0.2829509114870634
 40
0.4990998151725629
 40
0.6237110796390883
 40
0.7483222638876437
 40
0.8741611959692153
 40
1.0
 40
1.0
 40
1.0
 40
1.0
 10
58.27428458604881
 20
6.702331374216882
 30
0.0
 10
58.57991710424971
 20
6.838563852774287
 30
0.0
 10
59.87445617373386
 20
7.415591019462433
 30
0.0
 10
62.15770351902812
 20
8.231969056915947
 30
0.0
 10
64.70700189545663
 20
8.979938363055059
 30
0.0
 10
66.83594907816318
 20
9.44510260436791
 30
0.0
 10
68.55154029503048
 20
9.727688870519346
 30
0.0
 10
70.27322323068738
 20
9.921795886854275
 30
0.0
 10
71.42440793879905
 20
9.968297405035534
 30
0.0
 10
71.9999999999997
 20
10.00000000000022
 30
0.0
  0
LINE
  5
BB
330
1F
100
AcDbEntity
  8
0
  6
Continuous
 62
   131
370
    15
100
AcDbLine
 10
11.99999999999999
 20
-9.346307657570833
 30
0.0
 11
12.0
 21
-8.000636535379021
 31
0.0
  0
LINE
  5
BC
330
1F
100
AcDbEntity
  8
0
  6
Continuous
 62
     1
370
    15
100
AcDbLine
 10
71.99999999999999
 20
0.0000000000000123
 30
0.0
 11
71.99999999999999
 21
7.000000000000012
 31
0.0
  0
SPLINE
  5
BD
330
1F
100
AcDbEntity
  8
0
  6
Continuous
 62
     1
370
    15
100
AcDbSpline
210
0.0
220
0.0
230
1.0
 70
    24
 71
     3
 72
    10
 73
     6
 74
     0
 42
0.000000001
 43
0.00000001
 40
0.0
 40
0.0
 40
0.0
 40
0.0
 40
0.5
 40
0.5
 40
1.0
 40
1.0
 40
1.0
 40
1.0
 10
71.99999999999999
 20
7.000000000000012
 30
0.0
 10
71.99999999999999
 20
7.424322568073149
 30
0.0
 10
71.99999999999999
 20
7.917424688671186
 30
0.0
 10
71.99999999999996
 20
8.951951609608564
 30
0.0
 10
71.99999999999999
 20
9.490734358014736
 30
0.0
 10
71.9999999999997
 20
10.00000000000022
 30
0.0
  0
SPLINE
  5
BE
330
1F
100
AcDbEntity
  8
0
  6
Continuous
 62
   131
370
    15
100
AcDbSpline
210
0.0
220
0.0
230
1.0
 70
     8
 71
     3
 72
    10
 73
     6
 74
     0
 42
0.000000001
 43
0.00000001
 40
0.0
 40
0.0
 40
0.0
 40
0.0
 40
0.5
 40
0.5
 40
1.0
 40
1.0
 40
1.0
 40
1.0
 10
8.949893257318903
 20
8.578731434292875
 30
0.0
 10
9.458842314336566
 20
8.729611550568523
 30
0.0
 10
9.969021339508473
 20
8.869497279816798
 30
0.0
 10
10.98591248177157
 20
9.125677254943163
 30
0.0
 10
11.49132260731907
 20
9.241909128590672
 30
0.0
 10
11.99999999999999
 20
9.346307657570847
 30
0.0
  0
SPLINE
  5
BF
330
1F
100
AcDbEntity
  8
0
  6
Continuous
 62
   131
370
    15
100
AcDbSpline
210
0.0
220
0.0
230
1.0
 70
     8
 71
     3
 72
    10
 73
     6
 74
     0
 42
0.000000001
 43
0.00000001
 40
0.0
 40
0.0
 40
0.0
 40
0.0
 40
0.5
 40
0.5
 40
1.0
 40
1.0
 40
1.0
 40
1.0
 10
12.00000000000008
 20
-8.000636535395538
 30
0.0
 10
11.49130398144151
 20
-7.824514236807942
 30
0.0
 10
10.98587537380249
 20
-7.638447290056273
 30
0.0
 10
9.968946743128548
 20
-7.24633665649896
 30
0.0
 10
9.458748955082655
 20
-7.040421573835714
 30
0.0
 10
8.949781442388817
 20
-6.825833845003593
 30
0.0
  0
SPLINE
  5
C0
330
1F
100
AcDbEntity
  8
0
  6
Continuous
 62
   131
370
    15
100
AcDbSpline
210
0.0
220
0.0
230
1.0
 70
     8
 71
     3
 72
    10
 73
     6
 74
     0
 42
0.000000001
 43
0.00000001
 40
0.0
 40
0.0
 40
0.0
 40
0.0
 40
0.5
 40
0.5
 40
1.0
 40
1.0
 40
1.0
 40
1.0
 10
8.949893257318903
 20
-8.578731434292868
 30
0.0
 10
9.45884231433657
 20
-8.729611550568512
 30
0.0
 10
9.969021339508476
 20
-8.86949727981679
 30
0.0
 10
10.98591248177157
 20
-9.125677254943156
 30
0.0
 10
11.49132260731907
 20
-9.241909128590661
 30
0.0
 10
11.99999999999999
 20
-9.346307657570836
 30
0.0
  0
LINE
  5
C1
330
1F
100
AcDbEntity
  8
0
  6
Continuous
 62
   131
370
    15
100
AcDbLine
 10
8.949893257318955
 20
-9.999999999999995
 30
0.0
 11
8.949893257318903
 21
-8.578731033095758
 31
0.0
  0
LINE
  5
C2
330
1F
100
AcDbEntity
  8
0
  6
Continuous
 62
   131
370
    15
100
AcDbLine
 10
-57.00000000000001
 20
9.999999999999998
 30
0.0
 11
-57.00000000000001
 21
-9.999999999999998
 31
0.0
  0
LINE
  5
C3
330
1F
100
AcDbEntity
  8
0
  6
Continuous
 62
   131
370
    15
100
AcDbLine
 10
8.949893257318937
 20
-6.825520635105173
 30
0.0
 11
8.949893257318955
 21
10.00000000000001
 31
0.0
  0
LINE
  5
C4
330
1F
100
AcDbEntity
  8
0
  6
Continuous
 62
   131
370
    15
100
AcDbLine
 10
-58.00000000000001
 20
8.999999999999995
 30
0.0
 11
-58.00000000000001
 21
-9.000000000000005
 31
0.0
  0
SPLINE
  5
C5
330
1F
100
AcDbEntity
  8
0
  6
Continuous
 62
   131
370
    15
100
AcDbSpline
210
0.0
220
0.0
230
1.0
 70
     8
 71
     3
 72
    10
 73
     6
 74
     0
 42
0.000000001
 43
0.00000001
 40
0.0
 40
0.0
 40
0.0
 40
0.0
 40
0.5
 40
0.5
 40
1.0
 40
1.0
 40
1.0
 40
1.0
 10
12.00000000000008
 20
-6.48083421488426
 30
0.0
 10
11.49130398144151
 20
-6.319369166984563
 30
0.0
 10
10.98587537380249
 20
-6.149888797164362
 30
0.0
 10
9.968946743128548
 20
-5.794816815262871
 30
0.0
 10
9.458748955082655
 20
-5.609345673091745
 30
0.0
 10
8.949781442388817
 20
-5.417009571969932
 30
0.0
  0
SPLINE
  5
C6
330
1F
100
AcDbEntity
  8
0
  6
Continuous
 62
   131
370
    15
100
AcDbSpline
210
0.0
220
0.0
230
1.0
 70
     8
 71
     3
 72
    10
 73
     6
 74
     0
 42
0.000000001
 43
0.00000001
 40
0.0
 40
0.0
 40
0.0
 40
0.0
 40
0.5000000000000001
 40
0.5000000000000001
 40
1.0
 40
1.0
 40
1.0
 40
1.0
 10
12.0
 20
2.535205553638132
 30
0.0
 10
11.49131580598667
 20
2.757958196074431
 30
0.0
 10
10.98589893161244
 20
2.976963517662249
 30
0.0
 10
9.968994100268889
 20
3.407596563188657
 30
0.0
 10
9.458808223738545
 20
3.619023592919091
 30
0.0
 10
8.949852427533177
 20
3.825328451742042
 30
0.0
  0
SPLINE
  5
C7
330
1F
100
AcDbEntity
  8
0
  6
Continuous
 62
   131
370
    15
100
AcDbSpline
210
0.0
220
0.0
230
1.0
 70
    24
 71
     3
 72
    14
 73
    10
 74
     0
 42
0.000000001
 43
0.00000001
 40
0.0
 40
0.0
 40
0.0
 40
0.0
 40
0.25
 40
0.25
 40
0.5
 40
0.5
 40
0.75
 40
0.75
 40
1.0
 40
1.0
 40
1.0
 40
1.0
 10
11.99999999999998
 20
2.535205553638142
 30
0.0
 10
11.99999999999998
 20
1.780392730597791
 30
0.0
 10
11.99999999999998
 20
0.9908331475258262
 30
0.0
 10
11.99999999999998
 20
-0.607154026690312
 30
0.0
 10
11.99999999999998
 20
-1.415171140634581
 30
0.0
 10
11.99999999999998
 20
-2.99094747401189
 30
0.0
 10
11.99999999999998
 20
-3.758251657074274
 30
0.0
 10
11.99999999999998
 20
-5.1991198291672
 30
0.0
 10
11.99999999999998
 20
-5.872397063064946
 30
0.0
 10
11.99999999999998
 20
-6.480834214884227
 30
0.0
  0
SPLINE
  5
C8
330
1F
100
AcDbEntity
  8
0
  6
Continuous
 62
   131
370
    15
100
AcDbSpline
210
0.0
220
0.0
230
1.0
 70
    24
 71
     3
 72
    13
 73
     9
 74
     0
 42
0.000000001
 43
0.00000001
 40
0.0
 40
0.0
 40
0.0
 40
0.0
 40
0.0592116525968476
 40
0.250308347239604
 40
0.4360194085241477
 40
0.627116103166904
 40
0.8109488563633884
 40
1.0
 40
1.0
 40
1.0
 40
1.0
 10
12.0
 20
6.670054609607686
 30
0.0
 10
12.0
 20
6.678265324375423
 30
0.0
 10
12.0
 20
6.712974884960763
 30
0.0
 10
12.0
 20
6.456076888519879
 30
0.0
 10
12.0
 20
5.898932861783755
 30
0.0
 10
12.0
 20
5.036095135750058
 30
0.0
 10
12.0
 20
3.925278129331354
 30
0.0
 10
12.0
 20
3.002866032602092
 30
0.0
 10
12.0
 20
2.535205553638137
 30
0.0
  0
SPLINE
  5
C9
330
1F
100
AcDbEntity
  8
0
  6
Continuous
 62
   131
370
    15
100
AcDbSpline
210
0.0
220
0.0
230
1.0
 70
    24
 71
     3
 72
     8
 73
     4
 74
     0
 42
0.000000001
 43
0.00000001
 40
0.0
 40
0.0
 40
0.0
 40
0.0
 40
1.0
 40
1.0
 40
1.0
 40
1.0
 10
12.00000000000001
 20
-6.480834214884238
 30
0.0
 10
12.00000000000001
 20
-6.971413441351164
 30
0.0
 10
12.00000000000001
 20
-7.481199060855896
 30
0.0
 10
12.00000000000001
 20
-8.0006365353858
 30
0.0
  0
SPLINE
  5
CA
330
1F
100
AcDbEntity
  8
0
  6
Continuous
 62
   131
370
    15
100
AcDbSpline
210
0.0
220
0.0
230
1.0
 70
    24
 71
     3
 72
    11
 73
     7
 74
     0
 42
0.000000001
 43
0.00000001
 40
0.0
 40
0.0
 40
0.0
 40
0.0
 40
0.1957651063401036
 40
0.4223933210636243
 40
0.6555937693670119
 40
1.0
 40
1.0
 40
1.0
 40
1.0
 10
11.99999999999999
 20
9.346307657570843
 30
0.0
 10
11.99999999999999
 20
9.155843859048892
 30
0.0
 10
11.99999999999999
 20
8.74488892482117
 30
0.0
 10
11.99999999999999
 20
8.132140407362861
 30
0.0
 10
11.99999999999999
 20
7.417989343039006
 30
0.0
 10
12.0
 20
7.006256716911206
 30
0.0
 10
12.0
 20
6.76075525897374
 30
0.0
  0
LINE
  5
CB
330
1F
100
AcDbEntity
  8
중심선
100
AcDbLine
 10
-61.00000000000001
 20
0.0000000000000005
 30
0.0
 11
78.99999999999999
 21
0.0000000000000129
 31
0.0
  0
CIRCLE
  5
CC
330
1F
100
AcDbEntity
  8
외형선
100
AcDbCircle
 10
0.0000000000000104
 20
0.0
 30
0.0
 40
3.000000000000005
  0
INSERT
  5
CD
330
1F
100
AcDbEntity
  8
0
  6
Continuous
 62
     7
100
AcDbBlockReference
 66
     1
  2
블럭10
 10
-22.93944368806589
 20
-52.04609937292004
 30
0.0
  0
ATTRIB
  5
CE
330
CD
100
AcDbEntity
  8
FORMAT
 62
     2
100
AcDbText
 10
-39.05870472750145
 20
-49.97073246008785
 30
0.0
 40
4.233333333333333
  1
SEME7020060E [ 2 FLUTE ]
 41
0.75
  7
SLDTEXTSTYLE0
 11
-39.05870472750145
 21
-52.08739912675452
 31
0.0
100
AcDbAttribute
  2
AUTOATTR0
 70
     0
 74
     1
  0
SEQEND
  5
CF
330
CD
100
AcDbEntity
  8
0
  6
Continuous
 62
     7
  0
HATCH
  5
D0
330
1F
100
AcDbEntity
  8
중심선
100
AcDbHatch
 10
0.0
 20
0.0
 30
0.0
210
0.0
220
0.0
230
1.0
  2
SOLID
 70
     1
 71
     0
 91
        1
 92
        0
 93
        4
 72
     1
 10
-17.22453438368504
 20
-35.7989250712761
 11
-20.67080962752232
 21
-35.7989250712761
 72
     1
 10
-20.67080962752232
 20
-35.7989250712761
 11
-22.79903948672635
 21
-38.3352506518487
 72
     1
 10
-22.79903948672635
 20
-38.3352506518487
 11
-19.35273115777591
 21
-38.33521122254621
 72
     1
 10
-19.35273115777591
 20
-38.33521122254621
 11
-17.22453438368504
 21
-35.7989250712761
 97
        0
 75
     0
 76
     1
 98
        1
 10
0.0
 20
0.0
  0
HATCH
  5
D1
330
1F
100
AcDbEntity
  8
중심선
100
AcDbHatch
 10
0.0
 20
0.0
 30
0.0
210
0.0
220
0.0
230
1.0
  2
SOLID
 70
     1
 71
     0
 91
        1
 92
        0
 93
        4
 72
     1
 10
-12.21177039264909
 20
-35.7989250712761
 11
-15.65804563648637
 21
-35.7989250712761
 72
     1
 10
-15.65804563648637
 20
-35.7989250712761
 11
-20.18918364484376
 21
-41.19892507127612
 72
     1
 10
-20.18918364484376
 20
-41.19892507127612
 11
-16.74290840100648
 21
-41.19892507127612
 72
     1
 10
-16.74290840100648
 20
-41.19892507127612
 11
-12.21177039264909
 21
-35.7989250712761
 97
        0
 75
     0
 76
     1
 98
        1
 10
0.0
 20
0.0
  0
HATCH
  5
D2
330
1F
100
AcDbEntity
  8
중심선
100
AcDbHatch
 10
0.0
 20
0.0
 30
0.0
210
0.0
220
0.0
230
1.0
  2
SOLID
 70
     1
 71
     0
 91
        1
 92
        0
 93
        4
 72
     1
 10
-7.199006401613195
 20
-35.79892507127613
 11
-10.64528164545031
 21
-35.7989250712761
 72
     1
 10
-10.64528164545031
 20
-35.7989250712761
 11
-17.69371854733956
 21
-44.19892507127612
 72
     1
 10
-17.69371854733956
 20
-44.19892507127612
 11
-14.24744330350228
 21
-44.19892507127612
 72
     1
 10
-14.24744330350228
 20
-44.19892507127612
 11
-7.199006401613195
 21
-35.79892507127613
 97
        0
 75
     0
 76
     1
 98
        1
 10
0.0
 20
0.0
  0
HATCH
  5
D3
330
1F
100
AcDbEntity
  8
중심선
100
AcDbHatch
 10
0.0
 20
0.0
 30
0.0
210
0.0
220
0.0
230
1.0
  2
SOLID
 70
     1
 71
     0
 91
        1
 92
        0
 93
        6
 72
     3
 10
-2.399115970600996
 20
-39.99892507132738
 11
3.960054785062284
 21
1.540850780301639E-10
 40
0.3939339440162633
 50
17.09539180608433
 51
320.0019657685079
 73
     0
 72
     1
 10
-0.7161163149004002
 20
-38.58681907591441
 11
1.589185558800638
 21
-36.65249236586649
 72
     3
 10
-2.399115970653842
 20
-39.99892507127625
 11
6.600054785286829
 21
-1.249000902703301E-13
 40
0.6363583540795982
 50
39.99873849337408
 51
368.4976242363725
 73
     1
 72
     1
 10
4.026216521246767
 20
-39.03892507120613
 11
-3.71904866381792
 21
-39.0389250712061
 72
     1
 10
-3.71904866381792
 20
-39.0389250712061
 11
-3.719073708263854
 21
-40.95892507120602
 72
     1
 10
-3.719073708263854
 20
-40.95892507120602
 11
0.7223060612081831
 21
-40.95892507120599
 97
        0
 75
     0
 76
     1
 98
        1
 10
0.0
 20
0.0
  0
DIMENSION
  5
D4
330
1F
100
AcDbEntity
  8
치수문자_일반주서
100
AcDbDimension
  2
_D
 10
84.50506868949854
 20
10.00000000000027
 30
0.0
 11
84.5050686894985
 21
20.76025000000027
 31
0.0
 70
   160
  1
%%c<>
 71
     2
 42
19.99999999999999
 52
-270.0
  3
SLDDIMSTYLE0
100
AcDbAlignedDimension
 13
71.99999999999999
 23
-9.999999999999769
 33
0.0
 14
71.9999999999997
 24
10.00000000000022
 34
0.0
 50
90.0000000000002
100
AcDbRotatedDimension
  0
DIMENSION
  5
E2
330
1F
100
AcDbEntity
  8
치수문자_일반주서
100
AcDbDimension
  2
_D_1
 10
71.9999999999997
 20
30.78841044024269
 30
0.0
 11
6.999999999999853
 21
30.78841044024269
 31
0.0
 70
   160
  1
<>
 71
     2
 42
129.9999999999997
  3
SLDDIMSTYLE1
100
AcDbAlignedDimension
 13
-58.00000000000001
 23
8.999999999999995
 33
0.0
 14
71.9999999999997
 24
10.00000000000022
 34
0.0
 50
-0.0000000000000031
100
AcDbRotatedDimension
  0
DIMENSION
  5
ED
330
1F
100
AcDbEntity
  8
치수문자_일반주서
100
AcDbDimension
  2
_D_2
 10
71.9999999999997
 20
20.05020706467436
 30
0.0
 11
42.00000000000001
 21
20.05020706467436
 31
0.0
 70
   160
  1
<>
 71
     2
 42
59.9999999999997
  3
SLDDIMSTYLE1
100
AcDbAlignedDimension
 13
12.0
 23
6.703209258506845
 33
0.0
 14
71.9999999999997
 24
10.00000000000022
 34
0.0
 50
-0.0000000000000204
100
AcDbRotatedDimension
  0
DIMENSION
  5
F7
330
1F
100
AcDbEntity
  8
치수문자_일반주서
100
AcDbDimension
  2
_D_3
 10
-70.34087653908082
 20
-10.00000000000004
 30
0.0
 11
-70.34087653908094
 21
20.76024999999995
 31
0.0
 70
   160
  1
%%c<>
 71
     2
 42
19.99999999999999
 52
-270.0
  3
SLDDIMSTYLE0
100
AcDbAlignedDimension
 13
-57.00000000000001
 23
9.999999999999998
 33
0.0
 14
-57.00000000000001
 24
-9.999999999999995
 34
0.0
 50
90.0000000000002
100
AcDbRotatedDimension
  0
INSERT
  5
10A
330
1F
100
AcDbEntity
  8
외형선
100
AcDbBlockReference
  2
SW_DOWELSYMBOL_0
 10
0.0000000000000104
 20
0.0
 30
0.0
  0
ENDSEC
  0
SECTION
  2
OBJECTS
  0
DICTIONARY
  5
C
330
0
100
AcDbDictionary
281
     1
  3
ACAD_GROUP
350
D
  3
ACAD_IMAGE_VARS
350
12E
  3
ACAD_LAYOUT
350
1A
  3
ACAD_MLINESTYLE
350
17
  3
ACAD_PLOTSETTINGS
350
19
  3
ACAD_PLOTSTYLENAME
350
E
  3
ACAD_SCALELIST
350
47
  3
APPDATA
350
12C
  3
DWGPROPS
350
13D
  0
DICTIONARY
  5
D
102
{ACAD_REACTORS
330
C
102
}
330
C
100
AcDbDictionary
281
     1
  0
RASTERVARIABLES
  5
12E
102
{ACAD_REACTORS
330
C
102
}
330
C
100
AcDbRasterVariables
 90
        0
 70
     1
 71
     1
 72
     1
  0
DICTIONARY
  5
1A
102
{ACAD_REACTORS
330
C
102
}
330
C
100
AcDbDictionary
281
     1
  3
Layout1
350
1E
  3
Layout2
350
26
  3
Model
350
22
  0
DICTIONARY
  5
17
102
{ACAD_REACTORS
330
C
102
}
330
C
100
AcDbDictionary
281
     1
  3
Standard
350
18
  0
DICTIONARY
  5
19
102
{ACAD_REACTORS
330
C
102
}
330
C
100
AcDbDictionary
281
     1
  0
ACDBDICTIONARYWDFLT
  5
E
102
{ACAD_REACTORS
330
C
102
}
330
C
100
AcDbDictionary
281
     1
  3
Normal
350
F
100
AcDbDictionaryWithDefault
340
F
  0
DICTIONARY
  5
47
102
{ACAD_REACTORS
330
C
102
}
330
C
100
AcDbDictionary
281
     1
  3
A0
350
48
  3
A1
350
49
  3
A2
350
4A
  3
A3
350
4B
  3
A4
350
4C
  3
A5
350
4D
  3
A6
350
4E
  3
A7
350
4F
  3
A8
350
50
  3
A9
350
51
  3
B0
350
52
  3
B1
350
53
  3
B2
350
54
  3
B3
350
55
  3
B4
350
56
  3
B5
350
57
  3
B6
350
58
  3
B7
350
59
  3
B8
350
5A
  3
B9
350
5B
  3
C0
350
5C
  3
C1
350
5D
  3
C2
350
5E
  3
C3
350
5F
  3
C4
350
60
  3
C5
350
61
  3
C6
350
62
  3
C7
350
63
  3
C8
350
64
  3
C9
350
65
  3
D0
350
66
  3
D1
350
67
  3
D2
350
68
  0
DICTIONARY
  5
12C
102
{ACAD_REACTORS
330
C
102
}
330
C
100
AcDbDictionary
281
     1
  0
XRECORD
  5
13D
102
{ACAD_REACTORS
330
C
102
}
330
C
100
AcDbXrecord
280
     1
  1
DWGPROPS COOKIE
  2

  3

  4

  6

  7

  8
12014102
  9

300
=
301
=
302
=
303
=
304
=
305
=
306
=
307
=
308
=
309
=
 40
0.0
 41
2458262.17836941
 42
2458266.19705059
  1

 90
        0
  0
LAYOUT
  5
1E
102
{ACAD_REACTORS
330
1A
102
}
330
1A
100
AcDbPlotSettings
  1

  2
none_device
  4

  6

 40
0.0
 41
0.0
 42
0.0
 43
0.0
 44
0.0
 45
0.0
 46
0.0
 47
0.0
 48
0.0
 49
0.0
140
0.0
141
0.0
142
1.0
143
1.0
 70
   688
 72
     1
 73
     0
 74
     5
  7

 75
    16
147
1.0
148
0.0
149
0.0
100
AcDbLayout
  1
Layout1
 70
     1
 71
     1
 10
0.0
 20
0.0
 11
420.0
 21
297.0
 12
0.0
 22
0.0
 32
0.0
 14
1.000000000000000E+20
 24
1.000000000000000E+20
 34
1.000000000000000E+20
 15
-1.000000000000000E+20
 25
-1.000000000000000E+20
 35
-1.000000000000000E+20
146
0.0
 13
0.0
 23
0.0
 33
0.0
 16
1.0
 26
0.0
 36
0.0
 17
0.0
 27
1.0
 37
0.0
 76
     0
330
1B
  0
LAYOUT
  5
26
102
{ACAD_REACTORS
330
1A
102
}
330
1A
100
AcDbPlotSettings
  1

  2
none_device
  4

  6

 40
0.0
 41
0.0
 42
0.0
 43
0.0
 44
0.0
 45
0.0
 46
0.0
 47
0.0
 48
0.0
 49
0.0
140
0.0
141
0.0
142
1.0
143
1.0
 70
   688
 72
     1
 73
     0
 74
     5
  7

 75
    16
147
1.0
148
0.0
149
0.0
100
AcDbLayout
  1
Layout2
 70
     1
 71
     2
 10
0.0
 20
0.0
 11
0.0
 21
0.0
 12
0.0
 22
0.0
 32
0.0
 14
0.0
 24
0.0
 34
0.0
 15
0.0
 25
0.0
 35
0.0
146
0.0
 13
0.0
 23
0.0
 33
0.0
 16
1.0
 26
0.0
 36
0.0
 17
0.0
 27
1.0
 37
0.0
 76
     0
330
23
  0
LAYOUT
  5
22
102
{ACAD_REACTORS
330
1A
102
}
330
1A
100
AcDbPlotSettings
  1

  2
none_device
  4
ANSI_A_(11.00_x_8.50_Inches)
  6

 40
6.35
 41
19.05
 42
6.35000508
 43
19.05000254
 44
279.4
 45
215.9
 46
129.6232330283262
 47
103.494724361852
 48
0.0
 49
0.0
140
0.0
141
0.0
142
0.0745575495764173
143
1.0
 70
  1696
 72
     0
 73
     0
 74
     0
  7

 75
     0
147
0.0235690232323232
148
0.0
149
0.0
100
AcDbLayout
  1
Model
 70
     1
 71
     0
 10
0.0
 20
0.0
 11
420.0
 21
297.0
 12
0.0
 22
0.0
 32
0.0
 14
-74.71587653908095
 24
-49.97073246008785
 34
0.0
 15
85.05540202283196
 25
35.1634104402427
 35
0.0
146
0.0
 13
0.0
 23
0.0
 33
0.0
 16
1.0
 26
0.0
 36
0.0
 17
0.0
 27
1.0
 37
0.0
 76
     0
330
1F
331
29
  0
MLINESTYLE
  5
18
102
{ACAD_REACTORS
330
17
102
}
330
17
100
AcDbMlineStyle
  2
Standard
 70
     0
  3

 62
   256
 51
90.0
 52
90.0
 71
     2
 49
0.5
 62
   256
  6
BYLAYER
 49
-0.5
 62
   256
  6
BYLAYER
  0
ACDBPLACEHOLDER
  5
F
102
{ACAD_REACTORS
330
E
102
}
330
E
  0
SCALE
  5
48
102
{ACAD_REACTORS
330
47
102
}
330
47
100
AcDbScale
 70
     0
300
1:1
140
1.0
141
1.0
290
     1
  0
SCALE
  5
49
102
{ACAD_REACTORS
330
47
102
}
330
47
100
AcDbScale
 70
     0
300
1:2
140
1.0
141
2.0
290
     0
  0
SCALE
  5
4A
102
{ACAD_REACTORS
330
47
102
}
330
47
100
AcDbScale
 70
     0
300
1:4
140
1.0
141
4.0
290
     0
  0
SCALE
  5
4B
102
{ACAD_REACTORS
330
47
102
}
330
47
100
AcDbScale
 70
     0
300
1:5
140
1.0
141
5.0
290
     0
  0
SCALE
  5
4C
102
{ACAD_REACTORS
330
47
102
}
330
47
100
AcDbScale
 70
     0
300
1:8
140
1.0
141
8.0
290
     0
  0
SCALE
  5
4D
102
{ACAD_REACTORS
330
47
102
}
330
47
100
AcDbScale
 70
     0
300
1:10
140
1.0
141
10.0
290
     0
  0
SCALE
  5
4E
102
{ACAD_REACTORS
330
47
102
}
330
47
100
AcDbScale
 70
     0
300
1:16
140
1.0
141
16.0
290
     0
  0
SCALE
  5
4F
102
{ACAD_REACTORS
330
47
102
}
330
47
100
AcDbScale
 70
     0
300
1:20
140
1.0
141
20.0
290
     0
  0
SCALE
  5
50
102
{ACAD_REACTORS
330
47
102
}
330
47
100
AcDbScale
 70
     0
300
1:30
140
1.0
141
30.0
290
     0
  0
SCALE
  5
51
102
{ACAD_REACTORS
330
47
102
}
330
47
100
AcDbScale
 70
     0
300
1:40
140
1.0
141
40.0
290
     0
  0
SCALE
  5
52
102
{ACAD_REACTORS
330
47
102
}
330
47
100
AcDbScale
 70
     0
300
1:50
140
1.0
141
50.0
290
     0
  0
SCALE
  5
53
102
{ACAD_REACTORS
330
47
102
}
330
47
100
AcDbScale
 70
     0
300
1:100
140
1.0
141
100.0
290
     0
  0
SCALE
  5
54
102
{ACAD_REACTORS
330
47
102
}
330
47
100
AcDbScale
 70
     0
300
2:1
140
2.0
141
1.0
290
     0
  0
SCALE
  5
55
102
{ACAD_REACTORS
330
47
102
}
330
47
100
AcDbScale
 70
     0
300
4:1
140
4.0
141
1.0
290
     0
  0
SCALE
  5
56
102
{ACAD_REACTORS
330
47
102
}
330
47
100
AcDbScale
 70
     0
300
8:1
140
8.0
141
1.0
290
     0
  0
SCALE
  5
57
102
{ACAD_REACTORS
330
47
102
}
330
47
100
AcDbScale
 70
     0
300
10:1
140
10.0
141
1.0
290
     0
  0
SCALE
  5
58
102
{ACAD_REACTORS
330
47
102
}
330
47
100
AcDbScale
 70
     0
300
100:1
140
100.0
141
1.0
290
     0
  0
SCALE
  5
59
102
{ACAD_REACTORS
330
47
102
}
330
47
100
AcDbScale
 70
     0
300
1/128" = 1'-0"
140
0.0078125
141
12.0
290
     0
  0
SCALE
  5
5A
102
{ACAD_REACTORS
330
47
102
}
330
47
100
AcDbScale
 70
     0
300
1/64" = 1'-0"
140
0.015625
141
12.0
290
     0
  0
SCALE
  5
5B
102
{ACAD_REACTORS
330
47
102
}
330
47
100
AcDbScale
 70
     0
300
1/32" = 1'-0"
140
0.03125
141
12.0
290
     0
  0
SCALE
  5
5C
102
{ACAD_REACTORS
330
47
102
}
330
47
100
AcDbScale
 70
     0
300
1/16" = 1'-0"
140
0.0625
141
12.0
290
     0
  0
SCALE
  5
5D
102
{ACAD_REACTORS
330
47
102
}
330
47
100
AcDbScale
 70
     0
300
3/32" = 1'-0"
140
0.09375
141
12.0
290
     0
  0
SCALE
  5
5E
102
{ACAD_REACTORS
330
47
102
}
330
47
100
AcDbScale
 70
     0
300
1/8" = 1'-0"
140
0.125
141
12.0
290
     0
  0
SCALE
  5
5F
102
{ACAD_REACTORS
330
47
102
}
330
47
100
AcDbScale
 70
     0
300
3/16" = 1'-0"
140
0.1875
141
12.0
290
     0
  0
SCALE
  5
60
102
{ACAD_REACTORS
330
47
102
}
330
47
100
AcDbScale
 70
     0
300
1/4" = 1'-0"
140
0.25
141
12.0
290
     0
  0
SCALE
  5
61
102
{ACAD_REACTORS
330
47
102
}
330
47
100
AcDbScale
 70
     0
300
3/8" = 1'-0"
140
0.375
141
12.0
290
     0
  0
SCALE
  5
62
102
{ACAD_REACTORS
330
47
102
}
330
47
100
AcDbScale
 70
     0
300
1/2" = 1'-0"
140
0.5
141
12.0
290
     0
  0
SCALE
  5
63
102
{ACAD_REACTORS
330
47
102
}
330
47
100
AcDbScale
 70
     0
300
3/4" = 1'-0"
140
0.75
141
12.0
290
     0
  0
SCALE
  5
64
102
{ACAD_REACTORS
330
47
102
}
330
47
100
AcDbScale
 70
     0
300
1" = 1'-0"
140
1.0
141
12.0
290
     0
  0
SCALE
  5
65
102
{ACAD_REACTORS
330
47
102
}
330
47
100
AcDbScale
 70
     0
300
1-1/2" = 1'-0"
140
1.5
141
12.0
290
     0
  0
SCALE
  5
66
102
{ACAD_REACTORS
330
47
102
}
330
47
100
AcDbScale
 70
     0
300
3" = 1'-0"
140
3.0
141
12.0
290
     0
  0
SCALE
  5
67
102
{ACAD_REACTORS
330
47
102
}
330
47
100
AcDbScale
 70
     0
300
6" = 1'-0"
140
6.0
141
12.0
290
     0
  0
SCALE
  5
68
102
{ACAD_REACTORS
330
47
102
}
330
47
100
AcDbScale
 70
     0
300
1'-0" = 1'-0"
140
12.0
141
12.0
290
     0
  0
ENDSEC
  0
EOF
